  0
SECTION
  2
HEADER
  9
$ACADVER
  1
AC1015
  9
$ACADMAINTVER
 70
     6
  9
$DWGCODEPAGE
  3
ANSI_1252
  9
$INSBASE
 10
0.0
 20
0.0
 30
0.0
  9
$EXTMIN
 10
-1380.586038539349
 20
-1182.24202172125
 30
0.0
  9
$EXTMAX
 10
-1083.586038539351
 20
-972.2420217212498
 30
0.0
  9
$LIMMIN
 10
0.0
 20
0.0
  9
$LIMMAX
 10
12.0
 20
9.0
  9
$ORTHOMODE
 70
     0
  9
$REGENMODE
 70
     1
  9
$FILLMODE
 70
     1
  9
$QTEXTMODE
 70
     0
  9
$MIRRTEXT
 70
     1
  9
$LTSCALE
 40
1.0
  9
$ATTMODE
 70
     1
  9
$TEXTSIZE
 40
0.2
  9
$TRACEWID
 40
0.05
  9
$TEXTSTYLE
  7
Standard
  9
$CLAYER
  8
0
  9
$CELTYPE
  6
ByLayer
  9
$CECOLOR
 62
   256
  9
$CELTSCALE
 40
1.0
  9
$DISPSILH
 70
     0
  9
$DIMSCALE
 40
1.0
  9
$DIMASZ
 40
0.18
  9
$DIMEXO
 40
0.0625
  9
$DIMDLI
 40
0.38
  9
$DIMRND
 40
0.0
  9
$DIMDLE
 40
0.0
  9
$DIMEXE
 40
0.18
  9
$DIMTP
 40
0.0
  9
$DIMTM
 40
0.0
  9
$DIMTXT
 40
0.18
  9
$DIMCEN
 40
0.09
  9
$DIMTSZ
 40
0.0
  9
$DIMTOL
 70
     0
  9
$DIMLIM
 70
     0
  9
$DIMTIH
 70
     1
  9
$DIMTOH
 70
     1
  9
$DIMSE1
 70
     0
  9
$DIMSE2
 70
     0
  9
$DIMTAD
 70
     0
  9
$DIMZIN
 70
     0
  9
$DIMBLK
  1

  9
$DIMASO
 70
     1
  9
$DIMSHO
 70
     1
  9
$DIMPOST
  1

  9
$DIMAPOST
  1

  9
$DIMALT
 70
     0
  9
$DIMALTD
 70
     2
  9
$DIMALTF
 40
25.4
  9
$DIMLFAC
 40
1.0
  9
$DIMTOFL
 70
     0
  9
$DIMTVP
 40
0.0
  9
$DIMTIX
 70
     0
  9
$DIMSOXD
 70
     0
  9
$DIMSAH
 70
     0
  9
$DIMBLK1
  1

  9
$DIMBLK2
  1

  9
$DIMSTYLE
  2
Standard
  9
$DIMCLRD
 70
     0
  9
$DIMCLRE
 70
     0
  9
$DIMCLRT
 70
     0
  9
$DIMTFAC
 40
1.0
  9
$DIMGAP
 40
0.09
  9
$DIMJUST
 70
     0
  9
$DIMSD1
 70
     0
  9
$DIMSD2
 70
     0
  9
$DIMTOLJ
 70
     1
  9
$DIMTZIN
 70
     0
  9
$DIMALTZ
 70
     0
  9
$DIMALTTZ
 70
     0
  9
$DIMUPT
 70
     0
  9
$DIMDEC
 70
     4
  9
$DIMTDEC
 70
     4
  9
$DIMALTU
 70
     2
  9
$DIMALTTD
 70
     2
  9
$DIMTXSTY
  7
Standard
  9
$DIMAUNIT
 70
     0
  9
$DIMADEC
 70
     0
  9
$DIMALTRND
 40
0.0
  9
$DIMAZIN
 70
     0
  9
$DIMDSEP
 70
    46
  9
$DIMATFIT
 70
     3
  9
$DIMFRAC
 70
     0
  9
$DIMLDRBLK
  1

  9
$DIMLUNIT
 70
     2
  9
$DIMLWD
 70
    -2
  9
$DIMLWE
 70
    -2
  9
$DIMTMOVE
 70
     0
  9
$LUNITS
 70
     2
  9
$LUPREC
 70
     4
  9
$SKETCHINC
 40
0.1
  9
$FILLETRAD
 40
0.5
  9
$AUNITS
 70
     0
  9
$AUPREC
 70
     0
  9
$MENU
  1
.
  9
$ELEVATION
 40
0.0
  9
$PELEVATION
 40
0.0
  9
$THICKNESS
 40
0.0
  9
$LIMCHECK
 70
     0
  9
$CHAMFERA
 40
0.5
  9
$CHAMFERB
 40
0.5
  9
$CHAMFERC
 40
1.0
  9
$CHAMFERD
 40
0.0
  9
$SKPOLY
 70
     0
  9
$TDCREATE
 40
2457423.537117477
  9
$TDUCREATE
 40
2457423.49545081
  9
$TDUPDATE
 40
2457423.537118923
  9
$TDUUPDATE
 40
2457423.495452257
  9
$TDINDWG
 40
0.0000000116
  9
$TDUSRTIMER
 40
0.0000000116
  9
$USRTIMER
 70
     1
  9
$ANGBASE
 50
0.0
  9
$ANGDIR
 70
     0
  9
$PDMODE
 70
     0
  9
$PDSIZE
 40
0.0
  9
$PLINEWID
 40
0.0
  9
$SPLFRAME
 70
     0
  9
$SPLINETYPE
 70
     6
  9
$SPLINESEGS
 70
     8
  9
$HANDSEED
  5
2BC
  9
$SURFTAB1
 70
     6
  9
$SURFTAB2
 70
     6
  9
$SURFTYPE
 70
     6
  9
$SURFU
 70
     6
  9
$SURFV
 70
     6
  9
$UCSBASE
  2

  9
$UCSNAME
  2

  9
$UCSORG
 10
0.0
 20
0.0
 30
0.0
  9
$UCSXDIR
 10
1.0
 20
0.0
 30
0.0
  9
$UCSYDIR
 10
0.0
 20
1.0
 30
0.0
  9
$UCSORTHOREF
  2

  9
$UCSORTHOVIEW
 70
     0
  9
$UCSORGTOP
 10
0.0
 20
0.0
 30
0.0
  9
$UCSORGBOTTOM
 10
0.0
 20
0.0
 30
0.0
  9
$UCSORGLEFT
 10
0.0
 20
0.0
 30
0.0
  9
$UCSORGRIGHT
 10
0.0
 20
0.0
 30
0.0
  9
$UCSORGFRONT
 10
0.0
 20
0.0
 30
0.0
  9
$UCSORGBACK
 10
0.0
 20
0.0
 30
0.0
  9
$PUCSBASE
  2

  9
$PUCSNAME
  2

  9
$PUCSORG
 10
0.0
 20
0.0
 30
0.0
  9
$PUCSXDIR
 10
1.0
 20
0.0
 30
0.0
  9
$PUCSYDIR
 10
0.0
 20
1.0
 30
0.0
  9
$PUCSORTHOREF
  2

  9
$PUCSORTHOVIEW
 70
     0
  9
$PUCSORGTOP
 10
0.0
 20
0.0
 30
0.0
  9
$PUCSORGBOTTOM
 10
0.0
 20
0.0
 30
0.0
  9
$PUCSORGLEFT
 10
0.0
 20
0.0
 30
0.0
  9
$PUCSORGRIGHT
 10
0.0
 20
0.0
 30
0.0
  9
$PUCSORGFRONT
 10
0.0
 20
0.0
 30
0.0
  9
$PUCSORGBACK
 10
0.0
 20
0.0
 30
0.0
  9
$USERI1
 70
     0
  9
$USERI2
 70
     0
  9
$USERI3
 70
     0
  9
$USERI4
 70
     0
  9
$USERI5
 70
     0
  9
$USERR1
 40
18.1
  9
$USERR2
 40
0.0
  9
$USERR3
 40
0.0
  9
$USERR4
 40
0.0
  9
$USERR5
 40
0.0
  9
$WORLDVIEW
 70
     1
  9
$SHADEDGE
 70
     3
  9
$SHADEDIF
 70
    70
  9
$TILEMODE
 70
     1
  9
$MAXACTVP
 70
    64
  9
$PINSBASE
 10
0.0
 20
0.0
 30
0.0
  9
$PLIMCHECK
 70
     0
  9
$PEXTMIN
 10
1.00000000000000E+20
 20
1.00000000000000E+20
 30
1.00000000000000E+20
  9
$PEXTMAX
 10
-1.00000000000000E+20
 20
-1.00000000000000E+20
 30
-1.00000000000000E+20
  9
$PLIMMIN
 10
0.0
 20
0.0
  9
$PLIMMAX
 10
12.0
 20
9.0
  9
$UNITMODE
 70
     0
  9
$VISRETAIN
 70
     1
  9
$PLINEGEN
 70
     0
  9
$PSLTSCALE
 70
     1
  9
$TREEDEPTH
 70
  3020
  9
$CMLSTYLE
  2
Standard
  9
$CMLJUST
 70
     0
  9
$CMLSCALE
 40
1.0
  9
$PROXYGRAPHICS
 70
     1
  9
$MEASUREMENT
 70
     1
  9
$CELWEIGHT
370
    -1
  9
$ENDCAPS
280
     0
  9
$JOINSTYLE
280
     0
  9
$LWDISPLAY
290
     0
  9
$INSUNITS
 70
     1
  9
$HYPERLINKBASE
  1

  9
$STYLESHEET
  1

  9
$XEDIT
290
     1
  9
$CEPSNTYPE
380
     0
  9
$PSTYLEMODE
290
     1
  9
$FINGERPRINTGUID
  2
{E6CBF2AC-FF5D-4303-80C7-D685189E9885}
  9
$VERSIONGUID
  2
{FAEB1C32-E019-11D5-929B-00C0DF256EC4}
  9
$EXTNAMES
290
     1
  9
$PSVPSCALE
 40
0.0
  9
$OLESTARTUP
290
     0
  0
ENDSEC
  0
SECTION
  2
CLASSES
  0
CLASS
  1
ACDBDICTIONARYWDFLT
  2
AcDbDictionaryWithDefault
  3
ObjectDBX Classes
 90
        0
280
     0
281
     0
  0
CLASS
  1
VISUALSTYLE
  2
AcDbVisualStyle
  3
ObjectDBX Classes
 90
     4095
280
     0
281
     0
  0
CLASS
  1
MATERIAL
  2
AcDbMaterial
  3
ObjectDBX Classes
 90
     1153
280
     0
281
     0
  0
CLASS
  1
DICTIONARYVAR
  2
AcDbDictionaryVar
  3
ObjectDBX Classes
 90
        0
280
     0
281
     0
  0
CLASS
  1
ACDBPLACEHOLDER
  2
AcDbPlaceHolder
  3
ObjectDBX Classes
 90
        0
280
     0
281
     0
  0
CLASS
  1
LAYOUT
  2
AcDbLayout
  3
ObjectDBX Classes
 90
        0
280
     0
281
     0
  0
ENDSEC
  0
SECTION
  2
TABLES
  0
TABLE
  2
VPORT
  5
8
330
0
100
AcDbSymbolTable
 70
     1
  0
VPORT
  5
29
330
8
100
AcDbSymbolTableRecord
100
AcDbViewportTableRecord
  2
*Active
 70
     0
 10
0.0
 20
0.0
 11
1.0
 21
1.0
 12
-1232.08603853935
 22
-1077.24202172125
 13
0.0
 23
0.0
 14
0.5
 24
0.5
 15
0.5
 25
0.5
 16
0.0
 26
0.0
 36
1.0
 17
0.0
 27
0.0
 37
0.0
 40
231.0000000000003
 41
1.60267857142857
 42
50.0
 43
0.0
 44
0.0
 50
0.0
 51
0.0
 71
     0
 72
   100
 73
     1
 74
     3
 75
     0
 76
     0
 77
     0
 78
     0
281
     0
 65
     1
110
0.0
120
0.0
130
0.0
111
1.0
121
0.0
131
0.0
112
0.0
122
1.0
132
0.0
 79
     0
146
0.0
  0
ENDTAB
  0
TABLE
  2
LTYPE
  5
5
330
0
100
AcDbSymbolTable
 70
     8
  0
LTYPE
  5
14
330
5
100
AcDbSymbolTableRecord
100
AcDbLinetypeTableRecord
  2
ByBlock
 70
     0
  3

 72
    65
 73
     0
 40
0.0
  0
LTYPE
  5
15
330
5
100
AcDbSymbolTableRecord
100
AcDbLinetypeTableRecord
  2
ByLayer
 70
     0
  3

 72
    65
 73
     0
 40
0.0
  0
LTYPE
  5
16
330
5
100
AcDbSymbolTableRecord
100
AcDbLinetypeTableRecord
  2
Continuous
 70
     0
  3
Solid line
 72
    65
 73
     0
 40
0.0
  0
LTYPE
  5
3F
330
5
100
AcDbSymbolTableRecord
100
AcDbLinetypeTableRecord
  2
DASHED
 70
     0
  3
Dashed
 72
    65
 73
     2
 40
15.0
 49
7.0
 74
     0
 49
-8.0
 74
     0
  0
LTYPE
  5
40
330
5
100
AcDbSymbolTableRecord
100
AcDbLinetypeTableRecord
  2
DOTTED
 70
     0
  3
Dotted
 72
    65
 73
     2
 40
1.0
 49
0.0
 74
     0
 49
-1.0
 74
     0
  0
LTYPE
  5
41
330
5
100
AcDbSymbolTableRecord
100
AcDbLinetypeTableRecord
  2
DOT_CENTER
 70
     0
  3
Dot_Center
 72
    65
 73
     4
 40
14.0
 49
12.0
 74
     0
 49
-1.0
 74
     0
 49
0.0
 74
     0
 49
-1.0
 74
     0
  0
LTYPE
  5
42
330
5
100
AcDbSymbolTableRecord
100
AcDbLinetypeTableRecord
  2
LONG_DASHED
 70
     0
  3
Long_Dashed
 72
    65
 73
     2
 40
15.0
 49
10.0
 74
     0
 49
-5.0
 74
     0
  0
LTYPE
  5
43
330
5
100
AcDbSymbolTableRecord
100
AcDbLinetypeTableRecord
  2
DASH_CENTER
 70
     0
  3
Dash_Center
 72
    65
 73
     4
 40
14.0
 49
11.0
 74
     0
 49
-1.0
 74
     0
 49
1.0
 74
     0
 49
-1.0
 74
     0
  0
LTYPE
  5
44
330
5
100
AcDbSymbolTableRecord
100
AcDbLinetypeTableRecord
  2
PHANTOM
 70
     0
  3
Phantom
 72
    65
 73
     6
 40
13.0
 49
10.0
 74
     0
 49
-1.0
 74
     0
 49
0.0
 74
     0
 49
-1.0
 74
     0
 49
0.0
 74
     0
 49
-1.0
 74
     0
  0
LTYPE
  5
45
330
5
100
AcDbSymbolTableRecord
100
AcDbLinetypeTableRecord
  2
CENTER_DASH_DASH
 70
     0
  3
Center_Dash_Dash
 72
    65
 73
     6
 40
14.0
 49
9.0
 74
     0
 49
-1.0
 74
     0
 49
1.0
 74
     0
 49
-1.0
 74
     0
 49
1.0
 74
     0
 49
-1.0
 74
     0
  0
ENDTAB
  0
TABLE
  2
LAYER
  5
2
330
0
100
AcDbSymbolTable
 70
     2
  0
LAYER
  5
10
330
2
100
AcDbSymbolTableRecord
100
AcDbLayerTableRecord
  2
0
 70
     0
 62
     7
  6
Continuous
370
    -3
390
F
  0
LAYER
  5
46
330
2
100
AcDbSymbolTableRecord
100
AcDbLayerTableRecord
  2
1
 70
     0
 62
     7
  6
Continuous
370
    -3
390
F
  0
ENDTAB
  0
TABLE
  2
STYLE
  5
3
330
0
100
AcDbSymbolTable
 70
     5
  0
STYLE
  5
11
330
3
100
AcDbSymbolTableRecord
100
AcDbTextStyleTableRecord
  2
Standard
 70
     0
 40
0.0
 41
1.0
 50
0.0
 71
     0
 42
0.2
  3
txt
  4

  0
STYLE
  5
F2
330
3
100
AcDbSymbolTableRecord
100
AcDbTextStyleTableRecord
  2
CONVERTER_11
 70
     0
 40
0.0
 41
0.9
 50
0.0
 71
     0
 42
0.2
  3
txt.shx
  4

  0
STYLE
  5
254
330
3
100
AcDbSymbolTableRecord
100
AcDbTextStyleTableRecord
  2
CONVERTER_12
 70
     0
 40
0.0
 41
0.81
 50
0.0
 71
     0
 42
0.2
  3
txt.shx
  4

  0
STYLE
  5
26A
330
3
100
AcDbSymbolTableRecord
100
AcDbTextStyleTableRecord
  2
CONVERTER_13
 70
     0
 40
0.0
 41
0.72
 50
0.0
 71
     0
 42
0.2
  3
txt.shx
  4

  0
STYLE
  5
26D
330
3
100
AcDbSymbolTableRecord
100
AcDbTextStyleTableRecord
  2
CONVERTER_14
 70
     0
 40
0.0
 41
0.855
 50
0.0
 71
     0
 42
0.2
  3
txt.shx
  4

  0
ENDTAB
  0
TABLE
  2
VIEW
  5
6
330
0
100
AcDbSymbolTable
 70
     0
  0
ENDTAB
  0
TABLE
  2
UCS
  5
7
330
0
100
AcDbSymbolTable
 70
     0
  0
ENDTAB
  0
TABLE
  2
APPID
  5
9
330
0
100
AcDbSymbolTable
 70
     1
  0
APPID
  5
12
330
9
100
AcDbSymbolTableRecord
100
AcDbRegAppTableRecord
  2
ACAD
 70
     0
  0
ENDTAB
  0
TABLE
  2
DIMSTYLE
  5
A
330
0
100
AcDbSymbolTable
 70
     4
100
AcDbDimStyleTable
  0
DIMSTYLE
105
27
330
A
100
AcDbSymbolTableRecord
100
AcDbDimStyleTableRecord
  2
Standard
 70
     0
178
     0
340
11
  0
DIMSTYLE
105
F6
102
{ACAD_REACTORS
330
F7
102
}
330
A
100
AcDbSymbolTableRecord
100
AcDbDimStyleTableRecord
  2
ME10_DIM_10
 70
     0
 41
1.75
 42
0.0
 44
0.75
 73
     0
 74
     0
 77
     1
 78
     8
140
1.75
147
0.75
172
     1
173
     1
174
     1
175
     1
176
     2
177
     2
271
     1
178
     3
271
     1
340
F2
  0
DIMSTYLE
105
101
102
{ACAD_REACTORS
330
102
102
}
330
A
100
AcDbSymbolTableRecord
100
AcDbDimStyleTableRecord
  2
ME10_DIM_11
 70
     0
 41
1.75
 42
0.0
 44
0.75
 73
     0
 74
     0
 77
     1
 78
     8
140
1.75
147
0.75
172
     1
173
     1
174
     1
175
     1
176
     2
177
     2
178
     3
340
F2
  0
DIMSTYLE
105
156
102
{ACAD_REACTORS
330
157
102
}
330
A
100
AcDbSymbolTableRecord
100
AcDbDimStyleTableRecord
  2
ME10_DIM_12
 70
     0
 41
1.75
 42
0.0
 44
0.75
 73
     0
 74
     0
 77
     1
 78
     8
140
1.75
147
0.75
172
     1
173
     1
174
     1
175
     1
176
     2
177
     2
178
     3
340
F2
  0
ENDTAB
  0
TABLE
  2
BLOCK_RECORD
  5
1
330
0
100
AcDbSymbolTable
 70
    19
  0
BLOCK_RECORD
  5
1F
330
1
100
AcDbSymbolTableRecord
100
AcDbBlockTableRecord
  2
*Model_Space
340
22
  0
BLOCK_RECORD
  5
1B
330
1
100
AcDbSymbolTableRecord
100
AcDbBlockTableRecord
  2
*Paper_Space
340
1E
  0
BLOCK_RECORD
  5
23
330
1
100
AcDbSymbolTableRecord
100
AcDbBlockTableRecord
  2
*Paper_Space0
340
26
  0
BLOCK_RECORD
  5
47
330
1
100
AcDbSymbolTableRecord
100
AcDbBlockTableRecord
  2
0820426_UC_WMTBA_24x5-select__1
340
0
102
{BLKREFS
331
4B
102
}
  0
BLOCK_RECORD
  5
4A
330
1
100
AcDbSymbolTableRecord
100
AcDbBlockTableRecord
  2
Allg1
340
0
102
{BLKREFS
331
7C
102
}
  0
BLOCK_RECORD
  5
4E
330
1
100
AcDbSymbolTableRecord
100
AcDbBlockTableRecord
  2
0820426_UC_WMTBA_24x5-select__2
340
0
102
{BLKREFS
331
52
102
}
  0
BLOCK_RECORD
  5
51
330
1
100
AcDbSymbolTableRecord
100
AcDbBlockTableRecord
  2
Drfsicht1
340
0
102
{BLKREFS
331
7D
102
}
  0
BLOCK_RECORD
  5
55
330
1
100
AcDbSymbolTableRecord
100
AcDbBlockTableRecord
  2
0820426_UC_WMTBA_24x5-select__3
340
0
102
{BLKREFS
331
59
102
}
  0
BLOCK_RECORD
  5
58
330
1
100
AcDbSymbolTableRecord
100
AcDbBlockTableRecord
  2
Rckans1
340
0
102
{BLKREFS
331
7E
102
}
  0
BLOCK_RECORD
  5
5C
330
1
100
AcDbSymbolTableRecord
100
AcDbBlockTableRecord
  2
0820426_UC_WMTBA_24x5-select__4
340
0
102
{BLKREFS
331
60
102
}
  0
BLOCK_RECORD
  5
5F
330
1
100
AcDbSymbolTableRecord
100
AcDbBlockTableRecord
  2
SA_Links1
340
0
102
{BLKREFS
331
7F
102
}
  0
BLOCK_RECORD
  5
63
330
1
100
AcDbSymbolTableRecord
100
AcDbBlockTableRecord
  2
0820426_UC_WMTBA_24x5-select__5
340
0
102
{BLKREFS
331
67
102
}
  0
BLOCK_RECORD
  5
66
330
1
100
AcDbSymbolTableRecord
100
AcDbBlockTableRecord
  2
SA_Rechts1
340
0
102
{BLKREFS
331
80
102
}
  0
BLOCK_RECORD
  5
6A
330
1
100
AcDbSymbolTableRecord
100
AcDbBlockTableRecord
  2
0820426_UC_WMTBA_24x5-select__6
340
0
102
{BLKREFS
331
6E
102
}
  0
BLOCK_RECORD
  5
6D
330
1
100
AcDbSymbolTableRecord
100
AcDbBlockTableRecord
  2
Vordans1
340
0
102
{BLKREFS
331
81
102
}
  0
BLOCK_RECORD
  5
71
330
1
100
AcDbSymbolTableRecord
100
AcDbBlockTableRecord
  2
_rahmen
340
0
102
{BLKREFS
331
78
102
}
  0
BLOCK_RECORD
  5
74
330
1
100
AcDbSymbolTableRecord
100
AcDbBlockTableRecord
  2
_punkt
340
0
102
{BLKREFS
331
79
102
}
  0
BLOCK_RECORD
  5
77
330
1
100
AcDbSymbolTableRecord
100
AcDbBlockTableRecord
  2
A4I_CS
340
0
102
{BLKREFS
331
82
102
}
  0
BLOCK_RECORD
  5
EC
330
1
100
AcDbSymbolTableRecord
100
AcDbBlockTableRecord
  2
*D16
340
0
  0
BLOCK_RECORD
  5
F8
330
1
100
AcDbSymbolTableRecord
100
AcDbBlockTableRecord
  2
*D17
340
0
  0
BLOCK_RECORD
  5
14B
330
1
100
AcDbSymbolTableRecord
100
AcDbBlockTableRecord
  2
*D18
340
0
  0
ENDTAB
  0
ENDSEC
  0
SECTION
  2
BLOCKS
  0
BLOCK
  5
20
330
1F
100
AcDbEntity
  8
0
100
AcDbBlockBegin
  2
*Model_Space
 70
     0
 10
0.0
 20
0.0
 30
0.0
  3
*Model_Space
  1

  0
ENDBLK
  5
21
330
1F
100
AcDbEntity
  8
0
100
AcDbBlockEnd
  0
BLOCK
  5
1C
330
1B
100
AcDbEntity
 67
     1
  8
0
100
AcDbBlockBegin
  2
*Paper_Space
 70
     0
 10
0.0
 20
0.0
 30
0.0
  3
*Paper_Space
  1

  0
ENDBLK
  5
1D
330
1B
100
AcDbEntity
 67
     1
  8
0
100
AcDbBlockEnd
  0
BLOCK
  5
24
330
23
100
AcDbEntity
  8
0
100
AcDbBlockBegin
  2
*Paper_Space0
 70
     0
 10
0.0
 20
0.0
 30
0.0
  3
*Paper_Space0
  1

  0
ENDBLK
  5
25
330
23
100
AcDbEntity
  8
0
100
AcDbBlockEnd
  0
BLOCK
  5
48
330
47
100
AcDbEntity
  8
0
100
AcDbBlockBegin
  2
0820426_UC_WMTBA_24x5-select__1
 70
     0
 10
-578.1780231440025
 20
-562.7587556684098
 30
0.0
  3
0820426_UC_WMTBA_24x5-select__1
  1

  0
LINE
  5
83
330
47
100
AcDbEntity
  8
0
  6
Continuous
 62
     7
100
AcDbLine
 10
-556.9818707212949
 20
-552.3664508229967
 30
0.0
 11
-568.9818707212958
 21
-562.7587556684098
 31
0.0
  0
LINE
  5
84
330
47
100
AcDbEntity
  8
0
  6
Continuous
 62
     7
100
AcDbLine
 10
-563.7318707212953
 20
-553.0448373892946
 30
0.0
 11
-566.0218707212957
 21
-555.0280355639611
 31
0.0
  0
LINE
  5
85
330
47
100
AcDbEntity
  8
0
  6
Continuous
 62
     7
100
AcDbLine
 10
-563.199274531863
 20
-554.7272861086271
 30
0.0
 11
-565.2792745318634
 21
-556.5286189484987
 31
0.0
  0
LINE
  5
86
330
47
100
AcDbEntity
  8
0
  6
Continuous
 62
     7
100
AcDbLine
 10
-562.6742745318634
 20
-554.5757316629647
 30
0.0
 11
-565.1742745318634
 21
-556.7407951724258
 31
0.0
  0
LINE
  5
87
330
47
100
AcDbEntity
  8
0
  6
Continuous
 62
     7
100
AcDbLine
 10
-563.7318707212953
 20
-552.4386196066457
 30
0.0
 11
-566.2318707212958
 21
-554.6036831161064
 31
0.0
  0
LINE
  5
88
330
47
100
AcDbEntity
  8
0
  6
Continuous
 62
     7
100
AcDbLine
 10
-563.8818707212954
 20
-553.347946280619
 30
0.0
 11
-563.199274531863
 21
-554.7272861086271
 31
0.0
  0
LINE
  5
89
330
47
100
AcDbEntity
  8
0
  6
Continuous
 62
     7
100
AcDbLine
 10
-562.6742745318634
 20
-554.5757316629647
 30
0.0
 11
-563.7318707212953
 21
-552.4386196066457
 31
0.0
  0
LINE
  5
8A
330
47
100
AcDbEntity
  8
0
  6
Continuous
 62
     7
100
AcDbLine
 10
-563.7318707212953
 20
-553.0448373892946
 30
0.0
 11
-563.7318707212953
 21
-552.4386196066457
 31
0.0
  0
LINE
  5
8B
330
47
100
AcDbEntity
  8
0
  6
Continuous
 62
     7
100
AcDbLine
 10
-565.1742745318634
 20
-556.7407951724258
 30
0.0
 11
-566.2318707212958
 21
-554.6036831161064
 31
0.0
  0
LINE
  5
8C
330
47
100
AcDbEntity
  8
0
  6
Continuous
 62
     7
100
AcDbLine
 10
-566.7742745318633
 20
-558.1264358184808
 30
0.0
 11
-567.8318707212957
 21
-555.9893237621613
 31
0.0
  0
LINE
  5
8D
330
47
100
AcDbEntity
  8
0
  6
Continuous
 62
     7
100
AcDbLine
 10
-560.2318707212953
 20
-550.0137484760494
 30
0.0
 11
-561.9218707212954
 21
-551.477331408445
 31
0.0
  0
LINE
  5
8E
330
47
100
AcDbEntity
  8
0
  6
Continuous
 62
     7
100
AcDbLine
 10
-561.074274531863
 20
-553.1900910169097
 30
0.0
 11
-559.1742745318629
 21
-551.5446427497195
 31
0.0
  0
LINE
  5
8F
330
47
100
AcDbEntity
  8
0
  6
Continuous
 62
     7
100
AcDbLine
 10
-562.6742745318634
 20
-554.5757316629647
 30
0.0
 11
-563.199274531863
 21
-554.7272861086271
 31
0.0
  0
LINE
  5
90
330
47
100
AcDbEntity
  8
0
  6
Continuous
 62
     7
100
AcDbLine
 10
-559.699274531863
 20
-551.696197195382
 30
0.0
 11
-559.1742745318629
 21
-551.5446427497195
 31
0.0
  0
LINE
  5
91
330
47
100
AcDbEntity
  8
0
  6
Continuous
 62
     7
100
AcDbLine
 10
-559.699274531863
 20
-551.696197195382
 30
0.0
 11
-561.179274531863
 21
-552.9779147929826
 31
0.0
  0
LINE
  5
92
330
47
100
AcDbEntity
  8
0
  6
Continuous
 62
     7
100
AcDbLine
 10
-561.074274531863
 20
-553.1900910169097
 30
0.0
 11
-562.1318707212954
 21
-551.0529789605903
 31
0.0
  0
LINE
  5
93
330
47
100
AcDbEntity
  8
0
  6
Continuous
 62
     7
100
AcDbLine
 10
-560.3818707212954
 20
-550.3168573673738
 30
0.0
 11
-559.699274531863
 21
-551.696197195382
 31
0.0
  0
LINE
  5
94
330
47
100
AcDbEntity
  8
0
  6
Continuous
 62
     7
100
AcDbLine
 10
-560.3818707212954
 20
-550.3168573673738
 30
0.0
 11
-560.531870721295
 21
-550.2735560971846
 31
0.0
  0
LINE
  5
95
330
47
100
AcDbEntity
  8
0
  6
Continuous
 62
     7
100
AcDbLine
 10
-563.8818707212954
 20
-553.347946280619
 30
0.0
 11
-564.0318707212955
 21
-553.3046450104298
 31
0.0
  0
LINE
  5
96
330
47
100
AcDbEntity
  8
0
  6
Continuous
 62
     7
100
AcDbLine
 10
-558.9818707212953
 20
-548.3249989386695
 30
0.0
 11
-564.1780231440016
 21
-546.8249989386695
 31
0.0
  0
LINE
  5
97
330
47
100
AcDbEntity
  8
0
  6
Continuous
 62
     7
100
AcDbLine
 10
-560.2318707212953
 20
-549.4075306934001
 30
0.0
 11
-562.1318707212954
 21
-551.0529789605903
 31
0.0
  0
LINE
  5
98
330
47
100
AcDbEntity
  8
0
  6
Continuous
 62
     7
100
AcDbLine
 10
-560.2318707212953
 20
-549.4075306934001
 30
0.0
 11
-560.2318707212953
 21
-550.0137484760494
 31
0.0
  0
LINE
  5
99
330
47
100
AcDbEntity
  8
0
  6
Continuous
 62
     7
100
AcDbLine
 10
-558.9818707212953
 20
-548.3249989386695
 30
0.0
 11
-560.2318707212953
 21
-549.4075306934001
 31
0.0
  0
LINE
  5
9A
330
47
100
AcDbEntity
  8
0
  6
Continuous
 62
     7
100
AcDbLine
 10
-556.9818707212949
 20
-552.3664508229967
 30
0.0
 11
-558.9818707212953
 21
-548.3249989386695
 31
0.0
  0
LINE
  5
9B
330
47
100
AcDbEntity
  8
0
  6
Continuous
 62
     7
100
AcDbLine
 10
-562.1318707212954
 20
-551.0529789605903
 30
0.0
 11
-563.7318707212953
 21
-552.4386196066457
 31
0.0
  0
LINE
  5
9C
330
47
100
AcDbEntity
  8
0
  6
Continuous
 62
     7
100
AcDbLine
 10
-559.1742745318629
 20
-551.5446427497195
 30
0.0
 11
-560.2318707212953
 21
-549.4075306934001
 31
0.0
  0
LINE
  5
9D
330
47
100
AcDbEntity
  8
0
  6
Continuous
 62
     7
100
AcDbLine
 10
-567.8318707212957
 20
-556.5955415448107
 30
0.0
 11
-567.8318707212957
 21
-555.9893237621613
 31
0.0
  0
LINE
  5
9E
330
47
100
AcDbEntity
  8
0
  6
Continuous
 62
     7
100
AcDbLine
 10
-571.1318707212959
 20
-559.6266304580563
 30
0.0
 11
-576.0280231440024
 21
-558.2132329984347
 31
0.0
  0
LINE
  5
9F
330
47
100
AcDbEntity
  8
0
  6
Continuous
 62
     7
100
AcDbLine
 10
-575.303023144002
 20
-558.4225224710162
 30
0.0
 11
-577.4780231440022
 21
-560.3061277242473
 31
0.0
  0
LINE
  5
A0
330
47
100
AcDbEntity
  8
0
  6
Continuous
 62
     7
100
AcDbLine
 10
-576.1780231440025
 20
-557.2173037840826
 30
0.0
 11
-570.9818707212962
 21
-558.7173037840826
 31
0.0
  0
LINE
  5
A1
330
47
100
AcDbEntity
  8
0
  6
Continuous
 62
     7
100
AcDbLine
 10
-576.0280231440024
 20
-558.2132329984347
 30
0.0
 11
-577.4780231440022
 21
-560.3061277242473
 31
0.0
  0
LINE
  5
A2
330
47
100
AcDbEntity
  8
0
  6
Continuous
 62
     7
100
AcDbLine
 10
-578.1780231440025
 20
-560.1040551300307
 30
0.0
 11
-576.1780231440025
 21
-557.2173037840826
 31
0.0
  0
LINE
  5
A3
330
47
100
AcDbEntity
  8
0
  6
Continuous
 62
     7
100
AcDbLine
 10
-577.4780231440022
 20
-560.3061277242473
 30
0.0
 11
-578.1780231440025
 21
-560.1040551300307
 31
0.0
  0
LINE
  5
A4
330
47
100
AcDbEntity
  8
0
  6
Continuous
 62
     7
100
AcDbLine
 10
-569.7318707212962
 20
-557.634772029352
 30
0.0
 11
-570.9818707212962
 21
-558.7173037840826
 31
0.0
  0
LINE
  5
A5
330
47
100
AcDbEntity
  8
0
  6
Continuous
 62
     7
100
AcDbLine
 10
-569.5218707212957
 20
-558.0591244772063
 30
0.0
 11
-567.8318707212957
 21
-556.5955415448107
 31
0.0
  0
LINE
  5
A6
330
47
100
AcDbEntity
  8
0
  6
Continuous
 62
     7
100
AcDbLine
 10
-567.8318707212957
 20
-555.9893237621613
 30
0.0
 11
-569.7318707212962
 21
-557.634772029352
 31
0.0
  0
LINE
  5
A7
330
47
100
AcDbEntity
  8
0
  6
Continuous
 62
     7
100
AcDbLine
 10
-567.9818707212958
 20
-556.8986504361351
 30
0.0
 11
-568.1318707212959
 21
-556.8553491659459
 31
0.0
  0
LINE
  5
A8
330
47
100
AcDbEntity
  8
0
  6
Continuous
 62
     7
100
AcDbLine
 10
-564.1780231440016
 20
-546.8249989386695
 30
0.0
 11
-576.1780231440025
 21
-557.2173037840826
 31
0.0
  0
LINE
  5
A9
330
47
100
AcDbEntity
  8
0
  6
Continuous
 62
     7
100
AcDbLine
 10
-566.2318707212958
 20
-554.6036831161064
 30
0.0
 11
-567.8318707212957
 21
-555.9893237621613
 31
0.0
  0
LINE
  5
AA
330
47
100
AcDbEntity
  8
0
  6
Continuous
 62
     7
100
AcDbLine
 10
-567.9818707212958
 20
-556.8986504361351
 30
0.0
 11
-567.2992745318634
 21
-558.2779902641432
 31
0.0
  0
LINE
  5
AB
330
47
100
AcDbEntity
  8
0
  6
Continuous
 62
     7
100
AcDbLine
 10
-566.7742745318633
 20
-558.1264358184808
 30
0.0
 11
-567.2992745318634
 21
-558.2779902641432
 31
0.0
  0
LINE
  5
AC
330
47
100
AcDbEntity
  8
0
  6
Continuous
 62
     7
100
AcDbLine
 10
-571.1318707212959
 20
-559.6266304580563
 30
0.0
 11
-569.681870721296
 21
-562.5566830741936
 31
0.0
  0
LINE
  5
AD
330
47
100
AcDbEntity
  8
0
  6
Continuous
 62
     7
100
AcDbLine
 10
-568.9818707212958
 20
-562.7587556684098
 30
0.0
 11
-570.9818707212962
 21
-558.7173037840826
 31
0.0
  0
LINE
  5
AE
330
47
100
AcDbEntity
  8
0
  6
Continuous
 62
     7
100
AcDbLine
 10
-568.6742745318638
 20
-559.7718840856714
 30
0.0
 11
-569.7318707212962
 21
-557.634772029352
 31
0.0
  0
LINE
  5
AF
330
47
100
AcDbEntity
  8
0
  6
Continuous
 62
     7
100
AcDbLine
 10
-566.7742745318633
 20
-558.1264358184808
 30
0.0
 11
-568.6742745318638
 21
-559.7718840856714
 31
0.0
  0
LINE
  5
B0
330
47
100
AcDbEntity
  8
0
  6
Continuous
 62
     7
100
AcDbLine
 10
-568.7792745318634
 20
-559.5597078617443
 30
0.0
 11
-567.2992745318634
 21
-558.2779902641432
 31
0.0
  0
LINE
  5
B1
330
47
100
AcDbEntity
  8
0
  6
Continuous
 62
     7
100
AcDbLine
 10
-568.9818707212958
 20
-562.7587556684098
 30
0.0
 11
-569.681870721296
 21
-562.5566830741936
 31
0.0
  0
ENDBLK
  5
49
330
47
100
AcDbEntity
  8
0
100
AcDbBlockEnd
  0
BLOCK
  5
4C
330
4A
100
AcDbEntity
  8
0
100
AcDbBlockBegin
  2
Allg1
 70
     0
 10
-529.5000000570699
 20
-545.0000000507198
 30
0.0
  3
Allg1
  1

  0
INSERT
  5
4B
330
4A
100
AcDbEntity
  8
0
100
AcDbBlockReference
  2
0820426_UC_WMTBA_24x5-select__1
 10
-578.1780231440025
 20
-562.7587556684098
 30
0.0
  0
ENDBLK
  5
4D
330
4A
100
AcDbEntity
  8
0
100
AcDbBlockEnd
  0
BLOCK
  5
4F
330
4E
100
AcDbEntity
  8
0
100
AcDbBlockBegin
  2
0820426_UC_WMTBA_24x5-select__2
 70
     0
 10
-635.6344011024161
 20
-555.4375024833294
 30
0.0
  3
0820426_UC_WMTBA_24x5-select__2
  1

  0
LINE
  5
B2
330
4E
100
AcDbEntity
  8
0
  6
Continuous
 62
     7
100
AcDbLine
 10
-635.6344011024152
 20
-531.4375024833289
 30
0.0
 11
-635.6344011024161
 21
-555.4375024833289
 31
0.0
  0
LINE
  5
B3
330
4E
100
AcDbEntity
  8
0
  6
Continuous
 62
     7
100
AcDbLine
 10
-633.325000025657
 20
-533.9375024833289
 30
0.0
 11
-633.325000025657
 21
-537.7375024833291
 31
0.0
  0
LINE
  5
B4
330
4E
100
AcDbEntity
  8
0
  6
Continuous
 62
     7
100
AcDbLine
 10
-633.3250000256565
 20
-531.4375024833289
 30
0.0
 11
-633.325000025657
 21
-533.9375024833289
 31
0.0
  0
LINE
  5
B5
330
4E
100
AcDbEntity
  8
0
  6
Continuous
 62
     7
100
AcDbLine
 10
-633.325000025657
 20
-537.7375024833291
 30
0.0
 11
-633.325000025657
 21
-540.9375024833289
 31
0.0
  0
LINE
  5
B6
330
4E
100
AcDbEntity
  8
0
  6
Continuous
 62
     7
100
AcDbLine
 10
-625.0155989488993
 20
-555.4375024833294
 30
0.0
 11
-627.3250000256579
 21
-555.4375024833294
 31
0.0
  0
LINE
  5
B7
330
4E
100
AcDbEntity
  8
0
  6
Continuous
 62
     7
100
AcDbLine
 10
-633.3250000256579
 20
-555.4375024833289
 30
0.0
 11
-627.3250000256579
 21
-555.4375024833294
 31
0.0
  0
LINE
  5
B8
330
4E
100
AcDbEntity
  8
0
  6
Continuous
 62
     7
100
AcDbLine
 10
-635.6344011024161
 20
-555.4375024833289
 30
0.0
 11
-633.3250000256579
 21
-555.4375024833289
 31
0.0
  0
LINE
  5
B9
330
4E
100
AcDbEntity
  8
0
  6
Continuous
 62
     7
100
AcDbLine
 10
-633.3250000256575
 20
-549.1375024833287
 30
0.0
 11
-633.9399891323336
 21
-549.1375024833287
 31
0.0
  0
LINE
  5
BA
330
4E
100
AcDbEntity
  8
0
  6
Continuous
 62
     7
100
AcDbLine
 10
-633.3250000256579
 20
-552.9375024833289
 30
0.0
 11
-633.9399891323341
 21
-552.9375024833289
 31
0.0
  0
LINE
  5
BB
330
4E
100
AcDbEntity
  8
0
  6
Continuous
 62
     7
100
AcDbLine
 10
-633.3250000256575
 20
-545.9375024833289
 30
0.0
 11
-633.9399891323336
 21
-545.9375024833289
 31
0.0
  0
LINE
  5
BC
330
4E
100
AcDbEntity
  8
0
  6
Continuous
 62
     7
100
AcDbLine
 10
-633.9399891323341
 20
-552.9375024833289
 30
0.0
 11
-634.5462069149829
 21
-552.9375024833289
 31
0.0
  0
LINE
  5
BD
330
4E
100
AcDbEntity
  8
0
  6
Continuous
 62
     7
100
AcDbLine
 10
-633.9399891323341
 20
-552.9375024833289
 30
0.0
 11
-633.9399891323336
 21
-549.1375024833287
 31
0.0
  0
LINE
  5
BE
330
4E
100
AcDbEntity
  8
0
  6
Continuous
 62
     7
100
AcDbLine
 10
-634.5462069149829
 20
-549.1375024833287
 30
0.0
 11
-634.5462069149829
 21
-552.9375024833289
 31
0.0
  0
LINE
  5
BF
330
4E
100
AcDbEntity
  8
0
  6
Continuous
 62
     7
100
AcDbLine
 10
-633.9399891323336
 20
-549.1375024833287
 30
0.0
 11
-634.5462069149829
 21
-549.1375024833287
 31
0.0
  0
LINE
  5
C0
330
4E
100
AcDbEntity
  8
0
  6
Continuous
 62
     7
100
AcDbLine
 10
-633.9399891323336
 20
-545.9375024833289
 30
0.0
 11
-634.5462069149825
 21
-545.9375024833289
 31
0.0
  0
LINE
  5
C1
330
4E
100
AcDbEntity
  8
0
  6
Continuous
 62
     7
100
AcDbLine
 10
-633.9399891323336
 20
-545.9375024833289
 30
0.0
 11
-633.9399891323332
 21
-540.9375024833289
 31
0.0
  0
LINE
  5
C2
330
4E
100
AcDbEntity
  8
0
  6
Continuous
 62
     7
100
AcDbLine
 10
-634.5462069149825
 20
-540.9375024833289
 30
0.0
 11
-634.5462069149825
 21
-545.9375024833289
 31
0.0
  0
LINE
  5
C3
330
4E
100
AcDbEntity
  8
0
  6
Continuous
 62
     7
100
AcDbLine
 10
-634.5462069149825
 20
-537.7375024833291
 30
0.0
 11
-634.546206914982
 21
-533.9375024833289
 31
0.0
  0
LINE
  5
C4
330
4E
100
AcDbEntity
  8
0
  6
Continuous
 62
     7
100
AcDbLine
 10
-633.9399891323332
 20
-533.9375024833289
 30
0.0
 11
-633.9399891323332
 21
-537.7375024833291
 31
0.0
  0
LINE
  5
C5
330
4E
100
AcDbEntity
  8
0
  6
Continuous
 62
     7
100
AcDbLine
 10
-633.325000025657
 20
-533.9375024833289
 30
0.0
 11
-633.9399891323332
 21
-533.9375024833289
 31
0.0
  0
LINE
  5
C6
330
4E
100
AcDbEntity
  8
0
  6
Continuous
 62
     7
100
AcDbLine
 10
-633.9399891323332
 20
-533.9375024833289
 30
0.0
 11
-634.546206914982
 21
-533.9375024833289
 31
0.0
  0
LINE
  5
C7
330
4E
100
AcDbEntity
  8
0
  6
Continuous
 62
     7
100
AcDbLine
 10
-633.325000025657
 20
-540.9375024833289
 30
0.0
 11
-633.9399891323332
 21
-540.9375024833289
 31
0.0
  0
LINE
  5
C8
330
4E
100
AcDbEntity
  8
0
  6
Continuous
 62
     7
100
AcDbLine
 10
-633.9399891323332
 20
-540.9375024833289
 30
0.0
 11
-634.5462069149825
 21
-540.9375024833289
 31
0.0
  0
LINE
  5
C9
330
4E
100
AcDbEntity
  8
0
  6
Continuous
 62
     7
100
AcDbLine
 10
-633.9399891323332
 20
-537.7375024833291
 30
0.0
 11
-634.5462069149825
 21
-537.7375024833291
 31
0.0
  0
LINE
  5
CA
330
4E
100
AcDbEntity
  8
0
  6
Continuous
 62
     7
100
AcDbLine
 10
-633.325000025657
 20
-537.7375024833291
 30
0.0
 11
-633.9399891323332
 21
-537.7375024833291
 31
0.0
  0
LINE
  5
CB
330
4E
100
AcDbEntity
  8
0
  6
Continuous
 62
     7
100
AcDbLine
 10
-626.7100109189809
 20
-540.9375024833294
 30
0.0
 11
-626.7100109189809
 21
-545.9375024833294
 31
0.0
  0
LINE
  5
CC
330
4E
100
AcDbEntity
  8
0
  6
Continuous
 62
     7
100
AcDbLine
 10
-627.325000025657
 20
-540.9375024833294
 30
0.0
 11
-627.3250000256575
 21
-545.9375024833294
 31
0.0
  0
LINE
  5
CD
330
4E
100
AcDbEntity
  8
0
  6
Continuous
 62
     7
100
AcDbLine
 10
-627.3250000256575
 20
-545.9375024833294
 30
0.0
 11
-627.3250000256575
 21
-549.1375024833292
 31
0.0
  0
LINE
  5
CE
330
4E
100
AcDbEntity
  8
0
  6
Continuous
 62
     7
100
AcDbLine
 10
-626.7100109189804
 20
-533.9375024833294
 30
0.0
 11
-626.7100109189809
 21
-537.7375024833295
 31
0.0
  0
LINE
  5
CF
330
4E
100
AcDbEntity
  8
0
  6
Continuous
 62
     7
100
AcDbLine
 10
-626.7100109189809
 20
-537.7375024833295
 30
0.0
 11
-627.325000025657
 21
-537.7375024833295
 31
0.0
  0
LINE
  5
D0
330
4E
100
AcDbEntity
  8
0
  6
Continuous
 62
     7
100
AcDbLine
 10
-626.7100109189809
 20
-540.9375024833294
 30
0.0
 11
-627.325000025657
 21
-540.9375024833294
 31
0.0
  0
LINE
  5
D1
330
4E
100
AcDbEntity
  8
0
  6
Continuous
 62
     7
100
AcDbLine
 10
-626.7100109189809
 20
-545.9375024833294
 30
0.0
 11
-627.3250000256575
 21
-545.9375024833294
 31
0.0
  0
LINE
  5
D2
330
4E
100
AcDbEntity
  8
0
  6
Continuous
 62
     7
100
AcDbLine
 10
-627.325000025657
 20
-537.7375024833295
 30
0.0
 11
-627.325000025657
 21
-540.9375024833294
 31
0.0
  0
LINE
  5
D3
330
4E
100
AcDbEntity
  8
0
  6
Continuous
 62
     7
100
AcDbLine
 10
-627.325000025657
 20
-533.9375024833294
 30
0.0
 11
-627.325000025657
 21
-537.7375024833295
 31
0.0
  0
LINE
  5
D4
330
4E
100
AcDbEntity
  8
0
  6
Continuous
 62
     7
100
AcDbLine
 10
-627.3250000256579
 20
-552.9375024833294
 30
0.0
 11
-627.3250000256579
 21
-555.4375024833294
 31
0.0
  0
LINE
  5
D5
330
4E
100
AcDbEntity
  8
0
  6
Continuous
 62
     7
100
AcDbLine
 10
-627.3250000256575
 20
-549.1375024833292
 30
0.0
 11
-627.3250000256579
 21
-552.9375024833294
 31
0.0
  0
LINE
  5
D6
330
4E
100
AcDbEntity
  8
0
  6
Continuous
 62
     7
100
AcDbLine
 10
-633.325000025657
 20
-540.9375024833289
 30
0.0
 11
-633.3250000256575
 21
-545.9375024833289
 31
0.0
  0
LINE
  5
D7
330
4E
100
AcDbEntity
  8
0
  6
Continuous
 62
     7
100
AcDbLine
 10
-633.3250000256575
 20
-549.1375024833287
 30
0.0
 11
-633.3250000256579
 21
-552.9375024833289
 31
0.0
  0
LINE
  5
D8
330
4E
100
AcDbEntity
  8
0
  6
Continuous
 62
     7
100
AcDbLine
 10
-633.3250000256579
 20
-552.9375024833289
 30
0.0
 11
-633.3250000256579
 21
-555.4375024833289
 31
0.0
  0
LINE
  5
D9
330
4E
100
AcDbEntity
  8
0
  6
Continuous
 62
     7
100
AcDbLine
 10
-633.3250000256575
 20
-545.9375024833289
 30
0.0
 11
-633.3250000256575
 21
-549.1375024833287
 31
0.0
  0
LINE
  5
DA
330
4E
100
AcDbEntity
  8
0
  6
Continuous
 62
     7
100
AcDbLine
 10
-627.3250000256565
 20
-531.4375024833294
 30
0.0
 11
-633.3250000256565
 21
-531.4375024833289
 31
0.0
  0
LINE
  5
DB
330
4E
100
AcDbEntity
  8
0
  6
Continuous
 62
     7
100
AcDbLine
 10
-635.6344011024152
 20
-531.4375024833289
 30
0.0
 11
-633.3250000256565
 21
-531.4375024833289
 31
0.0
  0
LINE
  5
DC
330
4E
100
AcDbEntity
  8
0
  6
Continuous
 62
     7
100
AcDbLine
 10
-625.015598948898
 20
-531.4375024833294
 30
0.0
 11
-625.0155989488993
 21
-555.4375024833294
 31
0.0
  0
LINE
  5
DD
330
4E
100
AcDbEntity
  8
0
  6
Continuous
 62
     7
100
AcDbLine
 10
-626.103793136332
 20
-549.1375024833292
 30
0.0
 11
-626.1037931363325
 21
-552.9375024833294
 31
0.0
  0
LINE
  5
DE
330
4E
100
AcDbEntity
  8
0
  6
Continuous
 62
     7
100
AcDbLine
 10
-626.1037931363315
 20
-540.9375024833294
 30
0.0
 11
-626.103793136332
 21
-545.9375024833294
 31
0.0
  0
LINE
  5
DF
330
4E
100
AcDbEntity
  8
0
  6
Continuous
 62
     7
100
AcDbLine
 10
-627.3250000256565
 20
-531.4375024833294
 30
0.0
 11
-627.325000025657
 21
-533.9375024833294
 31
0.0
  0
LINE
  5
E0
330
4E
100
AcDbEntity
  8
0
  6
Continuous
 62
     7
100
AcDbLine
 10
-626.1037931363315
 20
-537.7375024833295
 30
0.0
 11
-626.1037931363315
 21
-533.9375024833294
 31
0.0
  0
LINE
  5
E1
330
4E
100
AcDbEntity
  8
0
  6
Continuous
 62
     7
100
AcDbLine
 10
-626.7100109189804
 20
-533.9375024833294
 30
0.0
 11
-627.325000025657
 21
-533.9375024833294
 31
0.0
  0
LINE
  5
E2
330
4E
100
AcDbEntity
  8
0
  6
Continuous
 62
     7
100
AcDbLine
 10
-626.1037931363315
 20
-533.9375024833294
 30
0.0
 11
-626.7100109189804
 21
-533.9375024833294
 31
0.0
  0
LINE
  5
E3
330
4E
100
AcDbEntity
  8
0
  6
Continuous
 62
     7
100
AcDbLine
 10
-626.1037931363315
 20
-537.7375024833295
 30
0.0
 11
-626.7100109189809
 21
-537.7375024833295
 31
0.0
  0
LINE
  5
E4
330
4E
100
AcDbEntity
  8
0
  6
Continuous
 62
     7
100
AcDbLine
 10
-626.1037931363315
 20
-540.9375024833294
 30
0.0
 11
-626.7100109189809
 21
-540.9375024833294
 31
0.0
  0
LINE
  5
E5
330
4E
100
AcDbEntity
  8
0
  6
Continuous
 62
     7
100
AcDbLine
 10
-626.103793136332
 20
-545.9375024833294
 30
0.0
 11
-626.7100109189809
 21
-545.9375024833294
 31
0.0
  0
LINE
  5
E6
330
4E
100
AcDbEntity
  8
0
  6
Continuous
 62
     7
100
AcDbLine
 10
-626.7100109189813
 20
-552.9375024833294
 30
0.0
 11
-627.3250000256579
 21
-552.9375024833294
 31
0.0
  0
LINE
  5
E7
330
4E
100
AcDbEntity
  8
0
  6
Continuous
 62
     7
100
AcDbLine
 10
-626.1037931363325
 20
-552.9375024833294
 30
0.0
 11
-626.7100109189813
 21
-552.9375024833294
 31
0.0
  0
LINE
  5
E8
330
4E
100
AcDbEntity
  8
0
  6
Continuous
 62
     7
100
AcDbLine
 10
-626.7100109189813
 20
-549.1375024833292
 30
0.0
 11
-627.3250000256575
 21
-549.1375024833292
 31
0.0
  0
LINE
  5
E9
330
4E
100
AcDbEntity
  8
0
  6
Continuous
 62
     7
100
AcDbLine
 10
-626.103793136332
 20
-549.1375024833292
 30
0.0
 11
-626.7100109189813
 21
-549.1375024833292
 31
0.0
  0
LINE
  5
EA
330
4E
100
AcDbEntity
  8
0
  6
Continuous
 62
     7
100
AcDbLine
 10
-626.7100109189813
 20
-552.9375024833294
 30
0.0
 11
-626.7100109189813
 21
-549.1375024833292
 31
0.0
  0
LINE
  5
EB
330
4E
100
AcDbEntity
  8
0
  6
Continuous
 62
     7
100
AcDbLine
 10
-625.015598948898
 20
-531.4375024833294
 30
0.0
 11
-627.3250000256565
 21
-531.4375024833294
 31
0.0
  0
ENDBLK
  5
50
330
4E
100
AcDbEntity
  8
0
100
AcDbBlockEnd
  0
BLOCK
  5
53
330
51
100
AcDbEntity
  8
0
100
AcDbBlockBegin
  2
Drfsicht1
 70
     0
 10
-606.8500007899023
 20
-507.9375001161402
 30
0.0
  3
Drfsicht1
  1

  0
INSERT
  5
52
330
51
100
AcDbEntity
  8
0
100
AcDbBlockReference
  2
0820426_UC_WMTBA_24x5-select__2
 10
-635.6344011024161
 20
-555.4375024833294
 30
0.0
  0
DIMENSION
  5
F7
330
51
100
AcDbEntity
  8
1
100
AcDbDimension
  2
*D16
 10
-635.6344011024152
 20
-526.4375024833289
 30
0.0
 11
-630.495058810925
 21
-524.7250024833289
 31
0.0
 70
    33
  1
<>
 71
     5
 42
-1.0
 53
0.00013888888889
  3
ME10_DIM_10
100
AcDbAlignedDimension
 13
-625.015598948898
 23
-531.4375024833294
 33
0.0
 14
-635.6344011024152
 24
-531.4375024833289
 34
0.0
  0
DIMENSION
  5
102
330
51
100
AcDbEntity
  8
1
100
AcDbDimension
  2
*D17
 10
-620.015598948898
 20
-531.4375024833294
 30
0.0
 11
-621.640598948898
 21
-542.7033445362899
 31
0.0
 70
    33
  1
<>
 71
     5
 42
-1.0
 53
89.99999999999675
  3
ME10_DIM_11
100
AcDbAlignedDimension
 13
-625.0155989488993
 23
-555.4375024833294
 33
0.0
 14
-625.015598948898
 24
-531.4375024833294
 34
0.0
  0
ENDBLK
  5
54
330
51
100
AcDbEntity
  8
0
100
AcDbBlockEnd
  0
BLOCK
  5
56
330
55
100
AcDbEntity
  8
0
100
AcDbBlockBegin
  2
0820426_UC_WMTBA_24x5-select__3
 70
     0
 10
-572.3344018436183
 20
-515.4999999826218
 30
0.0
  3
0820426_UC_WMTBA_24x5-select__3
  1

  0
LINE
  5
103
330
55
100
AcDbEntity
  8
0
  6
Continuous
 62
     7
100
AcDbLine
 10
-570.0250007668596
 20
-511.4999999826218
 30
0.0
 11
-564.0250007668596
 21
-511.4999999826218
 31
0.0
  0
LINE
  5
104
330
55
100
AcDbEntity
  8
0
  6
Continuous
 62
     7
100
AcDbLine
 10
-564.1982058476165
 20
-512.5999999826217
 30
0.0
 11
-562.5238900669665
 21
-515.4999999826218
 31
0.0
  0
LINE
  5
105
330
55
100
AcDbEntity
  8
0
  6
Continuous
 62
     7
100
AcDbLine
 10
-562.5238900669665
 20
-515.4999999826218
 30
0.0
 11
-561.715599690101
 21
-515.4999999826218
 31
0.0
  0
LINE
  5
106
330
55
100
AcDbEntity
  8
0
  6
Continuous
 62
     7
100
AcDbLine
 10
-561.715599690101
 20
-515.4999999826218
 30
0.0
 11
-564.0250007668596
 21
-511.4999999826218
 31
0.0
  0
LINE
  5
107
330
55
100
AcDbEntity
  8
0
  6
Continuous
 62
     7
100
AcDbLine
 10
-572.3344018436183
 20
-515.4999999826214
 30
0.0
 11
-571.5261114667528
 21
-515.4999999826214
 31
0.0
  0
LINE
  5
108
330
55
100
AcDbEntity
  8
0
  6
Continuous
 62
     7
100
AcDbLine
 10
-569.8517956861028
 20
-512.5999999826217
 30
0.0
 11
-564.1982058476165
 21
-512.5999999826217
 31
0.0
  0
LINE
  5
109
330
55
100
AcDbEntity
  8
0
  6
Continuous
 62
     7
100
AcDbLine
 10
-572.3344018436183
 20
-515.4999999826214
 30
0.0
 11
-570.0250007668596
 21
-511.4999999826218
 31
0.0
  0
LINE
  5
10A
330
55
100
AcDbEntity
  8
0
  6
Continuous
 62
     7
100
AcDbLine
 10
-569.8517956861028
 20
-512.5999999826217
 30
0.0
 11
-571.5261114667528
 21
-515.4999999826214
 31
0.0
  0
ENDBLK
  5
57
330
55
100
AcDbEntity
  8
0
100
AcDbBlockEnd
  0
BLOCK
  5
5A
330
58
100
AcDbEntity
  8
0
100
AcDbBlockBegin
  2
Rckans1
 70
     0
 10
-590.5000000026139
 20
-513.49999999998
 30
0.0
  3
Rckans1
  1

  0
INSERT
  5
59
330
58
100
AcDbEntity
  8
0
100
AcDbBlockReference
  2
0820426_UC_WMTBA_24x5-select__3
 10
-572.3344018436183
 20
-515.4999999826218
 30
0.0
  0
ENDBLK
  5
5B
330
58
100
AcDbEntity
  8
0
100
AcDbBlockEnd
  0
BLOCK
  5
5D
330
5C
100
AcDbEntity
  8
0
100
AcDbBlockBegin
  2
0820426_UC_WMTBA_24x5-select__4
 70
     0
 10
-608.924998194029
 20
-515.4999999826318
 30
0.0
  3
0820426_UC_WMTBA_24x5-select__4
  1

  0
LINE
  5
10B
330
5C
100
AcDbEntity
  8
0
  6
Continuous
 62
     7
100
AcDbLine
 10
-608.924998194029
 20
-515.4999999826318
 30
0.0
 11
-584.924998194029
 21
-515.4999999826318
 31
0.0
  0
LINE
  5
10C
330
5C
100
AcDbEntity
  8
0
  6
Continuous
 62
     7
100
AcDbLine
 10
-608.924998194029
 20
-511.4999999826318
 30
0.0
 11
-606.424998194029
 21
-511.4999999826318
 31
0.0
  0
LINE
  5
10D
330
5C
100
AcDbEntity
  8
0
  6
Continuous
 62
     7
100
AcDbLine
 10
-606.424998194029
 20
-511.4999999826318
 30
0.0
 11
-602.6249981940288
 21
-511.4999999826318
 31
0.0
  0
LINE
  5
10E
330
5C
100
AcDbEntity
  8
0
  6
Continuous
 62
     7
100
AcDbLine
 10
-602.6249981940292
 20
-513.6151923614962
 30
0.0
 11
-606.424998194029
 21
-513.6151923614966
 31
0.0
  0
LINE
  5
10F
330
5C
100
AcDbEntity
  8
0
  6
Continuous
 62
     7
100
AcDbLine
 10
-599.424998194029
 20
-511.4999999826318
 30
0.0
 11
-599.424998194029
 21
-512.1999999826321
 31
0.0
  0
LINE
  5
110
330
5C
100
AcDbEntity
  8
0
  6
Continuous
 62
     7
100
AcDbLine
 10
-599.424998194029
 20
-512.1999999826321
 30
0.0
 11
-599.424998194029
 21
-513.6151923614966
 31
0.0
  0
LINE
  5
111
330
5C
100
AcDbEntity
  8
0
  6
Continuous
 62
     7
100
AcDbLine
 10
-602.6249981940288
 20
-511.4999999826318
 30
0.0
 11
-599.424998194029
 21
-511.4999999826318
 31
0.0
  0
LINE
  5
112
330
5C
100
AcDbEntity
  8
0
  6
Continuous
 62
     7
100
AcDbLine
 10
-606.424998194029
 20
-512.1999999826321
 30
0.0
 11
-602.6249981940288
 21
-512.1999999826321
 31
0.0
  0
LINE
  5
113
330
5C
100
AcDbEntity
  8
0
  6
Continuous
 62
     7
100
AcDbLine
 10
-599.424998194029
 20
-513.6151923614966
 30
0.0
 11
-594.424998194029
 21
-513.6151923614966
 31
0.0
  0
LINE
  5
114
330
5C
100
AcDbEntity
  8
0
  6
Continuous
 62
     7
100
AcDbLine
 10
-591.2249981940291
 20
-513.6151923614966
 30
0.0
 11
-587.424998194029
 21
-513.6151923614966
 31
0.0
  0
LINE
  5
115
330
5C
100
AcDbEntity
  8
0
  6
Continuous
 62
     7
100
AcDbLine
 10
-608.924998194029
 20
-515.4999999826318
 30
0.0
 11
-608.924998194029
 21
-511.4999999826318
 31
0.0
  0
LINE
  5
116
330
5C
100
AcDbEntity
  8
0
  6
Continuous
 62
     7
100
AcDbLine
 10
-584.924998194029
 20
-515.4999999826318
 30
0.0
 11
-584.924998194029
 21
-511.4999999826318
 31
0.0
  0
LINE
  5
117
330
5C
100
AcDbEntity
  8
0
  6
Continuous
 62
     7
100
AcDbLine
 10
-602.6249981940288
 20
-511.4999999826318
 30
0.0
 11
-602.6249981940288
 21
-512.1999999826321
 31
0.0
  0
LINE
  5
118
330
5C
100
AcDbEntity
  8
0
  6
Continuous
 62
     7
100
AcDbLine
 10
-606.424998194029
 20
-511.4999999826318
 30
0.0
 11
-606.424998194029
 21
-512.1999999826321
 31
0.0
  0
LINE
  5
119
330
5C
100
AcDbEntity
  8
0
  6
Continuous
 62
     7
100
AcDbLine
 10
-606.424998194029
 20
-512.1999999826321
 30
0.0
 11
-606.424998194029
 21
-513.6151923614966
 31
0.0
  0
LINE
  5
11A
330
5C
100
AcDbEntity
  8
0
  6
Continuous
 62
     7
100
AcDbLine
 10
-602.6249981940288
 20
-512.1999999826321
 30
0.0
 11
-602.6249981940292
 21
-513.6151923614962
 31
0.0
  0
LINE
  5
11B
330
5C
100
AcDbEntity
  8
0
  6
Continuous
 62
     7
100
AcDbLine
 10
-599.424998194029
 20
-511.4999999826318
 30
0.0
 11
-594.424998194029
 21
-511.4999999826318
 31
0.0
  0
LINE
  5
11C
330
5C
100
AcDbEntity
  8
0
  6
Continuous
 62
     7
100
AcDbLine
 10
-591.2249981940291
 20
-511.4999999826318
 30
0.0
 11
-587.424998194029
 21
-511.4999999826318
 31
0.0
  0
LINE
  5
11D
330
5C
100
AcDbEntity
  8
0
  6
Continuous
 62
     7
100
AcDbLine
 10
-587.424998194029
 20
-511.4999999826318
 30
0.0
 11
-584.924998194029
 21
-511.4999999826318
 31
0.0
  0
LINE
  5
11E
330
5C
100
AcDbEntity
  8
0
  6
Continuous
 62
     7
100
AcDbLine
 10
-594.424998194029
 20
-511.4999999826318
 30
0.0
 11
-591.2249981940291
 21
-511.4999999826318
 31
0.0
  0
LINE
  5
11F
330
5C
100
AcDbEntity
  8
0
  6
Continuous
 62
     7
100
AcDbLine
 10
-594.424998194029
 20
-512.1999999826321
 30
0.0
 11
-599.424998194029
 21
-512.1999999826321
 31
0.0
  0
LINE
  5
120
330
5C
100
AcDbEntity
  8
0
  6
Continuous
 62
     7
100
AcDbLine
 10
-591.2249981940291
 20
-511.4999999826318
 30
0.0
 11
-591.2249981940291
 21
-512.1999999826321
 31
0.0
  0
LINE
  5
121
330
5C
100
AcDbEntity
  8
0
  6
Continuous
 62
     7
100
AcDbLine
 10
-591.2249981940291
 20
-512.1999999826321
 30
0.0
 11
-591.2249981940291
 21
-513.6151923614966
 31
0.0
  0
LINE
  5
122
330
5C
100
AcDbEntity
  8
0
  6
Continuous
 62
     7
100
AcDbLine
 10
-594.424998194029
 20
-511.4999999826318
 30
0.0
 11
-594.424998194029
 21
-512.1999999826321
 31
0.0
  0
LINE
  5
123
330
5C
100
AcDbEntity
  8
0
  6
Continuous
 62
     7
100
AcDbLine
 10
-594.424998194029
 20
-512.1999999826321
 30
0.0
 11
-594.424998194029
 21
-513.6151923614966
 31
0.0
  0
LINE
  5
124
330
5C
100
AcDbEntity
  8
0
  6
Continuous
 62
     7
100
AcDbLine
 10
-587.424998194029
 20
-512.1999999826321
 30
0.0
 11
-591.2249981940291
 21
-512.1999999826321
 31
0.0
  0
LINE
  5
125
330
5C
100
AcDbEntity
  8
0
  6
Continuous
 62
     7
100
AcDbLine
 10
-587.424998194029
 20
-511.4999999826318
 30
0.0
 11
-587.424998194029
 21
-512.1999999826321
 31
0.0
  0
LINE
  5
126
330
5C
100
AcDbEntity
  8
0
  6
Continuous
 62
     7
100
AcDbLine
 10
-587.424998194029
 20
-512.1999999826321
 30
0.0
 11
-587.424998194029
 21
-513.6151923614966
 31
0.0
  0
ENDBLK
  5
5E
330
5C
100
AcDbEntity
  8
0
100
AcDbBlockEnd
  0
BLOCK
  5
61
330
5F
100
AcDbEntity
  8
0
100
AcDbBlockBegin
  2
SA_Links1
 70
     0
 10
-632.425000561219
 20
-513.49999999999
 30
0.0
  3
SA_Links1
  1

  0
INSERT
  5
60
330
5F
100
AcDbEntity
  8
0
100
AcDbBlockReference
  2
0820426_UC_WMTBA_24x5-select__4
 10
-608.924998194029
 20
-515.4999999826318
 30
0.0
  0
ENDBLK
  5
62
330
5F
100
AcDbEntity
  8
0
100
AcDbBlockEnd
  0
BLOCK
  5
64
330
63
100
AcDbEntity
  8
0
100
AcDbBlockBegin
  2
0820426_UC_WMTBA_24x5-select__5
 70
     0
 10
-670.2750042050627
 20
-515.4999999826318
 30
0.0
  3
0820426_UC_WMTBA_24x5-select__5
  1

  0
LINE
  5
127
330
63
100
AcDbEntity
  8
0
  6
Continuous
 62
     7
100
AcDbLine
 10
-646.2750042050627
 20
-515.4999999826318
 30
0.0
 11
-670.2750042050627
 21
-515.4999999826318
 31
0.0
  0
LINE
  5
128
330
63
100
AcDbEntity
  8
0
  6
Continuous
 62
     7
100
AcDbLine
 10
-655.7750042050627
 20
-513.6151923614966
 30
0.0
 11
-660.7750042050627
 21
-513.6151923614966
 31
0.0
  0
LINE
  5
129
330
63
100
AcDbEntity
  8
0
  6
Continuous
 62
     7
100
AcDbLine
 10
-663.975004205063
 20
-513.6151923614966
 30
0.0
 11
-667.7750042050627
 21
-513.6151923614966
 31
0.0
  0
LINE
  5
12A
330
63
100
AcDbEntity
  8
0
  6
Continuous
 62
     7
100
AcDbLine
 10
-670.2750042050627
 20
-515.4999999826318
 30
0.0
 11
-670.2750042050627
 21
-511.4999999826318
 31
0.0
  0
LINE
  5
12B
330
63
100
AcDbEntity
  8
0
  6
Continuous
 62
     7
100
AcDbLine
 10
-667.7750042050627
 20
-512.1999999826317
 30
0.0
 11
-663.975004205063
 21
-512.1999999826317
 31
0.0
  0
LINE
  5
12C
330
63
100
AcDbEntity
  8
0
  6
Continuous
 62
     7
100
AcDbLine
 10
-667.7750042050627
 20
-513.6151923614966
 30
0.0
 11
-667.7750042050627
 21
-512.1999999826317
 31
0.0
  0
LINE
  5
12D
330
63
100
AcDbEntity
  8
0
  6
Continuous
 62
     7
100
AcDbLine
 10
-648.7750042050632
 20
-512.1999999826317
 30
0.0
 11
-652.5750042050629
 21
-512.1999999826317
 31
0.0
  0
LINE
  5
12E
330
63
100
AcDbEntity
  8
0
  6
Continuous
 62
     7
100
AcDbLine
 10
-652.5750042050629
 20
-513.6151923614966
 30
0.0
 11
-652.5750042050629
 21
-512.1999999826317
 31
0.0
  0
LINE
  5
12F
330
63
100
AcDbEntity
  8
0
  6
Continuous
 62
     7
100
AcDbLine
 10
-648.7750042050632
 20
-513.6151923614966
 30
0.0
 11
-648.7750042050632
 21
-512.1999999826317
 31
0.0
  0
LINE
  5
130
330
63
100
AcDbEntity
  8
0
  6
Continuous
 62
     7
100
AcDbLine
 10
-648.7750042050632
 20
-512.1999999826317
 30
0.0
 11
-648.7750042050632
 21
-511.4999999826318
 31
0.0
  0
LINE
  5
131
330
63
100
AcDbEntity
  8
0
  6
Continuous
 62
     7
100
AcDbLine
 10
-652.5750042050629
 20
-512.1999999826317
 30
0.0
 11
-652.5750042050629
 21
-511.4999999826318
 31
0.0
  0
LINE
  5
132
330
63
100
AcDbEntity
  8
0
  6
Continuous
 62
     7
100
AcDbLine
 10
-660.7750042050627
 20
-511.4999999826318
 30
0.0
 11
-663.975004205063
 21
-511.4999999826318
 31
0.0
  0
LINE
  5
133
330
63
100
AcDbEntity
  8
0
  6
Continuous
 62
     7
100
AcDbLine
 10
-655.7750042050627
 20
-511.4999999826318
 30
0.0
 11
-660.7750042050627
 21
-511.4999999826318
 31
0.0
  0
LINE
  5
134
330
63
100
AcDbEntity
  8
0
  6
Continuous
 62
     7
100
AcDbLine
 10
-655.7750042050627
 20
-512.1999999826317
 30
0.0
 11
-660.7750042050627
 21
-512.1999999826317
 31
0.0
  0
LINE
  5
135
330
63
100
AcDbEntity
  8
0
  6
Continuous
 62
     7
100
AcDbLine
 10
-663.975004205063
 20
-511.4999999826318
 30
0.0
 11
-667.7750042050627
 21
-511.4999999826318
 31
0.0
  0
LINE
  5
136
330
63
100
AcDbEntity
  8
0
  6
Continuous
 62
     7
100
AcDbLine
 10
-660.7750042050627
 20
-512.1999999826317
 30
0.0
 11
-660.7750042050627
 21
-511.4999999826318
 31
0.0
  0
LINE
  5
137
330
63
100
AcDbEntity
  8
0
  6
Continuous
 62
     7
100
AcDbLine
 10
-667.7750042050627
 20
-512.1999999826317
 30
0.0
 11
-667.7750042050627
 21
-511.4999999826318
 31
0.0
  0
LINE
  5
138
330
63
100
AcDbEntity
  8
0
  6
Continuous
 62
     7
100
AcDbLine
 10
-663.975004205063
 20
-512.1999999826317
 30
0.0
 11
-663.975004205063
 21
-511.4999999826318
 31
0.0
  0
LINE
  5
139
330
63
100
AcDbEntity
  8
0
  6
Continuous
 62
     7
100
AcDbLine
 10
-655.7750042050627
 20
-512.1999999826317
 30
0.0
 11
-655.7750042050627
 21
-511.4999999826318
 31
0.0
  0
LINE
  5
13A
330
63
100
AcDbEntity
  8
0
  6
Continuous
 62
     7
100
AcDbLine
 10
-655.7750042050627
 20
-513.6151923614966
 30
0.0
 11
-655.7750042050627
 21
-512.1999999826317
 31
0.0
  0
LINE
  5
13B
330
63
100
AcDbEntity
  8
0
  6
Continuous
 62
     7
100
AcDbLine
 10
-652.5750042050629
 20
-513.6151923614966
 30
0.0
 11
-648.7750042050632
 21
-513.6151923614966
 31
0.0
  0
LINE
  5
13C
330
63
100
AcDbEntity
  8
0
  6
Continuous
 62
     7
100
AcDbLine
 10
-646.2750042050627
 20
-515.4999999826318
 30
0.0
 11
-646.2750042050632
 21
-511.4999999826318
 31
0.0
  0
LINE
  5
13D
330
63
100
AcDbEntity
  8
0
  6
Continuous
 62
     7
100
AcDbLine
 10
-652.5750042050629
 20
-511.4999999826318
 30
0.0
 11
-655.7750042050627
 21
-511.4999999826318
 31
0.0
  0
LINE
  5
13E
330
63
100
AcDbEntity
  8
0
  6
Continuous
 62
     7
100
AcDbLine
 10
-667.7750042050627
 20
-511.4999999826318
 30
0.0
 11
-670.2750042050627
 21
-511.4999999826318
 31
0.0
  0
LINE
  5
13F
330
63
100
AcDbEntity
  8
0
  6
Continuous
 62
     7
100
AcDbLine
 10
-648.7750042050632
 20
-511.4999999826318
 30
0.0
 11
-652.5750042050629
 21
-511.4999999826318
 31
0.0
  0
LINE
  5
140
330
63
100
AcDbEntity
  8
0
  6
Continuous
 62
     7
100
AcDbLine
 10
-646.2750042050632
 20
-511.4999999826318
 30
0.0
 11
-648.7750042050632
 21
-511.4999999826318
 31
0.0
  0
LINE
  5
141
330
63
100
AcDbEntity
  8
0
  6
Continuous
 62
     7
100
AcDbLine
 10
-663.975004205063
 20
-513.6151923614966
 30
0.0
 11
-663.975004205063
 21
-512.1999999826317
 31
0.0
  0
LINE
  5
142
330
63
100
AcDbEntity
  8
0
  6
Continuous
 62
     7
100
AcDbLine
 10
-660.7750042050627
 20
-513.6151923614966
 30
0.0
 11
-660.7750042050627
 21
-512.1999999826317
 31
0.0
  0
ENDBLK
  5
65
330
63
100
AcDbEntity
  8
0
100
AcDbBlockEnd
  0
BLOCK
  5
68
330
66
100
AcDbEntity
  8
0
100
AcDbBlockBegin
  2
SA_Rechts1
 70
     0
 10
-622.7750018378749
 20
-513.49999999999
 30
0.0
  3
SA_Rechts1
  1

  0
INSERT
  5
67
330
66
100
AcDbEntity
  8
0
100
AcDbBlockReference
  2
0820426_UC_WMTBA_24x5-select__5
 10
-670.2750042050627
 20
-515.4999999826318
 30
0.0
  0
ENDBLK
  5
69
330
66
100
AcDbEntity
  8
0
100
AcDbBlockEnd
  0
BLOCK
  5
6B
330
6A
100
AcDbEntity
  8
0
100
AcDbBlockBegin
  2
0820426_UC_WMTBA_24x5-select__6
 70
     0
 10
-635.6344011024179
 20
-515.4999999826318
 30
0.0
  3
0820426_UC_WMTBA_24x5-select__6
  1

  0
LINE
  5
143
330
6A
100
AcDbEntity
  8
0
  6
Continuous
 62
     7
100
AcDbLine
 10
-627.4982051064156
 20
-512.5999999826317
 30
0.0
 11
-633.1517949449016
 21
-512.5999999826317
 31
0.0
  0
LINE
  5
144
330
6A
100
AcDbEntity
  8
0
  6
Continuous
 62
     7
100
AcDbLine
 10
-633.3250000256588
 20
-511.4999999826318
 30
0.0
 11
-627.3250000256588
 21
-511.4999999826318
 31
0.0
  0
LINE
  5
145
330
6A
100
AcDbEntity
  8
0
  6
Continuous
 62
     7
100
AcDbLine
 10
-635.6344011024179
 20
-515.4999999826318
 30
0.0
 11
-633.3250000256588
 21
-511.4999999826318
 31
0.0
  0
LINE
  5
146
330
6A
100
AcDbEntity
  8
0
  6
Continuous
 62
     7
100
AcDbLine
 10
-634.8261107255524
 20
-515.4999999826318
 30
0.0
 11
-635.6344011024179
 21
-515.4999999826318
 31
0.0
  0
LINE
  5
147
330
6A
100
AcDbEntity
  8
0
  6
Continuous
 62
     7
100
AcDbLine
 10
-633.1517949449016
 20
-512.5999999826317
 30
0.0
 11
-634.8261107255524
 21
-515.4999999826318
 31
0.0
  0
LINE
  5
148
330
6A
100
AcDbEntity
  8
0
  6
Continuous
 62
     7
100
AcDbLine
 10
-627.4982051064156
 20
-512.5999999826317
 30
0.0
 11
-625.8238893257661
 21
-515.4999999826314
 31
0.0
  0
LINE
  5
149
330
6A
100
AcDbEntity
  8
0
  6
Continuous
 62
     7
100
AcDbLine
 10
-625.0155989489007
 20
-515.4999999826314
 30
0.0
 11
-627.3250000256588
 21
-511.4999999826318
 31
0.0
  0
LINE
  5
14A
330
6A
100
AcDbEntity
  8
0
  6
Continuous
 62
     7
100
AcDbLine
 10
-625.0155989489007
 20
-515.4999999826314
 30
0.0
 11
-625.8238893257661
 21
-515.4999999826314
 31
0.0
  0
ENDBLK
  5
6C
330
6A
100
AcDbEntity
  8
0
100
AcDbBlockEnd
  0
BLOCK
  5
6F
330
6D
100
AcDbEntity
  8
0
100
AcDbBlockBegin
  2
Vordans1
 70
     0
 10
-606.8500007899037
 20
-513.49999999999
 30
0.0
  3
Vordans1
  1

  0
INSERT
  5
6E
330
6D
100
AcDbEntity
  8
0
100
AcDbBlockReference
  2
0820426_UC_WMTBA_24x5-select__6
 10
-635.6344011024179
 20
-515.4999999826318
 30
0.0
  0
DIMENSION
  5
157
330
6D
100
AcDbEntity
  8
1
100
AcDbDimension
  2
*D18
 10
-620.0155989489007
 20
-511.4999999826318
 30
0.0
 11
-621.6405989489007
 21
-513.43810422157
 31
0.0
 70
    32
  1
<>
 71
     5
 42
-1.0
 53
90.0
  3
ME10_DIM_12
100
AcDbAlignedDimension
 13
-625.0155989489007
 23
-515.4999999826314
 33
0.0
 14
-627.3250000256588
 24
-511.4999999826318
 34
0.0
 50
90.0
100
AcDbRotatedDimension
  0
ENDBLK
  5
70
330
6D
100
AcDbEntity
  8
0
100
AcDbBlockEnd
  0
BLOCK
  5
72
330
71
100
AcDbEntity
  8
0
100
AcDbBlockBegin
  2
_rahmen
 70
     0
 10
-1088.58603853935
 20
-1182.24202172125
 30
0.0
  3
_rahmen
  1

  0
LINE
  5
158
330
71
100
AcDbEntity
  8
1
  6
Continuous
 62
     6
100
AcDbLine
 10
-1218.1308430661
 20
-1151.74202172125
 30
0.0
 11
-1088.586038539348
 21
-1151.74202172125
 31
0.0
  0
LINE
  5
159
330
71
100
AcDbEntity
  8
1
  6
Continuous
 62
     7
100
AcDbLine
 10
-1199.9308430661
 20
-1172.99202172125
 30
0.0
 11
-1181.7308430661
 21
-1172.99202172125
 31
0.0
  0
LINE
  5
15A
330
71
100
AcDbEntity
  8
1
  6
Continuous
 62
     6
100
AcDbLine
 10
-1199.9308430661
 20
-1177.24202172125
 30
0.0
 11
-1218.1308430661
 21
-1177.24202172125
 31
0.0
  0
LINE
  5
15B
330
71
100
AcDbEntity
  8
1
  6
Continuous
 62
     7
100
AcDbLine
 10
-1199.9308430661
 20
-1172.99202172125
 30
0.0
 11
-1199.9308430661
 21
-1177.24202172125
 31
0.0
  0
LINE
  5
15C
330
71
100
AcDbEntity
  8
1
  6
Continuous
 62
     7
100
AcDbLine
 10
-1181.7308430661
 20
-1172.99202172125
 30
0.0
 11
-1181.7308430661
 21
-1177.24202172125
 31
0.0
  0
LINE
  5
15D
330
71
100
AcDbEntity
  8
1
  6
Continuous
 62
     7
100
AcDbLine
 10
-1218.1308430661
 20
-1172.99202172125
 30
0.0
 11
-1218.1308430661
 21
-1177.24202172125
 31
0.0
  0
LINE
  5
15E
330
71
100
AcDbEntity
  8
1
  6
Continuous
 62
     7
100
AcDbLine
 10
-1218.1308430661
 20
-1172.99202172125
 30
0.0
 11
-1199.9308430661
 21
-1172.99202172125
 31
0.0
  0
LINE
  5
15F
330
71
100
AcDbEntity
  8
1
  6
Continuous
 62
     2
100
AcDbLine
 10
-1208.894188179538
 20
-1153.61702172125
 30
0.0
 11
-1208.894188179538
 21
-1158.61702172125
 31
0.0
  0
LINE
  5
160
330
71
100
AcDbEntity
  8
1
  6
Continuous
 62
     2
100
AcDbLine
 10
-1208.894188179538
 20
-1158.61702172125
 30
0.0
 11
-1213.894188179538
 21
-1157.36702172125
 31
0.0
  0
LINE
  5
161
330
71
100
AcDbEntity
  8
1
  6
Continuous
 62
     2
100
AcDbLine
 10
-1213.894188179538
 20
-1157.36702172125
 30
0.0
 11
-1213.894188179538
 21
-1154.86702172125
 31
0.0
  0
LINE
  5
162
330
71
100
AcDbEntity
  8
1
  6
Continuous
 62
     2
100
AcDbLine
 10
-1213.894188179538
 20
-1154.86702172125
 30
0.0
 11
-1208.894188179538
 21
-1153.61702172125
 31
0.0
  0
LINE
  5
163
330
71
100
AcDbEntity
  8
1
  6
Continuous
 62
     6
100
AcDbLine
 10
-1340.586038539348
 20
-1177.24202172125
 30
0.0
 11
-1375.586038539348
 21
-1177.24202172125
 31
0.0
  0
LINE
  5
164
330
71
100
AcDbEntity
  8
1
  6
Continuous
 62
     6
100
AcDbLine
 10
-1088.586038539348
 20
-1160.24202172125
 30
0.0
 11
-1088.586038539349
 21
-1168.74202172125
 31
0.0
  0
LINE
  5
165
330
71
100
AcDbEntity
  8
1
  6
Continuous
 62
     6
100
AcDbLine
 10
-1181.7308430661
 20
-1177.24202172125
 30
0.0
 11
-1182.08603853935
 21
-1177.24202172125
 31
0.0
  0
LINE
  5
166
330
71
100
AcDbEntity
  8
1
  6
Continuous
 62
     6
100
AcDbLine
 10
-1334.38603853935
 20
-1177.24202172125
 30
0.0
 11
-1340.586038539348
 21
-1177.24202172125
 31
0.0
  0
LINE
  5
167
330
71
100
AcDbEntity
  8
1
  6
Continuous
 62
     7
100
AcDbLine
 10
-1181.7308430661
 20
-1160.24202172125
 30
0.0
 11
-1181.7308430661
 21
-1172.99202172125
 31
0.0
  0
LINE
  5
168
330
71
100
AcDbEntity
  8
1
  6
Continuous
 62
     7
100
AcDbLine
 10
-1218.1308430661
 20
-1160.24202172125
 30
0.0
 11
-1218.1308430661
 21
-1172.99202172125
 31
0.0
  0
LINE
  5
169
330
71
100
AcDbEntity
  8
1
  6
Continuous
 62
     6
100
AcDbLine
 10
-1232.08603853935
 20
-1177.24202172125
 30
0.0
 11
-1282.08603853935
 21
-1177.24202172125
 31
0.0
  0
LINE
  5
16A
330
71
100
AcDbEntity
  8
1
  6
Continuous
 62
     6
100
AcDbLine
 10
-1334.38603853935
 20
-1177.24202172125
 30
0.0
 11
-1332.08603853935
 21
-1177.24202172125
 31
0.0
  0
LINE
  5
16B
330
71
100
AcDbEntity
  8
1
  6
Continuous
 62
     6
100
AcDbLine
 10
-1181.7308430661
 20
-1177.24202172125
 30
0.0
 11
-1132.08603853935
 21
-1177.24202172125
 31
0.0
  0
LINE
  5
16C
330
71
100
AcDbEntity
  8
1
  6
Continuous
 62
     6
100
AcDbLine
 10
-1088.58603853935
 20
-1177.24202172125
 30
0.0
 11
-1088.586038539349
 21
-1168.74202172125
 31
0.0
  0
LINE
  5
16D
330
71
100
AcDbEntity
  8
1
  6
Continuous
 62
     2
100
AcDbLine
 10
-1380.586038539349
 20
-1177.24202172125
 30
0.0
 11
-1380.586038539349
 21
-1182.24202172125
 31
0.0
  0
LINE
  5
16E
330
71
100
AcDbEntity
  8
1
  6
Continuous
 62
     2
100
AcDbLine
 10
-1375.586038539348
 20
-1177.24202172125
 30
0.0
 11
-1380.586038539349
 21
-1177.24202172125
 31
0.0
  0
LINE
  5
16F
330
71
100
AcDbEntity
  8
1
  6
Continuous
 62
     2
100
AcDbLine
 10
-1375.586038539348
 20
-1182.24202172125
 30
0.0
 11
-1332.08603853935
 21
-1182.24202172125
 31
0.0
  0
LINE
  5
170
330
71
100
AcDbEntity
  8
1
  6
Continuous
 62
     2
100
AcDbLine
 10
-1375.586038539348
 20
-1177.24202172125
 30
0.0
 11
-1375.586038539348
 21
-1182.24202172125
 31
0.0
  0
LINE
  5
171
330
71
100
AcDbEntity
  8
1
  6
Continuous
 62
     2
100
AcDbLine
 10
-1132.08603853935
 20
-1182.24202172125
 30
0.0
 11
-1182.08603853935
 21
-1182.24202172125
 31
0.0
  0
LINE
  5
172
330
71
100
AcDbEntity
  8
1
  6
Continuous
 62
     2
100
AcDbLine
 10
-1132.08603853935
 20
-1182.24202172125
 30
0.0
 11
-1132.08603853935
 21
-1177.24202172125
 31
0.0
  0
LINE
  5
173
330
71
100
AcDbEntity
  8
1
  6
Continuous
 62
     2
100
AcDbLine
 10
-1182.08603853935
 20
-1182.24202172125
 30
0.0
 11
-1182.08603853935
 21
-1177.24202172125
 31
0.0
  0
LINE
  5
174
330
71
100
AcDbEntity
  8
1
  6
Continuous
 62
     2
100
AcDbLine
 10
-1232.08603853935
 20
-1182.24202172125
 30
0.0
 11
-1182.08603853935
 21
-1182.24202172125
 31
0.0
  0
LINE
  5
175
330
71
100
AcDbEntity
  8
1
  6
Continuous
 62
     2
100
AcDbLine
 10
-1232.08603853935
 20
-1182.24202172125
 30
0.0
 11
-1232.08603853935
 21
-1177.24202172125
 31
0.0
  0
LINE
  5
176
330
71
100
AcDbEntity
  8
1
  6
Continuous
 62
     2
100
AcDbLine
 10
-1282.08603853935
 20
-1182.24202172125
 30
0.0
 11
-1232.08603853935
 21
-1182.24202172125
 31
0.0
  0
LINE
  5
177
330
71
100
AcDbEntity
  8
1
  6
Continuous
 62
     2
100
AcDbLine
 10
-1282.08603853935
 20
-1182.24202172125
 30
0.0
 11
-1282.08603853935
 21
-1177.24202172125
 31
0.0
  0
LINE
  5
178
330
71
100
AcDbEntity
  8
1
  6
Continuous
 62
     2
100
AcDbLine
 10
-1332.08603853935
 20
-1182.24202172125
 30
0.0
 11
-1282.08603853935
 21
-1182.24202172125
 31
0.0
  0
LINE
  5
179
330
71
100
AcDbEntity
  8
1
  6
Continuous
 62
     2
100
AcDbLine
 10
-1332.08603853935
 20
-1182.24202172125
 30
0.0
 11
-1332.08603853935
 21
-1177.24202172125
 31
0.0
  0
LINE
  5
17A
330
71
100
AcDbEntity
  8
1
  6
Continuous
 62
     6
100
AcDbLine
 10
-1375.586038539348
 20
-1127.24202172125
 30
0.0
 11
-1375.586038539348
 21
-1177.24202172125
 31
0.0
  0
LINE
  5
17B
330
71
100
AcDbEntity
  8
1
  6
Continuous
 62
     2
100
AcDbLine
 10
-1380.586038539349
 20
-1127.24202172125
 30
0.0
 11
-1380.586038539349
 21
-1177.24202172125
 31
0.0
  0
LINE
  5
17C
330
71
100
AcDbEntity
  8
1
  6
Continuous
 62
     2
100
AcDbLine
 10
-1380.586038539349
 20
-1127.24202172125
 30
0.0
 11
-1375.586038539348
 21
-1127.24202172125
 31
0.0
  0
LINE
  5
17D
330
71
100
AcDbEntity
  8
1
  6
Continuous
 62
     6
100
AcDbLine
 10
-1375.586038539349
 20
-1077.24202172125
 30
0.0
 11
-1375.586038539348
 21
-1127.24202172125
 31
0.0
  0
LINE
  5
17E
330
71
100
AcDbEntity
  8
1
  6
Continuous
 62
     2
100
AcDbLine
 10
-1380.586038539349
 20
-1077.24202172125
 30
0.0
 11
-1380.586038539349
 21
-1127.24202172125
 31
0.0
  0
LINE
  5
17F
330
71
100
AcDbEntity
  8
1
  6
Continuous
 62
     2
100
AcDbLine
 10
-1380.586038539349
 20
-1077.24202172125
 30
0.0
 11
-1375.586038539349
 21
-1077.24202172125
 31
0.0
  0
LINE
  5
180
330
71
100
AcDbEntity
  8
1
  6
Continuous
 62
     6
100
AcDbLine
 10
-1375.586038539349
 20
-1027.24202172125
 30
0.0
 11
-1375.586038539349
 21
-1077.24202172125
 31
0.0
  0
LINE
  5
181
330
71
100
AcDbEntity
  8
1
  6
Continuous
 62
     2
100
AcDbLine
 10
-1380.586038539349
 20
-1027.24202172125
 30
0.0
 11
-1380.586038539349
 21
-1077.24202172125
 31
0.0
  0
LINE
  5
182
330
71
100
AcDbEntity
  8
1
  6
Continuous
 62
     2
100
AcDbLine
 10
-1380.586038539349
 20
-1027.24202172125
 30
0.0
 11
-1375.586038539349
 21
-1027.24202172125
 31
0.0
  0
LINE
  5
183
330
71
100
AcDbEntity
  8
1
  6
Continuous
 62
     6
100
AcDbLine
 10
-1375.586038539349
 20
-992.2420217212498
 30
0.0
 11
-1375.586038539349
 21
-1027.24202172125
 31
0.0
  0
LINE
  5
184
330
71
100
AcDbEntity
  8
1
  6
Continuous
 62
     2
100
AcDbLine
 10
-1380.586038539349
 20
-972.2420217212498
 30
0.0
 11
-1380.586038539349
 21
-1027.24202172125
 31
0.0
  0
LINE
  5
185
330
71
100
AcDbEntity
  8
1
  6
Continuous
 62
     2
100
AcDbLine
 10
-1380.586038539349
 20
-1182.24202172125
 30
0.0
 11
-1375.586038539348
 21
-1182.24202172125
 31
0.0
  0
LINE
  5
186
330
71
100
AcDbEntity
  8
1
  6
Continuous
 62
     2
100
AcDbLine
 10
-1232.08603853935
 20
-972.2420217212498
 30
0.0
 11
-1232.08603853935
 21
-981.4507135659511
 31
0.0
  0
LINE
  5
187
330
71
100
AcDbEntity
  8
1
  6
Continuous
 62
     2
100
AcDbLine
 10
-1232.08603853935
 20
-972.2420217212498
 30
0.0
 11
-1380.586038539349
 21
-972.2420217212498
 31
0.0
  0
LINE
  5
188
330
71
100
AcDbEntity
  8
1
  6
Continuous
 62
     2
100
AcDbLine
 10
-1083.586038539351
 20
-1177.24202172125
 30
0.0
 11
-1083.586038539351
 21
-1127.24202172125
 31
0.0
  0
LINE
  5
189
330
71
100
AcDbEntity
  8
1
  6
Continuous
 62
     2
100
AcDbLine
 10
-1083.586038539351
 20
-1027.24202172125
 30
0.0
 11
-1083.586038539351
 21
-972.2420217212498
 31
0.0
  0
LINE
  5
18A
330
71
100
AcDbEntity
  8
1
  6
Continuous
 62
     6
100
AcDbLine
 10
-1088.586038539351
 20
-1027.24202172125
 30
0.0
 11
-1088.586038539351
 21
-992.2420217212498
 31
0.0
  0
LINE
  5
18B
330
71
100
AcDbEntity
  8
1
  6
Continuous
 62
     2
100
AcDbLine
 10
-1088.586038539351
 20
-1027.24202172125
 30
0.0
 11
-1083.586038539351
 21
-1027.24202172125
 31
0.0
  0
LINE
  5
18C
330
71
100
AcDbEntity
  8
1
  6
Continuous
 62
     2
100
AcDbLine
 10
-1083.586038539351
 20
-1077.24202172125
 30
0.0
 11
-1083.586038539351
 21
-1027.24202172125
 31
0.0
  0
LINE
  5
18D
330
71
100
AcDbEntity
  8
1
  6
Continuous
 62
     6
100
AcDbLine
 10
-1088.58603853935
 20
-1077.24202172125
 30
0.0
 11
-1088.586038539351
 21
-1027.24202172125
 31
0.0
  0
LINE
  5
18E
330
71
100
AcDbEntity
  8
1
  6
Continuous
 62
     2
100
AcDbLine
 10
-1088.58603853935
 20
-1077.24202172125
 30
0.0
 11
-1083.586038539351
 21
-1077.24202172125
 31
0.0
  0
LINE
  5
18F
330
71
100
AcDbEntity
  8
1
  6
Continuous
 62
     2
100
AcDbLine
 10
-1083.586038539351
 20
-1127.24202172125
 30
0.0
 11
-1083.586038539351
 21
-1077.24202172125
 31
0.0
  0
LINE
  5
190
330
71
100
AcDbEntity
  8
1
  6
Continuous
 62
     6
100
AcDbLine
 10
-1088.586038539349
 20
-1127.24202172125
 30
0.0
 11
-1088.58603853935
 21
-1077.24202172125
 31
0.0
  0
LINE
  5
191
330
71
100
AcDbEntity
  8
1
  6
Continuous
 62
     2
100
AcDbLine
 10
-1088.586038539349
 20
-1127.24202172125
 30
0.0
 11
-1083.586038539351
 21
-1127.24202172125
 31
0.0
  0
LINE
  5
192
330
71
100
AcDbEntity
  8
1
  6
Continuous
 62
     6
100
AcDbLine
 10
-1088.586038539351
 20
-992.2420217212498
 30
0.0
 11
-1375.586038539349
 21
-992.2420217212498
 31
0.0
  0
LINE
  5
193
330
71
100
AcDbEntity
  8
1
  6
Continuous
 62
     2
100
AcDbLine
 10
-1083.586038539351
 20
-972.2420217212498
 30
0.0
 11
-1232.08603853935
 21
-972.2420217212498
 31
0.0
  0
LINE
  5
194
330
71
100
AcDbEntity
  8
1
  6
Continuous
 62
     6
100
AcDbLine
 10
-1088.586038539348
 20
-1160.24202172125
 30
0.0
 11
-1088.586038539349
 21
-1127.24202172125
 31
0.0
  0
LINE
  5
195
330
71
100
AcDbEntity
  8
1
  6
Continuous
 62
     2
100
AcDbLine
 10
-1088.58603853935
 20
-1182.24202172125
 30
0.0
 11
-1132.08603853935
 21
-1182.24202172125
 31
0.0
  0
LINE
  5
196
330
71
100
AcDbEntity
  8
1
  6
Continuous
 62
     2
100
AcDbLine
 10
-1083.586038539351
 20
-1182.24202172125
 30
0.0
 11
-1088.58603853935
 21
-1182.24202172125
 31
0.0
  0
LINE
  5
197
330
71
100
AcDbEntity
  8
1
  6
Continuous
 62
     2
100
AcDbLine
 10
-1083.586038539351
 20
-1182.24202172125
 30
0.0
 11
-1083.586038539351
 21
-1177.24202172125
 31
0.0
  0
LINE
  5
198
330
71
100
AcDbEntity
  8
1
  6
Continuous
 62
     6
100
AcDbLine
 10
-1218.1308430661
 20
-1160.24202172125
 30
0.0
 11
-1181.7308430661
 21
-1160.24202172125
 31
0.0
  0
LINE
  5
199
330
71
100
AcDbEntity
  8
1
  6
Continuous
 62
     2
100
AcDbLine
 10
-1088.58603853935
 20
-1177.24202172125
 30
0.0
 11
-1088.58603853935
 21
-1182.24202172125
 31
0.0
  0
LINE
  5
19A
330
71
100
AcDbEntity
  8
1
  6
Continuous
 62
     2
100
AcDbLine
 10
-1088.58603853935
 20
-1177.24202172125
 30
0.0
 11
-1083.586038539351
 21
-1177.24202172125
 31
0.0
  0
LINE
  5
19B
330
71
100
AcDbEntity
  8
1
  6
Continuous
 62
     6
100
AcDbLine
 10
-1182.08603853935
 20
-1177.24202172125
 30
0.0
 11
-1199.9308430661
 21
-1177.24202172125
 31
0.0
  0
LINE
  5
19C
330
71
100
AcDbEntity
  8
1
  6
Continuous
 62
     6
100
AcDbLine
 10
-1132.08603853935
 20
-1177.24202172125
 30
0.0
 11
-1088.58603853935
 21
-1177.24202172125
 31
0.0
  0
LINE
  5
19D
330
71
100
AcDbEntity
  8
1
  6
Continuous
 62
     6
100
AcDbLine
 10
-1282.08603853935
 20
-1177.24202172125
 30
0.0
 11
-1287.1308430661
 21
-1177.24202172125
 31
0.0
  0
LINE
  5
19E
330
71
100
AcDbEntity
  8
1
  6
Continuous
 62
     6
100
AcDbLine
 10
-1232.08603853935
 20
-1177.24202172125
 30
0.0
 11
-1218.1308430661
 21
-1177.24202172125
 31
0.0
  0
LINE
  5
19F
102
{ACAD_REACTORS
330
289
330
28A
102
}
330
71
100
AcDbEntity
  8
0
  6
Continuous
 62
     2
100
AcDbLine
 10
-1210.616217123953
 20
-1165.169506965037
 30
0.0
 11
-1210.616217123953
 21
-1164.563971676531
 31
0.0
  0
LINE
  5
1A0
102
{ACAD_REACTORS
330
289
330
28A
102
}
330
71
100
AcDbEntity
  8
0
  6
Continuous
 62
     2
100
AcDbLine
 10
-1210.616217123953
 20
-1167.969641571669
 30
0.0
 11
-1210.616217123953
 21
-1167.387790164974
 31
0.0
  0
LINE
  5
1A1
102
{ACAD_REACTORS
330
28B
330
28C
102
}
330
71
100
AcDbEntity
  8
0
  6
Continuous
 62
     2
100
AcDbLine
 10
-1187.986730688474
 20
-1167.679977503546
 30
0.0
 11
-1187.986730688474
 21
-1169.948521721233
 31
0.0
  0
LINE
  5
1A2
102
{ACAD_REACTORS
330
28B
330
28C
102
}
330
71
100
AcDbEntity
  8
0
  6
Continuous
 62
     2
100
AcDbLine
 10
-1189.367784467462
 20
-1166.894712197423
 30
0.0
 11
-1185.982838948833
 21
-1166.894712197422
 31
0.0
  0
LINE
  5
1A3
102
{ACAD_REACTORS
330
28B
330
28C
102
}
330
71
100
AcDbEntity
  8
0
  6
Continuous
 62
     2
100
AcDbLine
 10
-1185.982838948833
 20
-1167.679977503546
 30
0.0
 11
-1185.982838948833
 21
-1166.894712197422
 31
0.0
  0
LINE
  5
1A4
102
{ACAD_REACTORS
330
28B
330
28C
102
}
330
71
100
AcDbEntity
  8
0
  6
Continuous
 62
     2
100
AcDbLine
 10
-1186.793937986306
 20
-1167.679977503546
 30
0.0
 11
-1185.982838948833
 21
-1167.679977503546
 31
0.0
  0
LINE
  5
1A5
102
{ACAD_REACTORS
330
28B
330
28C
102
}
330
71
100
AcDbEntity
  8
0
  6
Continuous
 62
     2
100
AcDbLine
 10
-1186.793937986306
 20
-1169.948521721233
 30
0.0
 11
-1186.793937986306
 21
-1167.679977503546
 31
0.0
  0
LINE
  5
1A6
102
{ACAD_REACTORS
330
28B
330
28C
102
}
330
71
100
AcDbEntity
  8
0
  6
Continuous
 62
     2
100
AcDbLine
 10
-1187.986730688474
 20
-1169.948521721233
 30
0.0
 11
-1186.793937986306
 21
-1169.948521721233
 31
0.0
  0
LINE
  5
1A7
102
{ACAD_REACTORS
330
281
330
282
102
}
330
71
100
AcDbEntity
  8
0
  6
Continuous
 62
     2
100
AcDbLine
 10
-1188.683321626539
 20
-1163.535521721248
 30
0.0
 11
-1190.086045844288
 21
-1163.535521721248
 31
0.0
  0
LINE
  5
1A8
102
{ACAD_REACTORS
330
281
330
282
102
}
330
71
100
AcDbEntity
  8
0
  6
Continuous
 62
     2
100
AcDbLine
 10
-1188.683321626539
 20
-1163.535521721248
 30
0.0
 11
-1188.082154104647
 21
-1164.215345042803
 31
0.0
  0
LINE
  5
1A9
102
{ACAD_REACTORS
330
281
330
282
102
}
330
71
100
AcDbEntity
  8
0
  6
Continuous
 62
     2
100
AcDbLine
 10
-1188.082154104647
 20
-1164.215345042803
 30
0.0
 11
-1187.480986582754
 21
-1163.535521721248
 31
0.0
  0
LINE
  5
1AA
102
{ACAD_REACTORS
330
281
330
282
102
}
330
71
100
AcDbEntity
  8
0
  6
Continuous
 62
     2
100
AcDbLine
 10
-1187.380791995773
 20
-1165.008472251284
 30
0.0
 11
-1186.078262365007
 21
-1163.535521721248
 31
0.0
  0
LINE
  5
1AB
102
{ACAD_REACTORS
330
281
330
282
102
}
330
71
100
AcDbEntity
  8
0
  6
Continuous
 62
     2
100
AcDbLine
 10
-1187.380791995773
 20
-1165.008472251284
 30
0.0
 11
-1185.982838948833
 21
-1166.589331245059
 31
0.0
  0
LINE
  5
1AC
102
{ACAD_REACTORS
330
281
330
282
102
}
330
71
100
AcDbEntity
  8
0
  6
Continuous
 62
     2
100
AcDbLine
 10
-1187.385563166581
 20
-1166.589331245059
 30
0.0
 11
-1185.982838948833
 21
-1166.589331245059
 31
0.0
  0
LINE
  5
1AD
102
{ACAD_REACTORS
330
281
330
282
102
}
330
71
100
AcDbEntity
  8
0
  6
Continuous
 62
     2
100
AcDbLine
 10
-1188.082154104647
 20
-1165.801599459765
 30
0.0
 11
-1187.385563166581
 21
-1166.589331245059
 31
0.0
  0
LINE
  5
1AE
102
{ACAD_REACTORS
330
27F
330
280
102
}
330
71
100
AcDbEntity
  8
0
  6
Continuous
 62
     2
100
AcDbLine
 10
-1191.54125294093
 20
-1163.535521721248
 30
0.0
 11
-1190.300748530678
 21
-1163.535521721248
 31
0.0
  0
LINE
  5
1AF
102
{ACAD_REACTORS
330
27F
330
280
102
}
330
71
100
AcDbEntity
  8
0
  6
Continuous
 62
     2
100
AcDbLine
 10
-1190.300748530678
 20
-1163.535521721248
 30
0.0
 11
-1190.300748530678
 21
-1166.589331245059
 31
0.0
  0
LINE
  5
1B0
102
{ACAD_REACTORS
330
27F
330
280
102
}
330
71
100
AcDbEntity
  8
0
  6
Continuous
 62
     2
100
AcDbLine
 10
-1191.54125294093
 20
-1166.589331245059
 30
0.0
 11
-1191.54125294093
 21
-1163.535521721248
 31
0.0
  0
LINE
  5
1B1
102
{ACAD_REACTORS
330
27D
330
27E
102
}
330
71
100
AcDbEntity
  8
0
  6
Continuous
 62
     2
100
AcDbLine
 10
-1193.009563023468
 20
-1168.726997911709
 30
0.0
 11
-1192.709397786276
 21
-1167.959182945722
 31
0.0
  0
LINE
  5
1B2
102
{ACAD_REACTORS
330
27D
330
27E
102
}
330
71
100
AcDbEntity
  8
0
  6
Continuous
 62
     2
100
AcDbLine
 10
-1193.487098628089
 20
-1169.948521721233
 30
0.0
 11
-1193.275618574613
 21
-1169.407561177015
 31
0.0
  0
LINE
  5
1B3
102
{ACAD_REACTORS
330
27D
330
27E
102
}
330
71
100
AcDbEntity
  8
0
  6
Continuous
 62
     2
100
AcDbLine
 10
-1193.329649991403
 20
-1166.894712197422
 30
0.0
 11
-1194.727603038342
 21
-1169.948521721233
 31
0.0
  0
LINE
  5
1B4
102
{ACAD_REACTORS
330
27D
330
27E
102
}
330
71
100
AcDbEntity
  8
0
  6
Continuous
 62
     2
100
AcDbLine
 10
-1190.69119253421
 20
-1169.948521721233
 30
0.0
 11
-1191.931696944463
 21
-1169.948521721233
 31
0.0
  0
LINE
  5
1B5
102
{ACAD_REACTORS
330
27D
330
27E
102
}
330
71
100
AcDbEntity
  8
0
  6
Continuous
 62
     2
100
AcDbLine
 10
-1193.275618574613
 20
-1169.407561177015
 30
0.0
 11
-1192.143176997939
 21
-1169.407561177015
 31
0.0
  0
LINE
  5
1B6
102
{ACAD_REACTORS
330
27B
330
27C
102
}
330
71
100
AcDbEntity
  8
0
  6
Continuous
 62
     2
100
AcDbLine
 10
-1196.885115177524
 20
-1167.679977503546
 30
0.0
 11
-1196.074016140049
 21
-1167.679977503546
 31
0.0
  0
LINE
  5
1B7
102
{ACAD_REACTORS
330
27B
330
27C
102
}
330
71
100
AcDbEntity
  8
0
  6
Continuous
 62
     2
100
AcDbLine
 10
-1194.070124400411
 20
-1166.894712197422
 30
0.0
 11
-1196.885115177524
 21
-1166.894712197422
 31
0.0
  0
LINE
  5
1B8
102
{ACAD_REACTORS
330
27B
330
27C
102
}
330
71
100
AcDbEntity
  8
0
  6
Continuous
 62
     2
100
AcDbLine
 10
-1194.070124400411
 20
-1167.679977503546
 30
0.0
 11
-1194.070124400411
 21
-1166.894712197422
 31
0.0
  0
LINE
  5
1B9
102
{ACAD_REACTORS
330
27B
330
27C
102
}
330
71
100
AcDbEntity
  8
0
  6
Continuous
 62
     2
100
AcDbLine
 10
-1194.881223437883
 20
-1167.679977503546
 30
0.0
 11
-1194.070124400411
 21
-1167.679977503546
 31
0.0
  0
LINE
  5
1BA
102
{ACAD_REACTORS
330
27B
330
27C
102
}
330
71
100
AcDbEntity
  8
0
  6
Continuous
 62
     2
100
AcDbLine
 10
-1194.881223437883
 20
-1169.948521721233
 30
0.0
 11
-1194.881223437883
 21
-1167.679977503546
 31
0.0
  0
LINE
  5
1BB
102
{ACAD_REACTORS
330
279
330
27A
102
}
330
71
100
AcDbEntity
  8
0
  6
Continuous
 62
     2
100
AcDbLine
 10
-1194.213108593785
 20
-1166.589331245059
 30
0.0
 11
-1194.213108593785
 21
-1165.280555734854
 31
0.0
  0
LINE
  5
1BC
102
{ACAD_REACTORS
330
279
330
27A
102
}
330
71
100
AcDbEntity
  8
0
  6
Continuous
 62
     2
100
AcDbLine
 10
-1195.405901295951
 20
-1163.535521721248
 30
0.0
 11
-1195.405901295951
 21
-1166.589331245059
 31
0.0
  0
LINE
  5
1BD
102
{ACAD_REACTORS
330
279
330
27A
102
}
330
71
100
AcDbEntity
  8
0
  6
Continuous
 62
     2
100
AcDbLine
 10
-1194.213108593785
 20
-1163.535521721248
 30
0.0
 11
-1195.405901295951
 21
-1163.535521721248
 31
0.0
  0
LINE
  5
1BE
102
{ACAD_REACTORS
330
279
330
27A
102
}
330
71
100
AcDbEntity
  8
0
  6
Continuous
 62
     2
100
AcDbLine
 10
-1192.972604183531
 20
-1163.535521721248
 30
0.0
 11
-1192.972604183531
 21
-1164.844297231453
 31
0.0
  0
LINE
  5
1BF
102
{ACAD_REACTORS
330
277
330
278
102
}
330
71
100
AcDbEntity
  8
0
  6
Continuous
 62
     2
100
AcDbLine
 10
-1200.654340116371
 20
-1166.894712197422
 30
0.0
 11
-1200.654340116371
 21
-1169.948521721233
 31
0.0
  0
LINE
  5
1C0
102
{ACAD_REACTORS
330
277
330
278
102
}
330
71
100
AcDbEntity
  8
0
  6
Continuous
 62
     2
100
AcDbLine
 10
-1199.461547414204
 20
-1166.894712197422
 30
0.0
 11
-1200.654340116371
 21
-1166.894712197422
 31
0.0
  0
LINE
  5
1C1
102
{ACAD_REACTORS
330
277
330
278
102
}
330
71
100
AcDbEntity
  8
0
  6
Continuous
 62
     2
100
AcDbLine
 10
-1198.221043003951
 20
-1169.948521721233
 30
0.0
 11
-1197.028250301784
 21
-1169.948521721233
 31
0.0
  0
LINE
  5
1C2
102
{ACAD_REACTORS
330
277
330
278
102
}
330
71
100
AcDbEntity
  8
0
  6
Continuous
 62
     2
100
AcDbLine
 10
-1200.654340116371
 20
-1169.948521721233
 30
0.0
 11
-1199.461547414204
 21
-1169.948521721233
 31
0.0
  0
LINE
  5
1C3
102
{ACAD_REACTORS
330
287
330
288
102
}
330
71
100
AcDbEntity
  8
0
  6
Continuous
 62
     2
100
AcDbLine
 10
-1196.980387662812
 20
-1164.713419680432
 30
0.0
 11
-1196.980387662812
 21
-1164.233535326691
 31
0.0
  0
LINE
  5
1C4
102
{ACAD_REACTORS
330
287
330
288
102
}
330
71
100
AcDbEntity
  8
0
  6
Continuous
 62
     2
100
AcDbLine
 10
-1195.644459836385
 20
-1164.713419680432
 30
0.0
 11
-1196.980387662812
 21
-1164.713419680432
 31
0.0
  0
LINE
  5
1C5
102
{ACAD_REACTORS
330
287
330
288
102
}
330
71
100
AcDbEntity
  8
0
  6
Continuous
 62
     2
100
AcDbLine
 10
-1195.644459836385
 20
-1165.411433285875
 30
0.0
 11
-1195.644459836385
 21
-1164.713419680432
 31
0.0
  0
LINE
  5
1C6
102
{ACAD_REACTORS
330
287
330
288
102
}
330
71
100
AcDbEntity
  8
0
  6
Continuous
 62
     2
100
AcDbLine
 10
-1196.980387662812
 20
-1165.411433285875
 30
0.0
 11
-1195.644459836385
 21
-1165.411433285875
 31
0.0
  0
LINE
  5
1C7
102
{ACAD_REACTORS
330
275
330
276
102
}
330
71
100
AcDbEntity
  8
0
  6
Continuous
 62
     2
100
AcDbLine
 10
-1200.463342353139
 20
-1163.535521721248
 30
0.0
 11
-1200.463342353139
 21
-1166.589331245059
 31
0.0
  0
LINE
  5
1C8
102
{ACAD_REACTORS
330
275
330
276
102
}
330
71
100
AcDbEntity
  8
0
  6
Continuous
 62
     2
100
AcDbLine
 10
-1200.463342353139
 20
-1166.589331245059
 30
0.0
 11
-1201.656135055305
 21
-1166.589331245059
 31
0.0
  0
LINE
  5
1C9
102
{ACAD_REACTORS
330
275
330
276
102
}
330
71
100
AcDbEntity
  8
0
  6
Continuous
 62
     2
100
AcDbLine
 10
-1201.656135055305
 20
-1166.589331245059
 30
0.0
 11
-1201.656135055305
 21
-1165.455059136215
 31
0.0
  0
LINE
  5
1CA
102
{ACAD_REACTORS
330
275
330
276
102
}
330
71
100
AcDbEntity
  8
0
  6
Continuous
 62
     2
100
AcDbLine
 10
-1202.705792633213
 20
-1166.589331245059
 30
0.0
 11
-1203.898585335379
 21
-1166.589331245059
 31
0.0
  0
LINE
  5
1CB
102
{ACAD_REACTORS
330
275
330
276
102
}
330
71
100
AcDbEntity
  8
0
  6
Continuous
 62
     2
100
AcDbLine
 10
-1203.898585335379
 20
-1163.535521721248
 30
0.0
 11
-1202.705792633213
 21
-1163.535521721248
 31
0.0
  0
LINE
  5
1CC
102
{ACAD_REACTORS
330
275
330
276
102
}
330
71
100
AcDbEntity
  8
0
  6
Continuous
 62
     2
100
AcDbLine
 10
-1202.705792633213
 20
-1163.535521721248
 30
0.0
 11
-1202.705792633213
 21
-1164.604355054582
 31
0.0
  0
LINE
  5
1CD
102
{ACAD_REACTORS
330
275
330
276
102
}
330
71
100
AcDbEntity
  8
0
  6
Continuous
 62
     2
100
AcDbLine
 10
-1202.705792633213
 20
-1164.604355054582
 30
0.0
 11
-1201.656135055305
 21
-1164.604355054582
 31
0.0
  0
LINE
  5
1CE
102
{ACAD_REACTORS
330
283
330
284
102
}
330
71
100
AcDbEntity
  8
0
  6
Continuous
 62
     2
100
AcDbLine
 10
-1205.854765366933
 20
-1164.198627566688
 30
0.0
 11
-1205.537470305391
 21
-1164.198627566688
 31
0.0
  0
LINE
  5
1CF
102
{ACAD_REACTORS
330
283
330
284
102
}
330
71
100
AcDbEntity
  8
0
  6
Continuous
 62
     2
100
AcDbLine
 10
-1205.854765366933
 20
-1164.90435521603
 30
0.0
 11
-1205.537470305391
 21
-1164.90435521603
 31
0.0
  0
LINE
  5
1D0
102
{ACAD_REACTORS
330
283
330
284
102
}
330
71
100
AcDbEntity
  8
0
  6
Continuous
 62
     2
100
AcDbLine
 10
-1207.095269777187
 20
-1163.535521721248
 30
0.0
 11
-1207.095269777187
 21
-1166.589331245059
 31
0.0
  0
LINE
  5
1D1
102
{ACAD_REACTORS
330
283
330
284
102
}
330
71
100
AcDbEntity
  8
0
  6
Continuous
 62
     2
100
AcDbLine
 10
-1207.095269777187
 20
-1163.535521721248
 30
0.0
 11
-1205.095997779153
 21
-1163.535521721248
 31
0.0
  0
LINE
  5
1D2
102
{ACAD_REACTORS
330
283
330
284
102
}
330
71
100
AcDbEntity
  8
0
  6
Continuous
 62
     2
100
AcDbLine
 10
-1205.854765366933
 20
-1165.646253003915
 30
0.0
 11
-1205.095997779153
 21
-1165.646253003915
 31
0.0
  0
LINE
  5
1D3
102
{ACAD_REACTORS
330
289
330
28A
102
}
330
71
100
AcDbEntity
  8
0
  6
Continuous
 62
     2
100
AcDbLine
 10
-1213.191765810484
 20
-1164.563794199883
 30
0.0
 11
-1213.191765810484
 21
-1168.9202492426
 31
0.0
  0
LINE
  5
1D4
102
{ACAD_REACTORS
330
289
330
28A
102
}
330
71
100
AcDbEntity
  8
0
  6
Continuous
 62
     2
100
AcDbLine
 10
-1212.876048887408
 20
-1164.248077276806
 30
0.0
 11
-1211.400215626399
 21
-1164.248077276806
 31
0.0
  0
LINE
  5
1D5
102
{ACAD_REACTORS
330
289
330
28A
102
}
330
71
100
AcDbEntity
  8
0
  6
Continuous
 62
     2
100
AcDbLine
 10
-1211.084498703322
 20
-1165.167818818943
 30
0.0
 11
-1211.084498703322
 21
-1164.563794199883
 31
0.0
  0
LINE
  5
1D6
102
{ACAD_REACTORS
330
289
330
28A
102
}
330
71
100
AcDbEntity
  8
0
  6
Continuous
 62
     2
100
AcDbLine
 10
-1211.084498703322
 20
-1168.9202492426
 30
0.0
 11
-1211.084498703322
 21
-1167.389478311068
 31
0.0
  0
LINE
  5
1D7
102
{ACAD_REACTORS
330
289
330
28A
102
}
330
71
100
AcDbEntity
  8
0
  6
Continuous
 62
     2
100
AcDbLine
 10
-1207.996631473438
 20
-1169.948521721233
 30
0.0
 11
-1213.469943564155
 21
-1169.948521721233
 31
0.0
  0
LINE
  5
1D8
102
{ACAD_REACTORS
330
289
330
28A
102
}
330
71
100
AcDbEntity
  8
0
  6
Continuous
 62
     2
100
AcDbLine
 10
-1207.572386858054
 20
-1163.95976633665
 30
0.0
 11
-1207.572386858054
 21
-1169.52427710585
 31
0.0
  0
LINE
  5
1D9
102
{ACAD_REACTORS
330
289
330
28A
102
}
330
71
100
AcDbEntity
  8
0
  6
Continuous
 62
     2
100
AcDbLine
 10
-1213.469943564155
 20
-1163.535521721266
 30
0.0
 11
-1207.996631473438
 21
-1163.535521721266
 31
0.0
  0
LINE
  5
1DA
102
{ACAD_REACTORS
330
289
330
28A
102
}
330
71
100
AcDbEntity
  8
0
  6
Continuous
 62
     2
100
AcDbLine
 10
-1213.894188179538
 20
-1163.95976633665
 30
0.0
 11
-1213.894188179538
 21
-1169.52427710585
 31
0.0
  0
LINE
  5
1DB
102
{ACAD_REACTORS
330
289
330
28A
102
}
330
71
100
AcDbEntity
  8
0
  6
Continuous
 62
     2
100
AcDbLine
 10
-1211.400215626399
 20
-1169.235966165676
 30
0.0
 11
-1212.876048887408
 21
-1169.235966165676
 31
0.0
  0
LINE
  5
1DC
102
{ACAD_REACTORS
330
283
330
284
102
}
330
71
100
AcDbEntity
  8
0
  6
Continuous
 62
     2
100
AcDbLine
 10
-1205.854765366933
 20
-1166.589331245059
 30
0.0
 11
-1205.854765366933
 21
-1165.646253003915
 31
0.0
  0
LINE
  5
1DD
102
{ACAD_REACTORS
330
283
330
284
102
}
330
71
100
AcDbEntity
  8
0
  6
Continuous
 62
     2
100
AcDbLine
 10
-1207.095269777187
 20
-1166.589331245059
 30
0.0
 11
-1205.854765366933
 21
-1166.589331245059
 31
0.0
  0
LINE
  5
1DE
102
{ACAD_REACTORS
330
283
330
284
102
}
330
71
100
AcDbEntity
  8
0
  6
Continuous
 62
     2
100
AcDbLine
 10
-1205.854765366933
 20
-1164.90435521603
 30
0.0
 11
-1205.854765366933
 21
-1164.198627566688
 31
0.0
  0
LINE
  5
1DF
102
{ACAD_REACTORS
330
275
330
276
102
}
330
71
100
AcDbEntity
  8
0
  6
Continuous
 62
     2
100
AcDbLine
 10
-1203.898585335379
 20
-1163.535521721248
 30
0.0
 11
-1203.898585335379
 21
-1166.589331245059
 31
0.0
  0
LINE
  5
1E0
102
{ACAD_REACTORS
330
275
330
276
102
}
330
71
100
AcDbEntity
  8
0
  6
Continuous
 62
     2
100
AcDbLine
 10
-1202.705792633213
 20
-1165.455059136215
 30
0.0
 11
-1202.705792633213
 21
-1166.589331245059
 31
0.0
  0
LINE
  5
1E1
102
{ACAD_REACTORS
330
275
330
276
102
}
330
71
100
AcDbEntity
  8
0
  6
Continuous
 62
     2
100
AcDbLine
 10
-1201.656135055305
 20
-1165.455059136215
 30
0.0
 11
-1202.705792633213
 21
-1165.455059136215
 31
0.0
  0
LINE
  5
1E2
102
{ACAD_REACTORS
330
275
330
276
102
}
330
71
100
AcDbEntity
  8
0
  6
Continuous
 62
     2
100
AcDbLine
 10
-1201.656135055305
 20
-1163.535521721248
 30
0.0
 11
-1200.463342353139
 21
-1163.535521721248
 31
0.0
  0
LINE
  5
1E3
102
{ACAD_REACTORS
330
275
330
276
102
}
330
71
100
AcDbEntity
  8
0
  6
Continuous
 62
     2
100
AcDbLine
 10
-1201.656135055305
 20
-1164.604355054582
 30
0.0
 11
-1201.656135055305
 21
-1163.535521721248
 31
0.0
  0
LINE
  5
1E4
102
{ACAD_REACTORS
330
287
330
288
102
}
330
71
100
AcDbEntity
  8
0
  6
Continuous
 62
     2
100
AcDbLine
 10
-1195.644459836385
 20
-1164.233535326691
 30
0.0
 11
-1195.644459836385
 21
-1163.535521721248
 31
0.0
  0
LINE
  5
1E5
102
{ACAD_REACTORS
330
287
330
288
102
}
330
71
100
AcDbEntity
  8
0
  6
Continuous
 62
     2
100
AcDbLine
 10
-1198.794779560166
 20
-1163.535521721248
 30
0.0
 11
-1195.644459836385
 21
-1163.535521721248
 31
0.0
  0
LINE
  5
1E6
102
{ACAD_REACTORS
330
287
330
288
102
}
330
71
100
AcDbEntity
  8
0
  6
Continuous
 62
     2
100
AcDbLine
 10
-1198.794779560166
 20
-1166.589331245059
 30
0.0
 11
-1195.644459836385
 21
-1166.589331245059
 31
0.0
  0
LINE
  5
1E7
102
{ACAD_REACTORS
330
287
330
288
102
}
330
71
100
AcDbEntity
  8
0
  6
Continuous
 62
     2
100
AcDbLine
 10
-1195.644459836385
 20
-1166.589331245059
 30
0.0
 11
-1195.644459836385
 21
-1165.891317639617
 31
0.0
  0
LINE
  5
1E8
102
{ACAD_REACTORS
330
287
330
288
102
}
330
71
100
AcDbEntity
  8
0
  6
Continuous
 62
     2
100
AcDbLine
 10
-1195.644459836385
 20
-1165.891317639617
 30
0.0
 11
-1196.980387662812
 21
-1165.891317639617
 31
0.0
  0
LINE
  5
1E9
102
{ACAD_REACTORS
330
287
330
288
102
}
330
71
100
AcDbEntity
  8
0
  6
Continuous
 62
     2
100
AcDbLine
 10
-1196.980387662812
 20
-1165.891317639617
 30
0.0
 11
-1196.980387662812
 21
-1165.411433285875
 31
0.0
  0
LINE
  5
1EA
102
{ACAD_REACTORS
330
287
330
288
102
}
330
71
100
AcDbEntity
  8
0
  6
Continuous
 62
     2
100
AcDbLine
 10
-1196.980387662812
 20
-1164.233535326691
 30
0.0
 11
-1195.644459836385
 21
-1164.233535326691
 31
0.0
  0
LINE
  5
1EB
102
{ACAD_REACTORS
330
277
330
278
102
}
330
71
100
AcDbEntity
  8
0
  6
Continuous
 62
     2
100
AcDbLine
 10
-1199.461547414204
 20
-1169.948521721233
 30
0.0
 11
-1199.461547414204
 21
-1168.639746211029
 31
0.0
  0
LINE
  5
1EC
102
{ACAD_REACTORS
330
277
330
278
102
}
330
71
100
AcDbEntity
  8
0
  6
Continuous
 62
     2
100
AcDbLine
 10
-1199.461547414204
 20
-1168.639746211029
 30
0.0
 11
-1198.221043003951
 21
-1169.948521721233
 31
0.0
  0
LINE
  5
1ED
102
{ACAD_REACTORS
330
277
330
278
102
}
330
71
100
AcDbEntity
  8
0
  6
Continuous
 62
     2
100
AcDbLine
 10
-1197.028250301784
 20
-1169.948521721233
 30
0.0
 11
-1197.028250301784
 21
-1166.894712197422
 31
0.0
  0
LINE
  5
1EE
102
{ACAD_REACTORS
330
277
330
278
102
}
330
71
100
AcDbEntity
  8
0
  6
Continuous
 62
     2
100
AcDbLine
 10
-1197.028250301784
 20
-1166.894712197422
 30
0.0
 11
-1198.221043003951
 21
-1166.894712197422
 31
0.0
  0
LINE
  5
1EF
102
{ACAD_REACTORS
330
277
330
278
102
}
330
71
100
AcDbEntity
  8
0
  6
Continuous
 62
     2
100
AcDbLine
 10
-1198.221043003951
 20
-1166.894712197422
 30
0.0
 11
-1198.221043003951
 21
-1168.203487707627
 31
0.0
  0
LINE
  5
1F0
102
{ACAD_REACTORS
330
277
330
278
102
}
330
71
100
AcDbEntity
  8
0
  6
Continuous
 62
     2
100
AcDbLine
 10
-1198.221043003951
 20
-1168.203487707627
 30
0.0
 11
-1199.461547414204
 21
-1166.894712197422
 31
0.0
  0
LINE
  5
1F1
102
{ACAD_REACTORS
330
279
330
27A
102
}
330
71
100
AcDbEntity
  8
0
  6
Continuous
 62
     2
100
AcDbLine
 10
-1194.213108593785
 20
-1165.280555734854
 30
0.0
 11
-1192.972604183531
 21
-1166.589331245059
 31
0.0
  0
LINE
  5
1F2
102
{ACAD_REACTORS
330
279
330
27A
102
}
330
71
100
AcDbEntity
  8
0
  6
Continuous
 62
     2
100
AcDbLine
 10
-1192.972604183531
 20
-1166.589331245059
 30
0.0
 11
-1191.779811481364
 21
-1166.589331245059
 31
0.0
  0
LINE
  5
1F3
102
{ACAD_REACTORS
330
279
330
27A
102
}
330
71
100
AcDbEntity
  8
0
  6
Continuous
 62
     2
100
AcDbLine
 10
-1191.779811481364
 20
-1166.589331245059
 30
0.0
 11
-1191.779811481364
 21
-1163.535521721248
 31
0.0
  0
LINE
  5
1F4
102
{ACAD_REACTORS
330
279
330
27A
102
}
330
71
100
AcDbEntity
  8
0
  6
Continuous
 62
     2
100
AcDbLine
 10
-1191.779811481364
 20
-1163.535521721248
 30
0.0
 11
-1192.972604183531
 21
-1163.535521721248
 31
0.0
  0
LINE
  5
1F5
102
{ACAD_REACTORS
330
279
330
27A
102
}
330
71
100
AcDbEntity
  8
0
  6
Continuous
 62
     2
100
AcDbLine
 10
-1192.972604183531
 20
-1164.844297231453
 30
0.0
 11
-1194.213108593785
 21
-1163.535521721248
 31
0.0
  0
LINE
  5
1F6
102
{ACAD_REACTORS
330
279
330
27A
102
}
330
71
100
AcDbEntity
  8
0
  6
Continuous
 62
     2
100
AcDbLine
 10
-1195.405901295951
 20
-1166.589331245059
 30
0.0
 11
-1194.213108593785
 21
-1166.589331245059
 31
0.0
  0
LINE
  5
1F7
102
{ACAD_REACTORS
330
27B
330
27C
102
}
330
71
100
AcDbEntity
  8
0
  6
Continuous
 62
     2
100
AcDbLine
 10
-1196.885115177524
 20
-1166.894712197422
 30
0.0
 11
-1196.885115177524
 21
-1167.679977503546
 31
0.0
  0
LINE
  5
1F8
102
{ACAD_REACTORS
330
27B
330
27C
102
}
330
71
100
AcDbEntity
  8
0
  6
Continuous
 62
     2
100
AcDbLine
 10
-1196.074016140049
 20
-1167.679977503546
 30
0.0
 11
-1196.074016140049
 21
-1169.948521721233
 31
0.0
  0
LINE
  5
1F9
102
{ACAD_REACTORS
330
27B
330
27C
102
}
330
71
100
AcDbEntity
  8
0
  6
Continuous
 62
     2
100
AcDbLine
 10
-1196.074016140049
 20
-1169.948521721233
 30
0.0
 11
-1194.881223437883
 21
-1169.948521721233
 31
0.0
  0
LINE
  5
1FA
102
{ACAD_REACTORS
330
27D
330
27E
102
}
330
71
100
AcDbEntity
  8
0
  6
Continuous
 62
     2
100
AcDbLine
 10
-1191.931696944463
 20
-1169.948521721233
 30
0.0
 11
-1192.143176997939
 21
-1169.407561177015
 31
0.0
  0
LINE
  5
1FB
102
{ACAD_REACTORS
330
27D
330
27E
102
}
330
71
100
AcDbEntity
  8
0
  6
Continuous
 62
     2
100
AcDbLine
 10
-1192.08914558115
 20
-1166.894712197422
 30
0.0
 11
-1190.69119253421
 21
-1169.948521721233
 31
0.0
  0
LINE
  5
1FC
102
{ACAD_REACTORS
330
27D
330
27E
102
}
330
71
100
AcDbEntity
  8
0
  6
Continuous
 62
     2
100
AcDbLine
 10
-1193.329649991403
 20
-1166.894712197422
 30
0.0
 11
-1192.08914558115
 21
-1166.894712197422
 31
0.0
  0
LINE
  5
1FD
102
{ACAD_REACTORS
330
27D
330
27E
102
}
330
71
100
AcDbEntity
  8
0
  6
Continuous
 62
     2
100
AcDbLine
 10
-1194.727603038342
 20
-1169.948521721233
 30
0.0
 11
-1193.487098628089
 21
-1169.948521721233
 31
0.0
  0
LINE
  5
1FE
102
{ACAD_REACTORS
330
27D
330
27E
102
}
330
71
100
AcDbEntity
  8
0
  6
Continuous
 62
     2
100
AcDbLine
 10
-1193.009563023468
 20
-1168.726997911709
 30
0.0
 11
-1192.409232549086
 21
-1168.726997911709
 31
0.0
  0
LINE
  5
1FF
102
{ACAD_REACTORS
330
27D
330
27E
102
}
330
71
100
AcDbEntity
  8
0
  6
Continuous
 62
     2
100
AcDbLine
 10
-1192.409232549086
 20
-1168.726997911709
 30
0.0
 11
-1192.709397786276
 21
-1167.959182945722
 31
0.0
  0
LINE
  5
200
102
{ACAD_REACTORS
330
27F
330
280
102
}
330
71
100
AcDbEntity
  8
0
  6
Continuous
 62
     2
100
AcDbLine
 10
-1190.300748530678
 20
-1166.589331245059
 30
0.0
 11
-1191.54125294093
 21
-1166.589331245059
 31
0.0
  0
LINE
  5
201
102
{ACAD_REACTORS
330
281
330
282
102
}
330
71
100
AcDbEntity
  8
0
  6
Continuous
 62
     2
100
AcDbLine
 10
-1188.778745042713
 20
-1166.589331245059
 30
0.0
 11
-1190.181469260461
 21
-1166.589331245059
 31
0.0
  0
LINE
  5
202
102
{ACAD_REACTORS
330
281
330
282
102
}
330
71
100
AcDbEntity
  8
0
  6
Continuous
 62
     2
100
AcDbLine
 10
-1188.778745042713
 20
-1166.589331245059
 30
0.0
 11
-1188.082154104647
 21
-1165.801599459765
 31
0.0
  0
LINE
  5
203
102
{ACAD_REACTORS
330
281
330
282
102
}
330
71
100
AcDbEntity
  8
0
  6
Continuous
 62
     2
100
AcDbLine
 10
-1187.480986582754
 20
-1163.535521721248
 30
0.0
 11
-1186.078262365007
 21
-1163.535521721248
 31
0.0
  0
LINE
  5
204
102
{ACAD_REACTORS
330
281
330
282
102
}
330
71
100
AcDbEntity
  8
0
  6
Continuous
 62
     2
100
AcDbLine
 10
-1190.086045844288
 20
-1163.535521721248
 30
0.0
 11
-1188.78351621352
 21
-1165.008472251284
 31
0.0
  0
LINE
  5
205
102
{ACAD_REACTORS
330
281
330
282
102
}
330
71
100
AcDbEntity
  8
0
  6
Continuous
 62
     2
100
AcDbLine
 10
-1190.181469260461
 20
-1166.589331245059
 30
0.0
 11
-1188.78351621352
 21
-1165.008472251284
 31
0.0
  0
LINE
  5
206
102
{ACAD_REACTORS
330
28B
330
28C
102
}
330
71
100
AcDbEntity
  8
0
  6
Continuous
 62
     2
100
AcDbLine
 10
-1188.320712645081
 20
-1168.90150131307
 30
0.0
 11
-1188.320712645081
 21
-1169.774018319873
 31
0.0
  0
LINE
  5
207
102
{ACAD_REACTORS
330
28B
330
28C
102
}
330
71
100
AcDbEntity
  8
0
  6
Continuous
 62
     2
100
AcDbLine
 10
-1189.090369988042
 20
-1167.679977503546
 30
0.0
 11
-1187.986730688474
 21
-1167.679977503546
 31
0.0
  0
LINE
  5
208
102
{ACAD_REACTORS
330
28D
330
28E
102
}
330
71
100
AcDbEntity
  8
0
  6
Continuous
 62
     2
100
AcDbLine
 10
-1204.423414124333
 20
-1168.901501313069
 30
0.0
 11
-1204.423414124333
 21
-1169.774018319872
 31
0.0
  0
LINE
  5
209
102
{ACAD_REACTORS
330
28D
330
28E
102
}
330
71
100
AcDbEntity
  8
0
  6
Continuous
 62
     2
100
AcDbLine
 10
-1204.423414124333
 20
-1167.941732605586
 30
0.0
 11
-1204.423414124333
 21
-1167.069215598783
 31
0.0
  0
LINE
  5
20A
330
71
100
AcDbEntity
  8
1
  6
Continuous
 62
     7
100
AcDbLine
 10
-1088.586038539349
 20
-1168.74202172125
 30
0.0
 11
-1181.7308430661
 21
-1168.74202172125
 31
0.0
  0
LINE
  5
20B
330
71
100
AcDbEntity
  8
1
  6
Continuous
 62
     6
100
AcDbLine
 10
-1287.1308430661
 20
-1177.24202172125
 30
0.0
 11
-1332.08603853935
 21
-1177.24202172125
 31
0.0
  0
LINE
  5
20C
330
71
100
AcDbEntity
  8
1
  6
Continuous
 62
     7
100
AcDbLine
 10
-1097.504446821028
 20
-1151.74202172125
 30
0.0
 11
-1097.504446821028
 21
-1160.24202172125
 31
0.0
  0
LINE
  5
20D
330
71
100
AcDbEntity
  8
1
  6
Continuous
 62
     7
100
AcDbLine
 10
-1124.004446821027
 20
-1151.74202172125
 30
0.0
 11
-1124.004446821027
 21
-1160.24202172125
 31
0.0
  0
LINE
  5
20E
330
71
100
AcDbEntity
  8
1
  6
Continuous
 62
     7
100
AcDbLine
 10
-1181.7308430661
 20
-1160.24202172125
 30
0.0
 11
-1181.7308430661
 21
-1151.74202172125
 31
0.0
  0
LINE
  5
20F
330
71
100
AcDbEntity
  8
1
  6
Continuous
 62
     7
100
AcDbLine
 10
-1218.1308430661
 20
-1160.24202172125
 30
0.0
 11
-1218.1308430661
 21
-1151.74202172125
 31
0.0
  0
LINE
  5
210
330
71
100
AcDbEntity
  8
1
  6
Continuous
 62
     6
100
AcDbLine
 10
-1181.7308430661
 20
-1160.24202172125
 30
0.0
 11
-1088.586038539348
 21
-1160.24202172125
 31
0.0
  0
LINE
  5
211
330
71
100
AcDbEntity
  8
1
  6
Continuous
 62
     7
100
AcDbLine
 10
-1153.8308430661
 20
-1168.74202172125
 30
0.0
 11
-1153.8308430661
 21
-1160.24202172125
 31
0.0
  0
LINE
  5
212
330
71
100
AcDbEntity
  8
1
  6
PHANTOM
 62
     2
100
AcDbLine
 10
-1202.644188179538
 20
-1156.11702172125
 30
0.0
 11
-1208.144188179538
 21
-1156.11702172125
 31
0.0
  0
LINE
  5
213
330
71
100
AcDbEntity
  8
1
  6
PHANTOM
 62
     2
100
AcDbLine
 10
-1205.394188179538
 20
-1153.36702172125
 30
0.0
 11
-1205.394188179538
 21
-1158.86702172125
 31
0.0
  0
LINE
  5
214
330
71
100
AcDbEntity
  8
1
  6
DOT_CENTER
 62
     2
100
AcDbLine
 10
-1214.144188179538
 20
-1156.11702172125
 30
0.0
 11
-1208.644188179538
 21
-1156.11702172125
 31
0.0
  0
ARC
  5
215
102
{ACAD_REACTORS
330
28D
330
28E
102
}
330
71
100
AcDbEntity
  8
0
  6
Continuous
 62
     2
100
AcDbCircle
 10
-1205.75934204145
 20
-1171.734297904584
 30
0.0
 40
4.852596863497939
100
AcDbArc
 50
74.02000874165637
 51
84.84185523038788
  0
ARC
  5
216
102
{ACAD_REACTORS
330
28D
330
28E
102
}
330
71
100
AcDbEntity
  8
0
  6
Continuous
 62
     2
100
AcDbCircle
 10
-1205.183301432697
 20
-1168.5785375487
 30
0.0
 40
0.9059297849858621
100
AcDbArc
 50
71.5519238818535
 51
113.3722778881175
  0
ARC
  5
217
102
{ACAD_REACTORS
330
28D
330
28E
102
}
330
71
100
AcDbEntity
  8
0
  6
Continuous
 62
     2
100
AcDbCircle
 10
-1205.339741465399
 20
-1168.626688388666
 30
0.0
 40
0.5115800601950912
100
AcDbArc
 50
208.5214732577215
 51
246.6277221118448
  0
ARC
  5
218
102
{ACAD_REACTORS
330
28D
330
28E
102
}
330
71
100
AcDbEntity
  8
0
  6
Continuous
 62
     2
100
AcDbCircle
 10
-1205.183301432697
 20
-1168.264696369956
 30
0.0
 40
0.9059297849857696
100
AcDbArc
 50
246.6277221118825
 51
288.4480761181692
  0
ARC
  5
219
102
{ACAD_REACTORS
330
28D
330
28E
102
}
330
71
100
AcDbEntity
  8
0
  6
Continuous
 62
     2
100
AcDbCircle
 10
-1205.601469166358
 20
-1167.011150593919
 30
0.0
 40
2.227384008972719
100
AcDbArc
 50
288.4480761181429
 51
301.9309089499566
  0
ARC
  5
21A
102
{ACAD_REACTORS
330
289
330
28A
102
}
330
71
100
AcDbEntity
  8
0
  6
Continuous
 62
     2
100
AcDbCircle
 10
-1210.826542898964
 20
-1166.278648565005
 30
0.0
 40
0.9118481501441705
100
AcDbArc
 50
295.3740086781258
 51
64.62599132184363
  0
ARC
  5
21B
102
{ACAD_REACTORS
330
289
330
28A
102
}
330
71
100
AcDbEntity
  8
0
  6
Continuous
 62
     2
100
AcDbCircle
 10
-1210.300500200876
 20
-1164.563971676531
 30
0.0
 40
0.3157169230762434
100
AcDbArc
 50
90.18896704264381
 51
180.0
  0
ARC
  5
21C
102
{ACAD_REACTORS
330
28B
330
28C
102
}
330
71
100
AcDbEntity
  8
0
  6
Continuous
 62
     2
100
AcDbCircle
 10
-1189.090369988042
 20
-1168.634500510372
 30
0.0
 40
0.9545230068258661
100
AcDbArc
 50
90.0
 51
109.3371432194542
  0
ARC
  5
21D
102
{ACAD_REACTORS
330
28B
330
28C
102
}
330
71
100
AcDbEntity
  8
0
  6
Continuous
 62
     2
100
AcDbCircle
 10
-1188.859682728065
 20
-1168.421616959328
 30
0.0
 40
0.9410597353342773
100
AcDbArc
 50
151.478526742348
 51
208.5214732577007
  0
ARC
  5
21E
102
{ACAD_REACTORS
330
28B
330
28C
102
}
330
71
100
AcDbEntity
  8
0
  6
Continuous
 62
     2
100
AcDbCircle
 10
-1189.080599953443
 20
-1168.264696369956
 30
0.0
 40
0.9059297849861304
100
AcDbArc
 50
246.6277221118297
 51
288.4480761180965
  0
ARC
  5
21F
102
{ACAD_REACTORS
330
28B
330
28C
102
}
330
71
100
AcDbEntity
  8
0
  6
Continuous
 62
     2
100
AcDbCircle
 10
-1189.498767687105
 20
-1167.01115059392
 30
0.0
 40
2.227384008972575
100
AcDbArc
 50
288.4480761181504
 51
301.9309089499448
  0
ARC
  5
220
102
{ACAD_REACTORS
330
28B
330
28C
102
}
330
71
100
AcDbEntity
  8
0
  6
Continuous
 62
     2
100
AcDbCircle
 10
-1189.656640562197
 20
-1165.108936014072
 30
0.0
 40
4.852596863498024
100
AcDbArc
 50
275.1581447696362
 51
285.9799912583333
  0
ARC
  5
221
102
{ACAD_REACTORS
330
28B
330
28C
102
}
330
71
100
AcDbEntity
  8
0
  6
Continuous
 62
     2
100
AcDbCircle
 10
-1189.367784467462
 20
-1168.308826597293
 30
0.0
 40
1.63969512394064
100
AcDbArc
 50
195.0618917770994
 51
275.1581447696979
  0
ARC
  5
222
102
{ACAD_REACTORS
330
283
330
284
102
}
330
71
100
AcDbEntity
  8
0
  6
Continuous
 62
     2
100
AcDbCircle
 10
-1205.095997779153
 20
-1164.590887362581
 30
0.0
 40
1.055365641333992
100
AcDbArc
 50
270.0
 51
90.0
  0
ARC
  5
223
102
{ACAD_REACTORS
330
289
330
28A
102
}
330
71
100
AcDbEntity
  8
0
  6
Continuous
 62
     2
100
AcDbCircle
 10
-1212.876048887408
 20
-1168.9202492426
 30
0.0
 40
0.3157169230760246
100
AcDbArc
 50
180.0
 51
270.0
  0
ARC
  5
224
102
{ACAD_REACTORS
330
289
330
28A
102
}
330
71
100
AcDbEntity
  8
0
  6
Continuous
 62
     2
100
AcDbCircle
 10
-1211.400215626399
 20
-1164.563794199883
 30
0.0
 40
0.3157169230769341
100
AcDbArc
 50
0.0
 51
90.0
  0
ARC
  5
225
102
{ACAD_REACTORS
330
289
330
28A
102
}
330
71
100
AcDbEntity
  8
0
  6
Continuous
 62
     2
100
AcDbCircle
 10
-1211.400215626399
 20
-1165.167818818943
 30
0.0
 40
0.3157169230767223
100
AcDbArc
 50
295.1944106486023
 51
0.0
  0
ARC
  5
226
102
{ACAD_REACTORS
330
289
330
28A
102
}
330
71
100
AcDbEntity
  8
0
  6
Continuous
 62
     2
100
AcDbCircle
 10
-1211.400215626399
 20
-1168.9202492426
 30
0.0
 40
0.3157169230760246
100
AcDbArc
 50
270.0
 51
0.0
  0
ARC
  5
227
102
{ACAD_REACTORS
330
289
330
28A
102
}
330
71
100
AcDbEntity
  8
0
  6
Continuous
 62
     2
100
AcDbCircle
 10
-1213.469943564155
 20
-1163.95976633665
 30
0.0
 40
0.4242446153841684
100
AcDbArc
 50
90.0
 51
180.0
  0
ARC
  5
228
102
{ACAD_REACTORS
330
289
330
28A
102
}
330
71
100
AcDbEntity
  8
0
  6
Continuous
 62
     2
100
AcDbCircle
 10
-1207.996631473438
 20
-1163.95976633665
 30
0.0
 40
0.424244615383941
100
AcDbArc
 50
0.0
 51
90.0
  0
ARC
  5
229
102
{ACAD_REACTORS
330
289
330
28A
102
}
330
71
100
AcDbEntity
  8
0
  6
Continuous
 62
     2
100
AcDbCircle
 10
-1207.996631473438
 20
-1169.52427710585
 30
0.0
 40
0.4242446153830315
100
AcDbArc
 50
270.0
 51
0.0
  0
ARC
  5
22A
102
{ACAD_REACTORS
330
287
330
288
102
}
330
71
100
AcDbEntity
  8
0
  6
Continuous
 62
     2
100
AcDbCircle
 10
-1198.778247586346
 20
-1165.062426483154
 30
0.0
 40
0.7717997786795062
100
AcDbArc
 50
321.8795802028254
 51
38.12041979717461
  0
ARC
  5
22B
102
{ACAD_REACTORS
330
287
330
288
102
}
330
71
100
AcDbEntity
  8
0
  6
Continuous
 62
     2
100
AcDbCircle
 10
-1198.57850755
 20
-1165.219157661274
 30
0.0
 40
0.5179085730138424
100
AcDbArc
 50
218.1204197971879
 51
321.8795802028121
  0
ARC
  5
22C
102
{ACAD_REACTORS
330
285
330
286
102
}
330
71
100
AcDbEntity
  8
0
  6
Continuous
 62
     2
100
AcDbCircle
 10
-1202.25851513896
 20
-1168.421616959328
 30
0.0
 40
1.458034083651197
100
AcDbArc
 50
297.5481481756912
 51
62.45185182432956
  0
ARC
  5
22D
102
{ACAD_REACTORS
330
285
330
286
102
}
330
71
100
AcDbEntity
  8
0
  6
Continuous
 62
     2
100
AcDbCircle
 10
-1202.820394922627
 20
-1168.421616959328
 30
0.0
 40
1.458034083651785
100
AcDbArc
 50
117.5481481756388
 51
242.4518518243406
  0
ARC
  5
22E
102
{ACAD_REACTORS
330
285
330
286
102
}
330
71
100
AcDbEntity
  8
0
  6
Continuous
 62
     2
100
AcDbCircle
 10
-1202.539455030794
 20
-1168.960191969631
 30
0.0
 40
2.065479772209248
100
AcDbArc
 50
62.45185182431621
 51
117.5481481756391
  0
ARC
  5
22F
102
{ACAD_REACTORS
330
285
330
286
102
}
330
71
100
AcDbEntity
  8
0
  6
Continuous
 62
     2
100
AcDbCircle
 10
-1202.539455030794
 20
-1167.883041949025
 30
0.0
 40
2.065479772207399
100
AcDbArc
 50
242.4518518243464
 51
297.5481481756984
  0
ARC
  5
230
102
{ACAD_REACTORS
330
287
330
288
102
}
330
71
100
AcDbEntity
  8
0
  6
Continuous
 62
     2
100
AcDbCircle
 10
-1198.378767513654
 20
-1165.062426483154
 30
0.0
 40
0.7717997786795062
100
AcDbArc
 50
141.8795802028254
 51
218.1204197971746
  0
ARC
  5
231
102
{ACAD_REACTORS
330
287
330
288
102
}
330
71
100
AcDbEntity
  8
0
  6
Continuous
 62
     2
100
AcDbCircle
 10
-1198.57850755
 20
-1164.905695305033
 30
0.0
 40
0.517908573013281
100
AcDbArc
 50
38.12041979710871
 51
141.8795802028913
  0
ARC
  5
232
102
{ACAD_REACTORS
330
289
330
28A
102
}
330
71
100
AcDbEntity
  8
0
  6
Continuous
 62
     2
100
AcDbCircle
 10
-1213.469943564155
 20
-1169.52427710585
 30
0.0
 40
0.4242446153830315
100
AcDbArc
 50
180.0
 51
270.0
  0
ARC
  5
233
102
{ACAD_REACTORS
330
289
330
28A
102
}
330
71
100
AcDbEntity
  8
0
  6
Continuous
 62
     2
100
AcDbCircle
 10
-1211.400215626399
 20
-1167.389478311068
 30
0.0
 40
0.3157169230769341
100
AcDbArc
 50
0.0
 51
64.80558935138009
  0
ARC
  5
234
102
{ACAD_REACTORS
330
289
330
28A
102
}
330
71
100
AcDbEntity
  8
0
  6
Continuous
 62
     2
100
AcDbCircle
 10
-1210.877631178824
 20
-1166.278648565005
 30
0.0
 40
0.9118975235566934
100
AcDbArc
 50
115.1944106485101
 51
244.8055893515264
  0
ARC
  5
235
102
{ACAD_REACTORS
330
289
330
28A
102
}
330
71
100
AcDbEntity
  8
0
  6
Continuous
 62
     2
100
AcDbCircle
 10
-1212.876048887408
 20
-1164.563794199883
 30
0.0
 40
0.3157169230769341
100
AcDbArc
 50
90.0
 51
180.0
  0
ARC
  5
236
102
{ACAD_REACTORS
330
283
330
284
102
}
330
71
100
AcDbEntity
  8
0
  6
Continuous
 62
     2
100
AcDbCircle
 10
-1205.537470305391
 20
-1164.551491391359
 30
0.0
 40
0.3528638246709761
100
AcDbArc
 50
270.0
 51
90.0
  0
ARC
  5
237
102
{ACAD_REACTORS
330
287
330
288
102
}
330
71
100
AcDbEntity
  8
0
  6
Continuous
 62
     2
100
AcDbCircle
 10
-1198.794779560166
 20
-1165.062426483154
 30
0.0
 40
1.526904761906053
100
AcDbArc
 50
90.0
 51
270.0
  0
ARC
  5
238
102
{ACAD_REACTORS
330
28B
330
28C
102
}
330
71
100
AcDbEntity
  8
0
  6
Continuous
 62
     2
100
AcDbCircle
 10
-1189.367784467462
 20
-1168.534407321363
 30
0.0
 40
1.639695123940101
100
AcDbArc
 50
90.0
 51
164.9381082229006
  0
ARC
  5
239
102
{ACAD_REACTORS
330
28B
330
28C
102
}
330
71
100
AcDbEntity
  8
0
  6
Continuous
 62
     2
100
AcDbCircle
 10
-1189.786912310923
 20
-1168.421616959328
 30
0.0
 40
1.205656168393562
100
AcDbArc
 50
164.9381082229183
 51
195.0618917770817
  0
ARC
  5
23A
102
{ACAD_REACTORS
330
28B
330
28C
102
}
330
71
100
AcDbEntity
  8
0
  6
Continuous
 62
     2
100
AcDbCircle
 10
-1189.237039986146
 20
-1168.626688388666
 30
0.0
 40
0.5115800601961247
100
AcDbArc
 50
208.5214732577746
 51
246.6277221118682
  0
ARC
  5
23B
102
{ACAD_REACTORS
330
28B
330
28C
102
}
330
71
100
AcDbEntity
  8
0
  6
Continuous
 62
     2
100
AcDbCircle
 10
-1189.237039986146
 20
-1168.216545529989
 30
0.0
 40
0.5115800601946947
100
AcDbArc
 50
109.3371432194979
 51
151.4785267424269
  0
ARC
  5
23C
102
{ACAD_REACTORS
330
289
330
28A
102
}
330
71
100
AcDbEntity
  8
0
  6
Continuous
 62
     2
100
AcDbCircle
 10
-1210.300500200876
 20
-1167.969641571669
 30
0.0
 40
0.3157169230769341
100
AcDbArc
 50
180.0
 51
269.811032957356
  0
ARC
  5
23D
102
{ACAD_REACTORS
330
289
330
28A
102
}
330
71
100
AcDbEntity
  8
0
  6
Continuous
 62
     2
100
AcDbCircle
 10
-1210.294884065566
 20
-1166.2668066241
 30
0.0
 40
2.018561131933154
100
AcDbArc
 50
269.8110329575713
 51
90.18896704242869
  0
ARC
  5
23E
102
{ACAD_REACTORS
330
289
330
28A
102
}
330
71
100
AcDbEntity
  8
0
  6
Continuous
 62
     2
100
AcDbCircle
 10
-1210.300500200876
 20
-1165.169506965037
 30
0.0
 40
0.3157169230769341
100
AcDbArc
 50
180.0
 51
244.6259913215528
  0
ARC
  5
23F
102
{ACAD_REACTORS
330
289
330
28A
102
}
330
71
100
AcDbEntity
  8
0
  6
Continuous
 62
     2
100
AcDbCircle
 10
-1210.300500200876
 20
-1167.387790164974
 30
0.0
 40
0.3157169230773483
100
AcDbArc
 50
115.3740086784472
 51
180.0
  0
ARC
  5
240
102
{ACAD_REACTORS
330
28D
330
28E
102
}
330
71
100
AcDbEntity
  8
0
  6
Continuous
 62
     2
100
AcDbCircle
 10
-1205.470485946715
 20
-1168.534407321363
 30
0.0
 40
1.639695123940193
100
AcDbArc
 50
84.84185523037334
 51
164.9381082228903
  0
ARC
  5
241
102
{ACAD_REACTORS
330
28D
330
28E
102
}
330
71
100
AcDbEntity
  8
0
  6
Continuous
 62
     2
100
AcDbCircle
 10
-1205.889613790177
 20
-1168.421616959328
 30
0.0
 40
1.205656168391586
100
AcDbArc
 50
164.938108222893
 51
195.061891777107
  0
ARC
  5
242
102
{ACAD_REACTORS
330
28D
330
28E
102
}
330
71
100
AcDbEntity
  8
0
  6
Continuous
 62
     2
100
AcDbCircle
 10
-1205.470485946715
 20
-1168.308826597293
 30
0.0
 40
1.639695123939543
100
AcDbArc
 50
195.0618917771097
 51
275.1581447696267
  0
ARC
  5
243
102
{ACAD_REACTORS
330
28D
330
28E
102
}
330
71
100
AcDbEntity
  8
0
  6
Continuous
 62
     2
100
AcDbCircle
 10
-1205.75934204145
 20
-1165.108936014072
 30
0.0
 40
4.85259686349784
100
AcDbArc
 50
275.1581447696121
 51
285.9799912583466
  0
ARC
  5
244
102
{ACAD_REACTORS
330
28D
330
28E
102
}
330
71
100
AcDbEntity
  8
0
  6
Continuous
 62
     2
100
AcDbCircle
 10
-1204.962384207318
 20
-1168.421616959328
 30
0.0
 40
0.9410597353340211
100
AcDbArc
 50
151.4785267422607
 51
208.5214732576785
  0
ARC
  5
245
102
{ACAD_REACTORS
330
28D
330
28E
102
}
330
71
100
AcDbEntity
  8
0
  6
Continuous
 62
     2
100
AcDbCircle
 10
-1205.339741465399
 20
-1168.216545529989
 30
0.0
 40
0.5115800601952438
100
AcDbArc
 50
113.3722778882057
 51
151.4785267422785
  0
ARC
  5
246
102
{ACAD_REACTORS
330
28D
330
28E
102
}
330
71
100
AcDbEntity
  8
0
  6
Continuous
 62
     2
100
AcDbCircle
 10
-1205.601469166358
 20
-1169.832083324736
 30
0.0
 40
2.227384008973646
100
AcDbArc
 50
58.06909105004343
 51
71.55192388185705
  0
ARC
  5
247
102
{ACAD_REACTORS
330
285
330
286
102
}
330
71
100
AcDbEntity
  8
0
  6
Continuous
 62
     2
100
AcDbCircle
 10
-1202.539455030794
 20
-1168.264885781208
 30
0.0
 40
0.5179085730138424
100
AcDbArc
 50
38.12041979718787
 51
141.8795802028121
  0
ARC
  5
248
102
{ACAD_REACTORS
330
285
330
286
102
}
330
71
100
AcDbEntity
  8
0
  6
Continuous
 62
     2
100
AcDbCircle
 10
-1202.339714994448
 20
-1168.421616959328
 30
0.0
 40
0.7717997786795062
100
AcDbArc
 50
141.8795802028254
 51
218.1204197971746
  0
ARC
  5
249
102
{ACAD_REACTORS
330
285
330
286
102
}
330
71
100
AcDbEntity
  8
0
  6
Continuous
 62
     2
100
AcDbCircle
 10
-1202.539455030794
 20
-1168.578348137448
 30
0.0
 40
0.5179085730138424
100
AcDbArc
 50
218.1204197971879
 51
321.8795802028121
  0
ARC
  5
24A
102
{ACAD_REACTORS
330
285
330
286
102
}
330
71
100
AcDbEntity
  8
0
  6
Continuous
 62
     2
100
AcDbCircle
 10
-1202.73919506714
 20
-1168.421616959328
 30
0.0
 40
0.7717997786795062
100
AcDbArc
 50
321.8795802028254
 51
38.12041979717461
  0
CIRCLE
  5
24B
330
71
100
AcDbEntity
  8
1
  6
Continuous
 62
     2
100
AcDbCircle
 10
-1205.394188179538
 20
-1156.11702172125
 30
0.0
 40
2.5
  0
CIRCLE
  5
24C
330
71
100
AcDbEntity
  8
1
  6
Continuous
 62
     2
100
AcDbCircle
 10
-1205.394188179538
 20
-1156.11702172125
 30
0.0
 40
1.25
  0
CIRCLE
  5
24D
102
{ACAD_REACTORS
330
289
330
28A
102
}
330
71
100
AcDbEntity
  8
0
  6
Continuous
 62
     2
100
AcDbCircle
 10
-1210.850357913637
 20
-1166.278648565005
 30
0.0
 40
0.4709789327780527
  0
MTEXT
  5
24E
330
71
100
AcDbEntity
  8
1
 62
     3
100
AcDbMText
 10
-1375.580970753278
 20
-990.450713565951
 30
0.0
 40
1.8
 41
0.0
 71
     7
 72
     1
  3
Weitergabe sowie Vervielf\U+00e4ltigung dieses Dokuments, Verwertung und \PMitteilung seines Inhalts sind verboten, soweit nicht ausdr\U+00fccklich gestattet. \PZuwiderhandlungen verpflichten zu Schadenersatz. Alle Rechte f\U+00fcr den Fall\Pder Pat
  1
ent-, Gebrauchsmuster- oder Designeintragung vorbehalten.
  7
CONVERTER_11
 73
     1
 44
0.99639855942377
  0
MTEXT
  5
24F
330
71
100
AcDbEntity
  8
1
 62
     3
100
AcDbMText
 10
-1192.72786091449
 20
-990.450713565951
 30
0.0
 40
1.8
 41
0.0
 71
     7
 72
     1
  3
Transfer or duplication of this document as well as the utilisation or\Pcommunication of its content are not permitted unless express consent\Pis granted. Violations give rise to claims for damages. All rights reserved\Pin case of patent, utility mo
  1
del or design patent registrations.
  7
CONVERTER_11
 73
     1
 44
0.99639855942377
  0
TEXT
  5
250
330
71
100
AcDbEntity
  8
1
 62
     2
100
AcDbText
 10
-1198.9308430661
 20
-1176.001038936241
 30
0.0
 40
1.8
  1
of
 41
0.9
  7
CONVERTER_11
100
AcDbText
  0
TEXT
  5
251
330
71
100
AcDbEntity
  8
1
 62
     2
100
AcDbText
 10
-1217.1308430661
 20
-1176.001038936241
 30
0.0
 40
1.8
  1
page
 41
0.9
  7
CONVERTER_11
100
AcDbText
  0
TEXT
  5
252
330
71
100
AcDbEntity
  8
1
 62
     2
100
AcDbText
 10
-1208.484578095758
 20
-1176.041270375051
 30
0.0
 40
1.8
  1
1
 41
0.9
  7
CONVERTER_11
100
AcDbText
  0
TEXT
  5
253
330
71
100
AcDbEntity
  8
1
 62
     2
100
AcDbText
 10
-1193.695534256287
 20
-1175.99202172125
 30
0.0
 40
1.8
  1
1
 41
0.9
  7
CONVERTER_11
100
AcDbText
  0
MTEXT
  5
255
330
71
100
AcDbEntity
  8
1
 62
     7
100
AcDbMText
 10
-1135.158440802725
 20
-1173.992021721249
 30
0.0
 40
3.0
 41
0.0
 71
     5
 72
     1
  1
UC-WMTBA (24X5)
  7
CONVERTER_12
 73
     1
 44
1.20048019207683
  0
MTEXT
  5
256
330
71
100
AcDbEntity
  8
1
 62
     2
100
AcDbMText
 10
-1180.7308430661
 20
-1169.74202172125
 30
0.0
 40
1.8
 41
0.0
 71
     1
 72
     1
  1
description
  7
CONVERTER_11
 73
     1
 44
1.20048019207683
  0
MTEXT
  5
257
330
71
100
AcDbEntity
  8
1
 62
     3
100
AcDbMText
 10
-1191.9308430661
 20
-1156.11702172125
 30
0.0
 40
2.5
 41
0.0
 71
     5
 72
     1
  1
DIN A4
  7
CONVERTER_11
 73
     1
 44
1.20048019207683
  0
MTEXT
  5
258
330
71
100
AcDbEntity
  8
1
 62
     7
100
AcDbMText
 10
-1378.086038539349
 20
-1154.74202172125
 30
0.0
 40
3.5
 41
0.0
 71
     5
 72
     1
  1
D
  7
CONVERTER_11
 73
     1
 44
1.20048019207683
  0
MTEXT
  5
259
330
71
100
AcDbEntity
  8
1
 62
     7
100
AcDbMText
 10
-1378.086038539349
 20
-1102.24202172125
 30
0.0
 40
3.5
 41
0.0
 71
     5
 72
     1
  1
C
  7
CONVERTER_11
 73
     1
 44
1.20048019207683
  0
MTEXT
  5
25A
330
71
100
AcDbEntity
  8
1
 62
     7
100
AcDbMText
 10
-1378.086038539349
 20
-1052.24202172125
 30
0.0
 40
3.5
 41
0.0
 71
     5
 72
     1
  1
B
  7
CONVERTER_11
 73
     1
 44
1.20048019207683
  0
MTEXT
  5
25B
330
71
100
AcDbEntity
  8
1
 62
     7
100
AcDbMText
 10
-1378.086038539349
 20
-999.7420217212502
 30
0.0
 40
3.5
 41
0.0
 71
     5
 72
     1
  1
A
  7
CONVERTER_11
 73
     1
 44
1.20048019207683
  0
MTEXT
  5
25C
330
71
100
AcDbEntity
  8
1
 62
     7
100
AcDbMText
 10
-1107.836038539351
 20
-1179.74202172125
 30
0.0
 40
3.5
 41
0.0
 71
     5
 72
     1
  1
6
  7
CONVERTER_11
 73
     1
 44
1.20048019207683
  0
MTEXT
  5
25D
330
71
100
AcDbEntity
  8
1
 62
     7
100
AcDbMText
 10
-1157.08603853935
 20
-1179.74202172125
 30
0.0
 40
3.5
 41
0.0
 71
     5
 72
     1
  1
5
  7
CONVERTER_11
 73
     1
 44
1.20048019207683
  0
MTEXT
  5
25E
330
71
100
AcDbEntity
  8
1
 62
     7
100
AcDbMText
 10
-1207.08603853935
 20
-1179.74202172125
 30
0.0
 40
3.5
 41
0.0
 71
     5
 72
     1
  1
4
  7
CONVERTER_11
 73
     1
 44
1.20048019207683
  0
MTEXT
  5
25F
330
71
100
AcDbEntity
  8
1
 62
     7
100
AcDbMText
 10
-1257.08603853935
 20
-1179.74202172125
 30
0.0
 40
3.5
 41
0.0
 71
     5
 72
     1
  1
3
  7
CONVERTER_11
 73
     1
 44
1.20048019207683
  0
MTEXT
  5
260
330
71
100
AcDbEntity
  8
1
 62
     7
100
AcDbMText
 10
-1307.08603853935
 20
-1179.74202172125
 30
0.0
 40
3.5
 41
0.0
 71
     5
 72
     1
  1
2
  7
CONVERTER_11
 73
     1
 44
1.20048019207683
  0
MTEXT
  5
261
330
71
100
AcDbEntity
  8
1
 62
     7
100
AcDbMText
 10
-1356.33603853935
 20
-1179.74202172125
 30
0.0
 40
3.5
 41
0.0
 71
     5
 72
     1
  1
1
  7
CONVERTER_11
 73
     1
 44
1.20048019207683
  0
MTEXT
  5
262
330
71
100
AcDbEntity
  8
1
 62
     7
100
AcDbMText
 10
-1086.086038539351
 20
-1154.74202172125
 30
0.0
 40
3.5
 41
0.0
 71
     5
 72
     1
  1
D
  7
CONVERTER_11
 73
     1
 44
1.20048019207683
  0
MTEXT
  5
263
330
71
100
AcDbEntity
  8
1
 62
     7
100
AcDbMText
 10
-1086.086038539351
 20
-1052.242021721248
 30
0.0
 40
3.5
 41
0.0
 71
     5
 72
     1
  1
B
  7
CONVERTER_11
 73
     1
 44
1.20048019207683
  0
MTEXT
  5
264
330
71
100
AcDbEntity
  8
1
 62
     7
100
AcDbMText
 10
-1086.086038539351
 20
-999.7420217212502
 30
0.0
 40
3.5
 41
0.0
 71
     5
 72
     1
  1
A
  7
CONVERTER_11
 73
     1
 44
1.20048019207683
  0
MTEXT
  5
265
330
71
100
AcDbEntity
  8
1
 62
     7
100
AcDbMText
 10
-1086.086038539351
 20
-1102.242021721248
 30
0.0
 40
3.5
 41
0.0
 71
     5
 72
     1
  1
C
  7
CONVERTER_11
 73
     1
 44
1.20048019207683
  0
MTEXT
  5
266
330
71
100
AcDbEntity
  8
1
 62
     2
100
AcDbMText
 10
-1252.568857791148
 20
-1164.49202172125
 30
0.0
 40
2.0
 41
0.0
 71
     5
 72
     1
  1
General Information\P- Simplified representation\P- Document excluded from change process\P- Linear dimensions [mm]
  7
CONVERTER_11
 73
     1
 44
1.20048019207683
  0
TEXT
  5
267
330
71
100
AcDbEntity
  8
1
 62
     7
100
AcDbText
 10
-1180.2308430661
 20
-1167.44202172125
 30
0.0
 40
2.5
  1
0820426
 41
0.81
  7
CONVERTER_12
100
AcDbText
  0
MTEXT
  5
268
330
71
100
AcDbEntity
  8
1
 62
     2
100
AcDbMText
 10
-1180.6308430661
 20
-1161.24202172125
 30
0.0
 40
1.8
 41
0.0
 71
     1
 72
     1
  1
ident.-No.
  7
CONVERTER_11
 73
     1
 44
1.20048019207683
  0
MTEXT
  5
269
330
71
100
AcDbEntity
  8
1
 62
     2
100
AcDbMText
 10
-1096.404446821027
 20
-1152.74202172125
 30
0.0
 40
1.8
 41
0.0
 71
     1
 72
     1
  1
scale
  7
CONVERTER_11
 73
     1
 44
1.20048019207683
  0
MTEXT
  5
26B
330
71
100
AcDbEntity
  8
1
 62
     3
100
AcDbMText
 10
-1093.045242680188
 20
-1158.942021721249
 30
0.0
 40
2.5
 41
0.0
 71
     8
 72
     1
  1
1:1
  7
CONVERTER_13
 73
     1
 44
1.32052821128451
  0
TEXT
  5
26C
330
71
100
AcDbEntity
  8
1
 62
     7
100
AcDbText
 10
-1180.6308430661
 20
-1158.94202172125
 30
0.0
 40
2.5
  1
00920646
 41
0.81
  7
CONVERTER_12
100
AcDbText
  0
MTEXT
  5
26E
330
71
100
AcDbEntity
  8
1
 62
     2
100
AcDbMText
 10
-1180.6308430661
 20
-1152.74202172125
 30
0.0
 40
1.8
 41
0.0
 71
     1
 72
     1
  1
document-No. / RI
  7
CONVERTER_14
 73
     1
 44
1.32052821128451
  0
TEXT
  5
26F
330
71
100
AcDbEntity
  8
1
 62
     3
100
AcDbText
 10
-1152.8308430661
 20
-1167.44202172125
 30
0.0
 40
2.5
  1
Customer drawing select
 41
0.81
  7
CONVERTER_12
100
AcDbText
  0
MTEXT
  5
270
330
71
100
AcDbEntity
  8
1
 62
     2
100
AcDbMText
 10
-1152.8308430661
 20
-1161.24202172125
 30
0.0
 40
1.8
 41
0.0
 71
     1
 72
     1
  1
document-type
  7
CONVERTER_11
 73
     1
 44
1.20048019207683
  0
MTEXT
  5
271
330
71
100
AcDbEntity
  8
1
 62
     2
100
AcDbMText
 10
-1123.004446821027
 20
-1152.74202172125
 30
0.0
 40
1.8
 41
0.0
 71
     1
 72
     1
  1
date
  7
CONVERTER_11
 73
     1
 44
1.32052821128451
  0
TEXT
  5
272
330
71
100
AcDbEntity
  8
1
 62
     3
100
AcDbText
 10
-1123.004446821027
 20
-1158.94202172125
 30
0.0
 40
2.5
  1
01.02.2016
 41
0.81
  7
CONVERTER_12
100
AcDbText
  0
TEXT
  5
273
330
71
100
AcDbEntity
  8
1
 62
     7
100
AcDbText
 10
-1160.600930847044
 20
-1158.94202172125
 30
0.0
 40
2.5
  1
00
 41
0.81
  7
CONVERTER_12
100
AcDbText
  0
TEXT
  5
274
330
71
100
AcDbEntity
  8
1
 62
     7
100
AcDbText
 10
-1162.757295344086
 20
-1158.94202172125
 30
0.0
 40
2.5
  1
/
 41
0.9
  7
CONVERTER_11
100
AcDbText
  0
HATCH
  5
275
330
71
100
AcDbEntity
  8
1
  6
Continuous
 62
     2
100
AcDbHatch
 10
0.0
 20
0.0
 30
0.0
210
0.0
220
0.0
230
1.0
  2
_USER
 70
     0
 71
     1
 91
        1
 92
        1
 93
       12
 72
     1
 10
-1200.463342353139
 20
-1166.589331245059
 11
-1201.656135055305
 21
-1166.589331245059
 72
     1
 10
-1201.656135055305
 20
-1166.589331245059
 11
-1201.656135055305
 21
-1165.455059136215
 72
     1
 10
-1201.656135055305
 20
-1165.455059136215
 11
-1202.705792633213
 21
-1165.455059136215
 72
     1
 10
-1202.705792633213
 20
-1165.455059136215
 11
-1202.705792633213
 21
-1166.589331245059
 72
     1
 10
-1202.705792633213
 20
-1166.589331245059
 11
-1203.898585335379
 21
-1166.589331245059
 72
     1
 10
-1203.898585335379
 20
-1166.589331245059
 11
-1203.898585335379
 21
-1163.535521721248
 72
     1
 10
-1203.898585335379
 20
-1163.535521721248
 11
-1202.705792633213
 21
-1163.535521721248
 72
     1
 10
-1202.705792633213
 20
-1163.535521721248
 11
-1202.705792633213
 21
-1164.604355054582
 72
     1
 10
-1202.705792633213
 20
-1164.604355054582
 11
-1201.656135055305
 21
-1164.604355054582
 72
     1
 10
-1201.656135055305
 20
-1164.604355054582
 11
-1201.656135055305
 21
-1163.535521721248
 72
     1
 10
-1201.656135055305
 20
-1163.535521721248
 11
-1200.463342353139
 21
-1163.535521721248
 72
     1
 10
-1200.463342353139
 20
-1163.535521721248
 11
-1200.463342353139
 21
-1166.589331245059
 97
       12
330
1E2
330
1E3
330
1CD
330
1CC
330
1CB
330
1DF
330
1CA
330
1E0
330
1E1
330
1C9
330
1C8
330
1C7
 75
     1
 76
     0
 52
45.0
 41
0.1
 77
     0
 78
     1
 53
45.0
 43
0.0
 44
0.0
 45
-0.0707106781186548
 46
0.0707106781186548
 79
     0
 98
        1
 10
0.0
 20
0.0
  0
HATCH
  5
276
330
71
100
AcDbEntity
  8
1
  6
Continuous
 62
     2
100
AcDbHatch
 10
0.0
 20
0.0
 30
0.0
210
0.0
220
0.0
230
1.0
  2
_USER
 70
     0
 71
     1
 91
        1
 92
        1
 93
       12
 72
     1
 10
-1200.463342353139
 20
-1166.589331245059
 11
-1201.656135055305
 21
-1166.589331245059
 72
     1
 10
-1201.656135055305
 20
-1166.589331245059
 11
-1201.656135055305
 21
-1165.455059136215
 72
     1
 10
-1201.656135055305
 20
-1165.455059136215
 11
-1202.705792633213
 21
-1165.455059136215
 72
     1
 10
-1202.705792633213
 20
-1165.455059136215
 11
-1202.705792633213
 21
-1166.589331245059
 72
     1
 10
-1202.705792633213
 20
-1166.589331245059
 11
-1203.898585335379
 21
-1166.589331245059
 72
     1
 10
-1203.898585335379
 20
-1166.589331245059
 11
-1203.898585335379
 21
-1163.535521721248
 72
     1
 10
-1203.898585335379
 20
-1163.535521721248
 11
-1202.705792633213
 21
-1163.535521721248
 72
     1
 10
-1202.705792633213
 20
-1163.535521721248
 11
-1202.705792633213
 21
-1164.604355054582
 72
     1
 10
-1202.705792633213
 20
-1164.604355054582
 11
-1201.656135055305
 21
-1164.604355054582
 72
     1
 10
-1201.656135055305
 20
-1164.604355054582
 11
-1201.656135055305
 21
-1163.535521721248
 72
     1
 10
-1201.656135055305
 20
-1163.535521721248
 11
-1200.463342353139
 21
-1163.535521721248
 72
     1
 10
-1200.463342353139
 20
-1163.535521721248
 11
-1200.463342353139
 21
-1166.589331245059
 97
       12
330
1E2
330
1E3
330
1CD
330
1CC
330
1CB
330
1DF
330
1CA
330
1E0
330
1E1
330
1C9
330
1C8
330
1C7
 75
     1
 76
     0
 52
45.0
 41
0.1
 77
     0
 78
     1
 53
45.0
 43
0.0
 44
0.0
 45
-0.0707106781186548
 46
0.0707106781186548
 79
     0
 98
        1
 10
0.0
 20
0.0
  0
HATCH
  5
277
330
71
100
AcDbEntity
  8
1
  6
Continuous
 62
     2
100
AcDbHatch
 10
0.0
 20
0.0
 30
0.0
210
0.0
220
0.0
230
1.0
  2
_USER
 70
     0
 71
     1
 91
        1
 92
        1
 93
       10
 72
     1
 10
-1198.221043003951
 20
-1168.203487707627
 11
-1199.461547414204
 21
-1166.894712197422
 72
     1
 10
-1199.461547414204
 20
-1166.894712197422
 11
-1200.654340116371
 21
-1166.894712197422
 72
     1
 10
-1200.654340116371
 20
-1166.894712197422
 11
-1200.654340116371
 21
-1169.948521721233
 72
     1
 10
-1200.654340116371
 20
-1169.948521721233
 11
-1199.461547414204
 21
-1169.948521721233
 72
     1
 10
-1199.461547414204
 20
-1169.948521721233
 11
-1199.461547414204
 21
-1168.639746211029
 72
     1
 10
-1199.461547414204
 20
-1168.639746211029
 11
-1198.221043003951
 21
-1169.948521721233
 72
     1
 10
-1198.221043003951
 20
-1169.948521721233
 11
-1197.028250301784
 21
-1169.948521721233
 72
     1
 10
-1197.028250301784
 20
-1169.948521721233
 11
-1197.028250301784
 21
-1166.894712197422
 72
     1
 10
-1197.028250301784
 20
-1166.894712197422
 11
-1198.221043003951
 21
-1166.894712197422
 72
     1
 10
-1198.221043003951
 20
-1166.894712197422
 11
-1198.221043003951
 21
-1168.203487707627
 97
       10
330
1F0
330
1C0
330
1BF
330
1C2
330
1EB
330
1EC
330
1C1
330
1ED
330
1EE
330
1EF
 75
     1
 76
     0
 52
45.0
 41
0.1
 77
     0
 78
     1
 53
45.0
 43
0.0
 44
0.0
 45
-0.0707106781186548
 46
0.0707106781186548
 79
     0
 98
        1
 10
0.0
 20
0.0
  0
HATCH
  5
278
330
71
100
AcDbEntity
  8
1
  6
Continuous
 62
     2
100
AcDbHatch
 10
0.0
 20
0.0
 30
0.0
210
0.0
220
0.0
230
1.0
  2
_USER
 70
     0
 71
     1
 91
        1
 92
        1
 93
       10
 72
     1
 10
-1198.221043003951
 20
-1168.203487707627
 11
-1199.461547414204
 21
-1166.894712197422
 72
     1
 10
-1199.461547414204
 20
-1166.894712197422
 11
-1200.654340116371
 21
-1166.894712197422
 72
     1
 10
-1200.654340116371
 20
-1166.894712197422
 11
-1200.654340116371
 21
-1169.948521721233
 72
     1
 10
-1200.654340116371
 20
-1169.948521721233
 11
-1199.461547414204
 21
-1169.948521721233
 72
     1
 10
-1199.461547414204
 20
-1169.948521721233
 11
-1199.461547414204
 21
-1168.639746211029
 72
     1
 10
-1199.461547414204
 20
-1168.639746211029
 11
-1198.221043003951
 21
-1169.948521721233
 72
     1
 10
-1198.221043003951
 20
-1169.948521721233
 11
-1197.028250301784
 21
-1169.948521721233
 72
     1
 10
-1197.028250301784
 20
-1169.948521721233
 11
-1197.028250301784
 21
-1166.894712197422
 72
     1
 10
-1197.028250301784
 20
-1166.894712197422
 11
-1198.221043003951
 21
-1166.894712197422
 72
     1
 10
-1198.221043003951
 20
-1166.894712197422
 11
-1198.221043003951
 21
-1168.203487707627
 97
       10
330
1F0
330
1C0
330
1BF
330
1C2
330
1EB
330
1EC
330
1C1
330
1ED
330
1EE
330
1EF
 75
     1
 76
     0
 52
45.0
 41
0.1
 77
     0
 78
     1
 53
45.0
 43
0.0
 44
0.0
 45
-0.0707106781186548
 46
0.0707106781186548
 79
     0
 98
        1
 10
0.0
 20
0.0
  0
HATCH
  5
279
330
71
100
AcDbEntity
  8
1
  6
Continuous
 62
     2
100
AcDbHatch
 10
0.0
 20
0.0
 30
0.0
210
0.0
220
0.0
230
1.0
  2
_USER
 70
     0
 71
     1
 91
        1
 92
        1
 93
       10
 72
     1
 10
-1192.972604183531
 20
-1164.844297231453
 11
-1194.213108593785
 21
-1163.535521721248
 72
     1
 10
-1194.213108593785
 20
-1163.535521721248
 11
-1195.405901295951
 21
-1163.535521721248
 72
     1
 10
-1195.405901295951
 20
-1163.535521721248
 11
-1195.405901295951
 21
-1166.589331245059
 72
     1
 10
-1195.405901295951
 20
-1166.589331245059
 11
-1194.213108593785
 21
-1166.589331245059
 72
     1
 10
-1194.213108593785
 20
-1166.589331245059
 11
-1194.213108593785
 21
-1165.280555734854
 72
     1
 10
-1194.213108593785
 20
-1165.280555734854
 11
-1192.972604183531
 21
-1166.589331245059
 72
     1
 10
-1192.972604183531
 20
-1166.589331245059
 11
-1191.779811481364
 21
-1166.589331245059
 72
     1
 10
-1191.779811481364
 20
-1166.589331245059
 11
-1191.779811481364
 21
-1163.535521721248
 72
     1
 10
-1191.779811481364
 20
-1163.535521721248
 11
-1192.972604183531
 21
-1163.535521721248
 72
     1
 10
-1192.972604183531
 20
-1163.535521721248
 11
-1192.972604183531
 21
-1164.844297231453
 97
       10
330
1F5
330
1BD
330
1BC
330
1F6
330
1BB
330
1F1
330
1F2
330
1F3
330
1F4
330
1BE
 75
     1
 76
     0
 52
45.0
 41
0.1
 77
     0
 78
     1
 53
45.0
 43
0.0
 44
0.0
 45
-0.0707106781186548
 46
0.0707106781186548
 79
     0
 98
        1
 10
0.0
 20
0.0
  0
HATCH
  5
27A
330
71
100
AcDbEntity
  8
1
  6
Continuous
 62
     2
100
AcDbHatch
 10
0.0
 20
0.0
 30
0.0
210
0.0
220
0.0
230
1.0
  2
_USER
 70
     0
 71
     1
 91
        1
 92
        1
 93
       10
 72
     1
 10
-1192.972604183531
 20
-1164.844297231453
 11
-1194.213108593785
 21
-1163.535521721248
 72
     1
 10
-1194.213108593785
 20
-1163.535521721248
 11
-1195.405901295951
 21
-1163.535521721248
 72
     1
 10
-1195.405901295951
 20
-1163.535521721248
 11
-1195.405901295951
 21
-1166.589331245059
 72
     1
 10
-1195.405901295951
 20
-1166.589331245059
 11
-1194.213108593785
 21
-1166.589331245059
 72
     1
 10
-1194.213108593785
 20
-1166.589331245059
 11
-1194.213108593785
 21
-1165.280555734854
 72
     1
 10
-1194.213108593785
 20
-1165.280555734854
 11
-1192.972604183531
 21
-1166.589331245059
 72
     1
 10
-1192.972604183531
 20
-1166.589331245059
 11
-1191.779811481364
 21
-1166.589331245059
 72
     1
 10
-1191.779811481364
 20
-1166.589331245059
 11
-1191.779811481364
 21
-1163.535521721248
 72
     1
 10
-1191.779811481364
 20
-1163.535521721248
 11
-1192.972604183531
 21
-1163.535521721248
 72
     1
 10
-1192.972604183531
 20
-1163.535521721248
 11
-1192.972604183531
 21
-1164.844297231453
 97
       10
330
1F5
330
1BD
330
1BC
330
1F6
330
1BB
330
1F1
330
1F2
330
1F3
330
1F4
330
1BE
 75
     1
 76
     0
 52
45.0
 41
0.1
 77
     0
 78
     1
 53
45.0
 43
0.0
 44
0.0
 45
-0.0707106781186548
 46
0.0707106781186548
 79
     0
 98
        1
 10
0.0
 20
0.0
  0
HATCH
  5
27B
330
71
100
AcDbEntity
  8
1
  6
Continuous
 62
     2
100
AcDbHatch
 10
0.0
 20
0.0
 30
0.0
210
0.0
220
0.0
230
1.0
  2
_USER
 70
     0
 71
     1
 91
        1
 92
        1
 93
        8
 72
     1
 10
-1194.070124400411
 20
-1166.894712197422
 11
-1196.885115177524
 21
-1166.894712197422
 72
     1
 10
-1196.885115177524
 20
-1166.894712197422
 11
-1196.885115177524
 21
-1167.679977503546
 72
     1
 10
-1196.885115177524
 20
-1167.679977503546
 11
-1196.074016140049
 21
-1167.679977503546
 72
     1
 10
-1196.074016140049
 20
-1167.679977503546
 11
-1196.074016140049
 21
-1169.948521721233
 72
     1
 10
-1196.074016140049
 20
-1169.948521721233
 11
-1194.881223437883
 21
-1169.948521721233
 72
     1
 10
-1194.881223437883
 20
-1169.948521721233
 11
-1194.881223437883
 21
-1167.679977503546
 72
     1
 10
-1194.881223437883
 20
-1167.679977503546
 11
-1194.070124400411
 21
-1167.679977503546
 72
     1
 10
-1194.070124400411
 20
-1167.679977503546
 11
-1194.070124400411
 21
-1166.894712197422
 97
        8
330
1B7
330
1F7
330
1B6
330
1F8
330
1F9
330
1BA
330
1B9
330
1B8
 75
     1
 76
     0
 52
45.0
 41
0.1
 77
     0
 78
     1
 53
45.0
 43
0.0
 44
0.0
 45
-0.0707106781186548
 46
0.0707106781186548
 79
     0
 98
        1
 10
0.0
 20
0.0
  0
HATCH
  5
27C
330
71
100
AcDbEntity
  8
1
  6
Continuous
 62
     2
100
AcDbHatch
 10
0.0
 20
0.0
 30
0.0
210
0.0
220
0.0
230
1.0
  2
_USER
 70
     0
 71
     1
 91
        1
 92
        1
 93
        8
 72
     1
 10
-1194.070124400411
 20
-1166.894712197422
 11
-1196.885115177524
 21
-1166.894712197422
 72
     1
 10
-1196.885115177524
 20
-1166.894712197422
 11
-1196.885115177524
 21
-1167.679977503546
 72
     1
 10
-1196.885115177524
 20
-1167.679977503546
 11
-1196.074016140049
 21
-1167.679977503546
 72
     1
 10
-1196.074016140049
 20
-1167.679977503546
 11
-1196.074016140049
 21
-1169.948521721233
 72
     1
 10
-1196.074016140049
 20
-1169.948521721233
 11
-1194.881223437883
 21
-1169.948521721233
 72
     1
 10
-1194.881223437883
 20
-1169.948521721233
 11
-1194.881223437883
 21
-1167.679977503546
 72
     1
 10
-1194.881223437883
 20
-1167.679977503546
 11
-1194.070124400411
 21
-1167.679977503546
 72
     1
 10
-1194.070124400411
 20
-1167.679977503546
 11
-1194.070124400411
 21
-1166.894712197422
 97
        8
330
1B7
330
1F7
330
1B6
330
1F8
330
1F9
330
1BA
330
1B9
330
1B8
 75
     1
 76
     0
 52
45.0
 41
0.1
 77
     0
 78
     1
 53
45.0
 43
0.0
 44
0.0
 45
-0.0707106781186548
 46
0.0707106781186548
 79
     0
 98
        1
 10
0.0
 20
0.0
  0
HATCH
  5
27D
330
71
100
AcDbEntity
  8
1
  6
Continuous
 62
     2
100
AcDbHatch
 10
0.0
 20
0.0
 30
0.0
210
0.0
220
0.0
230
1.0
  2
_USER
 70
     0
 71
     1
 91
        2
 92
        1
 93
        8
 72
     1
 10
-1191.931696944463
 20
-1169.948521721233
 11
-1192.143176997939
 21
-1169.407561177015
 72
     1
 10
-1192.143176997939
 20
-1169.407561177015
 11
-1193.275618574613
 21
-1169.407561177015
 72
     1
 10
-1193.275618574613
 20
-1169.407561177015
 11
-1193.487098628089
 21
-1169.948521721233
 72
     1
 10
-1193.487098628089
 20
-1169.948521721233
 11
-1194.727603038342
 21
-1169.948521721233
 72
     1
 10
-1194.727603038342
 20
-1169.948521721233
 11
-1193.329649991403
 21
-1166.894712197422
 72
     1
 10
-1193.329649991403
 20
-1166.894712197422
 11
-1192.08914558115
 21
-1166.894712197422
 72
     1
 10
-1192.08914558115
 20
-1166.894712197422
 11
-1190.69119253421
 21
-1169.948521721233
 72
     1
 10
-1190.69119253421
 20
-1169.948521721233
 11
-1191.931696944463
 21
-1169.948521721233
 97
        8
330
1FB
330
1FC
330
1B3
330
1FD
330
1B2
330
1B5
330
1FA
330
1B4
 92
       16
 93
        3
 72
     1
 10
-1193.009563023468
 20
-1168.726997911709
 11
-1192.709397786276
 21
-1167.959182945722
 72
     1
 10
-1192.709397786276
 20
-1167.959182945722
 11
-1192.409232549086
 21
-1168.726997911709
 72
     1
 10
-1192.409232549086
 20
-1168.726997911709
 11
-1193.009563023468
 21
-1168.726997911709
 97
        3
330
1B1
330
1FF
330
1FE
 75
     1
 76
     0
 52
45.0
 41
0.1
 77
     0
 78
     1
 53
45.0
 43
0.0
 44
0.0
 45
-0.0707106781186548
 46
0.0707106781186548
 79
     0
 98
        1
 10
0.0
 20
0.0
  0
HATCH
  5
27E
330
71
100
AcDbEntity
  8
1
  6
Continuous
 62
     2
100
AcDbHatch
 10
0.0
 20
0.0
 30
0.0
210
0.0
220
0.0
230
1.0
  2
_USER
 70
     0
 71
     1
 91
        2
 92
        1
 93
        8
 72
     1
 10
-1191.931696944463
 20
-1169.948521721233
 11
-1192.143176997939
 21
-1169.407561177015
 72
     1
 10
-1192.143176997939
 20
-1169.407561177015
 11
-1193.275618574613
 21
-1169.407561177015
 72
     1
 10
-1193.275618574613
 20
-1169.407561177015
 11
-1193.487098628089
 21
-1169.948521721233
 72
     1
 10
-1193.487098628089
 20
-1169.948521721233
 11
-1194.727603038342
 21
-1169.948521721233
 72
     1
 10
-1194.727603038342
 20
-1169.948521721233
 11
-1193.329649991403
 21
-1166.894712197422
 72
     1
 10
-1193.329649991403
 20
-1166.894712197422
 11
-1192.08914558115
 21
-1166.894712197422
 72
     1
 10
-1192.08914558115
 20
-1166.894712197422
 11
-1190.69119253421
 21
-1169.948521721233
 72
     1
 10
-1190.69119253421
 20
-1169.948521721233
 11
-1191.931696944463
 21
-1169.948521721233
 97
        8
330
1FB
330
1FC
330
1B3
330
1FD
330
1B2
330
1B5
330
1FA
330
1B4
 92
       16
 93
        3
 72
     1
 10
-1193.009563023468
 20
-1168.726997911709
 11
-1192.709397786276
 21
-1167.959182945722
 72
     1
 10
-1192.709397786276
 20
-1167.959182945722
 11
-1192.409232549086
 21
-1168.726997911709
 72
     1
 10
-1192.409232549086
 20
-1168.726997911709
 11
-1193.009563023468
 21
-1168.726997911709
 97
        3
330
1B1
330
1FF
330
1FE
 75
     1
 76
     0
 52
45.0
 41
0.1
 77
     0
 78
     1
 53
45.0
 43
0.0
 44
0.0
 45
-0.0707106781186548
 46
0.0707106781186548
 79
     0
 98
        1
 10
0.0
 20
0.0
  0
HATCH
  5
27F
330
71
100
AcDbEntity
  8
1
  6
Continuous
 62
     2
100
AcDbHatch
 10
0.0
 20
0.0
 30
0.0
210
0.0
220
0.0
230
1.0
  2
_USER
 70
     0
 71
     1
 91
        1
 92
        1
 93
        4
 72
     1
 10
-1190.300748530678
 20
-1166.589331245059
 11
-1191.54125294093
 21
-1166.589331245059
 72
     1
 10
-1191.54125294093
 20
-1166.589331245059
 11
-1191.54125294093
 21
-1163.535521721248
 72
     1
 10
-1191.54125294093
 20
-1163.535521721248
 11
-1190.300748530678
 21
-1163.535521721248
 72
     1
 10
-1190.300748530678
 20
-1163.535521721248
 11
-1190.300748530678
 21
-1166.589331245059
 97
        4
330
1AE
330
1B0
330
200
330
1AF
 75
     1
 76
     0
 52
45.0
 41
0.1
 77
     0
 78
     1
 53
45.0
 43
0.0
 44
0.0
 45
-0.0707106781186548
 46
0.0707106781186548
 79
     0
 98
        1
 10
0.0
 20
0.0
  0
HATCH
  5
280
330
71
100
AcDbEntity
  8
1
  6
Continuous
 62
     2
100
AcDbHatch
 10
0.0
 20
0.0
 30
0.0
210
0.0
220
0.0
230
1.0
  2
_USER
 70
     0
 71
     1
 91
        1
 92
        1
 93
        4
 72
     1
 10
-1190.300748530678
 20
-1166.589331245059
 11
-1191.54125294093
 21
-1166.589331245059
 72
     1
 10
-1191.54125294093
 20
-1166.589331245059
 11
-1191.54125294093
 21
-1163.535521721248
 72
     1
 10
-1191.54125294093
 20
-1163.535521721248
 11
-1190.300748530678
 21
-1163.535521721248
 72
     1
 10
-1190.300748530678
 20
-1163.535521721248
 11
-1190.300748530678
 21
-1166.589331245059
 97
        4
330
1AE
330
1B0
330
200
330
1AF
 75
     1
 76
     0
 52
45.0
 41
0.1
 77
     0
 78
     1
 53
45.0
 43
0.0
 44
0.0
 45
-0.0707106781186548
 46
0.0707106781186548
 79
     0
 98
        1
 10
0.0
 20
0.0
  0
HATCH
  5
281
330
71
100
AcDbEntity
  8
1
  6
Continuous
 62
     2
100
AcDbHatch
 10
0.0
 20
0.0
 30
0.0
210
0.0
220
0.0
230
1.0
  2
_USER
 70
     0
 71
     1
 91
        1
 92
        1
 93
       12
 72
     1
 10
-1186.078262365007
 20
-1163.535521721248
 11
-1187.380791995773
 21
-1165.008472251284
 72
     1
 10
-1187.380791995773
 20
-1165.008472251284
 11
-1185.982838948833
 21
-1166.589331245059
 72
     1
 10
-1185.982838948833
 20
-1166.589331245059
 11
-1187.385563166581
 21
-1166.589331245059
 72
     1
 10
-1187.385563166581
 20
-1166.589331245059
 11
-1188.082154104647
 21
-1165.801599459765
 72
     1
 10
-1188.082154104647
 20
-1165.801599459765
 11
-1188.778745042713
 21
-1166.589331245059
 72
     1
 10
-1188.778745042713
 20
-1166.589331245059
 11
-1190.181469260461
 21
-1166.589331245059
 72
     1
 10
-1190.181469260461
 20
-1166.589331245059
 11
-1188.78351621352
 21
-1165.008472251284
 72
     1
 10
-1188.78351621352
 20
-1165.008472251284
 11
-1190.086045844288
 21
-1163.535521721248
 72
     1
 10
-1190.086045844288
 20
-1163.535521721248
 11
-1188.683321626539
 21
-1163.535521721248
 72
     1
 10
-1188.683321626539
 20
-1163.535521721248
 11
-1188.082154104647
 21
-1164.215345042803
 72
     1
 10
-1188.082154104647
 20
-1164.215345042803
 11
-1187.480986582754
 21
-1163.535521721248
 72
     1
 10
-1187.480986582754
 20
-1163.535521721248
 11
-1186.078262365007
 21
-1163.535521721248
 97
       12
330
1A9
330
1A8
330
1A7
330
204
330
205
330
201
330
202
330
1AD
330
1AC
330
1AB
330
1AA
330
203
 75
     1
 76
     0
 52
45.0
 41
0.1
 77
     0
 78
     1
 53
45.0
 43
0.0
 44
0.0
 45
-0.0707106781186548
 46
0.0707106781186548
 79
     0
 98
        1
 10
0.0
 20
0.0
  0
HATCH
  5
282
330
71
100
AcDbEntity
  8
1
  6
Continuous
 62
     2
100
AcDbHatch
 10
0.0
 20
0.0
 30
0.0
210
0.0
220
0.0
230
1.0
  2
_USER
 70
     0
 71
     1
 91
        1
 92
        1
 93
       12
 72
     1
 10
-1186.078262365007
 20
-1163.535521721248
 11
-1187.380791995773
 21
-1165.008472251284
 72
     1
 10
-1187.380791995773
 20
-1165.008472251284
 11
-1185.982838948833
 21
-1166.589331245059
 72
     1
 10
-1185.982838948833
 20
-1166.589331245059
 11
-1187.385563166581
 21
-1166.589331245059
 72
     1
 10
-1187.385563166581
 20
-1166.589331245059
 11
-1188.082154104647
 21
-1165.801599459765
 72
     1
 10
-1188.082154104647
 20
-1165.801599459765
 11
-1188.778745042713
 21
-1166.589331245059
 72
     1
 10
-1188.778745042713
 20
-1166.589331245059
 11
-1190.181469260461
 21
-1166.589331245059
 72
     1
 10
-1190.181469260461
 20
-1166.589331245059
 11
-1188.78351621352
 21
-1165.008472251284
 72
     1
 10
-1188.78351621352
 20
-1165.008472251284
 11
-1190.086045844288
 21
-1163.535521721248
 72
     1
 10
-1190.086045844288
 20
-1163.535521721248
 11
-1188.683321626539
 21
-1163.535521721248
 72
     1
 10
-1188.683321626539
 20
-1163.535521721248
 11
-1188.082154104647
 21
-1164.215345042803
 72
     1
 10
-1188.082154104647
 20
-1164.215345042803
 11
-1187.480986582754
 21
-1163.535521721248
 72
     1
 10
-1187.480986582754
 20
-1163.535521721248
 11
-1186.078262365007
 21
-1163.535521721248
 97
       12
330
1A9
330
1A8
330
1A7
330
204
330
205
330
201
330
202
330
1AD
330
1AC
330
1AB
330
1AA
330
203
 75
     1
 76
     0
 52
45.0
 41
0.1
 77
     0
 78
     1
 53
45.0
 43
0.0
 44
0.0
 45
-0.0707106781186548
 46
0.0707106781186548
 79
     0
 98
        1
 10
0.0
 20
0.0
  0
HATCH
  5
283
330
71
100
AcDbEntity
  8
1
  6
Continuous
 62
     2
100
AcDbHatch
 10
0.0
 20
0.0
 30
0.0
210
0.0
220
0.0
230
1.0
  2
_USER
 70
     0
 71
     1
 91
        2
 92
        1
 93
        6
 72
     1
 10
-1205.095997779153
 20
-1165.646253003915
 11
-1205.854765366933
 21
-1165.646253003915
 72
     1
 10
-1205.854765366933
 20
-1165.646253003915
 11
-1205.854765366933
 21
-1166.589331245059
 72
     1
 10
-1205.854765366933
 20
-1166.589331245059
 11
-1207.095269777187
 21
-1166.589331245059
 72
     1
 10
-1207.095269777187
 20
-1166.589331245059
 11
-1207.095269777187
 21
-1163.535521721248
 72
     1
 10
-1207.095269777187
 20
-1163.535521721248
 11
-1205.095997779153
 21
-1163.535521721248
 72
     2
 10
-1205.095997779153
 20
-1164.590887362581
 40
1.055365641333992
 50
270.0
 51
450.0
 73
     0
 97
        6
330
1D1
330
1D0
330
1DD
330
1DC
330
1D2
330
222
 92
       16
 93
        4
 72
     2
 10
-1205.537470305391
 20
-1164.551491391359
 40
0.3528638246709761
 50
270.0
 51
450.0
 73
     1
 72
     1
 10
-1205.537470305391
 20
-1164.198627566688
 11
-1205.854765366933
 21
-1164.198627566688
 72
     1
 10
-1205.854765366933
 20
-1164.198627566688
 11
-1205.854765366933
 21
-1164.90435521603
 72
     1
 10
-1205.854765366933
 20
-1164.90435521603
 11
-1205.537470305391
 21
-1164.90435521603
 97
        4
330
236
330
1CE
330
1DE
330
1CF
 75
     1
 76
     0
 52
45.0
 41
0.1
 77
     0
 78
     1
 53
45.0
 43
0.0
 44
0.0
 45
-0.0707106781186548
 46
0.0707106781186548
 79
     0
 98
        1
 10
0.0
 20
0.0
  0
HATCH
  5
284
330
71
100
AcDbEntity
  8
1
  6
Continuous
 62
     2
100
AcDbHatch
 10
0.0
 20
0.0
 30
0.0
210
0.0
220
0.0
230
1.0
  2
_USER
 70
     0
 71
     1
 91
        2
 92
        1
 93
        6
 72
     1
 10
-1205.095997779153
 20
-1165.646253003915
 11
-1205.854765366933
 21
-1165.646253003915
 72
     1
 10
-1205.854765366933
 20
-1165.646253003915
 11
-1205.854765366933
 21
-1166.589331245059
 72
     1
 10
-1205.854765366933
 20
-1166.589331245059
 11
-1207.095269777187
 21
-1166.589331245059
 72
     1
 10
-1207.095269777187
 20
-1166.589331245059
 11
-1207.095269777187
 21
-1163.535521721248
 72
     1
 10
-1207.095269777187
 20
-1163.535521721248
 11
-1205.095997779153
 21
-1163.535521721248
 72
     2
 10
-1205.095997779153
 20
-1164.590887362581
 40
1.055365641333992
 50
270.0
 51
450.0
 73
     0
 97
        6
330
1D1
330
1D0
330
1DD
330
1DC
330
1D2
330
222
 92
       16
 93
        4
 72
     2
 10
-1205.537470305391
 20
-1164.551491391359
 40
0.3528638246709761
 50
270.0
 51
450.0
 73
     1
 72
     1
 10
-1205.537470305391
 20
-1164.198627566688
 11
-1205.854765366933
 21
-1164.198627566688
 72
     1
 10
-1205.854765366933
 20
-1164.198627566688
 11
-1205.854765366933
 21
-1164.90435521603
 72
     1
 10
-1205.854765366933
 20
-1164.90435521603
 11
-1205.537470305391
 21
-1164.90435521603
 97
        4
330
236
330
1CE
330
1DE
330
1CF
 75
     1
 76
     0
 52
45.0
 41
0.1
 77
     0
 78
     1
 53
45.0
 43
0.0
 44
0.0
 45
-0.0707106781186548
 46
0.0707106781186548
 79
     0
 98
        1
 10
0.0
 20
0.0
  0
HATCH
  5
285
330
71
100
AcDbEntity
  8
1
  6
Continuous
 62
     2
100
AcDbHatch
 10
0.0
 20
0.0
 30
0.0
210
0.0
220
0.0
230
1.0
  2
_USER
 70
     0
 71
     1
 91
        2
 92
        1
 93
        4
 72
     2
 10
-1202.539455030794
 20
-1168.960191969631
 40
2.065479772209248
 50
62.45185182431621
 51
117.5481481756391
 73
     1
 72
     2
 10
-1202.820394922627
 20
-1168.421616959328
 40
1.458034083651785
 50
117.5481481756388
 51
242.4518518243406
 73
     1
 72
     2
 10
-1202.539455030794
 20
-1167.883041949025
 40
2.065479772207399
 50
242.4518518243464
 51
297.5481481756984
 73
     1
 72
     2
 10
-1202.25851513896
 20
-1168.421616959328
 40
1.458034083651197
 50
297.5481481756912
 51
422.4518518243296
 73
     1
 97
        4
330
22E
330
22D
330
22F
330
22C
 92
       16
 93
        4
 72
     2
 10
-1202.73919506714
 20
-1168.421616959328
 40
0.7717997786795062
 50
321.8795802028254
 51
398.1204197971746
 73
     1
 72
     2
 10
-1202.539455030794
 20
-1168.264885781208
 40
0.5179085730138424
 50
38.12041979718787
 51
141.8795802028121
 73
     1
 72
     2
 10
-1202.339714994448
 20
-1168.421616959328
 40
0.7717997786795062
 50
141.8795802028254
 51
218.1204197971746
 73
     1
 72
     2
 10
-1202.539455030794
 20
-1168.578348137448
 40
0.5179085730138424
 50
218.1204197971879
 51
321.8795802028121
 73
     1
 97
        4
330
24A
330
247
330
248
330
249
 75
     1
 76
     0
 52
45.0
 41
0.1
 77
     0
 78
     1
 53
45.0
 43
0.0
 44
0.0
 45
-0.0707106781186548
 46
0.0707106781186548
 79
     0
 98
        1
 10
0.0
 20
0.0
  0
HATCH
  5
286
330
71
100
AcDbEntity
  8
1
  6
Continuous
 62
     2
100
AcDbHatch
 10
0.0
 20
0.0
 30
0.0
210
0.0
220
0.0
230
1.0
  2
_USER
 70
     0
 71
     1
 91
        2
 92
        1
 93
        4
 72
     2
 10
-1202.539455030794
 20
-1168.960191969631
 40
2.065479772209248
 50
62.45185182431621
 51
117.5481481756391
 73
     1
 72
     2
 10
-1202.820394922627
 20
-1168.421616959328
 40
1.458034083651785
 50
117.5481481756388
 51
242.4518518243406
 73
     1
 72
     2
 10
-1202.539455030794
 20
-1167.883041949025
 40
2.065479772207399
 50
242.4518518243464
 51
297.5481481756984
 73
     1
 72
     2
 10
-1202.25851513896
 20
-1168.421616959328
 40
1.458034083651197
 50
297.5481481756912
 51
422.4518518243296
 73
     1
 97
        4
330
22E
330
22D
330
22F
330
22C
 92
       16
 93
        4
 72
     2
 10
-1202.73919506714
 20
-1168.421616959328
 40
0.7717997786795062
 50
321.8795802028254
 51
398.1204197971746
 73
     1
 72
     2
 10
-1202.539455030794
 20
-1168.264885781208
 40
0.5179085730138424
 50
38.12041979718787
 51
141.8795802028121
 73
     1
 72
     2
 10
-1202.339714994448
 20
-1168.421616959328
 40
0.7717997786795062
 50
141.8795802028254
 51
218.1204197971746
 73
     1
 72
     2
 10
-1202.539455030794
 20
-1168.578348137448
 40
0.5179085730138424
 50
218.1204197971879
 51
321.8795802028121
 73
     1
 97
        4
330
24A
330
247
330
248
330
249
 75
     1
 76
     0
 52
45.0
 41
0.1
 77
     0
 78
     1
 53
45.0
 43
0.0
 44
0.0
 45
-0.0707106781186548
 46
0.0707106781186548
 79
     0
 98
        1
 10
0.0
 20
0.0
  0
HATCH
  5
287
330
71
100
AcDbEntity
  8
1
  6
Continuous
 62
     2
100
AcDbHatch
 10
0.0
 20
0.0
 30
0.0
210
0.0
220
0.0
230
1.0
  2
_USER
 70
     0
 71
     1
 91
        2
 92
        1
 93
       12
 72
     1
 10
-1195.644459836385
 20
-1164.233535326691
 11
-1196.980387662812
 21
-1164.233535326691
 72
     1
 10
-1196.980387662812
 20
-1164.233535326691
 11
-1196.980387662812
 21
-1164.713419680432
 72
     1
 10
-1196.980387662812
 20
-1164.713419680432
 11
-1195.644459836385
 21
-1164.713419680432
 72
     1
 10
-1195.644459836385
 20
-1164.713419680432
 11
-1195.644459836385
 21
-1165.411433285875
 72
     1
 10
-1195.644459836385
 20
-1165.411433285875
 11
-1196.980387662812
 21
-1165.411433285875
 72
     1
 10
-1196.980387662812
 20
-1165.411433285875
 11
-1196.980387662812
 21
-1165.891317639617
 72
     1
 10
-1196.980387662812
 20
-1165.891317639617
 11
-1195.644459836385
 21
-1165.891317639617
 72
     1
 10
-1195.644459836385
 20
-1165.891317639617
 11
-1195.644459836385
 21
-1166.589331245059
 72
     1
 10
-1195.644459836385
 20
-1166.589331245059
 11
-1198.794779560166
 21
-1166.589331245059
 72
     2
 10
-1198.794779560166
 20
-1165.062426483154
 40
1.526904761906053
 50
90.0
 51
270.0
 73
     0
 72
     1
 10
-1198.794779560166
 20
-1163.535521721248
 11
-1195.644459836385
 21
-1163.535521721248
 72
     1
 10
-1195.644459836385
 20
-1163.535521721248
 11
-1195.644459836385
 21
-1164.233535326691
 97
       12
330
1E5
330
237
330
1E6
330
1E7
330
1E8
330
1E9
330
1C6
330
1C5
330
1C4
330
1C3
330
1EA
330
1E4
 92
       16
 93
        4
 72
     2
 10
-1198.57850755
 20
-1164.905695305033
 40
0.517908573013281
 50
38.12041979710871
 51
141.8795802028913
 73
     1
 72
     2
 10
-1198.378767513654
 20
-1165.062426483154
 40
0.7717997786795062
 50
141.8795802028254
 51
218.1204197971746
 73
     1
 72
     2
 10
-1198.57850755
 20
-1165.219157661274
 40
0.5179085730138424
 50
218.1204197971879
 51
321.8795802028121
 73
     1
 72
     2
 10
-1198.778247586346
 20
-1165.062426483154
 40
0.7717997786795062
 50
321.8795802028254
 51
398.1204197971746
 73
     1
 97
        4
330
231
330
230
330
22B
330
22A
 75
     1
 76
     0
 52
45.0
 41
0.1
 77
     0
 78
     1
 53
45.0
 43
0.0
 44
0.0
 45
-0.0707106781186548
 46
0.0707106781186548
 79
     0
 98
        1
 10
0.0
 20
0.0
  0
HATCH
  5
288
330
71
100
AcDbEntity
  8
1
  6
Continuous
 62
     2
100
AcDbHatch
 10
0.0
 20
0.0
 30
0.0
210
0.0
220
0.0
230
1.0
  2
_USER
 70
     0
 71
     1
 91
        2
 92
        1
 93
       12
 72
     1
 10
-1195.644459836385
 20
-1164.233535326691
 11
-1196.980387662812
 21
-1164.233535326691
 72
     1
 10
-1196.980387662812
 20
-1164.233535326691
 11
-1196.980387662812
 21
-1164.713419680432
 72
     1
 10
-1196.980387662812
 20
-1164.713419680432
 11
-1195.644459836385
 21
-1164.713419680432
 72
     1
 10
-1195.644459836385
 20
-1164.713419680432
 11
-1195.644459836385
 21
-1165.411433285875
 72
     1
 10
-1195.644459836385
 20
-1165.411433285875
 11
-1196.980387662812
 21
-1165.411433285875
 72
     1
 10
-1196.980387662812
 20
-1165.411433285875
 11
-1196.980387662812
 21
-1165.891317639617
 72
     1
 10
-1196.980387662812
 20
-1165.891317639617
 11
-1195.644459836385
 21
-1165.891317639617
 72
     1
 10
-1195.644459836385
 20
-1165.891317639617
 11
-1195.644459836385
 21
-1166.589331245059
 72
     1
 10
-1195.644459836385
 20
-1166.589331245059
 11
-1198.794779560166
 21
-1166.589331245059
 72
     2
 10
-1198.794779560166
 20
-1165.062426483154
 40
1.526904761906053
 50
90.0
 51
270.0
 73
     0
 72
     1
 10
-1198.794779560166
 20
-1163.535521721248
 11
-1195.644459836385
 21
-1163.535521721248
 72
     1
 10
-1195.644459836385
 20
-1163.535521721248
 11
-1195.644459836385
 21
-1164.233535326691
 97
       12
330
1E5
330
237
330
1E6
330
1E7
330
1E8
330
1E9
330
1C6
330
1C5
330
1C4
330
1C3
330
1EA
330
1E4
 92
       16
 93
        4
 72
     2
 10
-1198.57850755
 20
-1164.905695305033
 40
0.517908573013281
 50
38.12041979710871
 51
141.8795802028913
 73
     1
 72
     2
 10
-1198.378767513654
 20
-1165.062426483154
 40
0.7717997786795062
 50
141.8795802028254
 51
218.1204197971746
 73
     1
 72
     2
 10
-1198.57850755
 20
-1165.219157661274
 40
0.5179085730138424
 50
218.1204197971879
 51
321.8795802028121
 73
     1
 72
     2
 10
-1198.778247586346
 20
-1165.062426483154
 40
0.7717997786795062
 50
321.8795802028254
 51
398.1204197971746
 73
     1
 97
        4
330
231
330
230
330
22B
330
22A
 75
     1
 76
     0
 52
45.0
 41
0.1
 77
     0
 78
     1
 53
45.0
 43
0.0
 44
0.0
 45
-0.0707106781186548
 46
0.0707106781186548
 79
     0
 98
        1
 10
0.0
 20
0.0
  0
HATCH
  5
289
330
71
100
AcDbEntity
  8
1
  6
Continuous
 62
     2
100
AcDbHatch
 10
0.0
 20
0.0
 30
0.0
210
0.0
220
0.0
230
1.0
  2
_USER
 70
     0
 71
     1
 91
        4
 92
        1
 93
        8
 72
     1
 10
-1207.572386858054
 20
-1163.95976633665
 11
-1207.572386858054
 21
-1169.52427710585
 72
     2
 10
-1207.996631473438
 20
-1169.52427710585
 40
0.4242446153830315
 50
0.0
 51
90.0
 73
     0
 72
     1
 10
-1207.996631473438
 20
-1169.948521721233
 11
-1213.469943564155
 21
-1169.948521721233
 72
     2
 10
-1213.469943564155
 20
-1169.52427710585
 40
0.4242446153830315
 50
90.0
 51
180.0
 73
     0
 72
     1
 10
-1213.894188179538
 20
-1169.52427710585
 11
-1213.894188179538
 21
-1163.95976633665
 72
     2
 10
-1213.469943564155
 20
-1163.95976633665
 40
0.4242446153841684
 50
180.0
 51
270.0
 73
     0
 72
     1
 10
-1213.469943564155
 20
-1163.535521721266
 11
-1207.996631473438
 21
-1163.535521721266
 72
     2
 10
-1207.996631473438
 20
-1163.95976633665
 40
0.424244615383941
 50
270.0
 51
360.0
 73
     0
 97
        8
330
1D9
330
227
330
1DA
330
232
330
1D7
330
229
330
1D8
330
228
 92
       16
 93
        1
 72
     2
 10
-1210.850357913637
 20
-1166.278648565005
 40
0.4709789327780527
 50
0.0
 51
360.0
 73
     1
 97
        1
330
24D
 92
       16
 93
        8
 72
     2
 10
-1210.300500200876
 20
-1167.387790164974
 40
0.3157169230773483
 50
115.3740086784472
 51
180.0
 73
     1
 72
     1
 10
-1210.616217123953
 20
-1167.387790164974
 11
-1210.616217123953
 21
-1167.969641571669
 72
     2
 10
-1210.300500200876
 20
-1167.969641571669
 40
0.3157169230769341
 50
180.0
 51
269.811032957356
 73
     1
 72
     2
 10
-1210.294884065566
 20
-1166.2668066241
 40
2.018561131933154
 50
269.8110329575713
 51
450.1889670424287
 73
     1
 72
     2
 10
-1210.300500200876
 20
-1164.563971676531
 40
0.3157169230762434
 50
90.18896704264381
 51
180.0
 73
     1
 72
     1
 10
-1210.616217123953
 20
-1164.563971676531
 11
-1210.616217123953
 21
-1165.169506965037
 72
     2
 10
-1210.300500200876
 20
-1165.169506965037
 40
0.3157169230769341
 50
180.0
 51
244.6259913215528
 73
     1
 72
     2
 10
-1210.826542898964
 20
-1166.278648565005
 40
0.9118481501441705
 50
295.3740086781564
 51
424.6259913218742
 73
     0
 97
        8
330
23F
330
1A0
330
23C
330
23D
330
21B
330
19F
330
23E
330
21A
 92
       16
 93
       12
 72
     2
 10
-1212.876048887408
 20
-1168.9202492426
 40
0.3157169230760246
 50
180.0
 51
270.0
 73
     1
 72
     1
 10
-1212.876048887408
 20
-1169.235966165676
 11
-1211.400215626399
 21
-1169.235966165676
 72
     2
 10
-1211.400215626399
 20
-1168.9202492426
 40
0.3157169230760246
 50
270.0
 51
360.0
 73
     1
 72
     1
 10
-1211.084498703322
 20
-1168.9202492426
 11
-1211.084498703322
 21
-1167.389478311068
 72
     2
 10
-1211.400215626399
 20
-1167.389478311068
 40
0.3157169230769341
 50
0.0
 51
64.80558935138009
 73
     1
 72
     2
 10
-1210.877631178824
 20
-1166.278648565005
 40
0.9118975235566934
 50
115.1944106484736
 51
244.8055893514899
 73
     0
 72
     2
 10
-1211.400215626399
 20
-1165.167818818943
 40
0.3157169230767223
 50
295.1944106486023
 51
360.0
 73
     1
 72
     1
 10
-1211.084498703322
 20
-1165.167818818943
 11
-1211.084498703322
 21
-1164.563794199883
 72
     2
 10
-1211.400215626399
 20
-1164.563794199883
 40
0.3157169230769341
 50
0.0
 51
90.0
 73
     1
 72
     1
 10
-1211.400215626399
 20
-1164.248077276806
 11
-1212.876048887408
 21
-1164.248077276806
 72
     2
 10
-1212.876048887408
 20
-1164.563794199883
 40
0.3157169230769341
 50
90.0
 51
180.0
 73
     1
 72
     1
 10
-1213.191765810484
 20
-1164.563794199883
 11
-1213.191765810484
 21
-1168.9202492426
 97
       12
330
223
330
1DB
330
226
330
1D6
330
233
330
234
330
225
330
1D5
330
224
330
1D4
330
235
330
1D3
 75
     1
 76
     0
 52
45.0
 41
0.1
 77
     0
 78
     1
 53
45.0
 43
0.0
 44
0.0
 45
-0.0707106781186548
 46
0.0707106781186548
 79
     0
 98
        1
 10
0.0
 20
0.0
  0
HATCH
  5
28A
330
71
100
AcDbEntity
  8
1
  6
Continuous
 62
     2
100
AcDbHatch
 10
0.0
 20
0.0
 30
0.0
210
0.0
220
0.0
230
1.0
  2
_USER
 70
     0
 71
     1
 91
        4
 92
        1
 93
        8
 72
     1
 10
-1207.572386858054
 20
-1163.95976633665
 11
-1207.572386858054
 21
-1169.52427710585
 72
     2
 10
-1207.996631473438
 20
-1169.52427710585
 40
0.4242446153830315
 50
0.0
 51
90.0
 73
     0
 72
     1
 10
-1207.996631473438
 20
-1169.948521721233
 11
-1213.469943564155
 21
-1169.948521721233
 72
     2
 10
-1213.469943564155
 20
-1169.52427710585
 40
0.4242446153830315
 50
90.0
 51
180.0
 73
     0
 72
     1
 10
-1213.894188179538
 20
-1169.52427710585
 11
-1213.894188179538
 21
-1163.95976633665
 72
     2
 10
-1213.469943564155
 20
-1163.95976633665
 40
0.4242446153841684
 50
180.0
 51
270.0
 73
     0
 72
     1
 10
-1213.469943564155
 20
-1163.535521721266
 11
-1207.996631473438
 21
-1163.535521721266
 72
     2
 10
-1207.996631473438
 20
-1163.95976633665
 40
0.424244615383941
 50
270.0
 51
360.0
 73
     0
 97
        8
330
1D9
330
227
330
1DA
330
232
330
1D7
330
229
330
1D8
330
228
 92
       16
 93
        1
 72
     2
 10
-1210.850357913637
 20
-1166.278648565005
 40
0.4709789327780527
 50
0.0
 51
360.0
 73
     1
 97
        1
330
24D
 92
       16
 93
        8
 72
     2
 10
-1210.300500200876
 20
-1167.387790164974
 40
0.3157169230773483
 50
115.3740086784472
 51
180.0
 73
     1
 72
     1
 10
-1210.616217123953
 20
-1167.387790164974
 11
-1210.616217123953
 21
-1167.969641571669
 72
     2
 10
-1210.300500200876
 20
-1167.969641571669
 40
0.3157169230769341
 50
180.0
 51
269.811032957356
 73
     1
 72
     2
 10
-1210.294884065566
 20
-1166.2668066241
 40
2.018561131933154
 50
269.8110329575713
 51
450.1889670424287
 73
     1
 72
     2
 10
-1210.300500200876
 20
-1164.563971676531
 40
0.3157169230762434
 50
90.18896704264381
 51
180.0
 73
     1
 72
     1
 10
-1210.616217123953
 20
-1164.563971676531
 11
-1210.616217123953
 21
-1165.169506965037
 72
     2
 10
-1210.300500200876
 20
-1165.169506965037
 40
0.3157169230769341
 50
180.0
 51
244.6259913215528
 73
     1
 72
     2
 10
-1210.826542898964
 20
-1166.278648565005
 40
0.9118481501441705
 50
295.3740086781564
 51
424.6259913218742
 73
     0
 97
        8
330
23F
330
1A0
330
23C
330
23D
330
21B
330
19F
330
23E
330
21A
 92
       16
 93
       12
 72
     2
 10
-1212.876048887408
 20
-1168.9202492426
 40
0.3157169230760246
 50
180.0
 51
270.0
 73
     1
 72
     1
 10
-1212.876048887408
 20
-1169.235966165676
 11
-1211.400215626399
 21
-1169.235966165676
 72
     2
 10
-1211.400215626399
 20
-1168.9202492426
 40
0.3157169230760246
 50
270.0
 51
360.0
 73
     1
 72
     1
 10
-1211.084498703322
 20
-1168.9202492426
 11
-1211.084498703322
 21
-1167.389478311068
 72
     2
 10
-1211.400215626399
 20
-1167.389478311068
 40
0.3157169230769341
 50
0.0
 51
64.80558935138009
 73
     1
 72
     2
 10
-1210.877631178824
 20
-1166.278648565005
 40
0.9118975235566934
 50
115.1944106484736
 51
244.8055893514899
 73
     0
 72
     2
 10
-1211.400215626399
 20
-1165.167818818943
 40
0.3157169230767223
 50
295.1944106486023
 51
360.0
 73
     1
 72
     1
 10
-1211.084498703322
 20
-1165.167818818943
 11
-1211.084498703322
 21
-1164.563794199883
 72
     2
 10
-1211.400215626399
 20
-1164.563794199883
 40
0.3157169230769341
 50
0.0
 51
90.0
 73
     1
 72
     1
 10
-1211.400215626399
 20
-1164.248077276806
 11
-1212.876048887408
 21
-1164.248077276806
 72
     2
 10
-1212.876048887408
 20
-1164.563794199883
 40
0.3157169230769341
 50
90.0
 51
180.0
 73
     1
 72
     1
 10
-1213.191765810484
 20
-1164.563794199883
 11
-1213.191765810484
 21
-1168.9202492426
 97
       12
330
223
330
1DB
330
226
330
1D6
330
233
330
234
330
225
330
1D5
330
224
330
1D4
330
235
330
1D3
 75
     1
 76
     0
 52
45.0
 41
0.1
 77
     0
 78
     1
 53
45.0
 43
0.0
 44
0.0
 45
-0.0707106781186548
 46
0.0707106781186548
 79
     0
 98
        1
 10
0.0
 20
0.0
  0
HATCH
  5
28B
330
71
100
AcDbEntity
  8
1
  6
Continuous
 62
     2
100
AcDbHatch
 10
0.0
 20
0.0
 30
0.0
210
0.0
220
0.0
230
1.0
  2
_USER
 70
     0
 71
     1
 91
        1
 92
        1
 93
       18
 72
     1
 10
-1185.982838948833
 20
-1167.679977503546
 11
-1186.793937986306
 21
-1167.679977503546
 72
     1
 10
-1186.793937986306
 20
-1167.679977503546
 11
-1186.793937986306
 21
-1169.948521721233
 72
     1
 10
-1186.793937986306
 20
-1169.948521721233
 11
-1187.986730688474
 21
-1169.948521721233
 72
     1
 10
-1187.986730688474
 20
-1169.948521721233
 11
-1187.986730688474
 21
-1167.679977503546
 72
     1
 10
-1187.986730688474
 20
-1167.679977503546
 11
-1189.090369988042
 21
-1167.679977503546
 72
     2
 10
-1189.090369988042
 20
-1168.634500510372
 40
0.9545230068258661
 50
90.0
 51
109.3371432194542
 73
     1
 72
     2
 10
-1189.237039986146
 20
-1168.216545529989
 40
0.5115800601946947
 50
109.3371432194979
 51
151.4785267424269
 73
     1
 72
     2
 10
-1188.859682728065
 20
-1168.421616959328
 40
0.9410597353342773
 50
151.478526742348
 51
208.5214732577007
 73
     1
 72
     2
 10
-1189.237039986146
 20
-1168.626688388666
 40
0.5115800601961247
 50
208.5214732577746
 51
246.6277221118682
 73
     1
 72
     2
 10
-1189.080599953443
 20
-1168.264696369956
 40
0.9059297849861304
 50
246.6277221118297
 51
288.4480761180965
 73
     1
 72
     2
 10
-1189.498767687105
 20
-1167.01115059392
 40
2.227384008972575
 50
288.4480761181504
 51
301.9309089499448
 73
     1
 72
     1
 10
-1188.320712645081
 20
-1168.90150131307
 11
-1188.320712645081
 21
-1169.774018319873
 72
     2
 10
-1189.656640562197
 20
-1165.108936014072
 40
4.852596863498024
 50
74.02000874166669
 51
84.8418552303638
 73
     0
 72
     2
 10
-1189.367784467462
 20
-1168.308826597293
 40
1.63969512394064
 50
84.84185523030213
 51
164.9381082229006
 73
     0
 72
     2
 10
-1189.786912310923
 20
-1168.421616959328
 40
1.205656168393562
 50
164.9381082229183
 51
195.0618917770817
 73
     0
 72
     2
 10
-1189.367784467462
 20
-1168.534407321363
 40
1.639695123940101
 50
195.0618917770994
 51
270.0
 73
     0
 72
     1
 10
-1189.367784467462
 20
-1166.894712197423
 11
-1185.982838948833
 21
-1166.894712197422
 72
     1
 10
-1185.982838948833
 20
-1166.894712197422
 11
-1185.982838948833
 21
-1167.679977503546
 97
       18
330
1A2
330
238
330
239
330
221
330
220
330
206
330
21F
330
21E
330
23A
330
21D
330
23B
330
21C
330
207
330
1A1
330
1A6
330
1A5
330
1A4
330
1A3
 75
     1
 76
     0
 52
45.0
 41
0.1
 77
     0
 78
     1
 53
45.0
 43
0.0
 44
0.0
 45
-0.0707106781186548
 46
0.0707106781186548
 79
     0
 98
        1
 10
0.0
 20
0.0
  0
HATCH
  5
28C
330
71
100
AcDbEntity
  8
1
  6
Continuous
 62
     2
100
AcDbHatch
 10
0.0
 20
0.0
 30
0.0
210
0.0
220
0.0
230
1.0
  2
_USER
 70
     0
 71
     1
 91
        1
 92
        1
 93
       18
 72
     1
 10
-1185.982838948833
 20
-1167.679977503546
 11
-1186.793937986306
 21
-1167.679977503546
 72
     1
 10
-1186.793937986306
 20
-1167.679977503546
 11
-1186.793937986306
 21
-1169.948521721233
 72
     1
 10
-1186.793937986306
 20
-1169.948521721233
 11
-1187.986730688474
 21
-1169.948521721233
 72
     1
 10
-1187.986730688474
 20
-1169.948521721233
 11
-1187.986730688474
 21
-1167.679977503546
 72
     1
 10
-1187.986730688474
 20
-1167.679977503546
 11
-1189.090369988042
 21
-1167.679977503546
 72
     2
 10
-1189.090369988042
 20
-1168.634500510372
 40
0.9545230068258661
 50
90.0
 51
109.3371432194542
 73
     1
 72
     2
 10
-1189.237039986146
 20
-1168.216545529989
 40
0.5115800601946947
 50
109.3371432194979
 51
151.4785267424269
 73
     1
 72
     2
 10
-1188.859682728065
 20
-1168.421616959328
 40
0.9410597353342773
 50
151.478526742348
 51
208.5214732577007
 73
     1
 72
     2
 10
-1189.237039986146
 20
-1168.626688388666
 40
0.5115800601961247
 50
208.5214732577746
 51
246.6277221118682
 73
     1
 72
     2
 10
-1189.080599953443
 20
-1168.264696369956
 40
0.9059297849861304
 50
246.6277221118297
 51
288.4480761180965
 73
     1
 72
     2
 10
-1189.498767687105
 20
-1167.01115059392
 40
2.227384008972575
 50
288.4480761181504
 51
301.9309089499448
 73
     1
 72
     1
 10
-1188.320712645081
 20
-1168.90150131307
 11
-1188.320712645081
 21
-1169.774018319873
 72
     2
 10
-1189.656640562197
 20
-1165.108936014072
 40
4.852596863498024
 50
74.02000874166669
 51
84.8418552303638
 73
     0
 72
     2
 10
-1189.367784467462
 20
-1168.308826597293
 40
1.63969512394064
 50
84.84185523030213
 51
164.9381082229006
 73
     0
 72
     2
 10
-1189.786912310923
 20
-1168.421616959328
 40
1.205656168393562
 50
164.9381082229183
 51
195.0618917770817
 73
     0
 72
     2
 10
-1189.367784467462
 20
-1168.534407321363
 40
1.639695123940101
 50
195.0618917770994
 51
270.0
 73
     0
 72
     1
 10
-1189.367784467462
 20
-1166.894712197423
 11
-1185.982838948833
 21
-1166.894712197422
 72
     1
 10
-1185.982838948833
 20
-1166.894712197422
 11
-1185.982838948833
 21
-1167.679977503546
 97
       18
330
1A2
330
238
330
239
330
221
330
220
330
206
330
21F
330
21E
330
23A
330
21D
330
23B
330
21C
330
207
330
1A1
330
1A6
330
1A5
330
1A4
330
1A3
 75
     1
 76
     0
 52
45.0
 41
0.1
 77
     0
 78
     1
 53
45.0
 43
0.0
 44
0.0
 45
-0.0707106781186548
 46
0.0707106781186548
 79
     0
 98
        1
 10
0.0
 20
0.0
  0
HATCH
  5
28D
330
71
100
AcDbEntity
  8
1
  6
Continuous
 62
     2
100
AcDbHatch
 10
0.0
 20
0.0
 30
0.0
210
0.0
220
0.0
230
1.0
  2
_USER
 70
     0
 71
     1
 91
        1
 92
        1
 93
       14
 72
     2
 10
-1205.470485946715
 20
-1168.534407321363
 40
1.639695123940193
 50
84.84185523037334
 51
164.9381082228903
 73
     1
 72
     2
 10
-1205.889613790177
 20
-1168.421616959328
 40
1.205656168391586
 50
164.938108222893
 51
195.061891777107
 73
     1
 72
     2
 10
-1205.470485946715
 20
-1168.308826597293
 40
1.639695123939543
 50
195.0618917771097
 51
275.1581447696267
 73
     1
 72
     2
 10
-1205.75934204145
 20
-1165.108936014072
 40
4.85259686349784
 50
275.1581447696121
 51
285.9799912583466
 73
     1
 72
     1
 10
-1204.423414124333
 20
-1169.774018319872
 11
-1204.423414124333
 21
-1168.901501313069
 72
     2
 10
-1205.601469166358
 20
-1167.011150593919
 40
2.227384008972719
 50
58.0690910500434
 51
71.55192388185705
 73
     0
 72
     2
 10
-1205.183301432697
 20
-1168.264696369956
 40
0.9059297849857696
 50
71.55192388183075
 51
113.3722778881175
 73
     0
 72
     2
 10
-1205.339741465399
 20
-1168.626688388666
 40
0.5115800601950912
 50
113.3722778881552
 51
151.4785267422785
 73
     0
 72
     2
 10
-1204.962384207318
 20
-1168.421616959328
 40
0.9410597353340211
 50
151.4785267423215
 51
208.5214732577393
 73
     0
 72
     2
 10
-1205.339741465399
 20
-1168.216545529989
 40
0.5115800601952438
 50
208.5214732577215
 51
246.6277221117943
 73
     0
 72
     2
 10
-1205.183301432697
 20
-1168.5785375487
 40
0.9059297849858621
 50
246.6277221118825
 51
288.4480761181465
 73
     0
 72
     2
 10
-1205.601469166358
 20
-1169.832083324736
 40
2.227384008973646
 50
288.4480761181429
 51
301.9309089499566
 73
     0
 72
     1
 10
-1204.423414124333
 20
-1167.941732605586
 11
-1204.423414124333
 21
-1167.069215598783
 72
     2
 10
-1205.75934204145
 20
-1171.734297904584
 40
4.852596863497939
 50
74.02000874165637
 51
84.84185523038788
 73
     1
 97
       14
330
240
330
241
330
242
330
243
330
208
330
219
330
218
330
217
330
244
330
245
330
216
330
246
330
209
330
215
 75
     1
 76
     0
 52
45.0
 41
0.1
 77
     0
 78
     1
 53
45.0
 43
0.0
 44
0.0
 45
-0.0707106781186548
 46
0.0707106781186548
 79
     0
 98
        1
 10
0.0
 20
0.0
  0
HATCH
  5
28E
330
71
100
AcDbEntity
  8
1
  6
Continuous
 62
     2
100
AcDbHatch
 10
0.0
 20
0.0
 30
0.0
210
0.0
220
0.0
230
1.0
  2
_USER
 70
     0
 71
     1
 91
        1
 92
        1
 93
       14
 72
     2
 10
-1205.470485946715
 20
-1168.534407321363
 40
1.639695123940193
 50
84.84185523037334
 51
164.9381082228903
 73
     1
 72
     2
 10
-1205.889613790177
 20
-1168.421616959328
 40
1.205656168391586
 50
164.938108222893
 51
195.061891777107
 73
     1
 72
     2
 10
-1205.470485946715
 20
-1168.308826597293
 40
1.639695123939543
 50
195.0618917771097
 51
275.1581447696267
 73
     1
 72
     2
 10
-1205.75934204145
 20
-1165.108936014072
 40
4.85259686349784
 50
275.1581447696121
 51
285.9799912583466
 73
     1
 72
     1
 10
-1204.423414124333
 20
-1169.774018319872
 11
-1204.423414124333
 21
-1168.901501313069
 72
     2
 10
-1205.601469166358
 20
-1167.011150593919
 40
2.227384008972719
 50
58.0690910500434
 51
71.55192388185705
 73
     0
 72
     2
 10
-1205.183301432697
 20
-1168.264696369956
 40
0.9059297849857696
 50
71.55192388183075
 51
113.3722778881175
 73
     0
 72
     2
 10
-1205.339741465399
 20
-1168.626688388666
 40
0.5115800601950912
 50
113.3722778881552
 51
151.4785267422785
 73
     0
 72
     2
 10
-1204.962384207318
 20
-1168.421616959328
 40
0.9410597353340211
 50
151.4785267423215
 51
208.5214732577393
 73
     0
 72
     2
 10
-1205.339741465399
 20
-1168.216545529989
 40
0.5115800601952438
 50
208.5214732577215
 51
246.6277221117943
 73
     0
 72
     2
 10
-1205.183301432697
 20
-1168.5785375487
 40
0.9059297849858621
 50
246.6277221118825
 51
288.4480761181465
 73
     0
 72
     2
 10
-1205.601469166358
 20
-1169.832083324736
 40
2.227384008973646
 50
288.4480761181429
 51
301.9309089499566
 73
     0
 72
     1
 10
-1204.423414124333
 20
-1167.941732605586
 11
-1204.423414124333
 21
-1167.069215598783
 72
     2
 10
-1205.75934204145
 20
-1171.734297904584
 40
4.852596863497939
 50
74.02000874165637
 51
84.84185523038788
 73
     1
 97
       14
330
240
330
241
330
242
330
243
330
208
330
219
330
218
330
217
330
244
330
245
330
216
330
246
330
209
330
215
 75
     1
 76
     0
 52
45.0
 41
0.1
 77
     0
 78
     1
 53
45.0
 43
0.0
 44
0.0
 45
-0.0707106781186548
 46
0.0707106781186548
 79
     0
 98
        1
 10
0.0
 20
0.0
  0
ENDBLK
  5
73
330
71
100
AcDbEntity
  8
0
100
AcDbBlockEnd
  0
BLOCK
  5
75
330
74
100
AcDbEntity
  8
0
100
AcDbBlockBegin
  2
_punkt
 70
     0
 10
-1088.58603853935
 20
-1177.24202172125
 30
0.0
  3
_punkt
  1

  0
LINE
  5
28F
330
74
100
AcDbEntity
  8
1
  6
Continuous
 62
     2
100
AcDbLine
 10
-1088.58603853935
 20
-1177.24202172125
 30
0.0
 11
-1083.586038539351
 21
-1177.24202172125
 31
0.0
  0
LINE
  5
290
330
74
100
AcDbEntity
  8
1
  6
Continuous
 62
     2
100
AcDbLine
 10
-1088.58603853935
 20
-1177.24202172125
 30
0.0
 11
-1088.58603853935
 21
-1182.24202172125
 31
0.0
  0
ENDBLK
  5
76
330
74
100
AcDbEntity
  8
0
100
AcDbBlockEnd
  0
BLOCK
  5
7A
330
77
100
AcDbEntity
  8
0
100
AcDbBlockBegin
  2
A4I_CS
 70
     0
 10
-1088.58603853935
 20
-1182.24202172125
 30
0.0
  3
A4I_CS
  1

  0
INSERT
  5
78
330
77
100
AcDbEntity
  8
1
100
AcDbBlockReference
  2
_rahmen
 10
-1088.58603853935
 20
-1182.24202172125
 30
0.0
  0
INSERT
  5
79
330
77
100
AcDbEntity
  8
1
100
AcDbBlockReference
  2
_punkt
 10
-1088.58603853935
 20
-1177.24202172125
 30
0.0
  0
ENDBLK
  5
7B
330
77
100
AcDbEntity
  8
0
100
AcDbBlockEnd
  0
BLOCK
  5
F4
330
EC
100
AcDbEntity
  8
0
100
AcDbBlockBegin
  2
*D16
 70
     1
 10
0.0
 20
0.0
 30
0.0
  3
*D16
  1

  0
LINE
  5
ED
330
EC
100
AcDbEntity
  8
1
  6
Continuous
 62
     2
100
AcDbLine
 10
-635.6344011024152
 20
-526.4375024833289
 30
0.0
 11
-625.015598948898
 21
-526.4375024833289
 31
0.0
  0
LINE
  5
EE
330
EC
100
AcDbEntity
  8
1
  6
Continuous
 62
     2
100
AcDbLine
 10
-625.015598948898
 20
-531.4375024833294
 30
0.0
 11
-625.015598948898
 21
-525.6875024833289
 31
0.0
  0
LINE
  5
EF
330
EC
100
AcDbEntity
  8
1
  6
Continuous
 62
     2
100
AcDbLine
 10
-635.6344011024152
 20
-531.4375024833289
 30
0.0
 11
-635.6344011024152
 21
-525.6875024833289
 31
0.0
  0
SOLID
  5
F0
330
EC
100
AcDbEntity
  8
1
 62
     2
100
AcDbTrace
 10
-633.8844011024152
 20
-526.207110612551
 30
0.0
 11
-633.8844011024152
 21
-526.6678943541068
 31
0.0
 12
-635.6344011024152
 22
-526.4375024833289
 32
0.0
 13
-635.6344011024152
 23
-526.4375024833289
 33
0.0
  0
SOLID
  5
F1
330
EC
100
AcDbEntity
  8
1
 62
     2
100
AcDbTrace
 10
-626.765598948898
 20
-526.6678943541068
 30
0.0
 11
-626.765598948898
 21
-526.207110612551
 31
0.0
 12
-625.015598948898
 22
-526.4375024833289
 32
0.0
 13
-625.015598948898
 23
-526.4375024833289
 33
0.0
  0
MTEXT
  5
F3
330
EC
100
AcDbEntity
  8
1
 62
     3
100
AcDbMText
 10
-632.638808810925
 20
-525.512502483329
 30
0.0
 40
1.75
 41
0.0
 71
     7
 72
     1
  1
10,6
  7
CONVERTER_11
 11
0.9999999999970619
 21
2.424068405545306E-6
 31
0.0
 73
     1
 44
0.60024009603842
  0
ENDBLK
  5
F5
330
EC
100
AcDbEntity
  8
0
100
AcDbBlockEnd
  0
BLOCK
  5
FF
330
F8
100
AcDbEntity
  8
0
100
AcDbBlockBegin
  2
*D17
 70
     1
 10
0.0
 20
0.0
 30
0.0
  3
*D17
  1

  0
LINE
  5
F9
330
F8
100
AcDbEntity
  8
1
  6
Continuous
 62
     2
100
AcDbLine
 10
-620.015598948898
 20
-531.4375024833294
 30
0.0
 11
-620.015598948898
 21
-555.4375024833294
 31
0.0
  0
LINE
  5
FA
330
F8
100
AcDbEntity
  8
1
  6
Continuous
 62
     2
100
AcDbLine
 10
-625.0155989488993
 20
-555.4375024833294
 30
0.0
 11
-619.265598948898
 21
-555.4375024833294
 31
0.0
  0
LINE
  5
FB
330
F8
100
AcDbEntity
  8
1
  6
Continuous
 62
     2
100
AcDbLine
 10
-625.015598948898
 20
-531.4375024833294
 30
0.0
 11
-619.265598948898
 21
-531.4375024833294
 31
0.0
  0
SOLID
  5
FC
330
F8
100
AcDbEntity
  8
1
 62
     2
100
AcDbTrace
 10
-619.78520707812
 20
-533.1875024833294
 30
0.0
 11
-620.2459908196759
 21
-533.1875024833294
 31
0.0
 12
-620.015598948898
 22
-531.4375024833294
 32
0.0
 13
-620.015598948898
 23
-531.4375024833294
 33
0.0
  0
SOLID
  5
FD
330
F8
100
AcDbEntity
  8
1
 62
     2
100
AcDbTrace
 10
-620.2459908196759
 20
-553.6875024833294
 30
0.0
 11
-619.78520707812
 21
-553.6875024833294
 31
0.0
 12
-620.015598948898
 22
-555.4375024833294
 32
0.0
 13
-620.015598948898
 23
-555.4375024833294
 33
0.0
  0
MTEXT
  5
FE
330
F8
100
AcDbEntity
  8
1
 62
     3
100
AcDbMText
 10
-620.765598948898
 20
-544.0158445362899
 30
0.0
 40
1.75
 41
0.0
 71
     7
 72
     1
  1
24
  7
CONVERTER_11
 11
0.0
 21
1.0
 31
0.0
 73
     1
 44
0.60024009603842
  0
ENDBLK
  5
100
330
F8
100
AcDbEntity
  8
0
100
AcDbBlockEnd
  0
BLOCK
  5
154
330
14B
100
AcDbEntity
  8
0
100
AcDbBlockBegin
  2
*D18
 70
     1
 10
0.0
 20
0.0
 30
0.0
  3
*D18
  1

  0
LINE
  5
14C
330
14B
100
AcDbEntity
  8
1
  6
Continuous
 62
     2
100
AcDbLine
 10
-620.0155989489007
 20
-515.4999999826314
 30
0.0
 11
-620.0155989489007
 21
-518.9999999826314
 31
0.0
  0
LINE
  5
14D
330
14B
100
AcDbEntity
  8
1
  6
Continuous
 62
     2
100
AcDbLine
 10
-620.0155989489007
 20
-511.4999999826318
 30
0.0
 11
-620.0155989489007
 21
-515.4999999826314
 31
0.0
  0
LINE
  5
14E
330
14B
100
AcDbEntity
  8
1
  6
Continuous
 62
     2
100
AcDbLine
 10
-620.0155989489007
 20
-507.9999999826318
 30
0.0
 11
-620.0155989489007
 21
-511.4999999826318
 31
0.0
  0
LINE
  5
14F
330
14B
100
AcDbEntity
  8
1
  6
Continuous
 62
     2
100
AcDbLine
 10
-625.0155989489007
 20
-515.4999999826314
 30
0.0
 11
-619.2655989489007
 21
-515.4999999826314
 31
0.0
  0
LINE
  5
150
330
14B
100
AcDbEntity
  8
1
  6
Continuous
 62
     2
100
AcDbLine
 10
-627.3250000256588
 20
-511.4999999826318
 30
0.0
 11
-619.2655989489007
 21
-511.4999999826318
 31
0.0
  0
SOLID
  5
151
330
14B
100
AcDbEntity
  8
1
 62
     2
100
AcDbTrace
 10
-620.2459908196786
 20
-509.7499999826318
 30
0.0
 11
-619.7852070781228
 21
-509.7499999826318
 31
0.0
 12
-620.0155989489007
 22
-511.4999999826318
 32
0.0
 13
-620.0155989489007
 23
-511.4999999826318
 33
0.0
  0
SOLID
  5
152
330
14B
100
AcDbEntity
  8
1
 62
     2
100
AcDbTrace
 10
-619.7852070781228
 20
-517.2499999826314
 30
0.0
 11
-620.2459908196786
 21
-517.2499999826314
 31
0.0
 12
-620.0155989489007
 22
-515.4999999826314
 32
0.0
 13
-620.0155989489007
 23
-515.4999999826314
 33
0.0
  0
MTEXT
  5
153
330
14B
100
AcDbEntity
  8
1
 62
     3
100
AcDbMText
 10
-620.7655989489007
 20
-513.96310422157
 30
0.0
 40
1.75
 41
0.0
 71
     7
 72
     1
  1
4
  7
CONVERTER_11
 11
0.0
 21
1.0
 31
0.0
 73
     1
 44
0.60024009603842
  0
ENDBLK
  5
155
330
14B
100
AcDbEntity
  8
0
100
AcDbBlockEnd
  0
ENDSEC
  0
SECTION
  2
ENTITIES
  0
INSERT
  5
7C
330
1F
100
AcDbEntity
  8
0
100
AcDbBlockReference
  2
Allg1
 10
-1059.00000011414
 20
-1090.00000010144
 30
0.0
 41
2.0
 42
2.0
 43
2.0
  0
INSERT
  5
7D
330
1F
100
AcDbEntity
  8
0
100
AcDbBlockReference
  2
Drfsicht1
 10
-1213.700001579805
 20
-1015.87500023228
 30
0.0
 41
2.0
 42
2.0
 43
2.0
  0
INSERT
  5
7E
330
1F
100
AcDbEntity
  8
0
100
AcDbBlockReference
  2
Rckans1
 10
-1181.000000005228
 20
-1026.99999999996
 30
0.0
 41
2.0
 42
2.0
 43
2.0
  0
INSERT
  5
7F
330
1F
100
AcDbEntity
  8
0
100
AcDbBlockReference
  2
SA_Links1
 10
-1264.850001122438
 20
-1026.99999999998
 30
0.0
 41
2.0
 42
2.0
 43
2.0
  0
INSERT
  5
80
330
1F
100
AcDbEntity
  8
0
100
AcDbBlockReference
  2
SA_Rechts1
 10
-1245.55000367575
 20
-1026.99999999998
 30
0.0
 41
2.0
 42
2.0
 43
2.0
  0
INSERT
  5
81
330
1F
100
AcDbEntity
  8
0
100
AcDbBlockReference
  2
Vordans1
 10
-1213.700001579807
 20
-1026.99999999998
 30
0.0
 41
2.0
 42
2.0
 43
2.0
  0
INSERT
  5
82
330
1F
100
AcDbEntity
  8
0
100
AcDbBlockReference
  2
A4I_CS
 10
-1088.58603853935
 20
-1182.24202172125
 30
0.0
  0
ENDSEC
  0
SECTION
  2
OBJECTS
  0
DICTIONARY
  5
C
330
0
100
AcDbDictionary
281
     1
  3
ACAD_GROUP
350
D
  3
ACAD_LAYOUT
350
1A
  3
ACAD_MATERIAL
350
3B
  3
ACAD_MLEADERSTYLE
350
293
  3
ACAD_MLINESTYLE
350
17
  3
ACAD_PLOTSETTINGS
350
19
  3
ACAD_PLOTSTYLENAME
350
E
  3
ACAD_VISUALSTYLE
350
2A
  3
AcDbVariableDictionary
350
291
  0
DICTIONARY
  5
D
102
{ACAD_REACTORS
330
C
102
}
330
C
100
AcDbDictionary
281
     1
  0
DICTIONARY
  5
1A
102
{ACAD_REACTORS
330
C
102
}
330
C
100
AcDbDictionary
281
     1
  3
Layout1
350
1E
  3
Layout2
350
26
  3
Model
350
22
  0
DICTIONARY
  5
3B
102
{ACAD_REACTORS
330
C
102
}
330
C
100
AcDbDictionary
281
     1
  3
ByBlock
350
3D
  3
ByLayer
350
3C
  3
Global
350
3E
  0
DICTIONARY
  5
293
102
{ACAD_REACTORS
330
C
102
}
330
C
100
AcDbDictionary
281
     1
  0
DICTIONARY
  5
17
102
{ACAD_REACTORS
330
C
102
}
330
C
100
AcDbDictionary
281
     1
  3
Standard
350
18
  0
DICTIONARY
  5
19
102
{ACAD_REACTORS
330
C
102
}
330
C
100
AcDbDictionary
281
     1
  0
ACDBDICTIONARYWDFLT
  5
E
102
{ACAD_REACTORS
330
C
102
}
330
C
100
AcDbDictionary
281
     1
  3
Normal
350
F
100
AcDbDictionaryWithDefault
340
F
  0
DICTIONARY
  5
2A
102
{ACAD_REACTORS
330
C
102
}
330
C
100
AcDbDictionary
281
     1
  3
2dWireframe
350
2F
  3
3D Hidden
350
31
  3
3dWireframe
350
30
  3
Basic
350
32
  3
Brighten
350
36
  3
ColorChange
350
3A
  3
Conceptual
350
34
  3
Dim
350
35
  3
Facepattern
350
39
  3
Flat
350
2B
  3
FlatWithEdges
350
2C
  3
Gouraud
350
2D
  3
GouraudWithEdges
350
2E
  3
Linepattern
350
38
  3
Realistic
350
33
  3
Thicken
350
37
  0
DICTIONARY
  5
291
102
{ACAD_REACTORS
330
C
102
}
330
C
100
AcDbDictionary
281
     1
  3
DIMASSOC
350
294
  3
HIDETEXT
350
295
  0
LAYOUT
  5
1E
102
{ACAD_REACTORS
330
1A
102
}
330
1A
100
AcDbPlotSettings
  1

  2
none_device
  4

  6

 40
0.0
 41
0.0
 42
0.0
 43
0.0
 44
0.0
 45
0.0
 46
0.0
 47
0.0
 48
0.0
 49
0.0
140
0.0
141
0.0
142
1.0
143
1.0
 70
   688
 72
     0
 73
     0
 74
     5
  7

 75
    16
147
1.0
148
0.0
149
0.0
100
AcDbLayout
  1
Layout1
 70
     1
 71
     1
 10
0.0
 20
0.0
 11
12.0
 21
9.0
 12
0.0
 22
0.0
 32
0.0
 14
1.00000000000000E+20
 24
1.00000000000000E+20
 34
1.00000000000000E+20
 15
-1.00000000000000E+20
 25
-1.00000000000000E+20
 35
-1.00000000000000E+20
146
0.0
 13
0.0
 23
0.0
 33
0.0
 16
1.0
 26
0.0
 36
0.0
 17
0.0
 27
1.0
 37
0.0
 76
     0
330
1B
  0
LAYOUT
  5
26
102
{ACAD_REACTORS
330
1A
102
}
330
1A
100
AcDbPlotSettings
  1

  2
none_device
  4

  6

 40
0.0
 41
0.0
 42
0.0
 43
0.0
 44
0.0
 45
0.0
 46
0.0
 47
0.0
 48
0.0
 49
0.0
140
0.0
141
0.0
142
1.0
143
1.0
 70
   688
 72
     0
 73
     0
 74
     5
  7

 75
    16
147
1.0
148
0.0
149
0.0
100
AcDbLayout
  1
Layout2
 70
     1
 71
     2
 10
0.0
 20
0.0
 11
0.0
 21
0.0
 12
0.0
 22
0.0
 32
0.0
 14
0.0
 24
0.0
 34
0.0
 15
0.0
 25
0.0
 35
0.0
146
0.0
 13
0.0
 23
0.0
 33
0.0
 16
1.0
 26
0.0
 36
0.0
 17
0.0
 27
1.0
 37
0.0
 76
     0
330
23
  0
LAYOUT
  5
22
102
{ACAD_REACTORS
330
1A
102
}
330
1A
100
AcDbPlotSettings
  1

  2
none_device
  4

  6

 40
0.0
 41
0.0
 42
0.0
 43
0.0
 44
0.0
 45
0.0
 46
0.0
 47
0.0
 48
0.0
 49
0.0
140
0.0
141
0.0
142
1.0
143
1.0
 70
  1712
 72
     0
 73
     0
 74
     0
  7

 75
     0
147
1.0
148
0.0
149
0.0
100
AcDbLayout
  1
Model
 70
     1
 71
     0
 10
0.0
 20
0.0
 11
12.0
 21
9.0
 12
0.0
 22
0.0
 32
0.0
 14
-1380.586038539349
 24
-1182.24202172125
 34
0.0
 15
-1083.586038539351
 25
-972.2420217212498
 35
0.0
146
0.0
 13
0.0
 23
0.0
 33
0.0
 16
1.0
 26
0.0
 36
0.0
 17
0.0
 27
1.0
 37
0.0
 76
     0
330
1F
331
29
  0
MATERIAL
  5
3D
102
{ACAD_REACTORS
330
3B
102
}
102
{ACAD_XDICTIONARY
360
2B8
102
}
330
3B
100
AcDbMaterial
  1
ByBlock
  0
MATERIAL
  5
3C
102
{ACAD_REACTORS
330
3B
102
}
102
{ACAD_XDICTIONARY
360
2B6
102
}
330
3B
100
AcDbMaterial
  1
ByLayer
  0
MATERIAL
  5
3E
102
{ACAD_REACTORS
330
3B
102
}
102
{ACAD_XDICTIONARY
360
2BA
102
}
330
3B
100
AcDbMaterial
  1
Global
  0
MLINESTYLE
  5
18
102
{ACAD_REACTORS
330
17
102
}
330
17
100
AcDbMlineStyle
  2
Standard
 70
     0
  3

 62
   256
 51
90.0
 52
90.0
 71
     2
 49
0.5
 62
   256
  6
BYLAYER
 49
-0.5
 62
   256
  6
BYLAYER
  0
ACDBPLACEHOLDER
  5
F
102
{ACAD_REACTORS
330
E
102
}
330
E
  0
VISUALSTYLE
  5
2F
102
{ACAD_REACTORS
330
2A
102
}
102
{ACAD_XDICTIONARY
360
29E
102
}
330
2A
100
AcDbVisualStyle
  2
2dWireframe
 70
     4
 71
     0
 72
     2
 73
     0
 90
        0
 40
-0.6
 41
-30.0
 62
     5
 63
     7
 74
     1
 91
        4
 64
     7
 65
   257
 75
     1
175
     1
 42
1.0
 92
        0
 66
   257
 43
1.0
 76
     1
 77
     6
 78
     2
 67
     7
 79
     5
170
     0
171
     0
290
     0
174
     0
 93
        1
 44
0.0
173
     0
291
     0
 45
0.0
1001
ACAD
1000
AcDbSavedByObjectVersion
1070
     0
  0
VISUALSTYLE
  5
31
102
{ACAD_REACTORS
330
2A
102
}
102
{ACAD_XDICTIONARY
360
2A2
102
}
330
2A
100
AcDbVisualStyle
  2
3D Hidden
 70
     6
 71
     1
 72
     2
 73
     2
 90
        0
 40
-0.6
 41
-30.0
 62
     5
 63
     7
 74
     2
 91
        2
 64
     7
 65
   257
 75
     2
175
     1
 42
40.0
 92
        0
 66
   257
 43
1.0
 76
     1
 77
     6
 78
     2
 67
     7
 79
     3
170
     0
171
     0
290
     0
174
     0
 93
        1
 44
0.0
173
     0
291
     0
 45
0.0
1001
ACAD
1000
AcDbSavedByObjectVersion
1070
     0
  0
VISUALSTYLE
  5
30
102
{ACAD_REACTORS
330
2A
102
}
102
{ACAD_XDICTIONARY
360
2A0
102
}
330
2A
100
AcDbVisualStyle
  2
3dWireframe
 70
     5
 71
     0
 72
     2
 73
     0
 90
        0
 40
-0.6
 41
-30.0
 62
     5
 63
     7
 74
     1
 91
        4
 64
     7
 65
   257
 75
     1
175
     1
 42
1.0
 92
        0
 66
   257
 43
1.0
 76
     1
 77
     6
 78
     2
 67
     7
 79
     5
170
     0
171
     0
290
     0
174
     0
 93
        1
 44
0.0
173
     0
291
     0
 45
0.0
1001
ACAD
1000
AcDbSavedByObjectVersion
1070
     0
  0
VISUALSTYLE
  5
32
102
{ACAD_REACTORS
330
2A
102
}
102
{ACAD_XDICTIONARY
360
2A4
102
}
330
2A
100
AcDbVisualStyle
  2
Basic
 70
     7
 71
     1
 72
     0
 73
     1
 90
        0
 40
-0.6
 41
-30.0
 62
     5
 63
     7
 74
     0
 91
        4
 64
     7
 65
   257
 75
     1
175
     1
 42
1.0
 92
        8
 66
     7
 43
1.0
 76
     1
 77
     6
 78
     2
 67
     7
 79
     5
170
     0
171
     0
290
     0
174
     0
 93
        1
 44
0.0
173
     0
291
     1
 45
0.0
1001
ACAD
1000
AcDbSavedByObjectVersion
1070
     0
  0
VISUALSTYLE
  5
36
102
{ACAD_REACTORS
330
2A
102
}
102
{ACAD_XDICTIONARY
360
2AC
102
}
330
2A
100
AcDbVisualStyle
  2
Brighten
 70
    12
 71
     2
 72
     2
 73
     0
 90
        0
 40
-0.6
 41
-30.0
 62
     5
 63
     7
 74
     1
 91
        4
 64
     7
 65
   257
 75
     1
175
     1
 42
1.0
 92
        8
 66
     7
 43
1.0
 76
     1
 77
     6
 78
     2
 67
     7
 79
     5
170
     0
171
     0
290
     0
174
     0
 93
        1
 44
50.0
173
     0
291
     1
 45
0.0
1001
ACAD
1000
AcDbSavedByObjectVersion
1070
     0
  0
VISUALSTYLE
  5
3A
102
{ACAD_REACTORS
330
2A
102
}
102
{ACAD_XDICTIONARY
360
2B4
102
}
330
2A
100
AcDbVisualStyle
  2
ColorChange
 70
    16
 71
     2
 72
     2
 73
     3
 90
        0
 40
-0.6
 41
-30.0
 62
     5
 63
     8
 74
     1
 91
        4
 64
     7
 65
   257
 75
     1
175
     1
 42
1.0
 92
        8
 66
     8
 43
1.0
 76
     1
 77
     6
 78
     2
 67
     7
 79
     5
170
     0
171
     0
290
     0
174
     0
 93
        1
 44
0.0
173
     0
291
     1
 45
0.0
1001
ACAD
1000
AcDbSavedByObjectVersion
1070
     0
  0
VISUALSTYLE
  5
34
102
{ACAD_REACTORS
330
2A
102
}
102
{ACAD_XDICTIONARY
360
2A8
102
}
330
2A
100
AcDbVisualStyle
  2
Conceptual
 70
     9
 71
     3
 72
     2
 73
     0
 90
        0
 40
-0.6
 41
-30.0
 62
     5
 63
     7
 74
     2
 91
        2
 64
     7
 65
   257
 75
     1
175
     1
 42
40.0
 92
        8
 66
     7
 43
1.0
 76
     1
 77
     6
 78
     2
 67
     7
 79
     3
170
     0
171
     0
290
     0
174
     0
 93
        1
 44
0.0
173
     0
291
     0
 45
0.0
1001
ACAD
1000
AcDbSavedByObjectVersion
1070
     0
  0
VISUALSTYLE
  5
35
102
{ACAD_REACTORS
330
2A
102
}
102
{ACAD_XDICTIONARY
360
2AA
102
}
330
2A
100
AcDbVisualStyle
  2
Dim
 70
    11
 71
     2
 72
     2
 73
     0
 90
        0
 40
-0.6
 41
-30.0
 62
     5
 63
     7
 74
     1
 91
        4
 64
     7
 65
   257
 75
     1
175
     1
 42
1.0
 92
        8
 66
     7
 43
1.0
 76
     1
 77
     6
 78
     2
 67
     7
 79
     5
170
     0
171
     0
290
     0
174
     0
 93
        1
 44
-50.0
173
     0
291
     1
 45
0.0
1001
ACAD
1000
AcDbSavedByObjectVersion
1070
     0
  0
VISUALSTYLE
  5
39
102
{ACAD_REACTORS
330
2A
102
}
102
{ACAD_XDICTIONARY
360
2B2
102
}
330
2A
100
AcDbVisualStyle
  2
Facepattern
 70
    15
 71
     2
 72
     2
 73
     0
 90
        0
 40
-0.6
 41
-30.0
 62
     5
 63
     7
 74
     1
 91
        4
 64
     7
 65
   257
 75
     1
175
     1
 42
1.0
 92
        8
 66
     7
 43
1.0
 76
     1
 77
     6
 78
     2
 67
     7
 79
     5
170
     0
171
     0
290
     0
174
     0
 93
        1
 44
0.0
173
     0
291
     1
 45
0.0
1001
ACAD
1000
AcDbSavedByObjectVersion
1070
     0
  0
VISUALSTYLE
  5
2B
102
{ACAD_REACTORS
330
2A
102
}
102
{ACAD_XDICTIONARY
360
296
102
}
330
2A
100
AcDbVisualStyle
  2
Flat
 70
     0
 71
     2
 72
     1
 73
     1
 90
        2
 40
-0.6
 41
30.0
 62
     5
 63
     7
 74
     0
 91
        4
 64
     7
 65
   257
 75
     1
175
     1
 42
1.0
 92
        8
 66
     7
 43
1.0
 76
     1
 77
     6
 78
     2
 67
     7
 79
     5
170
     0
171
     0
290
     0
174
     0
 93
       13
 44
0.0
173
     0
291
     1
 45
0.0
1001
ACAD
1000
AcDbSavedByObjectVersion
1070
     0
  0
VISUALSTYLE
  5
2C
102
{ACAD_REACTORS
330
2A
102
}
102
{ACAD_XDICTIONARY
360
298
102
}
330
2A
100
AcDbVisualStyle
  2
FlatWithEdges
 70
     1
 71
     2
 72
     1
 73
     1
 90
        2
 40
-0.6
 41
30.0
 62
     5
 63
     7
 74
     1
 91
        4
 64
     7
 65
   257
 75
     1
175
     1
 42
1.0
 92
        0
 66
   257
 43
1.0
 76
     1
 77
     6
 78
     2
 67
     7
 79
     5
170
     0
171
     0
290
     0
174
     0
 93
       13
 44
0.0
173
     0
291
     1
 45
0.0
1001
ACAD
1000
AcDbSavedByObjectVersion
1070
     0
  0
VISUALSTYLE
  5
2D
102
{ACAD_REACTORS
330
2A
102
}
102
{ACAD_XDICTIONARY
360
29A
102
}
330
2A
100
AcDbVisualStyle
  2
Gouraud
 70
     2
 71
     2
 72
     2
 73
     1
 90
        2
 40
-0.6
 41
30.0
 62
     5
 63
     7
 74
     0
 91
        4
 64
     7
 65
   257
 75
     1
175
     1
 42
1.0
 92
        0
 66
     7
 43
1.0
 76
     1
 77
     6
 78
     2
 67
     7
 79
     5
170
     0
171
     0
290
     0
174
     0
 93
       13
 44
0.0
173
     0
291
     1
 45
0.0
1001
ACAD
1000
AcDbSavedByObjectVersion
1070
     0
  0
VISUALSTYLE
  5
2E
102
{ACAD_REACTORS
330
2A
102
}
102
{ACAD_XDICTIONARY
360
29C
102
}
330
2A
100
AcDbVisualStyle
  2
GouraudWithEdges
 70
     3
 71
     2
 72
     2
 73
     1
 90
        2
 40
-0.6
 41
30.0
 62
     5
 63
     7
 74
     1
 91
        4
 64
     7
 65
   257
 75
     1
175
     1
 42
1.0
 92
        0
 66
   257
 43
1.0
 76
     1
 77
     6
 78
     2
 67
     7
 79
     5
170
     0
171
     0
290
     0
174
     0
 93
       13
 44
0.0
173
     0
291
     1
 45
0.0
1001
ACAD
1000
AcDbSavedByObjectVersion
1070
     0
  0
VISUALSTYLE
  5
38
102
{ACAD_REACTORS
330
2A
102
}
102
{ACAD_XDICTIONARY
360
2B0
102
}
330
2A
100
AcDbVisualStyle
  2
Linepattern
 70
    14
 71
     2
 72
     2
 73
     0
 90
        0
 40
-0.6
 41
-30.0
 62
     5
 63
     7
 74
     1
 91
        4
 64
     7
 65
   257
 75
     7
175
     7
 42
1.0
 92
        8
 66
     7
 43
1.0
 76
     1
 77
     6
 78
     2
 67
     7
 79
     5
170
     0
171
     0
290
     0
174
     0
 93
        1
 44
0.0
173
     0
291
     1
 45
0.0
1001
ACAD
1000
AcDbSavedByObjectVersion
1070
     0
  0
VISUALSTYLE
  5
33
102
{ACAD_REACTORS
330
2A
102
}
102
{ACAD_XDICTIONARY
360
2A6
102
}
330
2A
100
AcDbVisualStyle
  2
Realistic
 70
     8
 71
     2
 72
     2
 73
     0
 90
        0
 40
-0.6
 41
-30.0
 62
     5
 63
     7
 74
     1
 91
        0
 64
     7
 65
   257
 75
     1
175
     1
 42
1.0
 92
        8
 66
     8
 43
1.0
 76
     1
 77
     6
 78
     2
 67
     7
 79
     5
170
     0
171
     0
290
     0
174
     0
 93
       13
 44
0.0
173
     0
291
     0
 45
0.0
1001
ACAD
1000
AcDbSavedByObjectVersion
1070
     0
  0
VISUALSTYLE
  5
37
102
{ACAD_REACTORS
330
2A
102
}
102
{ACAD_XDICTIONARY
360
2AE
102
}
330
2A
100
AcDbVisualStyle
  2
Thicken
 70
    13
 71
     2
 72
     2
 73
     0
 90
        0
 40
-0.6
 41
-30.0
 62
     5
 63
     7
 74
     1
 91
        4
 64
     7
 65
   257
 75
     1
175
     1
 42
1.0
 92
       12
 66
     7
 43
1.0
 76
     1
 77
     6
 78
     2
 67
     7
 79
     5
170
     0
171
     0
290
     0
174
     0
 93
        1
 44
0.0
173
     0
291
     1
 45
0.0
1001
ACAD
1000
AcDbSavedByObjectVersion
1070
     0
  0
DICTIONARYVAR
  5
294
102
{ACAD_REACTORS
330
291
102
}
330
291
100
DictionaryVariables
280
     0
  1
2
  0
DICTIONARYVAR
  5
295
102
{ACAD_REACTORS
330
291
102
}
330
291
100
DictionaryVariables
280
     0
  1
1
  0
DICTIONARY
  5
2B8
330
3D
100
AcDbDictionary
280
     1
281
     1
  3
ACAD_XREC_ROUNDTRIP
360
2B9
  0
DICTIONARY
  5
2B6
330
3C
100
AcDbDictionary
280
     1
281
     1
  3
ACAD_XREC_ROUNDTRIP
360
2B7
  0
DICTIONARY
  5
2BA
330
3E
100
AcDbDictionary
280
     1
281
     1
  3
ACAD_XREC_ROUNDTRIP
360
2BB
  0
DICTIONARY
  5
29E
330
2F
100
AcDbDictionary
280
     1
281
     1
  3
ACAD_XREC_ROUNDTRIP
360
29F
  0
DICTIONARY
  5
2A2
330
31
100
AcDbDictionary
280
     1
281
     1
  3
ACAD_XREC_ROUNDTRIP
360
2A3
  0
DICTIONARY
  5
2A0
330
30
100
AcDbDictionary
280
     1
281
     1
  3
ACAD_XREC_ROUNDTRIP
360
2A1
  0
DICTIONARY
  5
2A4
330
32
100
AcDbDictionary
280
     1
281
     1
  3
ACAD_XREC_ROUNDTRIP
360
2A5
  0
DICTIONARY
  5
2AC
330
36
100
AcDbDictionary
280
     1
281
     1
  3
ACAD_XREC_ROUNDTRIP
360
2AD
  0
DICTIONARY
  5
2B4
330
3A
100
AcDbDictionary
280
     1
281
     1
  3
ACAD_XREC_ROUNDTRIP
360
2B5
  0
DICTIONARY
  5
2A8
330
34
100
AcDbDictionary
280
     1
281
     1
  3
ACAD_XREC_ROUNDTRIP
360
2A9
  0
DICTIONARY
  5
2AA
330
35
100
AcDbDictionary
280
     1
281
     1
  3
ACAD_XREC_ROUNDTRIP
360
2AB
  0
DICTIONARY
  5
2B2
330
39
100
AcDbDictionary
280
     1
281
     1
  3
ACAD_XREC_ROUNDTRIP
360
2B3
  0
DICTIONARY
  5
296
330
2B
100
AcDbDictionary
280
     1
281
     1
  3
ACAD_XREC_ROUNDTRIP
360
297
  0
DICTIONARY
  5
298
330
2C
100
AcDbDictionary
280
     1
281
     1
  3
ACAD_XREC_ROUNDTRIP
360
299
  0
DICTIONARY
  5
29A
330
2D
100
AcDbDictionary
280
     1
281
     1
  3
ACAD_XREC_ROUNDTRIP
360
29B
  0
DICTIONARY
  5
29C
330
2E
100
AcDbDictionary
280
     1
281
     1
  3
ACAD_XREC_ROUNDTRIP
360
29D
  0
DICTIONARY
  5
2B0
330
38
100
AcDbDictionary
280
     1
281
     1
  3
ACAD_XREC_ROUNDTRIP
360
2B1
  0
DICTIONARY
  5
2A6
330
33
100
AcDbDictionary
280
     1
281
     1
  3
ACAD_XREC_ROUNDTRIP
360
2A7
  0
DICTIONARY
  5
2AE
330
37
100
AcDbDictionary
280
     1
281
     1
  3
ACAD_XREC_ROUNDTRIP
360
2AF
  0
XRECORD
  5
2B9
102
{ACAD_REACTORS
330
2B8
102
}
330
2B8
100
AcDbXrecord
280
     1
102
MATERIAL
148
0.0
149
0.0
149
0.0
 93
        0
 94
      127
282
     0
 72
     1
 77
     1
171
     1
175
     1
179
     1
273
     0
  0
XRECORD
  5
2B7
102
{ACAD_REACTORS
330
2B6
102
}
330
2B6
100
AcDbXrecord
280
     1
102
MATERIAL
148
0.0
149
0.0
149
0.0
 93
        0
 94
      127
282
     0
 72
     1
 77
     1
171
     1
175
     1
179
     1
273
     0
  0
XRECORD
  5
2BB
102
{ACAD_REACTORS
330
2BA
102
}
330
2BA
100
AcDbXrecord
280
     1
102
MATERIAL
148
0.0
149
0.0
149
0.0
 93
        0
 94
      127
282
     0
 72
     1
 77
     1
171
     1
175
     1
179
     1
273
     0
  0
XRECORD
  5
29F
102
{ACAD_REACTORS
330
29E
102
}
330
29E
100
AcDbXrecord
280
     1
102
RTVSPropertyOp0
 70
     1
102
RTVSPropertyOp1
 70
     1
102
RTVSPropertyOp2
 70
     1
102
RTVSPropertyOp3
 70
     1
102
RTVSPropertyOp4
 70
     1
102
RTVSPropertyOp5
 70
     1
102
RTVSPropertyOp6
 70
     1
102
RTVSPropertyOp7
 70
     1
102
RTVSPropertyOp8
 70
     1
102
RTVSPropertyOp9
 70
     1
102
RTVSPropertyOp10
 70
     1
102
RTVSPropertyOp11
 70
     1
102
RTVSPropertyOp12
 70
     1
102
RTVSPropertyOp13
 70
     1
102
RTVSPropertyOp14
 70
     1
102
RTVSPropertyOp15
 70
     1
102
RTVSPropertyOp16
 70
     1
102
RTVSPropertyOp17
 70
     1
102
RTVSPropertyOp18
 70
     1
102
RTVSPropertyOp19
 70
     1
102
RTVSPropertyOp20
 70
     1
102
RTVSPropertyOp21
 70
     1
102
RTVSPropertyOp22
 70
     1
102
RTVSPropertyOp23
 70
     1
102
RTVSPropertyOp24
 70
     1
102
RTVSPropertyOp25
 70
     1
102
RTVSPropertyOp26
 70
     1
102
RTVSPropertyOp27
 70
     1
102
RTVSPropertyOp28
 70
     1
102
RTVSPropertyOp29
 70
     1
102
RTVSPropertyOp30
 70
     1
102
RTVSPropertyOp31
 70
     1
102
RTVSPropertyOp32
 70
     1
  0
XRECORD
  5
2A3
102
{ACAD_REACTORS
330
2A2
102
}
330
2A2
100
AcDbXrecord
280
     1
102
RTVSPropertyOp0
 70
     1
102
RTVSPropertyOp1
 70
     1
102
RTVSPropertyOp2
 70
     1
102
RTVSPropertyOp3
 70
     1
102
RTVSPropertyOp4
 70
     1
102
RTVSPropertyOp5
 70
     1
102
RTVSPropertyOp6
 70
     1
102
RTVSPropertyOp7
 70
     1
102
RTVSPropertyOp8
 70
     1
102
RTVSPropertyOp9
 70
     1
102
RTVSPropertyOp10
 70
     1
102
RTVSPropertyOp11
 70
     1
102
RTVSPropertyOp12
 70
     1
102
RTVSPropertyOp13
 70
     1
102
RTVSPropertyOp14
 70
     1
102
RTVSPropertyOp15
 70
     1
102
RTVSPropertyOp16
 70
     1
102
RTVSPropertyOp17
 70
     1
102
RTVSPropertyOp18
 70
     1
102
RTVSPropertyOp19
 70
     1
102
RTVSPropertyOp20
 70
     1
102
RTVSPropertyOp21
 70
     1
102
RTVSPropertyOp22
 70
     1
102
RTVSPropertyOp23
 70
     1
102
RTVSPropertyOp24
 70
     1
102
RTVSPropertyOp25
 70
     1
102
RTVSPropertyOp26
 70
     1
102
RTVSPropertyOp27
 70
     1
102
RTVSPropertyOp28
 70
     1
102
RTVSPropertyOp29
 70
     1
102
RTVSPropertyOp30
 70
     1
102
RTVSPropertyOp31
 70
     1
102
RTVSPropertyOp32
 70
     1
  0
XRECORD
  5
2A1
102
{ACAD_REACTORS
330
2A0
102
}
330
2A0
100
AcDbXrecord
280
     1
102
RTVSPropertyOp0
 70
     1
102
RTVSPropertyOp1
 70
     1
102
RTVSPropertyOp2
 70
     1
102
RTVSPropertyOp3
 70
     1
102
RTVSPropertyOp4
 70
     1
102
RTVSPropertyOp5
 70
     1
102
RTVSPropertyOp6
 70
     1
102
RTVSPropertyOp7
 70
     1
102
RTVSPropertyOp8
 70
     1
102
RTVSPropertyOp9
 70
     1
102
RTVSPropertyOp10
 70
     1
102
RTVSPropertyOp11
 70
     1
102
RTVSPropertyOp12
 70
     1
102
RTVSPropertyOp13
 70
     1
102
RTVSPropertyOp14
 70
     1
102
RTVSPropertyOp15
 70
     1
102
RTVSPropertyOp16
 70
     1
102
RTVSPropertyOp17
 70
     1
102
RTVSPropertyOp18
 70
     1
102
RTVSPropertyOp19
 70
     1
102
RTVSPropertyOp20
 70
     1
102
RTVSPropertyOp21
 70
     1
102
RTVSPropertyOp22
 70
     1
102
RTVSPropertyOp23
 70
     1
102
RTVSPropertyOp24
 70
     1
102
RTVSPropertyOp25
 70
     1
102
RTVSPropertyOp26
 70
     1
102
RTVSPropertyOp27
 70
     1
102
RTVSPropertyOp28
 70
     1
102
RTVSPropertyOp29
 70
     1
102
RTVSPropertyOp30
 70
     1
102
RTVSPropertyOp31
 70
     1
102
RTVSPropertyOp32
 70
     1
  0
XRECORD
  5
2A5
102
{ACAD_REACTORS
330
2A4
102
}
330
2A4
100
AcDbXrecord
280
     1
102
RTVSPropertyOp0
 70
     1
102
RTVSPropertyOp1
 70
     1
102
RTVSPropertyOp2
 70
     1
102
RTVSPropertyOp3
 70
     1
102
RTVSPropertyOp4
 70
     1
102
RTVSPropertyOp5
 70
     1
102
RTVSPropertyOp6
 70
     1
102
RTVSPropertyOp7
 70
     1
102
RTVSPropertyOp8
 70
     1
102
RTVSPropertyOp9
 70
     1
102
RTVSPropertyOp10
 70
     1
102
RTVSPropertyOp11
 70
     1
102
RTVSPropertyOp12
 70
     1
102
RTVSPropertyOp13
 70
     1
102
RTVSPropertyOp14
 70
     1
102
RTVSPropertyOp15
 70
     1
102
RTVSPropertyOp16
 70
     1
102
RTVSPropertyOp17
 70
     1
102
RTVSPropertyOp18
 70
     1
102
RTVSPropertyOp19
 70
     1
102
RTVSPropertyOp20
 70
     1
102
RTVSPropertyOp21
 70
     1
102
RTVSPropertyOp22
 70
     1
102
RTVSPropertyOp23
 70
     1
102
RTVSPropertyOp24
 70
     1
102
RTVSPropertyOp25
 70
     1
102
RTVSPropertyOp26
 70
     1
102
RTVSPropertyOp27
 70
     1
102
RTVSPropertyOp28
 70
     1
102
RTVSPropertyOp29
 70
     1
102
RTVSPropertyOp30
 70
     1
102
RTVSPropertyOp31
 70
     1
102
RTVSPropertyOp32
 70
     1
  0
XRECORD
  5
2AD
102
{ACAD_REACTORS
330
2AC
102
}
330
2AC
100
AcDbXrecord
280
     1
102
RTVSPropertyOp0
 70
     1
102
RTVSPropertyOp1
 70
     1
102
RTVSPropertyOp2
 70
     1
102
RTVSPropertyOp3
 70
     1
102
RTVSPropertyOp4
 70
     1
102
RTVSPropertyOp5
 70
     1
102
RTVSPropertyOp6
 70
     1
102
RTVSPropertyOp7
 70
     1
102
RTVSPropertyOp8
 70
     1
102
RTVSPropertyOp9
 70
     1
102
RTVSPropertyOp10
 70
     1
102
RTVSPropertyOp11
 70
     1
102
RTVSPropertyOp12
 70
     1
102
RTVSPropertyOp13
 70
     1
102
RTVSPropertyOp14
 70
     1
102
RTVSPropertyOp15
 70
     1
102
RTVSPropertyOp16
 70
     1
102
RTVSPropertyOp17
 70
     1
102
RTVSPropertyOp18
 70
     1
102
RTVSPropertyOp19
 70
     1
102
RTVSPropertyOp20
 70
     1
102
RTVSPropertyOp21
 70
     1
102
RTVSPropertyOp22
 70
     1
102
RTVSPropertyOp23
 70
     1
102
RTVSPropertyOp24
 70
     1
102
RTVSPropertyOp25
 70
     1
102
RTVSPropertyOp26
 70
     1
102
RTVSPropertyOp27
 70
     1
102
RTVSPropertyOp28
 70
     1
102
RTVSPropertyOp29
 70
     1
102
RTVSPropertyOp30
 70
     1
102
RTVSPropertyOp31
 70
     1
102
RTVSPropertyOp32
 70
     1
  0
XRECORD
  5
2B5
102
{ACAD_REACTORS
330
2B4
102
}
330
2B4
100
AcDbXrecord
280
     1
102
RTVSPropertyOp0
 70
     1
102
RTVSPropertyOp1
 70
     1
102
RTVSPropertyOp2
 70
     1
102
RTVSPropertyOp3
 70
     1
102
RTVSPropertyOp4
 70
     1
102
RTVSPropertyOp5
 70
     1
102
RTVSPropertyOp6
 70
     1
102
RTVSPropertyOp7
 70
     1
102
RTVSPropertyOp8
 70
     1
102
RTVSPropertyOp9
 70
     1
102
RTVSPropertyOp10
 70
     1
102
RTVSPropertyOp11
 70
     1
102
RTVSPropertyOp12
 70
     1
102
RTVSPropertyOp13
 70
     1
102
RTVSPropertyOp14
 70
     1
102
RTVSPropertyOp15
 70
     1
102
RTVSPropertyOp16
 70
     1
102
RTVSPropertyOp17
 70
     1
102
RTVSPropertyOp18
 70
     1
102
RTVSPropertyOp19
 70
     1
102
RTVSPropertyOp20
 70
     1
102
RTVSPropertyOp21
 70
     1
102
RTVSPropertyOp22
 70
     1
102
RTVSPropertyOp23
 70
     1
102
RTVSPropertyOp24
 70
     1
102
RTVSPropertyOp25
 70
     1
102
RTVSPropertyOp26
 70
     1
102
RTVSPropertyOp27
 70
     1
102
RTVSPropertyOp28
 70
     1
102
RTVSPropertyOp29
 70
     1
102
RTVSPropertyOp30
 70
     1
102
RTVSPropertyOp31
 70
     1
102
RTVSPropertyOp32
 70
     1
  0
XRECORD
  5
2A9
102
{ACAD_REACTORS
330
2A8
102
}
330
2A8
100
AcDbXrecord
280
     1
102
RTVSPropertyOp0
 70
     1
102
RTVSPropertyOp1
 70
     1
102
RTVSPropertyOp2
 70
     1
102
RTVSPropertyOp3
 70
     1
102
RTVSPropertyOp4
 70
     1
102
RTVSPropertyOp5
 70
     1
102
RTVSPropertyOp6
 70
     1
102
RTVSPropertyOp7
 70
     1
102
RTVSPropertyOp8
 70
     1
102
RTVSPropertyOp9
 70
     1
102
RTVSPropertyOp10
 70
     1
102
RTVSPropertyOp11
 70
     1
102
RTVSPropertyOp12
 70
     1
102
RTVSPropertyOp13
 70
     1
102
RTVSPropertyOp14
 70
     1
102
RTVSPropertyOp15
 70
     1
102
RTVSPropertyOp16
 70
     1
102
RTVSPropertyOp17
 70
     1
102
RTVSPropertyOp18
 70
     1
102
RTVSPropertyOp19
 70
     1
102
RTVSPropertyOp20
 70
     1
102
RTVSPropertyOp21
 70
     1
102
RTVSPropertyOp22
 70
     1
102
RTVSPropertyOp23
 70
     1
102
RTVSPropertyOp24
 70
     1
102
RTVSPropertyOp25
 70
     1
102
RTVSPropertyOp26
 70
     1
102
RTVSPropertyOp27
 70
     1
102
RTVSPropertyOp28
 70
     1
102
RTVSPropertyOp29
 70
     1
102
RTVSPropertyOp30
 70
     1
102
RTVSPropertyOp31
 70
     1
102
RTVSPropertyOp32
 70
     1
  0
XRECORD
  5
2AB
102
{ACAD_REACTORS
330
2AA
102
}
330
2AA
100
AcDbXrecord
280
     1
102
RTVSPropertyOp0
 70
     1
102
RTVSPropertyOp1
 70
     1
102
RTVSPropertyOp2
 70
     1
102
RTVSPropertyOp3
 70
     1
102
RTVSPropertyOp4
 70
     1
102
RTVSPropertyOp5
 70
     1
102
RTVSPropertyOp6
 70
     1
102
RTVSPropertyOp7
 70
     1
102
RTVSPropertyOp8
 70
     1
102
RTVSPropertyOp9
 70
     1
102
RTVSPropertyOp10
 70
     1
102
RTVSPropertyOp11
 70
     1
102
RTVSPropertyOp12
 70
     1
102
RTVSPropertyOp13
 70
     1
102
RTVSPropertyOp14
 70
     1
102
RTVSPropertyOp15
 70
     1
102
RTVSPropertyOp16
 70
     1
102
RTVSPropertyOp17
 70
     1
102
RTVSPropertyOp18
 70
     1
102
RTVSPropertyOp19
 70
     1
102
RTVSPropertyOp20
 70
     1
102
RTVSPropertyOp21
 70
     1
102
RTVSPropertyOp22
 70
     1
102
RTVSPropertyOp23
 70
     1
102
RTVSPropertyOp24
 70
     1
102
RTVSPropertyOp25
 70
     1
102
RTVSPropertyOp26
 70
     1
102
RTVSPropertyOp27
 70
     1
102
RTVSPropertyOp28
 70
     1
102
RTVSPropertyOp29
 70
     1
102
RTVSPropertyOp30
 70
     1
102
RTVSPropertyOp31
 70
     1
102
RTVSPropertyOp32
 70
     1
  0
XRECORD
  5
2B3
102
{ACAD_REACTORS
330
2B2
102
}
330
2B2
100
AcDbXrecord
280
     1
102
RTVSPropertyOp0
 70
     1
102
RTVSPropertyOp1
 70
     1
102
RTVSPropertyOp2
 70
     1
102
RTVSPropertyOp3
 70
     1
102
RTVSPropertyOp4
 70
     1
102
RTVSPropertyOp5
 70
     1
102
RTVSPropertyOp6
 70
     1
102
RTVSPropertyOp7
 70
     1
102
RTVSPropertyOp8
 70
     1
102
RTVSPropertyOp9
 70
     1
102
RTVSPropertyOp10
 70
     1
102
RTVSPropertyOp11
 70
     1
102
RTVSPropertyOp12
 70
     1
102
RTVSPropertyOp13
 70
     1
102
RTVSPropertyOp14
 70
     1
102
RTVSPropertyOp15
 70
     1
102
RTVSPropertyOp16
 70
     1
102
RTVSPropertyOp17
 70
     1
102
RTVSPropertyOp18
 70
     1
102
RTVSPropertyOp19
 70
     1
102
RTVSPropertyOp20
 70
     1
102
RTVSPropertyOp21
 70
     1
102
RTVSPropertyOp22
 70
     1
102
RTVSPropertyOp23
 70
     1
102
RTVSPropertyOp24
 70
     1
102
RTVSPropertyOp25
 70
     1
102
RTVSPropertyOp26
 70
     1
102
RTVSPropertyOp27
 70
     1
102
RTVSPropertyOp28
 70
     1
102
RTVSPropertyOp29
 70
     1
102
RTVSPropertyOp30
 70
     1
102
RTVSPropertyOp31
 70
     1
102
RTVSPropertyOp32
 70
     1
  0
XRECORD
  5
297
102
{ACAD_REACTORS
330
296
102
}
330
296
100
AcDbXrecord
280
     1
102
RTVSPropertyOp0
 70
     1
102
RTVSPropertyOp1
 70
     1
102
RTVSPropertyOp2
 70
     1
102
RTVSPropertyOp3
 70
     1
102
RTVSPropertyOp4
 70
     1
102
RTVSPropertyOp5
 70
     1
102
RTVSPropertyOp6
 70
     1
102
RTVSPropertyOp7
 70
     1
102
RTVSPropertyOp8
 70
     1
102
RTVSPropertyOp9
 70
     1
102
RTVSPropertyOp10
 70
     1
102
RTVSPropertyOp11
 70
     1
102
RTVSPropertyOp12
 70
     1
102
RTVSPropertyOp13
 70
     1
102
RTVSPropertyOp14
 70
     1
102
RTVSPropertyOp15
 70
     1
102
RTVSPropertyOp16
 70
     1
102
RTVSPropertyOp17
 70
     1
102
RTVSPropertyOp18
 70
     1
102
RTVSPropertyOp19
 70
     1
102
RTVSPropertyOp20
 70
     1
102
RTVSPropertyOp21
 70
     1
102
RTVSPropertyOp22
 70
     1
102
RTVSPropertyOp23
 70
     1
102
RTVSPropertyOp24
 70
     1
102
RTVSPropertyOp25
 70
     1
102
RTVSPropertyOp26
 70
     1
102
RTVSPropertyOp27
 70
     1
102
RTVSPropertyOp28
 70
     1
102
RTVSPropertyOp29
 70
     1
102
RTVSPropertyOp30
 70
     1
102
RTVSPropertyOp31
 70
     1
102
RTVSPropertyOp32
 70
     1
  0
XRECORD
  5
299
102
{ACAD_REACTORS
330
298
102
}
330
298
100
AcDbXrecord
280
     1
102
RTVSPropertyOp0
 70
     1
102
RTVSPropertyOp1
 70
     1
102
RTVSPropertyOp2
 70
     1
102
RTVSPropertyOp3
 70
     1
102
RTVSPropertyOp4
 70
     1
102
RTVSPropertyOp5
 70
     1
102
RTVSPropertyOp6
 70
     1
102
RTVSPropertyOp7
 70
     1
102
RTVSPropertyOp8
 70
     1
102
RTVSPropertyOp9
 70
     1
102
RTVSPropertyOp10
 70
     1
102
RTVSPropertyOp11
 70
     1
102
RTVSPropertyOp12
 70
     1
102
RTVSPropertyOp13
 70
     1
102
RTVSPropertyOp14
 70
     1
102
RTVSPropertyOp15
 70
     1
102
RTVSPropertyOp16
 70
     1
102
RTVSPropertyOp17
 70
     1
102
RTVSPropertyOp18
 70
     1
102
RTVSPropertyOp19
 70
     1
102
RTVSPropertyOp20
 70
     1
102
RTVSPropertyOp21
 70
     1
102
RTVSPropertyOp22
 70
     1
102
RTVSPropertyOp23
 70
     1
102
RTVSPropertyOp24
 70
     1
102
RTVSPropertyOp25
 70
     1
102
RTVSPropertyOp26
 70
     1
102
RTVSPropertyOp27
 70
     1
102
RTVSPropertyOp28
 70
     1
102
RTVSPropertyOp29
 70
     1
102
RTVSPropertyOp30
 70
     1
102
RTVSPropertyOp31
 70
     1
102
RTVSPropertyOp32
 70
     1
  0
XRECORD
  5
29B
102
{ACAD_REACTORS
330
29A
102
}
330
29A
100
AcDbXrecord
280
     1
102
RTVSPropertyOp0
 70
     1
102
RTVSPropertyOp1
 70
     1
102
RTVSPropertyOp2
 70
     1
102
RTVSPropertyOp3
 70
     1
102
RTVSPropertyOp4
 70
     1
102
RTVSPropertyOp5
 70
     1
102
RTVSPropertyOp6
 70
     1
102
RTVSPropertyOp7
 70
     1
102
RTVSPropertyOp8
 70
     1
102
RTVSPropertyOp9
 70
     1
102
RTVSPropertyOp10
 70
     1
102
RTVSPropertyOp11
 70
     1
102
RTVSPropertyOp12
 70
     1
102
RTVSPropertyOp13
 70
     1
102
RTVSPropertyOp14
 70
     1
102
RTVSPropertyOp15
 70
     1
102
RTVSPropertyOp16
 70
     1
102
RTVSPropertyOp17
 70
     1
102
RTVSPropertyOp18
 70
     1
102
RTVSPropertyOp19
 70
     1
102
RTVSPropertyOp20
 70
     1
102
RTVSPropertyOp21
 70
     1
102
RTVSPropertyOp22
 70
     1
102
RTVSPropertyOp23
 70
     1
102
RTVSPropertyOp24
 70
     1
102
RTVSPropertyOp25
 70
     1
102
RTVSPropertyOp26
 70
     1
102
RTVSPropertyOp27
 70
     1
102
RTVSPropertyOp28
 70
     1
102
RTVSPropertyOp29
 70
     1
102
RTVSPropertyOp30
 70
     1
102
RTVSPropertyOp31
 70
     1
102
RTVSPropertyOp32
 70
     1
  0
XRECORD
  5
29D
102
{ACAD_REACTORS
330
29C
102
}
330
29C
100
AcDbXrecord
280
     1
102
RTVSPropertyOp0
 70
     1
102
RTVSPropertyOp1
 70
     1
102
RTVSPropertyOp2
 70
     1
102
RTVSPropertyOp3
 70
     1
102
RTVSPropertyOp4
 70
     1
102
RTVSPropertyOp5
 70
     1
102
RTVSPropertyOp6
 70
     1
102
RTVSPropertyOp7
 70
     1
102
RTVSPropertyOp8
 70
     1
102
RTVSPropertyOp9
 70
     1
102
RTVSPropertyOp10
 70
     1
102
RTVSPropertyOp11
 70
     1
102
RTVSPropertyOp12
 70
     1
102
RTVSPropertyOp13
 70
     1
102
RTVSPropertyOp14
 70
     1
102
RTVSPropertyOp15
 70
     1
102
RTVSPropertyOp16
 70
     1
102
RTVSPropertyOp17
 70
     1
102
RTVSPropertyOp18
 70
     1
102
RTVSPropertyOp19
 70
     1
102
RTVSPropertyOp20
 70
     1
102
RTVSPropertyOp21
 70
     1
102
RTVSPropertyOp22
 70
     1
102
RTVSPropertyOp23
 70
     1
102
RTVSPropertyOp24
 70
     1
102
RTVSPropertyOp25
 70
     1
102
RTVSPropertyOp26
 70
     1
102
RTVSPropertyOp27
 70
     1
102
RTVSPropertyOp28
 70
     1
102
RTVSPropertyOp29
 70
     1
102
RTVSPropertyOp30
 70
     1
102
RTVSPropertyOp31
 70
     1
102
RTVSPropertyOp32
 70
     1
  0
XRECORD
  5
2B1
102
{ACAD_REACTORS
330
2B0
102
}
330
2B0
100
AcDbXrecord
280
     1
102
RTVSPropertyOp0
 70
     1
102
RTVSPropertyOp1
 70
     1
102
RTVSPropertyOp2
 70
     1
102
RTVSPropertyOp3
 70
     1
102
RTVSPropertyOp4
 70
     1
102
RTVSPropertyOp5
 70
     1
102
RTVSPropertyOp6
 70
     1
102
RTVSPropertyOp7
 70
     1
102
RTVSPropertyOp8
 70
     1
102
RTVSPropertyOp9
 70
     1
102
RTVSPropertyOp10
 70
     1
102
RTVSPropertyOp11
 70
     1
102
RTVSPropertyOp12
 70
     1
102
RTVSPropertyOp13
 70
     1
102
RTVSPropertyOp14
 70
     1
102
RTVSPropertyOp15
 70
     1
102
RTVSPropertyOp16
 70
     1
102
RTVSPropertyOp17
 70
     1
102
RTVSPropertyOp18
 70
     1
102
RTVSPropertyOp19
 70
     1
102
RTVSPropertyOp20
 70
     1
102
RTVSPropertyOp21
 70
     1
102
RTVSPropertyOp22
 70
     1
102
RTVSPropertyOp23
 70
     1
102
RTVSPropertyOp24
 70
     1
102
RTVSPropertyOp25
 70
     1
102
RTVSPropertyOp26
 70
     1
102
RTVSPropertyOp27
 70
     1
102
RTVSPropertyOp28
 70
     1
102
RTVSPropertyOp29
 70
     1
102
RTVSPropertyOp30
 70
     1
102
RTVSPropertyOp31
 70
     1
102
RTVSPropertyOp32
 70
     1
  0
XRECORD
  5
2A7
102
{ACAD_REACTORS
330
2A6
102
}
330
2A6
100
AcDbXrecord
280
     1
102
RTVSPropertyOp0
 70
     1
102
RTVSPropertyOp1
 70
     1
102
RTVSPropertyOp2
 70
     1
102
RTVSPropertyOp3
 70
     1
102
RTVSPropertyOp4
 70
     1
102
RTVSPropertyOp5
 70
     1
102
RTVSPropertyOp6
 70
     1
102
RTVSPropertyOp7
 70
     1
102
RTVSPropertyOp8
 70
     1
102
RTVSPropertyOp9
 70
     1
102
RTVSPropertyOp10
 70
     1
102
RTVSPropertyOp11
 70
     1
102
RTVSPropertyOp12
 70
     1
102
RTVSPropertyOp13
 70
     1
102
RTVSPropertyOp14
 70
     1
102
RTVSPropertyOp15
 70
     1
102
RTVSPropertyOp16
 70
     1
102
RTVSPropertyOp17
 70
     1
102
RTVSPropertyOp18
 70
     1
102
RTVSPropertyOp19
 70
     1
102
RTVSPropertyOp20
 70
     1
102
RTVSPropertyOp21
 70
     1
102
RTVSPropertyOp22
 70
     1
102
RTVSPropertyOp23
 70
     1
102
RTVSPropertyOp24
 70
     1
102
RTVSPropertyOp25
 70
     1
102
RTVSPropertyOp26
 70
     1
102
RTVSPropertyOp27
 70
     1
102
RTVSPropertyOp28
 70
     1
102
RTVSPropertyOp29
 70
     1
102
RTVSPropertyOp30
 70
     1
102
RTVSPropertyOp31
 70
     1
102
RTVSPropertyOp32
 70
     1
  0
XRECORD
  5
2AF
102
{ACAD_REACTORS
330
2AE
102
}
330
2AE
100
AcDbXrecord
280
     1
102
RTVSPropertyOp0
 70
     1
102
RTVSPropertyOp1
 70
     1
102
RTVSPropertyOp2
 70
     1
102
RTVSPropertyOp3
 70
     1
102
RTVSPropertyOp4
 70
     1
102
RTVSPropertyOp5
 70
     1
102
RTVSPropertyOp6
 70
     1
102
RTVSPropertyOp7
 70
     1
102
RTVSPropertyOp8
 70
     1
102
RTVSPropertyOp9
 70
     1
102
RTVSPropertyOp10
 70
     1
102
RTVSPropertyOp11
 70
     1
102
RTVSPropertyOp12
 70
     1
102
RTVSPropertyOp13
 70
     1
102
RTVSPropertyOp14
 70
     1
102
RTVSPropertyOp15
 70
     1
102
RTVSPropertyOp16
 70
     1
102
RTVSPropertyOp17
 70
     1
102
RTVSPropertyOp18
 70
     1
102
RTVSPropertyOp19
 70
     1
102
RTVSPropertyOp20
 70
     1
102
RTVSPropertyOp21
 70
     1
102
RTVSPropertyOp22
 70
     1
102
RTVSPropertyOp23
 70
     1
102
RTVSPropertyOp24
 70
     1
102
RTVSPropertyOp25
 70
     1
102
RTVSPropertyOp26
 70
     1
102
RTVSPropertyOp27
 70
     1
102
RTVSPropertyOp28
 70
     1
102
RTVSPropertyOp29
 70
     1
102
RTVSPropertyOp30
 70
     1
102
RTVSPropertyOp31
 70
     1
102
RTVSPropertyOp32
 70
     1
  0
ENDSEC
  0
EOF
