  0
SECTION
  2
HEADER
  9
$ACADVER
  1
AC1015
  9
$ACADMAINTVER
 70
     6
  9
$DWGCODEPAGE
  3
ANSI_1252
  9
$INSBASE
 10
0.0
 20
0.0
 30
0.0
  9
$EXTMIN
 10
-254.6999734847291
 20
-1.479108730894
 30
0.0
  9
$EXTMAX
 10
42.30002651526905
 20
208.520891269106
 30
0.0
  9
$LIMMIN
 10
0.0
 20
0.0
  9
$LIMMAX
 10
12.0
 20
9.0
  9
$ORTHOMODE
 70
     0
  9
$REGENMODE
 70
     1
  9
$FILLMODE
 70
     1
  9
$QTEXTMODE
 70
     0
  9
$MIRRTEXT
 70
     1
  9
$LTSCALE
 40
1.0
  9
$ATTMODE
 70
     1
  9
$TEXTSIZE
 40
0.2
  9
$TRACEWID
 40
0.05
  9
$TEXTSTYLE
  7
Standard
  9
$CLAYER
  8
0
  9
$CELTYPE
  6
ByLayer
  9
$CECOLOR
 62
   256
  9
$CELTSCALE
 40
1.0
  9
$DISPSILH
 70
     0
  9
$DIMSCALE
 40
1.0
  9
$DIMASZ
 40
0.18
  9
$DIMEXO
 40
0.0625
  9
$DIMDLI
 40
0.38
  9
$DIMRND
 40
0.0
  9
$DIMDLE
 40
0.0
  9
$DIMEXE
 40
0.18
  9
$DIMTP
 40
0.0
  9
$DIMTM
 40
0.0
  9
$DIMTXT
 40
0.18
  9
$DIMCEN
 40
0.09
  9
$DIMTSZ
 40
0.0
  9
$DIMTOL
 70
     0
  9
$DIMLIM
 70
     0
  9
$DIMTIH
 70
     1
  9
$DIMTOH
 70
     1
  9
$DIMSE1
 70
     0
  9
$DIMSE2
 70
     0
  9
$DIMTAD
 70
     0
  9
$DIMZIN
 70
     0
  9
$DIMBLK
  1

  9
$DIMASO
 70
     1
  9
$DIMSHO
 70
     1
  9
$DIMPOST
  1

  9
$DIMAPOST
  1

  9
$DIMALT
 70
     0
  9
$DIMALTD
 70
     2
  9
$DIMALTF
 40
25.4
  9
$DIMLFAC
 40
1.0
  9
$DIMTOFL
 70
     0
  9
$DIMTVP
 40
0.0
  9
$DIMTIX
 70
     0
  9
$DIMSOXD
 70
     0
  9
$DIMSAH
 70
     0
  9
$DIMBLK1
  1

  9
$DIMBLK2
  1

  9
$DIMSTYLE
  2
Standard
  9
$DIMCLRD
 70
     0
  9
$DIMCLRE
 70
     0
  9
$DIMCLRT
 70
     0
  9
$DIMTFAC
 40
1.0
  9
$DIMGAP
 40
0.09
  9
$DIMJUST
 70
     0
  9
$DIMSD1
 70
     0
  9
$DIMSD2
 70
     0
  9
$DIMTOLJ
 70
     1
  9
$DIMTZIN
 70
     0
  9
$DIMALTZ
 70
     0
  9
$DIMALTTZ
 70
     0
  9
$DIMUPT
 70
     0
  9
$DIMDEC
 70
     4
  9
$DIMTDEC
 70
     4
  9
$DIMALTU
 70
     2
  9
$DIMALTTD
 70
     2
  9
$DIMTXSTY
  7
Standard
  9
$DIMAUNIT
 70
     0
  9
$DIMADEC
 70
     0
  9
$DIMALTRND
 40
0.0
  9
$DIMAZIN
 70
     0
  9
$DIMDSEP
 70
    46
  9
$DIMATFIT
 70
     3
  9
$DIMFRAC
 70
     0
  9
$DIMLDRBLK
  1

  9
$DIMLUNIT
 70
     2
  9
$DIMLWD
 70
    -2
  9
$DIMLWE
 70
    -2
  9
$DIMTMOVE
 70
     0
  9
$LUNITS
 70
     2
  9
$LUPREC
 70
     4
  9
$SKETCHINC
 40
0.1
  9
$FILLETRAD
 40
0.5
  9
$AUNITS
 70
     0
  9
$AUPREC
 70
     0
  9
$MENU
  1
.
  9
$ELEVATION
 40
0.0
  9
$PELEVATION
 40
0.0
  9
$THICKNESS
 40
0.0
  9
$LIMCHECK
 70
     0
  9
$CHAMFERA
 40
0.5
  9
$CHAMFERB
 40
0.5
  9
$CHAMFERC
 40
1.0
  9
$CHAMFERD
 40
0.0
  9
$SKPOLY
 70
     0
  9
$TDCREATE
 40
2456813.453636204
  9
$TDUCREATE
 40
2456813.37030287
  9
$TDUPDATE
 40
2456813.453637905
  9
$TDUUPDATE
 40
2456813.370304572
  9
$TDINDWG
 40
0.0000000116
  9
$TDUSRTIMER
 40
0.0000000116
  9
$USRTIMER
 70
     1
  9
$ANGBASE
 50
0.0
  9
$ANGDIR
 70
     0
  9
$PDMODE
 70
     0
  9
$PDSIZE
 40
0.0
  9
$PLINEWID
 40
0.0
  9
$SPLFRAME
 70
     0
  9
$SPLINETYPE
 70
     6
  9
$SPLINESEGS
 70
     8
  9
$HANDSEED
  5
355
  9
$SURFTAB1
 70
     6
  9
$SURFTAB2
 70
     6
  9
$SURFTYPE
 70
     6
  9
$SURFU
 70
     6
  9
$SURFV
 70
     6
  9
$UCSBASE
  2

  9
$UCSNAME
  2

  9
$UCSORG
 10
0.0
 20
0.0
 30
0.0
  9
$UCSXDIR
 10
1.0
 20
0.0
 30
0.0
  9
$UCSYDIR
 10
0.0
 20
1.0
 30
0.0
  9
$UCSORTHOREF
  2

  9
$UCSORTHOVIEW
 70
     0
  9
$UCSORGTOP
 10
0.0
 20
0.0
 30
0.0
  9
$UCSORGBOTTOM
 10
0.0
 20
0.0
 30
0.0
  9
$UCSORGLEFT
 10
0.0
 20
0.0
 30
0.0
  9
$UCSORGRIGHT
 10
0.0
 20
0.0
 30
0.0
  9
$UCSORGFRONT
 10
0.0
 20
0.0
 30
0.0
  9
$UCSORGBACK
 10
0.0
 20
0.0
 30
0.0
  9
$PUCSBASE
  2

  9
$PUCSNAME
  2

  9
$PUCSORG
 10
0.0
 20
0.0
 30
0.0
  9
$PUCSXDIR
 10
1.0
 20
0.0
 30
0.0
  9
$PUCSYDIR
 10
0.0
 20
1.0
 30
0.0
  9
$PUCSORTHOREF
  2

  9
$PUCSORTHOVIEW
 70
     0
  9
$PUCSORGTOP
 10
0.0
 20
0.0
 30
0.0
  9
$PUCSORGBOTTOM
 10
0.0
 20
0.0
 30
0.0
  9
$PUCSORGLEFT
 10
0.0
 20
0.0
 30
0.0
  9
$PUCSORGRIGHT
 10
0.0
 20
0.0
 30
0.0
  9
$PUCSORGFRONT
 10
0.0
 20
0.0
 30
0.0
  9
$PUCSORGBACK
 10
0.0
 20
0.0
 30
0.0
  9
$USERI1
 70
     0
  9
$USERI2
 70
     0
  9
$USERI3
 70
     0
  9
$USERI4
 70
     0
  9
$USERI5
 70
     0
  9
$USERR1
 40
18.1
  9
$USERR2
 40
0.0
  9
$USERR3
 40
0.0
  9
$USERR4
 40
0.0
  9
$USERR5
 40
0.0
  9
$WORLDVIEW
 70
     1
  9
$SHADEDGE
 70
     3
  9
$SHADEDIF
 70
    70
  9
$TILEMODE
 70
     1
  9
$MAXACTVP
 70
    64
  9
$PINSBASE
 10
0.0
 20
0.0
 30
0.0
  9
$PLIMCHECK
 70
     0
  9
$PEXTMIN
 10
1.00000000000000E+20
 20
1.00000000000000E+20
 30
1.00000000000000E+20
  9
$PEXTMAX
 10
-1.00000000000000E+20
 20
-1.00000000000000E+20
 30
-1.00000000000000E+20
  9
$PLIMMIN
 10
0.0
 20
0.0
  9
$PLIMMAX
 10
12.0
 20
9.0
  9
$UNITMODE
 70
     0
  9
$VISRETAIN
 70
     1
  9
$PLINEGEN
 70
     0
  9
$PSLTSCALE
 70
     1
  9
$TREEDEPTH
 70
  3020
  9
$CMLSTYLE
  2
Standard
  9
$CMLJUST
 70
     0
  9
$CMLSCALE
 40
1.0
  9
$PROXYGRAPHICS
 70
     1
  9
$MEASUREMENT
 70
     1
  9
$CELWEIGHT
370
    -1
  9
$ENDCAPS
280
     0
  9
$JOINSTYLE
280
     0
  9
$LWDISPLAY
290
     0
  9
$INSUNITS
 70
     4
  9
$HYPERLINKBASE
  1

  9
$STYLESHEET
  1

  9
$XEDIT
290
     1
  9
$CEPSNTYPE
380
     0
  9
$PSTYLEMODE
290
     1
  9
$FINGERPRINTGUID
  2
{66E30FEF-BF53-4893-9F0A-EF578F13CDC0}
  9
$VERSIONGUID
  2
{FAEB1C32-E019-11D5-929B-00C0DF256EC4}
  9
$EXTNAMES
290
     1
  9
$PSVPSCALE
 40
0.0
  9
$OLESTARTUP
290
     0
  0
ENDSEC
  0
SECTION
  2
CLASSES
  0
CLASS
  1
ACDBDICTIONARYWDFLT
  2
AcDbDictionaryWithDefault
  3
ObjectDBX Classes
 90
        0
280
     0
281
     0
  0
CLASS
  1
VISUALSTYLE
  2
AcDbVisualStyle
  3
ObjectDBX Classes
 90
     4095
280
     0
281
     0
  0
CLASS
  1
MATERIAL
  2
AcDbMaterial
  3
ObjectDBX Classes
 90
     1153
280
     0
281
     0
  0
CLASS
  1
DICTIONARYVAR
  2
AcDbDictionaryVar
  3
ObjectDBX Classes
 90
        0
280
     0
281
     0
  0
CLASS
  1
ACDBPLACEHOLDER
  2
AcDbPlaceHolder
  3
ObjectDBX Classes
 90
        0
280
     0
281
     0
  0
CLASS
  1
LAYOUT
  2
AcDbLayout
  3
ObjectDBX Classes
 90
        0
280
     0
281
     0
  0
ENDSEC
  0
SECTION
  2
TABLES
  0
TABLE
  2
VPORT
  5
8
330
0
100
AcDbSymbolTable
 70
     1
  0
VPORT
  5
29
330
8
100
AcDbSymbolTableRecord
100
AcDbViewportTableRecord
  2
*Active
 70
     0
 10
0.0
 20
0.0
 11
1.0
 21
1.0
 12
-106.19997348473
 22
103.520891269106
 13
0.0
 23
0.0
 14
0.5
 24
0.5
 15
0.5
 25
0.5
 16
0.0
 26
0.0
 36
1.0
 17
0.0
 27
0.0
 37
0.0
 40
231.0
 41
1.60267857142857
 42
50.0
 43
0.0
 44
0.0
 50
0.0
 51
0.0
 71
     0
 72
   100
 73
     1
 74
     3
 75
     0
 76
     0
 77
     0
 78
     0
281
     0
 65
     1
110
0.0
120
0.0
130
0.0
111
1.0
121
0.0
131
0.0
112
0.0
122
1.0
132
0.0
 79
     0
146
0.0
  0
ENDTAB
  0
TABLE
  2
LTYPE
  5
5
330
0
100
AcDbSymbolTable
 70
     8
  0
LTYPE
  5
14
330
5
100
AcDbSymbolTableRecord
100
AcDbLinetypeTableRecord
  2
ByBlock
 70
     0
  3

 72
    65
 73
     0
 40
0.0
  0
LTYPE
  5
15
330
5
100
AcDbSymbolTableRecord
100
AcDbLinetypeTableRecord
  2
ByLayer
 70
     0
  3

 72
    65
 73
     0
 40
0.0
  0
LTYPE
  5
16
330
5
100
AcDbSymbolTableRecord
100
AcDbLinetypeTableRecord
  2
Continuous
 70
     0
  3
Solid line
 72
    65
 73
     0
 40
0.0
  0
LTYPE
  5
3F
330
5
100
AcDbSymbolTableRecord
100
AcDbLinetypeTableRecord
  2
DASHED
 70
     0
  3
Dashed
 72
    65
 73
     2
 40
15.0
 49
7.0
 74
     0
 49
-8.0
 74
     0
  0
LTYPE
  5
40
330
5
100
AcDbSymbolTableRecord
100
AcDbLinetypeTableRecord
  2
DOTTED
 70
     0
  3
Dotted
 72
    65
 73
     2
 40
1.0
 49
0.0
 74
     0
 49
-1.0
 74
     0
  0
LTYPE
  5
41
330
5
100
AcDbSymbolTableRecord
100
AcDbLinetypeTableRecord
  2
DOT_CENTER
 70
     0
  3
Dot_Center
 72
    65
 73
     4
 40
14.0
 49
12.0
 74
     0
 49
-1.0
 74
     0
 49
0.0
 74
     0
 49
-1.0
 74
     0
  0
LTYPE
  5
42
330
5
100
AcDbSymbolTableRecord
100
AcDbLinetypeTableRecord
  2
LONG_DASHED
 70
     0
  3
Long_Dashed
 72
    65
 73
     2
 40
15.0
 49
10.0
 74
     0
 49
-5.0
 74
     0
  0
LTYPE
  5
43
330
5
100
AcDbSymbolTableRecord
100
AcDbLinetypeTableRecord
  2
DASH_CENTER
 70
     0
  3
Dash_Center
 72
    65
 73
     4
 40
14.0
 49
11.0
 74
     0
 49
-1.0
 74
     0
 49
1.0
 74
     0
 49
-1.0
 74
     0
  0
LTYPE
  5
44
330
5
100
AcDbSymbolTableRecord
100
AcDbLinetypeTableRecord
  2
PHANTOM
 70
     0
  3
Phantom
 72
    65
 73
     6
 40
13.0
 49
10.0
 74
     0
 49
-1.0
 74
     0
 49
0.0
 74
     0
 49
-1.0
 74
     0
 49
0.0
 74
     0
 49
-1.0
 74
     0
  0
LTYPE
  5
45
330
5
100
AcDbSymbolTableRecord
100
AcDbLinetypeTableRecord
  2
CENTER_DASH_DASH
 70
     0
  3
Center_Dash_Dash
 72
    65
 73
     6
 40
14.0
 49
9.0
 74
     0
 49
-1.0
 74
     0
 49
1.0
 74
     0
 49
-1.0
 74
     0
 49
1.0
 74
     0
 49
-1.0
 74
     0
  0
ENDTAB
  0
TABLE
  2
LAYER
  5
2
330
0
100
AcDbSymbolTable
 70
     2
  0
LAYER
  5
10
330
2
100
AcDbSymbolTableRecord
100
AcDbLayerTableRecord
  2
0
 70
     0
 62
     7
  6
Continuous
370
    -3
390
F
  0
LAYER
  5
46
330
2
100
AcDbSymbolTableRecord
100
AcDbLayerTableRecord
  2
1
 70
     0
 62
     7
  6
Continuous
370
    -3
390
F
  0
ENDTAB
  0
TABLE
  2
STYLE
  5
3
330
0
100
AcDbSymbolTable
 70
     9
  0
STYLE
  5
11
330
3
100
AcDbSymbolTableRecord
100
AcDbTextStyleTableRecord
  2
Standard
 70
     0
 40
0.0
 41
1.0
 50
0.0
 71
     0
 42
0.2
  3
txt
  4

  0
STYLE
  5
AE
330
3
100
AcDbSymbolTableRecord
100
AcDbTextStyleTableRecord
  2
CONVERTER_11
 70
     0
 40
0.0
 41
0.9
 50
0.0
 71
     0
 42
0.2
  3
txt.shx
  4

  0
STYLE
  5
2AB
330
3
100
AcDbSymbolTableRecord
100
AcDbTextStyleTableRecord
  2
CONVERTER_12
 70
     0
 40
0.0
 41
0.63
 50
0.0
 71
     0
 42
0.2
  3
txt.shx
  4

  0
STYLE
  5
2AE
330
3
100
AcDbSymbolTableRecord
100
AcDbTextStyleTableRecord
  2
CONVERTER_13
 70
     0
 40
0.0
 41
0.765
 50
0.0
 71
     0
 42
0.2
  3
txt.shx
  4

  0
STYLE
  5
2D3
330
3
100
AcDbSymbolTableRecord
100
AcDbTextStyleTableRecord
  2
CONVERTER_14
 70
     0
 40
0.0
 41
0.72
 50
0.0
 71
     0
 42
0.2
  3
txt.shx
  4

  0
STYLE
  5
2E7
330
3
100
AcDbSymbolTableRecord
100
AcDbTextStyleTableRecord
  2
CONVERTER_15
 70
     0
 40
0.0
 41
0.855
 50
0.0
 71
     0
 42
0.2
  3
txt.shx
  4

  0
STYLE
  5
303
330
3
100
AcDbSymbolTableRecord
100
AcDbTextStyleTableRecord
  2
CONVERTER_16
 70
     0
 40
0.0
 41
0.54
 50
0.0
 71
     0
 42
0.2
  3
txt.shx
  4

  0
STYLE
  5
305
330
3
100
AcDbSymbolTableRecord
100
AcDbTextStyleTableRecord
  2
CONVERTER_17
 70
     0
 40
0.0
 41
0.81
 50
0.0
 71
     0
 42
0.2
  3
txt.shx
  4

  0
STYLE
  5
30C
330
3
100
AcDbSymbolTableRecord
100
AcDbTextStyleTableRecord
  2
CONVERTER_18
 70
     0
 40
0.0
 41
0.45
 50
0.0
 71
     0
 42
0.2
  3
txt.shx
  4

  0
ENDTAB
  0
TABLE
  2
VIEW
  5
6
330
0
100
AcDbSymbolTable
 70
     0
  0
ENDTAB
  0
TABLE
  2
UCS
  5
7
330
0
100
AcDbSymbolTable
 70
     0
  0
ENDTAB
  0
TABLE
  2
APPID
  5
9
330
0
100
AcDbSymbolTable
 70
     1
  0
APPID
  5
12
330
9
100
AcDbSymbolTableRecord
100
AcDbRegAppTableRecord
  2
ACAD
 70
     0
  0
ENDTAB
  0
TABLE
  2
DIMSTYLE
  5
A
330
0
100
AcDbSymbolTable
 70
     4
100
AcDbDimStyleTable
  0
DIMSTYLE
105
27
330
A
100
AcDbSymbolTableRecord
100
AcDbDimStyleTableRecord
  2
Standard
 70
     0
178
     0
340
11
  0
DIMSTYLE
105
BE
102
{ACAD_REACTORS
330
BF
102
}
330
A
100
AcDbSymbolTableRecord
100
AcDbDimStyleTableRecord
  2
ME10_DIM_10
 70
     0
 41
1.75
 42
0.0
 44
1.0
 73
     0
 74
     0
 77
     1
 78
     8
140
1.75
147
1.0
172
     1
173
     1
174
     1
175
     1
176
     2
177
     2
271
     1
178
     3
271
     1
340
AE
  0
DIMSTYLE
105
C9
102
{ACAD_REACTORS
330
CA
102
}
330
A
100
AcDbSymbolTableRecord
100
AcDbDimStyleTableRecord
  2
ME10_DIM_11
 70
     0
 41
1.75
 42
0.0
 44
1.0
 73
     0
 74
     0
 77
     1
 78
     8
140
1.75
147
1.0
172
     1
173
     1
174
     1
175
     1
176
     2
177
     2
271
     1
178
     3
271
     1
340
AE
  0
DIMSTYLE
105
12C
102
{ACAD_REACTORS
330
12D
102
}
330
A
100
AcDbSymbolTableRecord
100
AcDbDimStyleTableRecord
  2
ME10_DIM_12
 70
     0
 41
1.75
 42
0.0
 44
1.0
 73
     0
 74
     0
 77
     1
 78
     8
140
1.75
147
1.0
172
     1
173
     1
174
     1
175
     1
176
     2
177
     2
271
     1
178
     3
271
     1
340
AE
  0
ENDTAB
  0
TABLE
  2
BLOCK_RECORD
  5
1
330
0
100
AcDbSymbolTable
 70
    19
  0
BLOCK_RECORD
  5
1F
330
1
100
AcDbSymbolTableRecord
100
AcDbBlockTableRecord
  2
*Model_Space
340
22
  0
BLOCK_RECORD
  5
1B
330
1
100
AcDbSymbolTableRecord
100
AcDbBlockTableRecord
  2
*Paper_Space
340
1E
  0
BLOCK_RECORD
  5
23
330
1
100
AcDbSymbolTableRecord
100
AcDbBlockTableRecord
  2
*Paper_Space0
340
26
  0
BLOCK_RECORD
  5
47
330
1
100
AcDbSymbolTableRecord
100
AcDbBlockTableRecord
  2
0819194_UC_TM_12-select__1
340
0
102
{BLKREFS
331
4B
102
}
  0
BLOCK_RECORD
  5
4A
330
1
100
AcDbSymbolTableRecord
100
AcDbBlockTableRecord
  2
Allg1
340
0
102
{BLKREFS
331
7C
102
}
  0
BLOCK_RECORD
  5
4E
330
1
100
AcDbSymbolTableRecord
100
AcDbBlockTableRecord
  2
0819194_UC_TM_12-select__2
340
0
102
{BLKREFS
331
52
102
}
  0
BLOCK_RECORD
  5
51
330
1
100
AcDbSymbolTableRecord
100
AcDbBlockTableRecord
  2
Drfsicht1
340
0
102
{BLKREFS
331
7D
102
}
  0
BLOCK_RECORD
  5
55
330
1
100
AcDbSymbolTableRecord
100
AcDbBlockTableRecord
  2
0819194_UC_TM_12-select__3
340
0
102
{BLKREFS
331
59
102
}
  0
BLOCK_RECORD
  5
58
330
1
100
AcDbSymbolTableRecord
100
AcDbBlockTableRecord
  2
Rckans1
340
0
102
{BLKREFS
331
7E
102
}
  0
BLOCK_RECORD
  5
5C
330
1
100
AcDbSymbolTableRecord
100
AcDbBlockTableRecord
  2
0819194_UC_TM_12-select__4
340
0
102
{BLKREFS
331
60
102
}
  0
BLOCK_RECORD
  5
5F
330
1
100
AcDbSymbolTableRecord
100
AcDbBlockTableRecord
  2
SA_Links1
340
0
102
{BLKREFS
331
7F
102
}
  0
BLOCK_RECORD
  5
63
330
1
100
AcDbSymbolTableRecord
100
AcDbBlockTableRecord
  2
0819194_UC_TM_12-select__5
340
0
102
{BLKREFS
331
67
102
}
  0
BLOCK_RECORD
  5
66
330
1
100
AcDbSymbolTableRecord
100
AcDbBlockTableRecord
  2
SA_Rechts1
340
0
102
{BLKREFS
331
80
102
}
  0
BLOCK_RECORD
  5
6A
330
1
100
AcDbSymbolTableRecord
100
AcDbBlockTableRecord
  2
0819194_UC_TM_12-select__6
340
0
102
{BLKREFS
331
6E
102
}
  0
BLOCK_RECORD
  5
6D
330
1
100
AcDbSymbolTableRecord
100
AcDbBlockTableRecord
  2
Vordans1
340
0
102
{BLKREFS
331
81
102
}
  0
BLOCK_RECORD
  5
71
330
1
100
AcDbSymbolTableRecord
100
AcDbBlockTableRecord
  2
_punkt
340
0
102
{BLKREFS
331
78
102
}
  0
BLOCK_RECORD
  5
74
330
1
100
AcDbSymbolTableRecord
100
AcDbBlockTableRecord
  2
_rahmen
340
0
102
{BLKREFS
331
79
102
}
  0
BLOCK_RECORD
  5
77
330
1
100
AcDbSymbolTableRecord
100
AcDbBlockTableRecord
  2
A4I
340
0
102
{BLKREFS
331
82
102
}
  0
BLOCK_RECORD
  5
B5
330
1
100
AcDbSymbolTableRecord
100
AcDbBlockTableRecord
  2
*D16
340
0
  0
BLOCK_RECORD
  5
C0
330
1
100
AcDbSymbolTableRecord
100
AcDbBlockTableRecord
  2
*D17
340
0
  0
BLOCK_RECORD
  5
121
330
1
100
AcDbSymbolTableRecord
100
AcDbBlockTableRecord
  2
*D18
340
0
  0
ENDTAB
  0
ENDSEC
  0
SECTION
  2
BLOCKS
  0
BLOCK
  5
20
330
1F
100
AcDbEntity
  8
0
100
AcDbBlockBegin
  2
*Model_Space
 70
     0
 10
0.0
 20
0.0
 30
0.0
  3
*Model_Space
  1

  0
ENDBLK
  5
21
330
1F
100
AcDbEntity
  8
0
100
AcDbBlockEnd
  0
BLOCK
  5
1C
330
1B
100
AcDbEntity
 67
     1
  8
0
100
AcDbBlockBegin
  2
*Paper_Space
 70
     0
 10
0.0
 20
0.0
 30
0.0
  3
*Paper_Space
  1

  0
ENDBLK
  5
1D
330
1B
100
AcDbEntity
 67
     1
  8
0
100
AcDbBlockEnd
  0
BLOCK
  5
24
330
23
100
AcDbEntity
  8
0
100
AcDbBlockBegin
  2
*Paper_Space0
 70
     0
 10
0.0
 20
0.0
 30
0.0
  3
*Paper_Space0
  1

  0
ENDBLK
  5
25
330
23
100
AcDbEntity
  8
0
100
AcDbBlockEnd
  0
BLOCK
  5
48
330
47
100
AcDbEntity
  8
0
100
AcDbBlockBegin
  2
0819194_UC_TM_12-select__1
 70
     0
 10
-7.40913324194301
 20
28.1187567701059
 30
0.0
  3
0819194_UC_TM_12-select__1
  1

  0
LINE
  5
83
330
47
100
AcDbEntity
  8
0
  6
Continuous
 62
     7
100
AcDbLine
 10
-0.67016052883135
 20
30.38405704101009
 30
0.0
 11
-0.29964779431664
 21
29.25912385580547
 31
0.0
  0
LINE
  5
84
330
47
100
AcDbEntity
  8
0
  6
Continuous
 62
     7
100
AcDbLine
 10
0.13336491137444
 20
28.20354206789334
 30
0.0
 11
0.34987125852168
 21
28.14104206898998
 31
0.0
  0
LINE
  5
85
330
47
100
AcDbEntity
  8
0
  6
Continuous
 62
     7
100
AcDbLine
 10
0.13336491137444
 20
28.20354206789334
 30
0.0
 11
0.13336491137441
 21
28.37674714865023
 31
0.0
  0
LINE
  5
86
330
47
100
AcDbEntity
  8
0
  6
Continuous
 62
     7
100
AcDbLine
 10
-0.29964779431664
 20
28.93475985163909
 30
0.0
 11
-0.29964779431664
 21
29.25912385580547
 31
0.0
  0
LINE
  5
87
330
47
100
AcDbEntity
  8
0
  6
Continuous
 62
     7
100
AcDbLine
 10
7.40913349779357
 20
35.52845173644869
 30
0.0
 11
1.68413349779359
 21
30.5704562997828
 31
0.0
  0
LINE
  5
88
330
47
100
AcDbEntity
  8
0
  6
Continuous
 62
     7
100
AcDbLine
 10
7.40913349779357
 20
34.66242633266425
 30
0.0
 11
1.68413349779359
 21
29.70443089599836
 31
0.0
  0
LINE
  5
89
330
47
100
AcDbEntity
  8
0
  6
Continuous
 62
     7
100
AcDbLine
 10
1.68413349779359
 20
29.70443089599836
 30
0.0
 11
1.68413349779359
 21
30.5704562997828
 31
0.0
  0
LINE
  5
8A
330
47
100
AcDbEntity
  8
0
  6
Continuous
 62
     7
100
AcDbLine
 10
0.1607839719485
 20
29.25144886978814
 30
0.0
 11
-0.07842369205437
 21
30.21323733000878
 31
0.0
  0
LINE
  5
8B
330
47
100
AcDbEntity
  8
0
  6
Continuous
 62
     2
100
AcDbLine
 10
0.93391529556557
 20
29.92100023650202
 30
0.0
 11
0.1607839719485
 21
29.25144886978814
 31
0.0
  0
LINE
  5
8C
330
47
100
AcDbEntity
  8
0
  6
Continuous
 62
     2
100
AcDbLine
 10
1.32753666040741
 20
29.80737153602691
 30
0.0
 11
0.38853851136429
 21
28.99417528484899
 31
0.0
  0
LINE
  5
8D
330
47
100
AcDbEntity
  8
0
  6
Continuous
 62
     7
100
AcDbLine
 10
0.67719809387567
 20
28.19609029787297
 30
0.0
 11
4.82719809387566
 21
31.79009572357838
 31
0.0
  0
LINE
  5
8E
330
47
100
AcDbEntity
  8
0
  6
Continuous
 62
     7
100
AcDbLine
 10
-4.49987100267117
 20
29.54104206898997
 30
0.0
 11
-4.28336465172503
 21
29.47854206898997
 31
0.0
  0
LINE
  5
8F
330
47
100
AcDbEntity
  8
0
  6
Continuous
 62
     7
100
AcDbLine
 10
7.40913349779357
 20
34.66242633266425
 30
0.0
 11
7.40913349779357
 21
35.52845173644869
 31
0.0
  0
LINE
  5
90
330
47
100
AcDbEntity
  8
0
  6
Continuous
 62
     7
100
AcDbLine
 10
-1.68413324194303
 20
38.15345173644869
 30
0.0
 11
7.40913349779357
 21
35.52845173644869
 31
0.0
  0
LINE
  5
91
330
47
100
AcDbEntity
  8
0
  6
Continuous
 62
     7
100
AcDbLine
 10
-7.40913324194301
 20
33.1954562997828
 30
0.0
 11
-7.40913324194301
 21
32.32943089599836
 31
0.0
  0
LINE
  5
92
330
47
100
AcDbEntity
  8
0
  6
Continuous
 62
     2
100
AcDbLine
 10
-4.28305687682535
 20
30.63775319782452
 30
0.0
 11
-4.53853825551377
 21
30.41649983368649
 31
0.0
  0
LINE
  5
93
330
47
100
AcDbEntity
  8
0
  6
Continuous
 62
     7
100
AcDbLine
 10
-4.82719783802515
 20
30.35201924389142
 30
0.0
 11
-4.21108142827138
 21
30.88559170642664
 31
0.0
  0
LINE
  5
94
330
47
100
AcDbEntity
  8
0
  6
Continuous
 62
     7
100
AcDbLine
 10
-4.31078371609796
 20
30.54227927398476
 30
0.0
 11
-4.07157605209511
 21
31.36596112500114
 31
0.0
  0
LINE
  5
95
330
47
100
AcDbEntity
  8
0
  6
Continuous
 62
     7
100
AcDbLine
 10
-3.8926262964481
 20
29.85857406243538
 30
0.0
 11
-2.63192824584191
 21
30.95037060076186
 31
0.0
  0
LINE
  5
96
330
47
100
AcDbEntity
  8
0
  6
Continuous
 62
     7
100
AcDbLine
 10
-4.28336465172503
 20
29.47854206898997
 30
0.0
 11
-2.59586465172505
 21
30.93995993787621
 31
0.0
  0
LINE
  5
97
330
47
100
AcDbEntity
  8
0
  6
Continuous
 62
     2
100
AcDbLine
 10
-4.06067240503757
 20
29.84460429260403
 30
0.0
 11
-4.28336465172503
 21
29.65174714974686
 31
0.0
  0
LINE
  5
98
330
47
100
AcDbEntity
  8
0
  6
Continuous
 62
     7
100
AcDbLine
 10
-4.28336465172503
 20
29.65174714974686
 30
0.0
 11
-4.28336465172503
 21
29.47854206898997
 31
0.0
  0
LINE
  5
99
330
47
100
AcDbEntity
  8
0
  6
Continuous
 62
     7
100
AcDbLine
 10
-3.8503519498328
 20
29.95975985163907
 30
0.0
 11
-3.85035194983282
 21
30.28412385580545
 31
0.0
  0
LINE
  5
9A
330
47
100
AcDbEntity
  8
0
  6
Continuous
 62
     2
100
AcDbLine
 10
-3.8503519498328
 20
29.95975985163907
 30
0.0
 11
-2.68785194983284
 21
30.96651438353849
 31
0.0
  0
LINE
  5
9B
330
47
100
AcDbEntity
  8
0
  6
Continuous
 62
     7
100
AcDbLine
 10
-3.47983921531814
 20
31.19514141399984
 30
0.0
 11
-3.85035194983282
 21
30.28412385580545
 31
0.0
  0
LINE
  5
9C
330
47
100
AcDbEntity
  8
0
  6
Continuous
 62
     7
100
AcDbLine
 10
-3.85035194983282
 20
30.28412385580545
 30
0.0
 11
-2.96875941751418
 21
31.04760538458009
 31
0.0
  0
LINE
  5
9D
330
47
100
AcDbEntity
  8
0
  6
Continuous
 62
     7
100
AcDbLine
 10
1.68413349779359
 20
29.70443089599836
 30
0.0
 11
-7.40913324194301
 21
32.32943089599836
 31
0.0
  0
LINE
  5
9E
330
47
100
AcDbEntity
  8
0
  6
Continuous
 62
     7
100
AcDbLine
 10
1.68413349779359
 20
30.5704562997828
 30
0.0
 11
-7.40913324194301
 21
33.1954562997828
 31
0.0
  0
LINE
  5
9F
330
47
100
AcDbEntity
  8
0
  6
Continuous
 62
     7
100
AcDbLine
 10
-7.40913324194301
 20
33.1954562997828
 30
0.0
 11
-1.68413324194303
 21
38.15345173644869
 31
0.0
  0
SPLINE
  5
A0
330
47
100
AcDbEntity
  8
0
  6
Continuous
 62
     7
100
AcDbSpline
210
0.0
220
0.0
230
1.0
 70
     8
 71
     3
 72
    11
 73
     7
 74
     5
 42
0.000000001
 43
0.0000000001
 44
0.00000001
 40
0.0
 40
0.0
 40
0.0
 40
0.0
 40
0.0935705952109172
 40
0.1815181363975939
 40
0.2647690944696061
 40
0.3453217744506391
 40
0.3453217744506391
 40
0.3453217744506391
 40
0.3453217744506391
 10
0.3498712585216808
 20
28.14104206898998
 30
0.0
 10
0.3804015657780415
 20
28.13400166867346
 30
0.0
 10
0.4396274869255665
 20
28.12034396995335
 30
0.0
 10
0.528659762532047
 20
28.12481745902786
 30
0.0
 10
0.6108969980487602
 20
28.14778207349118
 30
0.0
 10
0.6553417720527303
 20
28.18016536506011
 30
0.0
 10
0.6771980938756705
 20
28.19609029787297
 30
0.0
 11
0.3498712585216808
 21
28.14104206898998
 31
0.0
 11
0.4419436996637289
 21
28.1243650807093
 31
0.0
 11
0.5298051863149844
 21
28.1282547549045
 31
0.0
 11
0.6094372966298538
 21
28.15253333600146
 31
0.0
 11
0.6771980938756705
 21
28.19609029787297
 31
0.0
  0
SPLINE
  5
A1
330
47
100
AcDbEntity
  8
0
  6
Continuous
 62
     7
100
AcDbSpline
210
0.0
220
0.0
230
1.0
 70
     8
 71
     3
 72
    11
 73
     7
 74
     5
 42
0.000000001
 43
0.0000000001
 44
0.00000001
 40
0.0
 40
0.0
 40
0.0
 40
0.0
 40
0.1106131016814707
 40
0.2272704372735423
 40
0.3425145686900147
 40
0.4494916526359518
 40
0.4494916526359518
 40
0.4494916526359518
 40
0.4494916526359518
 10
-0.1264427097609087
 20
28.71155476978557
 30
0.0
 10
-0.0920039454154771
 20
28.69743908745444
 30
0.0
 10
-0.0212445854447717
 20
28.66843638598179
 30
0.0
 10
0.0606302902230164
 20
28.58571688200723
 30
0.0
 10
0.1202751674114759
 20
28.4868419880953
 30
0.0
 10
0.1291112409487081
 20
28.41252383774767
 30
0.0
 10
0.1333649113744109
 20
28.37674714865023
 30
0.0
 11
-0.1264427097609087
 21
28.71155476978557
 31
0.0
 11
-0.0270189398486223
 21
28.66307619223339
 31
0.0
 11
0.0572690209478193
 21
28.58242587076997
 31
0.0
 11
0.1135875039835954
 21
28.481880164303
 31
0.0
 11
0.1333649113744109
 21
28.37674714865023
 31
0.0
  0
SPLINE
  5
A2
330
47
100
AcDbEntity
  8
0
  6
Continuous
 62
     7
100
AcDbSpline
210
0.0
220
0.0
230
1.0
 70
     8
 71
     3
 72
    11
 73
     7
 74
     5
 42
0.000000001
 43
0.0000000001
 44
0.00000001
 40
0.0
 40
0.0
 40
0.0
 40
0.0
 40
0.0737420681421516
 40
0.1515136251603455
 40
0.2283430460874586
 40
0.2996611025640119
 40
0.2996611025640119
 40
0.2996611025640119
 40
0.2996611025640119
 10
-0.1264427097609087
 20
28.71155476978557
 30
0.0
 10
-0.1494018862720585
 20
28.72096522432546
 30
0.0
 10
-0.1965747910984774
 20
28.74030036230683
 30
0.0
 10
-0.2511580436357925
 20
28.79544669594574
 30
0.0
 10
-0.2909212932862553
 20
28.86136329267896
 30
0.0
 10
-0.296812013971265
 20
28.91090872540143
 30
0.0
 10
-0.2996477943166411
 20
28.93475985163909
 30
0.0
 11
-0.1264427097609087
 21
28.71155476978557
 31
0.0
 11
-0.1927252242023392
 21
28.74387382073352
 31
0.0
 11
-0.2489171993557946
 21
28.79764070182845
 31
0.0
 11
-0.286462855692593
 21
28.86467117355491
 31
0.0
 11
-0.2996477943166411
 21
28.93475985163909
 31
0.0
  0
SPLINE
  5
A3
330
47
100
AcDbEntity
  8
0
  6
Continuous
 62
     7
100
AcDbSpline
210
0.0
220
0.0
230
1.0
 70
     8
 71
     3
 72
    13
 73
     9
 74
     7
 42
0.000000001
 43
0.0000000001
 44
0.00000001
 40
0.0
 40
0.0
 40
0.0
 40
0.0
 40
0.096140460493486
 40
0.1967397913377733
 40
0.3046779957373771
 40
0.4206234044522744
 40
0.5432628111870298
 40
0.6698880320896511
 40
0.6698880320896511
 40
0.6698880320896511
 40
0.6698880320896511
 10
4.827198093875662
 20
31.79009572357838
 30
0.0
 10
4.849380364740049
 20
31.81364437484477
 30
0.0
 10
4.894773680582588
 20
31.86183384221731
 30
0.0
 10
4.92916029412972
 20
31.96017413009563
 30
0.0
 10
4.936888205318793
 20
32.06895380129896
 30
0.0
 10
4.915747126613904
 20
32.18353666900317
 30
0.0
 10
4.869700108038497
 20
32.29750209340232
 30
0.0
 10
4.820545724877071
 20
32.36482104324699
 30
0.0
 10
4.795575530870163
 20
32.39901873904539
 30
0.0
 11
4.827198093875662
 21
31.79009572357838
 31
0.0
 11
4.888207491208798
 21
31.86439809467323
 31
0.0
 11
4.924010660217789
 21
31.95841064377872
 31
0.0
 11
4.932283301763812
 21
32.06603136686692
 31
0.0
 11
4.912488830909183
 21
32.18027460354288
 31
0.0
 11
4.865911704722631
 21
32.29372501346239
 31
0.0
 11
4.795575530870163
 21
32.39901873904539
 31
0.0
  0
SPLINE
  5
A4
330
47
100
AcDbEntity
  8
0
  6
Continuous
 62
     7
100
AcDbSpline
210
0.0
220
0.0
230
1.0
 70
     8
 71
     3
 72
    15
 73
    11
 74
     9
 42
0.000000001
 43
0.0000000001
 44
0.00000001
 40
0.0
 40
0.0
 40
0.0
 40
0.0
 40
0.1033163942168696
 40
0.2120863461004003
 40
0.3295789860995608
 40
0.456131235585507
 40
0.5896023175518912
 40
0.7262526177565979
 40
0.8616764874278652
 40
0.991720682677107
 40
0.991720682677107
 40
0.991720682677107
 40
0.991720682677107
 10
0.6771980938756705
 20
28.19609029787297
 30
0.0
 10
0.7008629802154519
 20
28.22162226948606
 30
0.0
 10
0.7494418934339916
 20
28.2740339266098
 30
0.0
 10
0.7828242756665842
 20
28.38208162979655
 30
0.0
 10
0.7852668483191864
 20
28.50063500513848
 30
0.0
 10
0.7551057372552545
 20
28.62419110466488
 30
0.0
 10
0.6958410040833951
 20
28.74354840486595
 30
0.0
 10
0.61129998660127
 20
28.8499172092981
 30
0.0
 10
0.5086788514081018
 20
28.93858399341936
 30
0.0
 10
0.4280405857349734
 20
28.97589690563855
 30
0.0
 10
0.3885385113642883
 20
28.99417528484899
 30
0.0
 11
0.6771980938756705
 21
28.19609029787297
 31
0.0
 11
0.7417623786346657
 21
28.27674841298329
 31
0.0
 11
0.777006596041991
 21
28.37965005949887
 31
0.0
 11
0.7802933027925194
 21
28.49709672275746
 31
0.0
 11
0.7513771790118806
 21
28.62030114636955
 31
0.0
 11
0.6924210922365532
 21
28.74004549794438
 31
0.0
 11
0.6078364987654687
 21
28.84737094271721
 31
0.0
 11
0.5039514021750842
 21
28.93424735481388
 31
0.0
 11
0.3885385113642883
 21
28.99417528484899
 31
0.0
  0
SPLINE
  5
A5
330
47
100
AcDbEntity
  8
0
  6
Continuous
 62
     7
100
AcDbSpline
210
0.0
220
0.0
230
1.0
 70
     8
 71
     3
 72
    11
 73
     7
 74
     5
 42
0.000000001
 43
0.0000000001
 44
0.00000001
 40
0.0
 40
0.0
 40
0.0
 40
0.0
 40
0.0873784704164338
 40
0.178115446919283
 40
0.2686778341987621
 40
0.3555769106503708
 40
0.3555769106503708
 40
0.3555769106503708
 40
0.3555769106503708
 10
0.1607839719485007
 20
29.25144886978814
 30
0.0
 10
0.1700451442865399
 20
29.22366531139922
 30
0.0
 10
0.188923468136768
 20
29.16703030278362
 30
0.0
 10
0.2423277645429056
 20
29.09381415712734
 30
0.0
 10
0.3084014008508352
 20
29.03199336159718
 30
0.0
 10
0.3621962988670619
 20
29.00660662124061
 30
0.0
 10
0.3885385113642883
 20
28.99417528484899
 30
0.0
 11
0.1607839719485007
 21
29.25144886978814
 31
0.0
 11
0.1925444539961203
 21
29.17004697146152
 31
0.0
 11
0.2445238052809504
 21
29.09567394952744
 31
0.0
 11
0.3119277856085405
 21
29.03519048173056
 31
0.0
 11
0.3885385113642883
 21
28.99417528484899
 31
0.0
  0
SPLINE
  5
A6
330
47
100
AcDbEntity
  8
0
  6
Continuous
 62
     7
100
AcDbSpline
210
0.0
220
0.0
230
1.0
 70
     8
 71
     3
 72
     9
 73
     5
 74
     3
 42
0.000000001
 43
0.0000000001
 44
0.00000001
 40
0.0
 40
0.0
 40
0.0
 40
0.0
 40
0.0509836231905908
 40
0.1038532315104244
 40
0.1038532315104244
 40
0.1038532315104244
 40
0.1038532315104244
 10
-4.3653425060069
 20
30.45518818756352
 30
0.0
 10
-4.353287259231761
 20
30.46746914915616
 30
0.0
 10
-4.32873083403167
 20
30.49248538111335
 30
0.0
 10
-4.316838074107936
 20
30.52548156851728
 30
0.0
 10
-4.310783716097959
 20
30.54227927398476
 30
0.0
 11
-4.3653425060069
 21
30.45518818756352
 31
0.0
 11
-4.332228746409436
 21
30.49395426688457
 31
0.0
 11
-4.310783716097959
 21
30.54227927398476
 31
0.0
  0
SPLINE
  5
A7
330
47
100
AcDbEntity
  8
0
  6
Continuous
 62
     7
100
AcDbSpline
210
0.0
220
0.0
230
1.0
 70
     8
 71
     3
 72
     9
 73
     5
 74
     3
 42
0.000000001
 43
0.0000000001
 44
0.00000001
 40
0.0
 40
0.0
 40
0.0
 40
0.0
 40
0.0952135978652389
 40
0.1822514523878628
 40
0.1822514523878628
 40
0.1822514523878628
 40
0.1822514523878628
 10
-4.538538255513771
 20
30.41649983368649
 30
0.0
 10
-4.505937831041964
 20
30.41283085795325
 30
0.0
 10
-4.443536297896959
 20
30.40580797081211
 30
0.0
 10
-4.390615768352702
 20
30.43922784463657
 30
0.0
 10
-4.3653425060069
 20
30.45518818756352
 30
0.0
 11
-4.538538255513771
 21
30.41649983368649
 31
0.0
 11
-4.443324660495804
 21
30.41653107828297
 31
0.0
 11
-4.3653425060069
 21
30.45518818756352
 31
0.0
  0
SPLINE
  5
A8
330
47
100
AcDbEntity
  8
0
  6
Continuous
 62
     7
100
AcDbSpline
210
0.0
220
0.0
230
1.0
 70
     8
 71
     3
 72
    11
 73
     7
 74
     5
 42
0.000000001
 43
0.0000000001
 44
0.00000001
 40
0.0
 40
0.0
 40
0.0
 40
0.0
 40
0.0819681342015863
 40
0.1595511807384342
 40
0.2336266430857984
 40
0.3057399316813469
 40
0.3057399316813469
 40
0.3057399316813469
 40
0.3057399316813469
 10
-4.538538255513771
 20
30.41649983368649
 30
0.0
 10
-4.565680561484827
 20
30.42046535023296
 30
0.0
 10
-4.618513129986884
 20
30.42818422364886
 30
0.0
 10
-4.696568551485365
 20
30.41924932147409
 30
0.0
 10
-4.768442748646973
 20
30.39565850752669
 30
0.0
 10
-4.807788847859548
 20
30.3664349209768
 30
0.0
 10
-4.82719783802515
 20
30.35201924389142
 30
0.0
 11
-4.538538255513771
 21
30.41649983368649
 31
0.0
 11
-4.620090277335575
 21
30.42474864192538
 31
0.0
 11
-4.697228103673678
 21
30.4164489320032
 31
0.0
 11
-4.767119365940664
 21
30.39190537974158
 31
0.0
 11
-4.82719783802515
 21
30.35201924389142
 31
0.0
  0
SPLINE
  5
A9
330
47
100
AcDbEntity
  8
0
  6
Continuous
 62
     7
100
AcDbSpline
210
0.0
220
0.0
230
1.0
 70
     8
 71
     3
 72
    15
 73
    11
 74
     9
 42
0.000000001
 43
0.0000000001
 44
0.00000001
 40
0.0
 40
0.0
 40
0.0
 40
0.0
 40
0.107560516116033
 40
0.2212191566791554
 40
0.3444594698632805
 40
0.4773441629483828
 40
0.6171468747721469
 40
0.759444732308223
 40
0.8992538434251014
 40
1.032150054400763
 40
1.032150054400763
 40
1.032150054400763
 40
1.032150054400763
 10
-4.82719783802515
 20
30.35201924389142
 30
0.0
 10
-4.851727386969046
 20
30.32529763212155
 30
0.0
 10
-4.902177172312079
 20
30.27033942327995
 30
0.0
 10
-4.934690394532145
 20
30.1564569673463
 30
0.0
 10
-4.933673401868556
 20
30.03215000486449
 30
0.0
 10
-4.897635810902601
 20
29.90365997289228
 30
0.0
 10
-4.830789260050407
 20
29.78124230464834
 30
0.0
 10
-4.737857950047287
 20
29.6746865544626
 30
0.0
 10
-4.627024402911005
 20
29.58884064166098
 30
0.0
 10
-4.541533088503565
 20
29.55670336926668
 30
0.0
 10
-4.499871002671171
 20
29.54104206898997
 30
0.0
 11
-4.82719783802515
 21
30.35201924389142
 31
0.0
 11
-4.893796141046884
 21
30.26755663798127
 31
0.0
 11
-4.92848891207777
 21
30.15932217214688
 31
0.0
 11
-4.928465509574504
 21
30.03608185818675
 31
0.0
 11
-4.893728567824954
 21
29.90781772872084
 31
0.0
 11
-4.827090888193156
 21
29.78491850958554
 31
0.0
 11
-4.733950394933855
 21
29.67733817327227
 31
0.0
 11
-4.621850496049598
 21
29.59379058189807
 31
0.0
 11
-4.499871002671171
 21
29.54104206898997
 31
0.0
  0
SPLINE
  5
AA
330
47
100
AcDbEntity
  8
0
  6
Continuous
 62
     7
100
AcDbSpline
210
0.0
220
0.0
230
1.0
 70
     8
 71
     3
 72
     9
 73
     5
 74
     3
 42
0.000000001
 43
0.0000000001
 44
0.00000001
 40
0.0
 40
0.0
 40
0.0
 40
0.0
 40
0.0875779843214255
 40
0.1684190793151038
 40
0.1684190793151038
 40
0.1684190793151038
 40
0.1684190793151038
 10
-4.28336465172503
 20
29.65174714974686
 30
0.0
 10
-4.28090648931952
 20
29.681709062466
 30
0.0
 10
-4.27617923901278
 20
29.73932807814488
 30
0.0
 10
-4.238188621828919
 20
29.78270495399967
 30
0.0
 10
-4.21995313180209
 20
29.80352583355239
 30
0.0
 11
-4.28336465172503
 21
29.65174714974686
 31
0.0
 11
-4.266995727292405
 21
29.73778180571199
 31
0.0
 11
-4.21995313180209
 21
29.80352583355239
 31
0.0
  0
SPLINE
  5
AB
330
47
100
AcDbEntity
  8
0
  6
Continuous
 62
     7
100
AcDbSpline
210
0.0
220
0.0
230
1.0
 70
     8
 71
     3
 72
    11
 73
     7
 74
     5
 42
0.000000001
 43
0.0000000001
 44
0.00000001
 40
0.0
 40
0.0
 40
0.0
 40
0.0
 40
0.0374282378668452
 40
0.0726072529732057
 40
0.1059076344961794
 40
0.1381287053015203
 40
0.1381287053015203
 40
0.1381287053015203
 40
0.1381287053015203
 10
-4.023557030589689
 20
29.83655477088218
 30
0.0
 10
-4.011344907758118
 20
29.83373861077194
 30
0.0
 10
-3.987654538425915
 20
29.8282755400373
 30
0.0
 10
-3.95204162928243
 20
29.83006493157329
 30
0.0
 10
-3.919146738350392
 20
29.8392507809975
 30
0.0
 10
-3.90136882485519
 20
29.85220408954491
 30
0.0
 10
-3.8926262964481
 20
29.85857406243538
 30
0.0
 11
-4.023557030589689
 21
29.83655477088218
 31
0.0
 11
-3.986728054132872
 21
29.82988397556992
 31
0.0
 11
-3.951583459472371
 21
29.831439845248
 31
0.0
 11
-3.919730615346424
 21
29.84115127768678
 31
0.0
 11
-3.8926262964481
 21
29.85857406243538
 31
0.0
  0
SPLINE
  5
AC
330
47
100
AcDbEntity
  8
0
  6
Continuous
 62
     7
100
AcDbSpline
210
0.0
220
0.0
230
1.0
 70
     8
 71
     3
 72
     9
 73
     5
 74
     3
 42
0.000000001
 43
0.0000000001
 44
0.00000001
 40
0.0
 40
0.0
 40
0.0
 40
0.0
 40
0.0538940626129742
 40
0.112279384777768
 40
0.112279384777768
 40
0.112279384777768
 40
0.112279384777768
 10
-3.8926262964481
 20
29.85857406243538
 30
0.0
 10
-3.880469303258426
 20
29.87245464861941
 30
0.0
 10
-3.855142231019441
 20
29.90137256868967
 30
0.0
 10
-3.851990724749709
 20
29.93978524340465
 30
0.0
 10
-3.850351949832799
 20
29.95975985163907
 30
0.0
 11
-3.8926262964481
 21
29.85857406243538
 31
0.0
 11
-3.861264566121225
 21
29.90240341432899
 31
0.0
 11
-3.850351949832799
 21
29.95975985163907
 31
0.0
  0
SPLINE
  5
AD
330
47
100
AcDbEntity
  8
0
  6
Continuous
 62
     7
100
AcDbSpline
210
0.0
220
0.0
230
1.0
 70
     8
 71
     3
 72
    11
 73
     7
 74
     5
 42
0.000000001
 43
0.0000000001
 44
0.00000001
 40
0.0
 40
0.0
 40
0.0
 40
0.0
 40
0.0483316071972433
 40
0.0982821809032289
 40
0.1510507047030316
 40
0.2071930616845776
 40
0.2071930616845776
 40
0.2071930616845776
 40
0.2071930616845776
 10
-4.21995313180209
 20
29.80352583355239
 30
0.0
 10
-4.20683933892305
 20
29.81308079308366
 30
0.0
 10
-4.180172471924926
 20
29.83251076263824
 30
0.0
 10
-4.130830132797996
 20
29.84628953374217
 30
0.0
 10
-4.077410768166838
 20
29.84897362445765
 30
0.0
 10
-4.041875214896193
 20
29.84077901106119
 30
0.0
 10
-4.023557030589689
 20
29.83655477088218
 30
0.0
 11
-4.21995313180209
 21
29.80352583355239
 31
0.0
 11
-4.179296653454601
 21
29.8296600106753
 31
0.0
 11
-4.131517387265681
 21
29.84422715933347
 31
0.0
 11
-4.078800495274925
 21
29.84656096385059
 31
0.0
 11
-4.023557030589689
 21
29.83655477088218
 31
0.0
  0
ENDBLK
  5
49
330
47
100
AcDbEntity
  8
0
100
AcDbBlockEnd
  0
BLOCK
  5
4C
330
4A
100
AcDbEntity
  8
0
100
AcDbBlockBegin
  2
Allg1
 70
     0
 10
0.00000000002192
 20
32.50000000000205
 30
0.0
  3
Allg1
  1

  0
INSERT
  5
4B
330
4A
100
AcDbEntity
  8
0
100
AcDbBlockReference
  2
0819194_UC_TM_12-select__1
 10
-7.40913324194301
 20
28.1187567701059
 30
0.0
  0
MTEXT
  5
AF
330
4A
100
AcDbEntity
  8
1
 62
     6
100
AcDbMText
 10
0.00000000002194
 20
24.34654741576071
 30
0.0
 40
2.5
 41
0.0
 71
     2
 72
     1
  1
 
  7
CONVERTER_11
 73
     1
 44
1.32052821128451
  0
ENDBLK
  5
4D
330
4A
100
AcDbEntity
  8
0
100
AcDbBlockEnd
  0
BLOCK
  5
4F
330
4E
100
AcDbEntity
  8
0
100
AcDbBlockBegin
  2
0819194_UC_TM_12-select__2
 70
     0
 10
-65.7000003100902
 20
44.39999957084662
 30
0.0
  3
0819194_UC_TM_12-select__2
  1

  0
LINE
  5
B0
330
4E
100
AcDbEntity
  8
0
  6
Continuous
 62
     7
100
AcDbLine
 10
-65.7000003100902
 20
55.84999957084659
 30
0.0
 11
-55.2000003100902
 21
55.84999957084659
 31
0.0
  0
LINE
  5
B1
330
4E
100
AcDbEntity
  8
0
  6
Continuous
 62
     7
100
AcDbLine
 10
-55.2000003100902
 20
44.39999957084662
 30
0.0
 11
-65.7000003100902
 21
44.39999957084662
 31
0.0
  0
LINE
  5
B2
330
4E
100
AcDbEntity
  8
0
  6
Continuous
 62
     7
100
AcDbLine
 10
-65.7000003100902
 20
44.39999957084662
 30
0.0
 11
-65.7000003100902
 21
55.84999957084659
 31
0.0
  0
LINE
  5
B3
330
4E
100
AcDbEntity
  8
0
  6
Continuous
 62
     7
100
AcDbLine
 10
-55.2000003100902
 20
55.84999957084659
 30
0.0
 11
-55.2000003100902
 21
44.39999957084662
 31
0.0
  0
ENDBLK
  5
50
330
4E
100
AcDbEntity
  8
0
100
AcDbBlockEnd
  0
BLOCK
  5
53
330
51
100
AcDbEntity
  8
0
100
AcDbBlockBegin
  2
Drfsicht1
 70
     0
 10
-60.45000111850521
 20
50.12500071525574
 30
0.0
  3
Drfsicht1
  1

  0
INSERT
  5
52
330
51
100
AcDbEntity
  8
0
100
AcDbBlockReference
  2
0819194_UC_TM_12-select__2
 10
-65.7000003100902
 20
44.39999957084662
 30
0.0
  0
MTEXT
  5
B4
330
51
100
AcDbEntity
  8
1
 62
     6
100
AcDbMText
 10
-60.45000111850521
 20
41.90000033378601
 30
0.0
 40
2.5
 41
0.0
 71
     2
 72
     1
  1
 
  7
CONVERTER_11
 73
     1
 44
1.32052821128451
  0
DIMENSION
  5
BF
330
51
100
AcDbEntity
  8
1
100
AcDbDimension
  2
*D16
 10
-70.7000003100902
 20
55.84999957084659
 30
0.0
 11
-72.66250031009021
 21
50.12499957084661
 31
0.0
 70
    32
  1
<>
 71
     5
 42
-1.0
 53
90.0
  3
ME10_DIM_10
100
AcDbAlignedDimension
 13
-65.7000003100902
 23
44.39999957084662
 33
0.0
 14
-65.7000003100902
 24
55.84999957084659
 34
0.0
 50
90.0
100
AcDbRotatedDimension
  0
DIMENSION
  5
CA
330
51
100
AcDbEntity
  8
1
100
AcDbDimension
  2
*D17
 10
-65.7000003100902
 20
60.84999957084658
 30
0.0
 11
-60.4500003100902
 21
62.81249957084658
 31
0.0
 70
    33
  1
<>
 71
     5
 42
-1.0
 53
0.00013888888889
  3
ME10_DIM_11
100
AcDbAlignedDimension
 13
-55.2000003100902
 23
55.84999957084659
 33
0.0
 14
-65.7000003100902
 24
55.84999957084659
 34
0.0
  0
ENDBLK
  5
54
330
51
100
AcDbEntity
  8
0
100
AcDbBlockEnd
  0
BLOCK
  5
56
330
55
100
AcDbEntity
  8
0
100
AcDbBlockBegin
  2
0819194_UC_TM_12-select__3
 70
     0
 10
-23.75000080854001
 20
70.85000011277712
 30
0.0
  3
0819194_UC_TM_12-select__3
  1

  0
LINE
  5
CB
330
55
100
AcDbEntity
  8
0
  6
Continuous
 62
     7
100
AcDbLine
 10
-13.25000080854001
 20
74.15000011277712
 30
0.0
 11
-13.25000080854001
 21
75.15000011277712
 31
0.0
  0
LINE
  5
CC
330
55
100
AcDbEntity
  8
0
  6
Continuous
 62
     7
100
AcDbLine
 10
-13.25000080854001
 20
74.15000011277712
 30
0.0
 11
-16.47589987060793
 21
74.15000011277712
 31
0.0
  0
LINE
  5
CD
330
55
100
AcDbEntity
  8
0
  6
Continuous
 62
     7
100
AcDbLine
 10
-19.74000080853998
 20
74.15000011277712
 30
0.0
 11
-20.52410174647201
 21
74.15000011277712
 31
0.0
  0
LINE
  5
CE
330
55
100
AcDbEntity
  8
0
  6
Continuous
 62
     7
100
AcDbLine
 10
-16.47589987060793
 20
74.15000011277712
 30
0.0
 11
-17.26000080853999
 21
74.15000011277712
 31
0.0
  0
LINE
  5
CF
330
55
100
AcDbEntity
  8
0
  6
Continuous
 62
     7
100
AcDbLine
 10
-17.26000080853999
 20
74.15000011277712
 30
0.0
 11
-19.74000080853998
 21
74.15000011277712
 31
0.0
  0
LINE
  5
D0
330
55
100
AcDbEntity
  8
0
  6
Continuous
 62
     7
100
AcDbLine
 10
-20.52410174647201
 20
74.15000011277712
 30
0.0
 11
-23.75000080854001
 21
74.15000011277712
 31
0.0
  0
LINE
  5
D1
330
55
100
AcDbEntity
  8
0
  6
Continuous
 62
     7
100
AcDbLine
 10
-23.75000080854001
 20
74.15000011277712
 30
0.0
 11
-23.75000080854001
 21
75.15000011277712
 31
0.0
  0
LINE
  5
D2
330
55
100
AcDbEntity
  8
0
  6
Continuous
 62
     7
100
AcDbLine
 10
-16.47589987060793
 20
74.15000011277712
 30
0.0
 11
-15.91834000014673
 21
72.06915834795434
 31
0.0
  0
LINE
  5
D3
330
55
100
AcDbEntity
  8
0
  6
Continuous
 62
     7
100
AcDbLine
 10
-13.25000080854001
 20
75.15000011277712
 30
0.0
 11
-23.75000080854001
 21
75.15000011277712
 31
0.0
  0
LINE
  5
D4
330
55
100
AcDbEntity
  8
0
  6
Continuous
 62
     7
100
AcDbLine
 10
-21.08166161693323
 20
72.06915834795434
 30
0.0
 11
-20.52410174647201
 21
74.15000011277712
 31
0.0
  0
LINE
  5
D5
330
55
100
AcDbEntity
  8
0
  6
Continuous
 62
     7
100
AcDbLine
 10
-20.55000080853996
 20
71.92454340301889
 30
0.0
 11
-20.55000080853996
 21
71.55000011277713
 31
0.0
  0
LINE
  5
D6
330
55
100
AcDbEntity
  8
0
  6
Continuous
 62
     7
100
AcDbLine
 10
-19.74000080853998
 20
74.15000011277712
 30
0.0
 11
-20.55000080853996
 21
71.92454340301889
 31
0.0
  0
LINE
  5
D7
330
55
100
AcDbEntity
  8
0
  6
Continuous
 62
     7
100
AcDbLine
 10
-15.70000080854
 20
70.85000011277712
 30
0.0
 11
-15.95000080854
 21
70.85000011277712
 31
0.0
  0
LINE
  5
D8
330
55
100
AcDbEntity
  8
0
  6
Continuous
 62
     7
100
AcDbLine
 10
-21.05000081292651
 20
70.85000011277712
 30
0.0
 11
-21.30000080853996
 21
70.85000011277712
 31
0.0
  0
LINE
  5
D9
330
55
100
AcDbEntity
  8
0
  6
Continuous
 62
     7
100
AcDbLine
 10
-15.95000080854
 20
71.05000011277713
 30
0.0
 11
-15.95000080854
 21
70.85000011277712
 31
0.0
  0
LINE
  5
DA
330
55
100
AcDbEntity
  8
0
  6
Continuous
 62
     7
100
AcDbLine
 10
-21.05000081292651
 20
70.85000011277712
 30
0.0
 11
-21.05000081292651
 21
71.05000011277713
 31
0.0
  0
LINE
  5
DB
330
55
100
AcDbEntity
  8
0
  6
Continuous
 62
     7
100
AcDbLine
 10
-16.45000080854001
 20
71.55000011277713
 30
0.0
 11
-16.45000080854
 21
71.92454340301889
 31
0.0
  0
LINE
  5
DC
330
55
100
AcDbEntity
  8
0
  6
Continuous
 62
     7
100
AcDbLine
 10
-16.45000080854
 20
71.92454340301889
 30
0.0
 11
-17.26000080853999
 21
74.15000011277712
 31
0.0
  0
ARC
  5
DD
330
55
100
AcDbEntity
  8
0
  6
Continuous
 62
     7
100
AcDbCircle
 10
-16.25000080854001
 20
71.55000011277713
 30
0.0
 40
0.2000000000000028
100
AcDbArc
 50
180.0
 51
270.0
  0
ARC
  5
DE
330
55
100
AcDbEntity
  8
0
  6
Continuous
 62
     7
100
AcDbCircle
 10
-20.75000080854001
 20
71.55000011277713
 30
0.0
 40
0.2000000000000029
100
AcDbArc
 50
269.9999987433623
 51
0.0
  0
ARC
  5
DF
330
55
100
AcDbEntity
  8
0
  6
Continuous
 62
     7
100
AcDbCircle
 10
-15.62856225226001
 20
72.1468040614851
 30
0.0
 40
0.2999999999999984
100
AcDbArc
 50
195.0000000000001
 51
264.8767659199401
  0
ARC
  5
E0
330
55
100
AcDbEntity
  8
0
  6
Continuous
 62
     7
100
AcDbCircle
 10
-15.70000080854
 20
71.35000011277712
 30
0.0
 40
0.5
100
AcDbArc
 50
270.0
 51
84.87676591993485
  0
ARC
  5
E1
330
55
100
AcDbEntity
  8
0
  6
Continuous
 62
     7
100
AcDbCircle
 10
-16.25000080854001
 20
71.05000011277713
 30
0.0
 40
0.3000000000000078
100
AcDbArc
 50
0.0
 51
90.0
  0
ARC
  5
E2
330
55
100
AcDbEntity
  8
0
  6
Continuous
 62
     7
100
AcDbCircle
 10
-21.37143936481995
 20
72.1468040614851
 30
0.0
 40
0.2999999999999964
100
AcDbArc
 50
275.1232340800602
 51
344.9999999999999
  0
ARC
  5
E3
330
55
100
AcDbEntity
  8
0
  6
Continuous
 62
     7
100
AcDbCircle
 10
-21.30000080853996
 20
71.35000011277712
 30
0.0
 40
0.4999999999999977
100
AcDbArc
 50
95.12323408006496
 51
270.0
  0
ARC
  5
E4
330
55
100
AcDbEntity
  8
0
  6
Continuous
 62
     7
100
AcDbCircle
 10
-20.7500008129265
 20
71.05000011277713
 30
0.0
 40
0.2999999999999972
100
AcDbArc
 50
90.0
 51
180.0
  0
ENDBLK
  5
57
330
55
100
AcDbEntity
  8
0
100
AcDbBlockEnd
  0
BLOCK
  5
5A
330
58
100
AcDbEntity
  8
0
100
AcDbBlockBegin
  2
Rckans1
 70
     0
 10
-18.500000000125
 20
73.00000000004994
 30
0.0
  3
Rckans1
  1

  0
INSERT
  5
59
330
58
100
AcDbEntity
  8
0
100
AcDbBlockReference
  2
0819194_UC_TM_12-select__3
 10
-23.75000080854001
 20
70.85000011277712
 30
0.0
  0
MTEXT
  5
E5
330
58
100
AcDbEntity
  8
1
 62
     6
100
AcDbMText
 10
-18.500000000125
 20
68.34999990468259
 30
0.0
 40
2.5
 41
0.0
 71
     2
 72
     1
  1
 
  7
CONVERTER_11
 73
     1
 44
1.32052821128451
  0
ENDBLK
  5
5B
330
58
100
AcDbEntity
  8
0
100
AcDbBlockEnd
  0
BLOCK
  5
5D
330
5C
100
AcDbEntity
  8
0
100
AcDbBlockBegin
  2
0819194_UC_TM_12-select__4
 70
     0
 10
-45.19999623706057
 20
70.85000011273718
 30
0.0
  3
0819194_UC_TM_12-select__4
  1

  0
LINE
  5
E6
330
5C
100
AcDbEntity
  8
0
  6
Continuous
 62
     7
100
AcDbLine
 10
-43.6249962370606
 20
71.84800258067968
 30
0.0
 11
-43.6249962370606
 21
70.85000011273718
 31
0.0
  0
LINE
  5
E7
330
5C
100
AcDbEntity
  8
0
  6
Continuous
 62
     7
100
AcDbLine
 10
-35.32499623706063
 20
71.84800258067968
 30
0.0
 11
-35.32499623706063
 21
70.85000011273718
 31
0.0
  0
LINE
  5
E8
330
5C
100
AcDbEntity
  8
0
  6
Continuous
 62
     7
100
AcDbLine
 10
-35.32499623706063
 20
70.85000011273718
 30
0.0
 11
-43.6249962370606
 21
70.85000011273718
 31
0.0
  0
LINE
  5
E9
330
5C
100
AcDbEntity
  8
0
  6
Continuous
 62
     7
100
AcDbLine
 10
-33.74999623706061
 20
74.15000011273717
 30
0.0
 11
-35.32499623706063
 21
74.15000011273717
 31
0.0
  0
LINE
  5
EA
330
5C
100
AcDbEntity
  8
0
  6
Continuous
 62
     7
100
AcDbLine
 10
-43.6249962370606
 20
74.15000011273719
 30
0.0
 11
-45.19999623706057
 21
74.15000011273717
 31
0.0
  0
LINE
  5
EB
330
5C
100
AcDbEntity
  8
0
  6
Continuous
 62
     7
100
AcDbLine
 10
-35.32499623706063
 20
74.15000011273717
 30
0.0
 11
-43.6249962370606
 21
74.15000011273719
 31
0.0
  0
LINE
  5
EC
330
5C
100
AcDbEntity
  8
0
  6
Continuous
 62
     7
100
AcDbLine
 10
-45.19999623706057
 20
74.15000011273717
 30
0.0
 11
-45.19999623706057
 21
75.15000011273719
 31
0.0
  0
LINE
  5
ED
330
5C
100
AcDbEntity
  8
0
  6
Continuous
 62
     7
100
AcDbLine
 10
-33.74999623706061
 20
75.15000011273719
 30
0.0
 11
-33.74999623706061
 21
74.15000011273717
 31
0.0
  0
LINE
  5
EE
330
5C
100
AcDbEntity
  8
0
  6
Continuous
 62
     7
100
AcDbLine
 10
-43.6249962370606
 20
72.06915834791441
 30
0.0
 11
-43.6249962370606
 21
71.84800258067968
 31
0.0
  0
LINE
  5
EF
330
5C
100
AcDbEntity
  8
0
  6
Continuous
 62
     2
100
AcDbLine
 10
-43.6249962370606
 20
72.06915834791441
 30
0.0
 11
-35.32499623706063
 21
72.06915834791441
 31
0.0
  0
LINE
  5
F0
330
5C
100
AcDbEntity
  8
0
  6
Continuous
 62
     2
100
AcDbLine
 10
-43.6249962370606
 20
71.84800258067968
 30
0.0
 11
-35.32499623706063
 21
71.84800258067968
 31
0.0
  0
LINE
  5
F1
330
5C
100
AcDbEntity
  8
0
  6
Continuous
 62
     7
100
AcDbLine
 10
-35.32499623706063
 20
71.84800258067968
 30
0.0
 11
-35.32499623706063
 21
72.06915834791441
 31
0.0
  0
LINE
  5
F2
330
5C
100
AcDbEntity
  8
0
  6
Continuous
 62
     7
100
AcDbLine
 10
-35.32499623706063
 20
74.15000011273717
 30
0.0
 11
-35.32499623706063
 21
72.06915834791441
 31
0.0
  0
LINE
  5
F3
330
5C
100
AcDbEntity
  8
0
  6
Continuous
 62
     7
100
AcDbLine
 10
-43.6249962370606
 20
74.15000011273719
 30
0.0
 11
-43.6249962370606
 21
72.06915834791441
 31
0.0
  0
LINE
  5
F4
330
5C
100
AcDbEntity
  8
0
  6
Continuous
 62
     7
100
AcDbLine
 10
-33.74999623706061
 20
75.15000011273719
 30
0.0
 11
-45.19999623706057
 21
75.15000011273719
 31
0.0
  0
ENDBLK
  5
5E
330
5C
100
AcDbEntity
  8
0
100
AcDbBlockEnd
  0
BLOCK
  5
61
330
5F
100
AcDbEntity
  8
0
100
AcDbBlockBegin
  2
SA_Links1
 70
     0
 10
-39.47499738146973
 20
73.00000000001
 30
0.0
  3
SA_Links1
  1

  0
INSERT
  5
60
330
5F
100
AcDbEntity
  8
0
100
AcDbBlockReference
  2
0819194_UC_TM_12-select__4
 10
-45.19999623706057
 20
70.85000011273718
 30
0.0
  0
MTEXT
  5
F5
330
5F
100
AcDbEntity
  8
1
 62
     6
100
AcDbMText
 10
-39.47499738146973
 20
68.34999990464257
 30
0.0
 40
2.5
 41
0.0
 71
     2
 72
     1
  1
 
  7
CONVERTER_11
 73
     1
 44
1.32052821128451
  0
ENDBLK
  5
62
330
5F
100
AcDbEntity
  8
0
100
AcDbBlockEnd
  0
BLOCK
  5
64
330
63
100
AcDbEntity
  8
0
100
AcDbBlockBegin
  2
0819194_UC_TM_12-select__5
 70
     0
 10
-92.14999864438415
 20
70.8500001127371
 30
0.0
  3
0819194_UC_TM_12-select__5
  1

  0
LINE
  5
F6
330
63
100
AcDbEntity
  8
0
  6
Continuous
 62
     7
100
AcDbLine
 10
-82.27499864438417
 20
70.8500001127371
 30
0.0
 11
-82.27499864438417
 21
71.84800258067959
 31
0.0
  0
LINE
  5
F7
330
63
100
AcDbEntity
  8
0
  6
Continuous
 62
     7
100
AcDbLine
 10
-80.6999986443842
 20
74.1500001127371
 30
0.0
 11
-82.27499864438418
 21
74.1500001127371
 31
0.0
  0
LINE
  5
F8
330
63
100
AcDbEntity
  8
0
  6
Continuous
 62
     7
100
AcDbLine
 10
-80.6999986443842
 20
74.1500001127371
 30
0.0
 11
-80.6999986443842
 21
75.1500001127371
 31
0.0
  0
LINE
  5
F9
330
63
100
AcDbEntity
  8
0
  6
Continuous
 62
     7
100
AcDbLine
 10
-90.57499864438415
 20
71.84800258067959
 30
0.0
 11
-90.57499864438415
 21
70.8500001127371
 31
0.0
  0
LINE
  5
FA
330
63
100
AcDbEntity
  8
0
  6
Continuous
 62
     7
100
AcDbLine
 10
-90.57499864438415
 20
70.8500001127371
 30
0.0
 11
-82.27499864438417
 21
70.8500001127371
 31
0.0
  0
LINE
  5
FB
330
63
100
AcDbEntity
  8
0
  6
Continuous
 62
     7
100
AcDbLine
 10
-82.27499864438417
 20
72.06915834791432
 30
0.0
 11
-82.27499864438417
 21
71.84800258067959
 31
0.0
  0
LINE
  5
FC
330
63
100
AcDbEntity
  8
0
  6
Continuous
 62
     2
100
AcDbLine
 10
-82.27499864438417
 20
71.84800258067959
 30
0.0
 11
-90.57499864438415
 21
71.84800258067959
 31
0.0
  0
LINE
  5
FD
330
63
100
AcDbEntity
  8
0
  6
Continuous
 62
     7
100
AcDbLine
 10
-90.57499864438415
 20
72.06915834791431
 30
0.0
 11
-90.57499864438415
 21
71.84800258067959
 31
0.0
  0
LINE
  5
FE
330
63
100
AcDbEntity
  8
0
  6
Continuous
 62
     7
100
AcDbLine
 10
-92.14999864438415
 20
74.1500001127371
 30
0.0
 11
-92.14999864438415
 21
75.1500001127371
 31
0.0
  0
LINE
  5
FF
330
63
100
AcDbEntity
  8
0
  6
Continuous
 62
     7
100
AcDbLine
 10
-90.57499864438415
 20
74.1500001127371
 30
0.0
 11
-92.14999864438415
 21
74.1500001127371
 31
0.0
  0
LINE
  5
100
330
63
100
AcDbEntity
  8
0
  6
Continuous
 62
     7
100
AcDbLine
 10
-82.27499864438417
 20
72.06915834791432
 30
0.0
 11
-82.27499864438418
 21
74.1500001127371
 31
0.0
  0
LINE
  5
101
330
63
100
AcDbEntity
  8
0
  6
Continuous
 62
     7
100
AcDbLine
 10
-90.57499864438415
 20
72.06915834791431
 30
0.0
 11
-90.57499864438415
 21
74.1500001127371
 31
0.0
  0
LINE
  5
102
330
63
100
AcDbEntity
  8
0
  6
Continuous
 62
     2
100
AcDbLine
 10
-82.27499864438417
 20
72.06915834791432
 30
0.0
 11
-90.57499864438415
 21
72.06915834791431
 31
0.0
  0
LINE
  5
103
330
63
100
AcDbEntity
  8
0
  6
Continuous
 62
     7
100
AcDbLine
 10
-82.27499864438418
 20
74.1500001127371
 30
0.0
 11
-90.57499864438415
 21
74.1500001127371
 31
0.0
  0
LINE
  5
104
330
63
100
AcDbEntity
  8
0
  6
Continuous
 62
     7
100
AcDbLine
 10
-80.6999986443842
 20
75.1500001127371
 30
0.0
 11
-92.14999864438415
 21
75.1500001127371
 31
0.0
  0
ENDBLK
  5
65
330
63
100
AcDbEntity
  8
0
100
AcDbBlockEnd
  0
BLOCK
  5
68
330
66
100
AcDbEntity
  8
0
100
AcDbBlockBegin
  2
SA_Rechts1
 70
     0
 10
-86.42499749997505
 20
73.00000000000992
 30
0.0
  3
SA_Rechts1
  1

  0
INSERT
  5
67
330
66
100
AcDbEntity
  8
0
100
AcDbBlockReference
  2
0819194_UC_TM_12-select__5
 10
-92.14999864438415
 20
70.8500001127371
 30
0.0
  0
MTEXT
  5
105
330
66
100
AcDbEntity
  8
1
 62
     6
100
AcDbMText
 10
-86.42499749997506
 20
68.34999990464257
 30
0.0
 40
2.5
 41
0.0
 71
     2
 72
     1
  1
 
  7
CONVERTER_11
 73
     1
 44
1.32052821128451
  0
ENDBLK
  5
69
330
66
100
AcDbEntity
  8
0
100
AcDbBlockEnd
  0
BLOCK
  5
6B
330
6A
100
AcDbEntity
  8
0
100
AcDbBlockBegin
  2
0819194_UC_TM_12-select__6
 70
     0
 10
-65.69999995449929
 20
70.85000011273709
 30
0.0
  3
0819194_UC_TM_12-select__6
  1

  0
LINE
  5
106
330
6A
100
AcDbEntity
  8
0
  6
Continuous
 62
     7
100
AcDbLine
 10
-59.20999995449933
 20
74.1500001127371
 30
0.0
 11
-58.39999995449934
 21
71.92454340297887
 31
0.0
  0
LINE
  5
107
330
6A
100
AcDbEntity
  8
0
  6
Continuous
 62
     7
100
AcDbLine
 10
-57.86833914610608
 20
72.06915834791431
 30
0.0
 11
-58.42589901656729
 21
74.1500001127371
 31
0.0
  0
LINE
  5
108
330
6A
100
AcDbEntity
  8
0
  6
Continuous
 62
     7
100
AcDbLine
 10
-58.42589901656729
 20
74.1500001127371
 30
0.0
 11
-59.20999995449933
 21
74.1500001127371
 31
0.0
  0
LINE
  5
109
330
6A
100
AcDbEntity
  8
0
  6
Continuous
 62
     7
100
AcDbLine
 10
-61.68999995449933
 20
74.1500001127371
 30
0.0
 11
-62.47410089243137
 21
74.1500001127371
 31
0.0
  0
LINE
  5
10A
330
6A
100
AcDbEntity
  8
0
  6
Continuous
 62
     7
100
AcDbLine
 10
-59.20999995449933
 20
74.1500001127371
 30
0.0
 11
-61.68999995449933
 21
74.1500001127371
 31
0.0
  0
LINE
  5
10B
330
6A
100
AcDbEntity
  8
0
  6
Continuous
 62
     7
100
AcDbLine
 10
-55.19999995449929
 20
74.1500001127371
 30
0.0
 11
-55.19999995449929
 21
75.1500001127371
 31
0.0
  0
LINE
  5
10C
330
6A
100
AcDbEntity
  8
0
  6
Continuous
 62
     7
100
AcDbLine
 10
-65.69999995449929
 20
75.1500001127371
 30
0.0
 11
-65.69999995449929
 21
74.1500001127371
 31
0.0
  0
LINE
  5
10D
330
6A
100
AcDbEntity
  8
0
  6
Continuous
 62
     7
100
AcDbLine
 10
-62.47410089243137
 20
74.1500001127371
 30
0.0
 11
-65.69999995449929
 21
74.1500001127371
 31
0.0
  0
LINE
  5
10E
330
6A
100
AcDbEntity
  8
0
  6
Continuous
 62
     7
100
AcDbLine
 10
-55.19999995449929
 20
75.1500001127371
 30
0.0
 11
-65.69999995449929
 21
75.1500001127371
 31
0.0
  0
LINE
  5
10F
330
6A
100
AcDbEntity
  8
0
  6
Continuous
 62
     7
100
AcDbLine
 10
-55.19999995449929
 20
74.1500001127371
 30
0.0
 11
-58.42589901656729
 21
74.1500001127371
 31
0.0
  0
LINE
  5
110
330
6A
100
AcDbEntity
  8
0
  6
Continuous
 62
     7
100
AcDbLine
 10
-63.03166076289257
 20
72.06915834791432
 30
0.0
 11
-62.47410089243137
 21
74.1500001127371
 31
0.0
  0
LINE
  5
111
330
6A
100
AcDbEntity
  8
0
  6
Continuous
 62
     7
100
AcDbLine
 10
-62.49999995449929
 20
71.55000011273711
 30
0.0
 11
-62.49999995449932
 21
71.92454340297887
 31
0.0
  0
LINE
  5
112
330
6A
100
AcDbEntity
  8
0
  6
Continuous
 62
     7
100
AcDbLine
 10
-58.39999995449934
 20
71.55000011273711
 30
0.0
 11
-58.39999995449934
 21
71.92454340297887
 31
0.0
  0
LINE
  5
113
330
6A
100
AcDbEntity
  8
0
  6
Continuous
 62
     7
100
AcDbLine
 10
-63.24999995449932
 20
70.8500001127371
 30
0.0
 11
-62.99999995449932
 21
70.8500001127371
 31
0.0
  0
LINE
  5
114
330
6A
100
AcDbEntity
  8
0
  6
Continuous
 62
     7
100
AcDbLine
 10
-57.89999995011279
 20
70.8500001127371
 30
0.0
 11
-57.64999995449934
 21
70.8500001127371
 31
0.0
  0
LINE
  5
115
330
6A
100
AcDbEntity
  8
0
  6
Continuous
 62
     7
100
AcDbLine
 10
-62.99999995449932
 20
71.05000011273711
 30
0.0
 11
-62.99999995449932
 21
70.8500001127371
 31
0.0
  0
LINE
  5
116
330
6A
100
AcDbEntity
  8
0
  6
Continuous
 62
     7
100
AcDbLine
 10
-57.89999995011279
 20
70.8500001127371
 30
0.0
 11
-57.89999995011279
 21
71.05000011273711
 31
0.0
  0
LINE
  5
117
330
6A
100
AcDbEntity
  8
0
  6
Continuous
 62
     7
100
AcDbLine
 10
-61.68999995449933
 20
74.1500001127371
 30
0.0
 11
-62.49999995449932
 21
71.92454340297887
 31
0.0
  0
ARC
  5
118
330
6A
100
AcDbEntity
  8
0
  6
Continuous
 62
     7
100
AcDbCircle
 10
-63.32143851077929
 20
72.14680406144508
 30
0.0
 40
0.2999999999999964
100
AcDbArc
 50
275.1232340800602
 51
344.9999999999998
  0
ARC
  5
119
330
6A
100
AcDbEntity
  8
0
  6
Continuous
 62
     7
100
AcDbCircle
 10
-57.57856139821935
 20
72.14680406144508
 30
0.0
 40
0.3000000000000141
100
AcDbArc
 50
195.0000000000022
 51
264.8767659199398
  0
ARC
  5
11A
330
6A
100
AcDbEntity
  8
0
  6
Continuous
 62
     7
100
AcDbCircle
 10
-62.69999995449929
 20
71.05000011273711
 30
0.0
 40
0.2999999999999972
100
AcDbArc
 50
90.0
 51
180.0
  0
ARC
  5
11B
330
6A
100
AcDbEntity
  8
0
  6
Continuous
 62
     7
100
AcDbCircle
 10
-58.1999999501128
 20
71.05000011273711
 30
0.0
 40
0.3000000000000043
100
AcDbArc
 50
0.0
 51
90.0
  0
ARC
  5
11C
330
6A
100
AcDbEntity
  8
0
  6
Continuous
 62
     7
100
AcDbCircle
 10
-63.24999995449932
 20
71.3500001127371
 30
0.0
 40
0.4999999999999954
100
AcDbArc
 50
95.12323408006212
 51
270.0
  0
ARC
  5
11D
330
6A
100
AcDbEntity
  8
0
  6
Continuous
 62
     7
100
AcDbCircle
 10
-62.69999995449929
 20
71.55000011273711
 30
0.0
 40
0.2000000000000028
100
AcDbArc
 50
270.0
 51
0.0
  0
ARC
  5
11E
330
6A
100
AcDbEntity
  8
0
  6
Continuous
 62
     7
100
AcDbCircle
 10
-58.19999995449929
 20
71.55000011273711
 30
0.0
 40
0.2000000000000526
100
AcDbArc
 50
180.0
 51
270.0000012566377
  0
ARC
  5
11F
330
6A
100
AcDbEntity
  8
0
  6
Continuous
 62
     7
100
AcDbCircle
 10
-57.64999995449934
 20
71.3500001127371
 30
0.0
 40
0.5
100
AcDbArc
 50
270.0
 51
84.87676591993466
  0
ENDBLK
  5
6C
330
6A
100
AcDbEntity
  8
0
100
AcDbBlockEnd
  0
BLOCK
  5
6F
330
6D
100
AcDbEntity
  8
0
100
AcDbBlockBegin
  2
Vordans1
 70
     0
 10
-60.4500007629143
 20
73.00000000000992
 30
0.0
  3
Vordans1
  1

  0
INSERT
  5
6E
330
6D
100
AcDbEntity
  8
0
100
AcDbBlockReference
  2
0819194_UC_TM_12-select__6
 10
-65.69999995449929
 20
70.85000011273709
 30
0.0
  0
MTEXT
  5
120
330
6D
100
AcDbEntity
  8
1
 62
     6
100
AcDbMText
 10
-60.4500007629145
 20
68.34999990464257
 30
0.0
 40
2.5
 41
0.0
 71
     2
 72
     1
  1
 
  7
CONVERTER_11
 73
     1
 44
1.32052821128451
  0
DIMENSION
  5
12D
330
6D
100
AcDbEntity
  8
1
100
AcDbDimension
  2
*D18
 10
-70.69999995449929
 20
75.1500001127371
 30
0.0
 11
-72.6624999544993
 21
73.0000001127371
 31
0.0
 70
    32
  1
<>
 71
     5
 42
-1.0
 53
90.0
  3
ME10_DIM_12
100
AcDbAlignedDimension
 13
-63.24999995449932
 23
70.8500001127371
 33
0.0
 14
-65.69999995449929
 24
75.1500001127371
 34
0.0
 50
90.0
100
AcDbRotatedDimension
  0
ENDBLK
  5
70
330
6D
100
AcDbEntity
  8
0
100
AcDbBlockEnd
  0
BLOCK
  5
72
330
71
100
AcDbEntity
  8
0
100
AcDbBlockBegin
  2
_punkt
 70
     0
 10
37.30002651527005
 20
3.52089126910611
 30
0.0
  3
_punkt
  1

  0
LINE
  5
12E
330
71
100
AcDbEntity
  8
1
  6
Continuous
 62
     2
100
AcDbLine
 10
37.30002651527005
 20
3.52089126910611
 30
0.0
 11
37.30002651527005
 21
-1.479108730894
 31
0.0
  0
LINE
  5
12F
330
71
100
AcDbEntity
  8
1
  6
Continuous
 62
     2
100
AcDbLine
 10
37.30002651527005
 20
3.52089126910611
 30
0.0
 11
42.30002651526905
 21
3.52089126910611
 31
0.0
  0
ENDBLK
  5
73
330
71
100
AcDbEntity
  8
0
100
AcDbBlockEnd
  0
BLOCK
  5
75
330
74
100
AcDbEntity
  8
0
100
AcDbBlockBegin
  2
_rahmen
 70
     0
 10
37.30002651527005
 20
-1.479108730894
 30
0.0
  3
_rahmen
  1

  0
POINT
  5
130
330
74
100
AcDbEntity
  8
1
 62
     3
 60
     1
100
AcDbPoint
 10
-26.19997348472757
 20
24.77089126910598
 30
0.0
  0
LINE
  5
131
102
{ACAD_REACTORS
330
310
330
311
102
}
330
74
100
AcDbEntity
  8
0
  6
Continuous
 62
     2
100
AcDbLine
 10
-77.75764665464729
 20
11.0293946704731
 30
0.0
 11
-77.75764665464729
 21
11.75048310584769
 31
0.0
  0
LINE
  5
132
102
{ACAD_REACTORS
330
310
330
311
102
}
330
74
100
AcDbEntity
  8
0
  6
Continuous
 62
     2
100
AcDbLine
 10
-77.75764665464729
 20
10.23619739156164
 30
0.0
 11
-77.75764665464729
 21
9.51510895618705
 31
0.0
  0
LINE
  5
133
102
{ACAD_REACTORS
330
312
330
313
102
}
330
74
100
AcDbEntity
  8
0
  6
Continuous
 62
     2
100
AcDbLine
 10
-65.08570935192793
 20
11.24572120108507
 30
0.0
 11
-64.17361075724355
 21
11.24572120108507
 31
0.0
  0
LINE
  5
134
102
{ACAD_REACTORS
330
312
330
313
102
}
330
74
100
AcDbEntity
  8
0
  6
Continuous
 62
     2
100
AcDbLine
 10
-64.44962890319951
 20
10.23619739156118
 30
0.0
 11
-64.44962890319951
 21
9.51510895618661
 31
0.0
  0
LINE
  5
135
102
{ACAD_REACTORS
330
31C
330
31D
102
}
330
74
100
AcDbEntity
  8
0
  6
Continuous
 62
     2
100
AcDbLine
 10
-65.98744428781097
 20
12.14708174528911
 30
0.0
 11
-64.83211119116609
 21
13.45357678146672
 31
0.0
  0
LINE
  5
136
102
{ACAD_REACTORS
330
31C
330
31D
102
}
330
74
100
AcDbEntity
  8
0
  6
Continuous
 62
     2
100
AcDbLine
 10
-65.90858196039542
 20
14.67089126909994
 30
0.0
 11
-64.83211119116609
 21
13.45357678146672
 31
0.0
  0
LINE
  5
137
102
{ACAD_REACTORS
330
31C
330
31D
102
}
330
74
100
AcDbEntity
  8
0
  6
Continuous
 62
     2
100
AcDbLine
 10
-63.75564042193768
 20
14.67089126909994
 30
0.0
 11
-62.59636420892346
 21
14.67089126909994
 31
0.0
  0
LINE
  5
138
102
{ACAD_REACTORS
330
31C
330
31D
102
}
330
74
100
AcDbEntity
  8
0
  6
Continuous
 62
     2
100
AcDbLine
 10
-64.82816807479595
 20
12.14708174528911
 30
0.0
 11
-64.25247308465899
 21
12.79809974966405
 31
0.0
  0
LINE
  5
139
102
{ACAD_REACTORS
330
31C
330
31D
102
}
330
74
100
AcDbEntity
  8
0
  6
Continuous
 62
     2
100
AcDbLine
 10
-64.82816807479595
 20
12.14708174528911
 30
0.0
 11
-65.98744428781097
 21
12.14708174528911
 31
0.0
  0
LINE
  5
13A
102
{ACAD_REACTORS
330
31E
330
31F
102
}
330
74
100
AcDbEntity
  8
0
  6
Continuous
 62
     2
100
AcDbLine
 10
-66.08602219708112
 20
12.14708174528911
 30
0.0
 11
-67.1112324534885
 21
12.14708174528911
 31
0.0
  0
LINE
  5
13B
102
{ACAD_REACTORS
330
320
330
321
102
}
330
74
100
AcDbEntity
  8
0
  6
Continuous
 62
     2
100
AcDbLine
 10
-67.82857097262493
 20
10.38041507863628
 30
0.0
 11
-68.07664141658373
 21
11.01497290176582
 31
0.0
  0
LINE
  5
13C
102
{ACAD_REACTORS
330
320
330
321
102
}
330
74
100
AcDbEntity
  8
0
  6
Continuous
 62
     2
100
AcDbLine
 10
-68.32471186054435
 20
10.38041507863628
 30
0.0
 11
-67.82857097262493
 21
10.38041507863628
 31
0.0
  0
LINE
  5
13D
102
{ACAD_REACTORS
330
320
330
321
102
}
330
74
100
AcDbEntity
  8
0
  6
Continuous
 62
     2
100
AcDbLine
 10
-69.74457964143178
 20
9.37089126911196
 30
0.0
 11
-68.71936938502441
 21
9.37089126911196
 31
0.0
  0
LINE
  5
13E
102
{ACAD_REACTORS
330
320
330
321
102
}
330
74
100
AcDbEntity
  8
0
  6
Continuous
 62
     2
100
AcDbLine
 10
-68.58924654478781
 20
11.89470079292279
 30
0.0
 11
-67.56403628838056
 21
11.89470079292279
 31
0.0
  0
LINE
  5
13F
102
{ACAD_REACTORS
330
320
330
321
102
}
330
74
100
AcDbEntity
  8
0
  6
Continuous
 62
     2
100
AcDbLine
 10
-67.56403628838056
 20
11.89470079292279
 30
0.0
 11
-66.40870319173565
 21
9.37089126911196
 31
0.0
  0
LINE
  5
140
102
{ACAD_REACTORS
330
320
330
321
102
}
330
74
100
AcDbEntity
  8
0
  6
Continuous
 62
     2
100
AcDbLine
 10
-67.43391344814385
 20
9.37089126911196
 30
0.0
 11
-67.60869035184285
 21
9.81796609904408
 31
0.0
  0
LINE
  5
141
102
{ACAD_REACTORS
330
322
330
323
102
}
330
74
100
AcDbEntity
  8
0
  6
Continuous
 62
     2
100
AcDbLine
 10
-70.8573177420166
 20
9.37089126911196
 30
0.0
 11
-69.87153864931705
 21
9.37089126911196
 31
0.0
  0
LINE
  5
142
102
{ACAD_REACTORS
330
322
330
323
102
}
330
74
100
AcDbEntity
  8
0
  6
Continuous
 62
     2
100
AcDbLine
 10
-70.8573177420166
 20
11.24572120108507
 30
0.0
 11
-70.8573177420166
 21
9.37089126911196
 31
0.0
  0
LINE
  5
143
102
{ACAD_REACTORS
330
322
330
323
102
}
330
74
100
AcDbEntity
  8
0
  6
Continuous
 62
     2
100
AcDbLine
 10
-71.52764752505348
 20
11.89470079292279
 30
0.0
 11
-71.52764752505348
 21
11.24572120108507
 31
0.0
  0
LINE
  5
144
102
{ACAD_REACTORS
330
324
330
325
102
}
330
74
100
AcDbEntity
  8
0
  6
Continuous
 62
     2
100
AcDbLine
 10
-70.3051567138364
 20
12.14708174528911
 30
0.0
 11
-69.31937762113685
 21
12.14708174528911
 31
0.0
  0
LINE
  5
145
102
{ACAD_REACTORS
330
324
330
325
102
}
330
74
100
AcDbEntity
  8
0
  6
Continuous
 62
     2
100
AcDbLine
 10
-68.29416736472857
 20
13.58925861603783
 30
0.0
 11
-69.31937762113685
 21
14.67089126909994
 31
0.0
  0
LINE
  5
146
102
{ACAD_REACTORS
330
324
330
325
102
}
330
74
100
AcDbEntity
  8
0
  6
Continuous
 62
     2
100
AcDbLine
 10
-67.3083882720289
 20
14.67089126909994
 30
0.0
 11
-68.29416736472857
 21
14.67089126909994
 31
0.0
  0
LINE
  5
147
102
{ACAD_REACTORS
330
324
330
325
102
}
330
74
100
AcDbEntity
  8
0
  6
Continuous
 62
     2
100
AcDbLine
 10
-67.3083882720289
 20
12.14708174528911
 30
0.0
 11
-67.3083882720289
 21
14.67089126909994
 31
0.0
  0
LINE
  5
148
102
{ACAD_REACTORS
330
324
330
325
102
}
330
74
100
AcDbEntity
  8
0
  6
Continuous
 62
     2
100
AcDbLine
 10
-68.29416736472857
 20
12.14708174528911
 30
0.0
 11
-67.3083882720289
 21
12.14708174528911
 31
0.0
  0
LINE
  5
149
102
{ACAD_REACTORS
330
324
330
325
102
}
330
74
100
AcDbEntity
  8
0
  6
Continuous
 62
     2
100
AcDbLine
 10
-69.31937762113685
 20
13.22871439835077
 30
0.0
 11
-68.29416736472857
 21
12.14708174528911
 31
0.0
  0
LINE
  5
14A
102
{ACAD_REACTORS
330
326
330
327
102
}
330
74
100
AcDbEntity
  8
0
  6
Continuous
 62
     2
100
AcDbLine
 10
-72.6317201088771
 20
10.81306813986068
 30
0.0
 11
-73.65693036528447
 21
11.89470079292279
 31
0.0
  0
LINE
  5
14B
102
{ACAD_REACTORS
330
326
330
327
102
}
330
74
100
AcDbEntity
  8
0
  6
Continuous
 62
     2
100
AcDbLine
 10
-72.6317201088771
 20
11.89470079292279
 30
0.0
 11
-72.6317201088771
 21
10.81306813986068
 31
0.0
  0
LINE
  5
14C
102
{ACAD_REACTORS
330
326
330
327
102
}
330
74
100
AcDbEntity
  8
0
  6
Continuous
 62
     2
100
AcDbLine
 10
-71.64594101617755
 20
11.89470079292279
 30
0.0
 11
-72.6317201088771
 21
11.89470079292279
 31
0.0
  0
LINE
  5
14D
102
{ACAD_REACTORS
330
326
330
327
102
}
330
74
100
AcDbEntity
  8
0
  6
Continuous
 62
     2
100
AcDbLine
 10
-71.64594101617755
 20
9.37089126911196
 30
0.0
 11
-71.64594101617755
 21
11.89470079292279
 31
0.0
  0
LINE
  5
14E
102
{ACAD_REACTORS
330
326
330
327
102
}
330
74
100
AcDbEntity
  8
0
  6
Continuous
 62
     2
100
AcDbLine
 10
-73.65693036528447
 20
10.45252392217361
 30
0.0
 11
-72.6317201088771
 21
9.37089126911196
 31
0.0
  0
LINE
  5
14F
102
{ACAD_REACTORS
330
326
330
327
102
}
330
74
100
AcDbEntity
  8
0
  6
Continuous
 62
     2
100
AcDbLine
 10
-73.65693036528447
 20
9.37089126911196
 30
0.0
 11
-73.65693036528447
 21
10.45252392217361
 31
0.0
  0
LINE
  5
150
102
{ACAD_REACTORS
330
316
330
317
102
}
330
74
100
AcDbEntity
  8
0
  6
Continuous
 62
     2
100
AcDbLine
 10
-71.60638511620053
 20
14.0940205208
 30
0.0
 11
-70.50231253237602
 21
14.0940205208
 31
0.0
  0
LINE
  5
151
102
{ACAD_REACTORS
330
316
330
317
102
}
330
74
100
AcDbEntity
  8
0
  6
Continuous
 62
     2
100
AcDbLine
 10
-71.60638511620053
 20
12.7239524935886
 30
0.0
 11
-71.60638511620053
 21
13.12055113304456
 31
0.0
  0
LINE
  5
152
102
{ACAD_REACTORS
330
316
330
317
102
}
330
74
100
AcDbEntity
  8
0
  6
Continuous
 62
     2
100
AcDbLine
 10
-70.50231253237602
 20
12.7239524935886
 30
0.0
 11
-71.60638511620053
 21
12.7239524935886
 31
0.0
  0
LINE
  5
153
102
{ACAD_REACTORS
330
316
330
317
102
}
330
74
100
AcDbEntity
  8
0
  6
Continuous
 62
     2
100
AcDbLine
 10
-70.50231253237602
 20
12.14708174528911
 30
0.0
 11
-70.50231253237602
 21
12.7239524935886
 31
0.0
  0
LINE
  5
154
102
{ACAD_REACTORS
330
316
330
317
102
}
330
74
100
AcDbEntity
  8
0
  6
Continuous
 62
     2
100
AcDbLine
 10
-73.10588255202973
 20
12.14708174528911
 30
0.0
 11
-70.50231253237602
 21
12.14708174528911
 31
0.0
  0
LINE
  5
155
102
{ACAD_REACTORS
330
316
330
317
102
}
330
74
100
AcDbEntity
  8
0
  6
Continuous
 62
     2
100
AcDbLine
 10
-73.10588255202973
 20
14.67089126909994
 30
0.0
 11
-70.50231253237602
 21
14.67089126909994
 31
0.0
  0
LINE
  5
156
102
{ACAD_REACTORS
330
316
330
317
102
}
330
74
100
AcDbEntity
  8
0
  6
Continuous
 62
     2
100
AcDbLine
 10
-70.50231253237602
 20
14.0940205208
 30
0.0
 11
-70.50231253237602
 21
14.67089126909994
 31
0.0
  0
LINE
  5
157
102
{ACAD_REACTORS
330
328
330
329
102
}
330
74
100
AcDbEntity
  8
0
  6
Continuous
 62
     2
100
AcDbLine
 10
-75.4706391595835
 20
13.78755793576558
 30
0.0
 11
-75.4706391595835
 21
14.67089126909994
 31
0.0
  0
LINE
  5
158
102
{ACAD_REACTORS
330
328
330
329
102
}
330
74
100
AcDbEntity
  8
0
  6
Continuous
 62
     2
100
AcDbLine
 10
-75.4706391595835
 20
14.67089126909994
 30
0.0
 11
-74.48486006688395
 21
14.67089126909994
 31
0.0
  0
LINE
  5
159
102
{ACAD_REACTORS
330
328
330
329
102
}
330
74
100
AcDbEntity
  8
0
  6
Continuous
 62
     2
100
AcDbLine
 10
-75.4706391595835
 20
13.08449671127567
 30
0.0
 11
-76.33812476115989
 21
13.08449671127567
 31
0.0
  0
LINE
  5
15A
102
{ACAD_REACTORS
330
328
330
329
102
}
330
74
100
AcDbEntity
  8
0
  6
Continuous
 62
     2
100
AcDbLine
 10
-76.33812476115989
 20
13.08449671127567
 30
0.0
 11
-76.33812476115989
 21
12.14708174528911
 31
0.0
  0
LINE
  5
15B
102
{ACAD_REACTORS
330
328
330
329
102
}
330
74
100
AcDbEntity
  8
0
  6
Continuous
 62
     2
100
AcDbLine
 10
-77.32390385385955
 20
14.67089126909994
 30
0.0
 11
-77.32390385385955
 21
12.14708174528911
 31
0.0
  0
LINE
  5
15C
102
{ACAD_REACTORS
330
31A
330
31B
102
}
330
74
100
AcDbEntity
  8
0
  6
Continuous
 62
     2
100
AcDbLine
 10
-78.94058156588736
 20
13.53962391804017
 30
0.0
 11
-78.94058156588736
 21
14.12286990923213
 31
0.0
  0
LINE
  5
15D
102
{ACAD_REACTORS
330
31A
330
31B
102
}
330
74
100
AcDbEntity
  8
0
  6
Continuous
 62
     2
100
AcDbLine
 10
-79.96579182229564
 20
12.14708174528911
 30
0.0
 11
-78.94058156588736
 21
12.14708174528911
 31
0.0
  0
LINE
  5
15E
102
{ACAD_REACTORS
330
31A
330
31B
102
}
330
74
100
AcDbEntity
  8
0
  6
Continuous
 62
     2
100
AcDbLine
 10
-78.94058156588736
 20
12.14708174528911
 30
0.0
 11
-78.94058156588736
 21
12.92648525036658
 31
0.0
  0
LINE
  5
15F
102
{ACAD_REACTORS
330
314
330
315
102
}
330
74
100
AcDbEntity
  8
0
  6
Continuous
 62
     2
100
AcDbLine
 10
-83.52359830924732
 20
9.95978015800198
 30
0.0
 11
-84.74329521917255
 21
9.95978015800198
 31
0.0
  0
LINE
  5
160
102
{ACAD_REACTORS
330
314
330
315
102
}
330
74
100
AcDbEntity
  8
0
  6
Continuous
 62
     2
100
AcDbLine
 10
-85.5847326506844
 20
14.32027588447021
 30
0.0
 11
-85.5847326506844
 21
9.72150665372624
 31
0.0
  0
LINE
  5
161
102
{ACAD_REACTORS
330
314
330
315
102
}
330
74
100
AcDbEntity
  8
0
  6
Continuous
 62
     2
100
AcDbLine
 10
-85.23411726607051
 20
14.67089126908495
 30
0.0
 11
-80.71071884399046
 21
14.67089126908495
 31
0.0
  0
LINE
  5
162
102
{ACAD_REACTORS
330
314
330
315
102
}
330
74
100
AcDbEntity
  8
0
  6
Continuous
 62
     2
100
AcDbLine
 10
-80.36010345937567
 20
14.32027588447021
 30
0.0
 11
-80.36010345937567
 21
9.72150665372624
 31
0.0
  0
LINE
  5
163
102
{ACAD_REACTORS
330
314
330
315
102
}
330
74
100
AcDbEntity
  8
0
  6
Continuous
 62
     2
100
AcDbLine
 10
-80.71071884399046
 20
9.37089126911196
 30
0.0
 11
-85.23411726607051
 21
9.37089126911196
 31
0.0
  0
LINE
  5
164
102
{ACAD_REACTORS
330
314
330
315
102
}
330
74
100
AcDbEntity
  8
0
  6
Continuous
 62
     2
100
AcDbLine
 10
-83.26267523232448
 20
10.22070323492487
 30
0.0
 11
-83.26267523232448
 21
11.48580317833943
 31
0.0
  0
LINE
  5
165
102
{ACAD_REACTORS
330
314
330
315
102
}
330
74
100
AcDbEntity
  8
0
  6
Continuous
 62
     2
100
AcDbLine
 10
-83.26267523232448
 20
13.32188540323605
 30
0.0
 11
-83.26267523232448
 21
13.82107930328611
 31
0.0
  0
LINE
  5
166
102
{ACAD_REACTORS
330
314
330
315
102
}
330
74
100
AcDbEntity
  8
0
  6
Continuous
 62
     2
100
AcDbLine
 10
-84.74329521917255
 20
14.08200238020856
 30
0.0
 11
-83.52359830924732
 21
14.08200238020856
 31
0.0
  0
LINE
  5
167
102
{ACAD_REACTORS
330
314
330
315
102
}
330
74
100
AcDbEntity
  8
0
  6
Continuous
 62
     2
100
AcDbLine
 10
-85.00421829609459
 20
13.82107930328611
 30
0.0
 11
-85.00421829609459
 21
10.22070323492487
 31
0.0
  0
LINE
  5
168
102
{ACAD_REACTORS
330
31A
330
31B
102
}
330
74
100
AcDbEntity
  8
0
  6
Continuous
 62
     2
100
AcDbLine
 10
-78.94058156588736
 20
12.92648525036658
 30
0.0
 11
-78.31350091482923
 21
12.92648525036658
 31
0.0
  0
LINE
  5
169
102
{ACAD_REACTORS
330
31A
330
31B
102
}
330
74
100
AcDbEntity
  8
0
  6
Continuous
 62
     2
100
AcDbLine
 10
-79.96579182229564
 20
14.67089126909994
 30
0.0
 11
-78.31350091482923
 21
14.67089126909994
 31
0.0
  0
LINE
  5
16A
102
{ACAD_REACTORS
330
31A
330
31B
102
}
330
74
100
AcDbEntity
  8
0
  6
Continuous
 62
     2
100
AcDbLine
 10
-79.96579182229564
 20
14.67089126909994
 30
0.0
 11
-79.96579182229564
 21
12.14708174528911
 31
0.0
  0
LINE
  5
16B
102
{ACAD_REACTORS
330
31A
330
31B
102
}
330
74
100
AcDbEntity
  8
0
  6
Continuous
 62
     2
100
AcDbLine
 10
-78.94058156588736
 20
13.53962391804017
 30
0.0
 11
-78.67835424229898
 21
13.53962391804017
 31
0.0
  0
LINE
  5
16C
102
{ACAD_REACTORS
330
31A
330
31B
102
}
330
74
100
AcDbEntity
  8
0
  6
Continuous
 62
     2
100
AcDbLine
 10
-78.94058156588736
 20
14.12286990923213
 30
0.0
 11
-78.67835424229898
 21
14.12286990923213
 31
0.0
  0
LINE
  5
16D
102
{ACAD_REACTORS
330
328
330
329
102
}
330
74
100
AcDbEntity
  8
0
  6
Continuous
 62
     2
100
AcDbLine
 10
-76.33812476115989
 20
13.78755793576558
 30
0.0
 11
-75.4706391595835
 21
13.78755793576558
 31
0.0
  0
LINE
  5
16E
102
{ACAD_REACTORS
330
328
330
329
102
}
330
74
100
AcDbEntity
  8
0
  6
Continuous
 62
     2
100
AcDbLine
 10
-76.33812476115989
 20
14.67089126909994
 30
0.0
 11
-76.33812476115989
 21
13.78755793576558
 31
0.0
  0
LINE
  5
16F
102
{ACAD_REACTORS
330
328
330
329
102
}
330
74
100
AcDbEntity
  8
0
  6
Continuous
 62
     2
100
AcDbLine
 10
-77.32390385385955
 20
14.67089126909994
 30
0.0
 11
-76.33812476115989
 21
14.67089126909994
 31
0.0
  0
LINE
  5
170
102
{ACAD_REACTORS
330
328
330
329
102
}
330
74
100
AcDbEntity
  8
0
  6
Continuous
 62
     2
100
AcDbLine
 10
-76.33812476115989
 20
12.14708174528911
 30
0.0
 11
-77.32390385385955
 21
12.14708174528911
 31
0.0
  0
LINE
  5
171
102
{ACAD_REACTORS
330
328
330
329
102
}
330
74
100
AcDbEntity
  8
0
  6
Continuous
 62
     2
100
AcDbLine
 10
-75.4706391595835
 20
12.14708174528911
 30
0.0
 11
-75.4706391595835
 21
13.08449671127567
 31
0.0
  0
LINE
  5
172
102
{ACAD_REACTORS
330
328
330
329
102
}
330
74
100
AcDbEntity
  8
0
  6
Continuous
 62
     2
100
AcDbLine
 10
-74.48486006688395
 20
12.14708174528911
 30
0.0
 11
-75.4706391595835
 21
12.14708174528911
 31
0.0
  0
LINE
  5
173
102
{ACAD_REACTORS
330
328
330
329
102
}
330
74
100
AcDbEntity
  8
0
  6
Continuous
 62
     2
100
AcDbLine
 10
-74.48486006688395
 20
14.67089126909994
 30
0.0
 11
-74.48486006688395
 21
12.14708174528911
 31
0.0
  0
LINE
  5
174
102
{ACAD_REACTORS
330
316
330
317
102
}
330
74
100
AcDbEntity
  8
0
  6
Continuous
 62
     2
100
AcDbLine
 10
-71.60638511620053
 20
13.12055113304456
 30
0.0
 11
-70.50231253237602
 21
13.12055113304456
 31
0.0
  0
LINE
  5
175
102
{ACAD_REACTORS
330
316
330
317
102
}
330
74
100
AcDbEntity
  8
0
  6
Continuous
 62
     2
100
AcDbLine
 10
-70.50231253237602
 20
13.12055113304456
 30
0.0
 11
-70.50231253237602
 21
13.69742188134404
 31
0.0
  0
LINE
  5
176
102
{ACAD_REACTORS
330
316
330
317
102
}
330
74
100
AcDbEntity
  8
0
  6
Continuous
 62
     2
100
AcDbLine
 10
-70.50231253237602
 20
13.69742188134404
 30
0.0
 11
-71.60638511620053
 21
13.69742188134404
 31
0.0
  0
LINE
  5
177
102
{ACAD_REACTORS
330
316
330
317
102
}
330
74
100
AcDbEntity
  8
0
  6
Continuous
 62
     2
100
AcDbLine
 10
-71.60638511620053
 20
13.69742188134404
 30
0.0
 11
-71.60638511620053
 21
14.0940205208
 31
0.0
  0
LINE
  5
178
102
{ACAD_REACTORS
330
326
330
327
102
}
330
74
100
AcDbEntity
  8
0
  6
Continuous
 62
     2
100
AcDbLine
 10
-74.64270945798492
 20
9.37089126911196
 30
0.0
 11
-73.65693036528447
 21
9.37089126911196
 31
0.0
  0
LINE
  5
179
102
{ACAD_REACTORS
330
326
330
327
102
}
330
74
100
AcDbEntity
  8
0
  6
Continuous
 62
     2
100
AcDbLine
 10
-72.6317201088771
 20
9.37089126911196
 30
0.0
 11
-71.64594101617755
 21
9.37089126911196
 31
0.0
  0
LINE
  5
17A
102
{ACAD_REACTORS
330
326
330
327
102
}
330
74
100
AcDbEntity
  8
0
  6
Continuous
 62
     2
100
AcDbLine
 10
-73.65693036528447
 20
11.89470079292279
 30
0.0
 11
-74.64270945798492
 21
11.89470079292279
 31
0.0
  0
LINE
  5
17B
102
{ACAD_REACTORS
330
326
330
327
102
}
330
74
100
AcDbEntity
  8
0
  6
Continuous
 62
     2
100
AcDbLine
 10
-74.64270945798492
 20
11.89470079292279
 30
0.0
 11
-74.64270945798492
 21
9.37089126911196
 31
0.0
  0
LINE
  5
17C
102
{ACAD_REACTORS
330
324
330
325
102
}
330
74
100
AcDbEntity
  8
0
  6
Continuous
 62
     2
100
AcDbLine
 10
-68.29416736472857
 20
14.67089126909994
 30
0.0
 11
-68.29416736472857
 21
13.58925861603783
 31
0.0
  0
LINE
  5
17D
102
{ACAD_REACTORS
330
324
330
325
102
}
330
74
100
AcDbEntity
  8
0
  6
Continuous
 62
     2
100
AcDbLine
 10
-69.31937762113685
 20
14.67089126909994
 30
0.0
 11
-70.3051567138364
 21
14.67089126909994
 31
0.0
  0
LINE
  5
17E
102
{ACAD_REACTORS
330
324
330
325
102
}
330
74
100
AcDbEntity
  8
0
  6
Continuous
 62
     2
100
AcDbLine
 10
-70.3051567138364
 20
14.67089126909994
 30
0.0
 11
-70.3051567138364
 21
12.14708174528911
 31
0.0
  0
LINE
  5
17F
102
{ACAD_REACTORS
330
324
330
325
102
}
330
74
100
AcDbEntity
  8
0
  6
Continuous
 62
     2
100
AcDbLine
 10
-69.31937762113685
 20
12.14708174528911
 30
0.0
 11
-69.31937762113685
 21
13.22871439835077
 31
0.0
  0
LINE
  5
180
102
{ACAD_REACTORS
330
322
330
323
102
}
330
74
100
AcDbEntity
  8
0
  6
Continuous
 62
     2
100
AcDbLine
 10
-69.87153864931705
 20
9.37089126911196
 30
0.0
 11
-69.87153864931705
 21
11.24572120108507
 31
0.0
  0
LINE
  5
181
102
{ACAD_REACTORS
330
322
330
323
102
}
330
74
100
AcDbEntity
  8
0
  6
Continuous
 62
     2
100
AcDbLine
 10
-69.87153864931705
 20
11.24572120108507
 30
0.0
 11
-69.20120886628187
 21
11.24572120108507
 31
0.0
  0
LINE
  5
182
102
{ACAD_REACTORS
330
322
330
323
102
}
330
74
100
AcDbEntity
  8
0
  6
Continuous
 62
     2
100
AcDbLine
 10
-69.20120886628187
 20
11.24572120108507
 30
0.0
 11
-69.20120886628187
 21
11.89470079292279
 31
0.0
  0
LINE
  5
183
102
{ACAD_REACTORS
330
322
330
323
102
}
330
74
100
AcDbEntity
  8
0
  6
Continuous
 62
     2
100
AcDbLine
 10
-69.20120886628187
 20
11.89470079292279
 30
0.0
 11
-71.52764752505348
 21
11.89470079292279
 31
0.0
  0
LINE
  5
184
102
{ACAD_REACTORS
330
322
330
323
102
}
330
74
100
AcDbEntity
  8
0
  6
Continuous
 62
     2
100
AcDbLine
 10
-71.52764752505348
 20
11.24572120108507
 30
0.0
 11
-70.8573177420166
 21
11.24572120108507
 31
0.0
  0
LINE
  5
185
102
{ACAD_REACTORS
330
320
330
321
102
}
330
74
100
AcDbEntity
  8
0
  6
Continuous
 62
     2
100
AcDbLine
 10
-68.5445924813254
 20
9.81796609904408
 30
0.0
 11
-67.60869035184285
 21
9.81796609904408
 31
0.0
  0
LINE
  5
186
102
{ACAD_REACTORS
330
320
330
321
102
}
330
74
100
AcDbEntity
  8
0
  6
Continuous
 62
     2
100
AcDbLine
 10
-66.40870319173565
 20
9.37089126911196
 30
0.0
 11
-67.43391344814385
 21
9.37089126911196
 31
0.0
  0
LINE
  5
187
102
{ACAD_REACTORS
330
320
330
321
102
}
330
74
100
AcDbEntity
  8
0
  6
Continuous
 62
     2
100
AcDbLine
 10
-68.58924654478781
 20
11.89470079292279
 30
0.0
 11
-69.74457964143178
 21
9.37089126911196
 31
0.0
  0
LINE
  5
188
102
{ACAD_REACTORS
330
320
330
321
102
}
330
74
100
AcDbEntity
  8
0
  6
Continuous
 62
     2
100
AcDbLine
 10
-68.71936938502441
 20
9.37089126911196
 30
0.0
 11
-68.5445924813254
 21
9.81796609904408
 31
0.0
  0
LINE
  5
189
102
{ACAD_REACTORS
330
320
330
321
102
}
330
74
100
AcDbEntity
  8
0
  6
Continuous
 62
     2
100
AcDbLine
 10
-68.32471186054435
 20
10.38041507863628
 30
0.0
 11
-68.07664141658373
 21
11.01497290176582
 31
0.0
  0
LINE
  5
18A
102
{ACAD_REACTORS
330
31E
330
31F
102
}
330
74
100
AcDbEntity
  8
0
  6
Continuous
 62
     2
100
AcDbLine
 10
-67.1112324534885
 20
12.14708174528911
 30
0.0
 11
-67.1112324534885
 21
14.67089126909994
 31
0.0
  0
LINE
  5
18B
102
{ACAD_REACTORS
330
31E
330
31F
102
}
330
74
100
AcDbEntity
  8
0
  6
Continuous
 62
     2
100
AcDbLine
 10
-66.08602219708112
 20
14.67089126909994
 30
0.0
 11
-66.08602219708112
 21
12.14708174528911
 31
0.0
  0
LINE
  5
18C
102
{ACAD_REACTORS
330
31E
330
31F
102
}
330
74
100
AcDbEntity
  8
0
  6
Continuous
 62
     2
100
AcDbLine
 10
-67.1112324534885
 20
14.67089126909994
 30
0.0
 11
-66.08602219708112
 21
14.67089126909994
 31
0.0
  0
LINE
  5
18D
102
{ACAD_REACTORS
330
31C
330
31D
102
}
330
74
100
AcDbEntity
  8
0
  6
Continuous
 62
     2
100
AcDbLine
 10
-64.25247308465899
 20
12.79809974966405
 30
0.0
 11
-63.67677809452223
 21
12.14708174528911
 31
0.0
  0
LINE
  5
18E
102
{ACAD_REACTORS
330
31C
330
31D
102
}
330
74
100
AcDbEntity
  8
0
  6
Continuous
 62
     2
100
AcDbLine
 10
-63.67677809452223
 20
12.14708174528911
 30
0.0
 11
-62.51750188150712
 21
12.14708174528911
 31
0.0
  0
LINE
  5
18F
102
{ACAD_REACTORS
330
31C
330
31D
102
}
330
74
100
AcDbEntity
  8
0
  6
Continuous
 62
     2
100
AcDbLine
 10
-63.672834978152
 20
13.45357678146672
 30
0.0
 11
-62.51750188150712
 21
12.14708174528911
 31
0.0
  0
LINE
  5
190
102
{ACAD_REACTORS
330
31C
330
31D
102
}
330
74
100
AcDbEntity
  8
0
  6
Continuous
 62
     2
100
AcDbLine
 10
-63.672834978152
 20
13.45357678146672
 30
0.0
 11
-62.59636420892346
 21
14.67089126909994
 31
0.0
  0
LINE
  5
191
102
{ACAD_REACTORS
330
31C
330
31D
102
}
330
74
100
AcDbEntity
  8
0
  6
Continuous
 62
     2
100
AcDbLine
 10
-64.25247308465899
 20
14.10905381326895
 30
0.0
 11
-63.75564042193768
 21
14.67089126909994
 31
0.0
  0
LINE
  5
192
102
{ACAD_REACTORS
330
31C
330
31D
102
}
330
74
100
AcDbEntity
  8
0
  6
Continuous
 62
     2
100
AcDbLine
 10
-64.74930574737951
 20
14.67089126909994
 30
0.0
 11
-64.25247308465899
 21
14.10905381326895
 31
0.0
  0
LINE
  5
193
102
{ACAD_REACTORS
330
31C
330
31D
102
}
330
74
100
AcDbEntity
  8
0
  6
Continuous
 62
     2
100
AcDbLine
 10
-64.74930574737951
 20
14.67089126909994
 30
0.0
 11
-65.90858196039542
 21
14.67089126909994
 31
0.0
  0
LINE
  5
194
102
{ACAD_REACTORS
330
312
330
313
102
}
330
74
100
AcDbEntity
  8
0
  6
Continuous
 62
     2
100
AcDbLine
 10
-64.17361075724355
 20
9.37089126911196
 30
0.0
 11
-63.18783166454298
 21
9.37089126911196
 31
0.0
  0
LINE
  5
195
102
{ACAD_REACTORS
330
312
330
313
102
}
330
74
100
AcDbEntity
  8
0
  6
Continuous
 62
     2
100
AcDbLine
 10
-63.18783166454298
 20
9.37089126911196
 30
0.0
 11
-63.18783166454298
 21
11.24572120108507
 31
0.0
  0
LINE
  5
196
102
{ACAD_REACTORS
330
312
330
313
102
}
330
74
100
AcDbEntity
  8
0
  6
Continuous
 62
     2
100
AcDbLine
 10
-63.18783166454298
 20
11.24572120108507
 30
0.0
 11
-62.51750188150712
 21
11.24572120108507
 31
0.0
  0
LINE
  5
197
102
{ACAD_REACTORS
330
312
330
313
102
}
330
74
100
AcDbEntity
  8
0
  6
Continuous
 62
     2
100
AcDbLine
 10
-62.51750188150712
 20
11.24572120108507
 30
0.0
 11
-62.51750188150712
 21
11.89470079292279
 31
0.0
  0
LINE
  5
198
102
{ACAD_REACTORS
330
312
330
313
102
}
330
74
100
AcDbEntity
  8
0
  6
Continuous
 62
     2
100
AcDbLine
 10
-65.31497751673741
 20
11.89470079292233
 30
0.0
 11
-62.51750188150712
 21
11.89470079292279
 31
0.0
  0
LINE
  5
199
102
{ACAD_REACTORS
330
312
330
313
102
}
330
74
100
AcDbEntity
  8
0
  6
Continuous
 62
     2
100
AcDbLine
 10
-64.17361075724355
 20
11.24572120108507
 30
0.0
 11
-64.17361075724355
 21
9.37089126911196
 31
0.0
  0
LINE
  5
19A
102
{ACAD_REACTORS
330
314
330
315
102
}
330
74
100
AcDbEntity
  8
0
  6
Continuous
 62
     2
100
AcDbLine
 10
-82.87566566259821
 20
11.00632940924791
 30
0.0
 11
-82.87566566259821
 21
11.48719834040088
 31
0.0
  0
LINE
  5
19B
102
{ACAD_REACTORS
330
314
330
315
102
}
330
74
100
AcDbEntity
  8
0
  6
Continuous
 62
     2
100
AcDbLine
 10
-82.87566566259821
 20
13.32049024117459
 30
0.0
 11
-82.87566566259821
 21
13.82093262837026
 31
0.0
  0
LINE
  5
19C
330
74
100
AcDbEntity
  8
1
  6
Continuous
 62
     7
100
AcDbLine
 10
-26.19997348472757
 20
20.520891269106
 30
0.0
 11
-26.19997348472757
 21
24.77089126910598
 31
0.0
  0
LINE
  5
19D
330
74
100
AcDbEntity
  8
1
  6
Continuous
 62
     6
100
AcDbLine
 10
-106.19997348473
 20
3.52089126910611
 30
0.0
 11
-105.74477801148
 21
3.520891269106
 31
0.0
  0
LINE
  5
19E
330
74
100
AcDbEntity
  8
1
  6
Continuous
 62
     6
100
AcDbLine
 10
-156.1999734847301
 20
3.52089126910611
 30
0.0
 11
-194.9999734847301
 21
3.52089126910611
 31
0.0
  0
LINE
  5
19F
330
74
100
AcDbEntity
  8
1
  6
Continuous
 62
     6
100
AcDbLine
 10
-206.19997348473
 20
3.52089126910611
 30
0.0
 11
-194.9999734847301
 21
3.52089126910611
 31
0.0
  0
LINE
  5
1A0
330
74
100
AcDbEntity
  8
1
  6
Continuous
 62
     6
100
AcDbLine
 10
-6.19997348472995
 20
3.52089126910611
 30
0.0
 11
37.30002651527005
 21
3.52089126910611
 31
0.0
  0
LINE
  5
1A1
330
74
100
AcDbEntity
  8
1
  6
Continuous
 62
     6
100
AcDbLine
 10
-56.19997348472995
 20
3.52089126910611
 30
0.0
 11
-74.04477801147999
 21
3.52089126910611
 31
0.0
  0
LINE
  5
1A2
330
74
100
AcDbEntity
  8
1
  6
PHANTOM
 62
     2
100
AcDbLine
 10
-84.1255147966796
 20
18.395891269106
 30
0.0
 11
-79.80991982749059
 21
18.395891269106
 31
0.0
  0
LINE
  5
1A3
330
74
100
AcDbEntity
  8
1
  6
PHANTOM
 62
     2
100
AcDbLine
 10
-87.1525181863766
 20
20.04589126910603
 30
0.0
 11
-87.1525181863766
 21
16.74589126910602
 31
0.0
  0
LINE
  5
1A4
330
74
100
AcDbEntity
  8
1
  6
PHANTOM
 62
     2
100
AcDbLine
 10
-85.50251818637659
 20
18.395891269106
 30
0.0
 11
-88.80251818637659
 21
18.395891269106
 31
0.0
  0
LINE
  5
1A5
330
74
100
AcDbEntity
  8
1
  6
Continuous
 62
     2
100
AcDbLine
 10
37.30002651527005
 20
3.52089126910611
 30
0.0
 11
42.30002651526905
 21
3.52089126910611
 31
0.0
  0
LINE
  5
1A6
330
74
100
AcDbEntity
  8
1
  6
Continuous
 62
     2
100
AcDbLine
 10
37.30002651527005
 20
3.52089126910611
 30
0.0
 11
37.30002651527005
 21
-1.479108730894
 31
0.0
  0
LINE
  5
1A7
330
74
100
AcDbEntity
  8
1
  6
Continuous
 62
     7
100
AcDbLine
 10
-55.84477801147997
 20
16.270891269106
 30
0.0
 11
-55.84477801147997
 21
20.520891269106
 31
0.0
  0
LINE
  5
1A8
330
74
100
AcDbEntity
  8
1
  6
Continuous
 62
     7
100
AcDbLine
 10
-92.24477801147987
 20
16.270891269106
 30
0.0
 11
-55.84477801147997
 21
16.270891269106
 31
0.0
  0
LINE
  5
1A9
330
74
100
AcDbEntity
  8
1
  6
Continuous
 62
     2
100
AcDbLine
 10
42.30002651526905
 20
-1.479108730894
 30
0.0
 11
42.30002651526905
 21
3.52089126910611
 31
0.0
  0
LINE
  5
1AA
330
74
100
AcDbEntity
  8
1
  6
Continuous
 62
     2
100
AcDbLine
 10
42.30002651526905
 20
-1.479108730894
 30
0.0
 11
37.30002651527005
 21
-1.479108730894
 31
0.0
  0
LINE
  5
1AB
330
74
100
AcDbEntity
  8
1
  6
Continuous
 62
     2
100
AcDbLine
 10
37.30002651527005
 20
-1.479108730894
 30
0.0
 11
-6.19997348472995
 21
-1.479108730894
 31
0.0
  0
LINE
  5
1AC
330
74
100
AcDbEntity
  8
1
  6
Continuous
 62
     6
100
AcDbLine
 10
37.30002651527175
 20
33.270891269106
 30
0.0
 11
37.30002651527096
 21
53.5208912691061
 31
0.0
  0
LINE
  5
1AD
330
74
100
AcDbEntity
  8
1
  6
Continuous
 62
     2
100
AcDbLine
 10
42.30002651526905
 20
208.520891269106
 30
0.0
 11
-106.19997348473
 21
208.520891269106
 31
0.0
  0
LINE
  5
1AE
330
74
100
AcDbEntity
  8
1
  6
Continuous
 62
     6
100
AcDbLine
 10
37.30002651526905
 20
188.520891269106
 30
0.0
 11
-249.6999734847291
 21
188.520891269106
 31
0.0
  0
LINE
  5
1AF
330
74
100
AcDbEntity
  8
1
  6
Continuous
 62
     2
100
AcDbLine
 10
37.30002651527096
 20
53.5208912691061
 30
0.0
 11
42.30002651526905
 21
53.5208912691061
 31
0.0
  0
LINE
  5
1B0
330
74
100
AcDbEntity
  8
1
  6
Continuous
 62
     6
100
AcDbLine
 10
37.30002651527096
 20
53.5208912691061
 30
0.0
 11
37.30002651527045
 21
103.5208912691059
 31
0.0
  0
LINE
  5
1B1
330
74
100
AcDbEntity
  8
1
  6
Continuous
 62
     2
100
AcDbLine
 10
42.30002651526905
 20
53.5208912691061
 30
0.0
 11
42.30002651526905
 21
103.5208912691059
 31
0.0
  0
LINE
  5
1B2
330
74
100
AcDbEntity
  8
1
  6
Continuous
 62
     2
100
AcDbLine
 10
37.30002651527045
 20
103.5208912691059
 30
0.0
 11
42.30002651526905
 21
103.5208912691059
 31
0.0
  0
LINE
  5
1B3
330
74
100
AcDbEntity
  8
1
  6
Continuous
 62
     6
100
AcDbLine
 10
37.30002651527045
 20
103.5208912691059
 30
0.0
 11
37.30002651526934
 21
153.520891269106
 31
0.0
  0
LINE
  5
1B4
330
74
100
AcDbEntity
  8
1
  6
Continuous
 62
     2
100
AcDbLine
 10
42.30002651526905
 20
103.5208912691059
 30
0.0
 11
42.30002651526905
 21
153.520891269106
 31
0.0
  0
LINE
  5
1B5
330
74
100
AcDbEntity
  8
1
  6
Continuous
 62
     2
100
AcDbLine
 10
37.30002651526934
 20
153.520891269106
 30
0.0
 11
42.30002651526905
 21
153.520891269106
 31
0.0
  0
LINE
  5
1B6
330
74
100
AcDbEntity
  8
1
  6
Continuous
 62
     6
100
AcDbLine
 10
37.30002651526934
 20
153.520891269106
 30
0.0
 11
37.30002651526905
 21
188.520891269106
 31
0.0
  0
LINE
  5
1B7
330
74
100
AcDbEntity
  8
1
  6
Continuous
 62
     2
100
AcDbLine
 10
42.30002651526905
 20
153.520891269106
 30
0.0
 11
42.30002651526905
 21
208.520891269106
 31
0.0
  0
LINE
  5
1B8
330
74
100
AcDbEntity
  8
1
  6
Continuous
 62
     2
100
AcDbLine
 10
42.30002651526905
 20
3.52089126910611
 30
0.0
 11
42.30002651526905
 21
53.5208912691061
 31
0.0
  0
LINE
  5
1B9
330
74
100
AcDbEntity
  8
1
  6
Continuous
 62
     2
100
AcDbLine
 10
-106.19997348473
 20
208.520891269106
 30
0.0
 11
-254.6999734847291
 21
208.520891269106
 31
0.0
  0
LINE
  5
1BA
330
74
100
AcDbEntity
  8
1
  6
Continuous
 62
     2
100
AcDbLine
 10
-106.19997348473
 20
208.520891269106
 30
0.0
 11
-106.19997348473
 21
199.3121994244047
 31
0.0
  0
LINE
  5
1BB
330
74
100
AcDbEntity
  8
1
  6
Continuous
 62
     2
100
AcDbLine
 10
-254.6999734847291
 20
-1.479108730894
 30
0.0
 11
-249.699973484728
 21
-1.479108730894
 31
0.0
  0
LINE
  5
1BC
330
74
100
AcDbEntity
  8
1
  6
Continuous
 62
     2
100
AcDbLine
 10
-254.6999734847291
 20
208.520891269106
 30
0.0
 11
-254.6999734847291
 21
153.520891269106
 31
0.0
  0
LINE
  5
1BD
330
74
100
AcDbEntity
  8
1
  6
Continuous
 62
     6
100
AcDbLine
 10
-249.6999734847291
 20
188.520891269106
 30
0.0
 11
-249.6999734847288
 21
153.520891269106
 31
0.0
  0
LINE
  5
1BE
330
74
100
AcDbEntity
  8
1
  6
Continuous
 62
     2
100
AcDbLine
 10
-254.6999734847291
 20
153.520891269106
 30
0.0
 11
-249.6999734847288
 21
153.520891269106
 31
0.0
  0
LINE
  5
1BF
330
74
100
AcDbEntity
  8
1
  6
Continuous
 62
     2
100
AcDbLine
 10
-254.6999734847291
 20
153.520891269106
 30
0.0
 11
-254.6999734847291
 21
103.5208912691059
 31
0.0
  0
LINE
  5
1C0
330
74
100
AcDbEntity
  8
1
  6
Continuous
 62
     6
100
AcDbLine
 10
-249.6999734847288
 20
153.520891269106
 30
0.0
 11
-249.6999734847285
 21
103.5208912691059
 31
0.0
  0
LINE
  5
1C1
330
74
100
AcDbEntity
  8
1
  6
Continuous
 62
     2
100
AcDbLine
 10
-254.6999734847291
 20
103.5208912691059
 30
0.0
 11
-249.6999734847285
 21
103.5208912691059
 31
0.0
  0
LINE
  5
1C2
330
74
100
AcDbEntity
  8
1
  6
Continuous
 62
     2
100
AcDbLine
 10
-254.6999734847291
 20
103.5208912691059
 30
0.0
 11
-254.6999734847291
 21
53.5208912691061
 31
0.0
  0
LINE
  5
1C3
330
74
100
AcDbEntity
  8
1
  6
Continuous
 62
     6
100
AcDbLine
 10
-249.6999734847285
 20
103.5208912691059
 30
0.0
 11
-249.6999734847282
 21
53.5208912691061
 31
0.0
  0
LINE
  5
1C4
330
74
100
AcDbEntity
  8
1
  6
Continuous
 62
     2
100
AcDbLine
 10
-254.6999734847291
 20
53.5208912691061
 30
0.0
 11
-249.6999734847282
 21
53.5208912691061
 31
0.0
  0
LINE
  5
1C5
330
74
100
AcDbEntity
  8
1
  6
Continuous
 62
     2
100
AcDbLine
 10
-254.6999734847291
 20
53.5208912691061
 30
0.0
 11
-254.6999734847291
 21
3.52089126910611
 31
0.0
  0
LINE
  5
1C6
330
74
100
AcDbEntity
  8
1
  6
Continuous
 62
     6
100
AcDbLine
 10
-249.6999734847282
 20
53.5208912691061
 30
0.0
 11
-249.699973484728
 21
3.52089126910611
 31
0.0
  0
LINE
  5
1C7
330
74
100
AcDbEntity
  8
1
  6
Continuous
 62
     2
100
AcDbLine
 10
-206.19997348473
 20
-1.479108730894
 30
0.0
 11
-206.19997348473
 21
3.52089126910611
 31
0.0
  0
LINE
  5
1C8
330
74
100
AcDbEntity
  8
1
  6
Continuous
 62
     2
100
AcDbLine
 10
-206.19997348473
 20
-1.479108730894
 30
0.0
 11
-156.1999734847301
 21
-1.479108730894
 31
0.0
  0
LINE
  5
1C9
330
74
100
AcDbEntity
  8
1
  6
Continuous
 62
     2
100
AcDbLine
 10
-156.1999734847301
 20
-1.479108730894
 30
0.0
 11
-156.1999734847301
 21
3.52089126910611
 31
0.0
  0
LINE
  5
1CA
330
74
100
AcDbEntity
  8
1
  6
Continuous
 62
     2
100
AcDbLine
 10
-156.1999734847301
 20
-1.479108730894
 30
0.0
 11
-106.19997348473
 21
-1.479108730894
 31
0.0
  0
LINE
  5
1CB
330
74
100
AcDbEntity
  8
1
  6
Continuous
 62
     2
100
AcDbLine
 10
-106.19997348473
 20
-1.479108730894
 30
0.0
 11
-106.19997348473
 21
3.52089126910611
 31
0.0
  0
LINE
  5
1CC
330
74
100
AcDbEntity
  8
1
  6
Continuous
 62
     2
100
AcDbLine
 10
-106.19997348473
 20
-1.479108730894
 30
0.0
 11
-56.19997348472995
 21
-1.479108730894
 31
0.0
  0
LINE
  5
1CD
330
74
100
AcDbEntity
  8
1
  6
Continuous
 62
     2
100
AcDbLine
 10
-56.19997348472995
 20
-1.479108730894
 30
0.0
 11
-56.19997348472995
 21
3.52089126910611
 31
0.0
  0
LINE
  5
1CE
330
74
100
AcDbEntity
  8
1
  6
Continuous
 62
     2
100
AcDbLine
 10
-6.19997348472995
 20
-1.479108730894
 30
0.0
 11
-6.19997348472995
 21
3.52089126910611
 31
0.0
  0
LINE
  5
1CF
330
74
100
AcDbEntity
  8
1
  6
Continuous
 62
     2
100
AcDbLine
 10
-6.19997348472995
 20
-1.479108730894
 30
0.0
 11
-56.19997348472995
 21
-1.479108730894
 31
0.0
  0
LINE
  5
1D0
330
74
100
AcDbEntity
  8
1
  6
Continuous
 62
     2
100
AcDbLine
 10
-249.699973484728
 20
3.52089126910611
 30
0.0
 11
-249.699973484728
 21
-1.479108730894
 31
0.0
  0
LINE
  5
1D1
330
74
100
AcDbEntity
  8
1
  6
Continuous
 62
     2
100
AcDbLine
 10
-249.699973484728
 20
-1.479108730894
 30
0.0
 11
-206.19997348473
 21
-1.479108730894
 31
0.0
  0
LINE
  5
1D2
330
74
100
AcDbEntity
  8
1
  6
Continuous
 62
     2
100
AcDbLine
 10
-249.699973484728
 20
3.52089126910611
 30
0.0
 11
-254.6999734847291
 21
3.52089126910611
 31
0.0
  0
LINE
  5
1D3
330
74
100
AcDbEntity
  8
1
  6
Continuous
 62
     2
100
AcDbLine
 10
-254.6999734847291
 20
3.52089126910611
 30
0.0
 11
-254.6999734847291
 21
-1.479108730894
 31
0.0
  0
LINE
  5
1D4
330
74
100
AcDbEntity
  8
1
  6
Continuous
 62
     7
100
AcDbLine
 10
-194.9999734847301
 20
7.77089126910611
 30
0.0
 11
-132.7447780114799
 21
7.77089126910611
 31
0.0
  0
LINE
  5
1D5
330
74
100
AcDbEntity
  8
1
  6
Continuous
 62
     2
100
AcDbLine
 10
-194.9999734847301
 20
7.77089126910611
 30
0.0
 11
-194.9999734847301
 21
3.52089126910611
 31
0.0
  0
LINE
  5
1D6
330
74
100
AcDbEntity
  8
1
  6
Continuous
 62
     2
100
AcDbLine
 10
-194.9999734847301
 20
12.020891269106
 30
0.0
 11
-208.4999734847301
 21
12.020891269106
 31
0.0
  0
LINE
  5
1D7
330
74
100
AcDbEntity
  8
1
  6
Continuous
 62
     2
100
AcDbLine
 10
-194.9999734847301
 20
12.020891269106
 30
0.0
 11
-194.9999734847301
 21
7.77089126910611
 31
0.0
  0
LINE
  5
1D8
330
74
100
AcDbEntity
  8
1
  6
Continuous
 62
     2
100
AcDbLine
 10
-194.9999734847301
 20
20.520891269106
 30
0.0
 11
-208.4999734847301
 21
20.520891269106
 31
0.0
  0
LINE
  5
1D9
330
74
100
AcDbEntity
  8
1
  6
Continuous
 62
     2
100
AcDbLine
 10
-194.9999734847301
 20
20.520891269106
 30
0.0
 11
-194.9999734847301
 21
16.270891269106
 31
0.0
  0
LINE
  5
1DA
330
74
100
AcDbEntity
  8
1
  6
Continuous
 62
     2
100
AcDbLine
 10
-194.9999734847301
 20
16.270891269106
 30
0.0
 11
-208.4999734847301
 21
16.270891269106
 31
0.0
  0
LINE
  5
1DB
330
74
100
AcDbEntity
  8
1
  6
Continuous
 62
     2
100
AcDbLine
 10
-194.9999734847301
 20
16.270891269106
 30
0.0
 11
-194.9999734847301
 21
12.020891269106
 31
0.0
  0
LINE
  5
1DC
330
74
100
AcDbEntity
  8
1
  6
Continuous
 62
     2
100
AcDbLine
 10
-194.9999734847301
 20
29.020891269106
 30
0.0
 11
-208.4999734847301
 21
29.020891269106
 31
0.0
  0
LINE
  5
1DD
330
74
100
AcDbEntity
  8
1
  6
Continuous
 62
     2
100
AcDbLine
 10
-194.9999734847301
 20
24.770891269106
 30
0.0
 11
-208.4999734847301
 21
24.770891269106
 31
0.0
  0
LINE
  5
1DE
330
74
100
AcDbEntity
  8
1
  6
Continuous
 62
     2
100
AcDbLine
 10
-194.9999734847301
 20
24.770891269106
 30
0.0
 11
-194.9999734847301
 21
20.520891269106
 31
0.0
  0
LINE
  5
1DF
330
74
100
AcDbEntity
  8
1
  6
Continuous
 62
     2
100
AcDbLine
 10
-194.9999734847301
 20
29.020891269106
 30
0.0
 11
-194.9999734847301
 21
24.770891269106
 31
0.0
  0
LINE
  5
1E0
330
74
100
AcDbEntity
  8
1
  6
Continuous
 62
     6
100
AcDbLine
 10
-194.9999734847301
 20
33.270891269106
 30
0.0
 11
-208.4999734847301
 21
33.270891269106
 31
0.0
  0
LINE
  5
1E1
330
74
100
AcDbEntity
  8
1
  6
Continuous
 62
     2
100
AcDbLine
 10
-194.9999734847301
 20
33.270891269106
 30
0.0
 11
-194.9999734847301
 21
29.020891269106
 31
0.0
  0
LINE
  5
1E2
330
74
100
AcDbEntity
  8
1
  6
Continuous
 62
     6
100
AcDbLine
 10
37.30002651527005
 20
3.52089126910611
 30
0.0
 11
37.30002651527136
 21
12.020891269106
 31
0.0
  0
LINE
  5
1E3
330
74
100
AcDbEntity
  8
1
  6
Continuous
 62
     6
100
AcDbLine
 10
37.30002651527084
 20
24.770891269106
 30
0.0
 11
37.30002651527184
 21
20.520891269106
 31
0.0
  0
LINE
  5
1E4
330
74
100
AcDbEntity
  8
1
  6
Continuous
 62
     6
100
AcDbLine
 10
-55.84477801147997
 20
3.520891269106
 30
0.0
 11
-6.19997348472995
 21
3.52089126910611
 31
0.0
  0
LINE
  5
1E5
330
74
100
AcDbEntity
  8
1
  6
Continuous
 62
     6
100
AcDbLine
 10
-92.24477801147987
 20
3.520891269106
 30
0.0
 11
-74.04477801147999
 21
3.52089126910611
 31
0.0
  0
LINE
  5
1E6
330
74
100
AcDbEntity
  8
1
  6
Continuous
 62
     6
100
AcDbLine
 10
-208.4999734847301
 20
3.520891269106
 30
0.0
 11
-206.19997348473
 21
3.52089126910611
 31
0.0
  0
LINE
  5
1E7
330
74
100
AcDbEntity
  8
1
  6
Continuous
 62
     6
100
AcDbLine
 10
-132.7447780114799
 20
3.520891269106
 30
0.0
 11
-156.1999734847301
 21
3.52089126910611
 31
0.0
  0
LINE
  5
1E8
330
74
100
AcDbEntity
  8
1
  6
Continuous
 62
     6
100
AcDbLine
 10
37.30002651527175
 20
33.270891269106
 30
0.0
 11
19.41843479695095
 21
33.270891269106
 31
0.0
  0
LINE
  5
1E9
330
74
100
AcDbEntity
  8
1
  6
Continuous
 62
     7
100
AcDbLine
 10
37.30002651527136
 20
12.020891269106
 30
0.0
 11
-7.69997348472795
 21
12.020891269106
 31
0.0
  0
LINE
  5
1EA
330
74
100
AcDbEntity
  8
1
  6
Continuous
 62
     7
100
AcDbLine
 10
37.30002651527084
 20
24.770891269106
 30
0.0
 11
19.41843479695095
 21
24.770891269106
 31
0.0
  0
LINE
  5
1EB
330
74
100
AcDbEntity
  8
1
  6
Continuous
 62
     7
100
AcDbLine
 10
-7.69997348472796
 20
20.520891269106
 30
0.0
 11
37.30002651527184
 21
20.520891269106
 31
0.0
  0
LINE
  5
1EC
330
74
100
AcDbEntity
  8
1
  6
Continuous
 62
     7
100
AcDbLine
 10
-55.84477801147997
 20
29.020891269106
 30
0.0
 11
-55.84477801147997
 21
24.770891269106
 31
0.0
  0
LINE
  5
1ED
330
74
100
AcDbEntity
  8
1
  6
Continuous
 62
     7
100
AcDbLine
 10
-69.34477801147999
 20
29.020891269106
 30
0.0
 11
-55.84477801147997
 21
29.020891269106
 31
0.0
  0
LINE
  5
1EE
330
74
100
AcDbEntity
  8
1
  6
Continuous
 62
     7
100
AcDbLine
 10
-69.34477801147999
 20
29.020891269106
 30
0.0
 11
-82.84477801147989
 21
29.020891269106
 31
0.0
  0
LINE
  5
1EF
330
74
100
AcDbEntity
  8
1
  6
Continuous
 62
     7
100
AcDbLine
 10
19.41843479695095
 20
24.770891269106
 30
0.0
 11
19.41843479695095
 21
33.270891269106
 31
0.0
  0
LINE
  5
1F0
330
74
100
AcDbEntity
  8
1
  6
Continuous
 62
     6
100
AcDbLine
 10
10.50002651527175
 20
33.270891269106
 30
0.0
 11
19.41843479695095
 21
33.270891269106
 31
0.0
  0
LINE
  5
1F1
330
74
100
AcDbEntity
  8
1
  6
Continuous
 62
     7
100
AcDbLine
 10
10.50002651527175
 20
33.270891269106
 30
0.0
 11
10.50002651527205
 21
24.77089126910611
 31
0.0
  0
LINE
  5
1F2
330
74
100
AcDbEntity
  8
1
  6
Continuous
 62
     7
100
AcDbLine
 10
-7.69997348472795
 20
12.020891269106
 30
0.0
 11
-26.19997348472757
 21
12.020891269106
 31
0.0
  0
LINE
  5
1F3
330
74
100
AcDbEntity
  8
1
  6
Continuous
 62
     7
100
AcDbLine
 10
-7.69997348472796
 20
20.520891269106
 30
0.0
 11
-7.69997348472795
 21
12.020891269106
 31
0.0
  0
LINE
  5
1F4
330
74
100
AcDbEntity
  8
1
  6
Continuous
 62
     2
100
AcDbLine
 10
-105.74477801148
 20
33.270891269106
 30
0.0
 11
-105.74477801148
 21
29.020891269106
 31
0.0
  0
LINE
  5
1F5
330
74
100
AcDbEntity
  8
1
  6
Continuous
 62
     2
100
AcDbLine
 10
-119.2447780114799
 20
33.270891269106
 30
0.0
 11
-119.2447780114799
 21
29.020891269106
 31
0.0
  0
LINE
  5
1F6
330
74
100
AcDbEntity
  8
1
  6
Continuous
 62
     6
100
AcDbLine
 10
-105.74477801148
 20
33.270891269106
 30
0.0
 11
-119.2447780114799
 21
33.270891269106
 31
0.0
  0
LINE
  5
1F7
330
74
100
AcDbEntity
  8
1
  6
Continuous
 62
     6
100
AcDbLine
 10
-119.2447780114799
 20
33.270891269106
 30
0.0
 11
-132.7447780114799
 21
33.270891269106
 31
0.0
  0
LINE
  5
1F8
330
74
100
AcDbEntity
  8
1
  6
Continuous
 62
     2
100
AcDbLine
 10
-132.7447780114799
 20
33.270891269106
 30
0.0
 11
-132.7447780114799
 21
29.020891269106
 31
0.0
  0
LINE
  5
1F9
330
74
100
AcDbEntity
  8
1
  6
Continuous
 62
     7
100
AcDbLine
 10
-74.04477801147999
 20
7.77089126910611
 30
0.0
 11
-74.04477801147999
 21
3.52089126910611
 31
0.0
  0
LINE
  5
1FA
330
74
100
AcDbEntity
  8
1
  6
Continuous
 62
     7
100
AcDbLine
 10
-74.04477801147999
 20
7.77089126910611
 30
0.0
 11
-92.24477801147987
 21
7.77089126910611
 31
0.0
  0
LINE
  5
1FB
330
74
100
AcDbEntity
  8
1
  6
Continuous
 62
     7
100
AcDbLine
 10
-69.34477801147999
 20
20.520891269106
 30
0.0
 11
-82.84477801147989
 21
20.52089126910611
 31
0.0
  0
LINE
  5
1FC
330
74
100
AcDbEntity
  8
1
  6
Continuous
 62
     7
100
AcDbLine
 10
-55.84477801147997
 20
7.77089126910611
 30
0.0
 11
-74.04477801147999
 21
7.77089126910611
 31
0.0
  0
LINE
  5
1FD
330
74
100
AcDbEntity
  8
1
  6
Continuous
 62
     6
100
AcDbLine
 10
-55.84477801147997
 20
33.270891269106
 30
0.0
 11
-32.94477801147994
 21
33.270891269106
 31
0.0
  0
LINE
  5
1FE
330
74
100
AcDbEntity
  8
1
  6
Continuous
 62
     6
100
AcDbLine
 10
10.50002651527175
 20
33.270891269106
 30
0.0
 11
-32.94477801147994
 21
33.270891269106
 31
0.0
  0
LINE
  5
1FF
330
74
100
AcDbEntity
  8
1
  6
Continuous
 62
     7
100
AcDbLine
 10
-32.94477801147994
 20
33.270891269106
 30
0.0
 11
-32.94477801147994
 21
24.77089126910595
 31
0.0
  0
LINE
  5
200
330
74
100
AcDbEntity
  8
1
  6
Continuous
 62
     6
100
AcDbLine
 10
-208.4999734847301
 20
33.270891269106
 30
0.0
 11
-214.6999734847281
 21
33.270891269106
 31
0.0
  0
LINE
  5
201
330
74
100
AcDbEntity
  8
1
  6
Continuous
 62
     6
100
AcDbLine
 10
-214.6999734847281
 20
3.52089126910611
 30
0.0
 11
-214.6999734847281
 21
7.77089126910611
 31
0.0
  0
LINE
  5
202
330
74
100
AcDbEntity
  8
1
  6
Continuous
 62
     6
100
AcDbLine
 10
-214.6999734847281
 20
7.77089126910611
 30
0.0
 11
-214.6999734847281
 21
12.020891269106
 31
0.0
  0
LINE
  5
203
330
74
100
AcDbEntity
  8
1
  6
Continuous
 62
     7
100
AcDbLine
 10
-69.34477801147999
 20
24.770891269106
 30
0.0
 11
-69.34477801147999
 21
20.520891269106
 31
0.0
  0
LINE
  5
204
330
74
100
AcDbEntity
  8
1
  6
Continuous
 62
     7
100
AcDbLine
 10
-82.84477801147989
 20
24.770891269106
 30
0.0
 11
-82.84477801147989
 21
20.52089126910611
 31
0.0
  0
LINE
  5
205
330
74
100
AcDbEntity
  8
1
  6
Continuous
 62
     7
100
AcDbLine
 10
-69.34477801147999
 20
24.770891269106
 30
0.0
 11
-82.84477801147989
 21
24.770891269106
 31
0.0
  0
LINE
  5
206
330
74
100
AcDbEntity
  8
1
  6
Continuous
 62
     2
100
AcDbLine
 10
-92.24477801147987
 20
20.520891269106
 30
0.0
 11
-105.74477801148
 21
20.520891269106
 31
0.0
  0
LINE
  5
207
330
74
100
AcDbEntity
  8
1
  6
Continuous
 62
     2
100
AcDbLine
 10
-208.4999734847301
 20
20.520891269106
 30
0.0
 11
-208.4999734847301
 21
24.770891269106
 31
0.0
  0
LINE
  5
208
330
74
100
AcDbEntity
  8
1
  6
Continuous
 62
     2
100
AcDbLine
 10
-208.4999734847301
 20
20.520891269106
 30
0.0
 11
-214.6999734847281
 21
20.520891269106
 31
0.0
  0
LINE
  5
209
330
74
100
AcDbEntity
  8
1
  6
Continuous
 62
     2
100
AcDbLine
 10
-92.24477801147987
 20
24.770891269106
 30
0.0
 11
-105.74477801148
 21
24.770891269106
 31
0.0
  0
LINE
  5
20A
330
74
100
AcDbEntity
  8
1
  6
Continuous
 62
     2
100
AcDbLine
 10
-208.4999734847301
 20
24.770891269106
 30
0.0
 11
-208.4999734847301
 21
29.020891269106
 31
0.0
  0
LINE
  5
20B
330
74
100
AcDbEntity
  8
1
  6
Continuous
 62
     2
100
AcDbLine
 10
-92.24477801147987
 20
29.020891269106
 30
0.0
 11
-105.74477801148
 21
29.020891269106
 31
0.0
  0
LINE
  5
20C
330
74
100
AcDbEntity
  8
1
  6
Continuous
 62
     2
100
AcDbLine
 10
-208.4999734847301
 20
29.020891269106
 30
0.0
 11
-208.4999734847301
 21
33.270891269106
 31
0.0
  0
LINE
  5
20D
330
74
100
AcDbEntity
  8
1
  6
Continuous
 62
     2
100
AcDbLine
 10
-208.4999734847301
 20
29.020891269106
 30
0.0
 11
-214.6999734847281
 21
29.020891269106
 31
0.0
  0
LINE
  5
20E
330
74
100
AcDbEntity
  8
1
  6
Continuous
 62
     6
100
AcDbLine
 10
-92.24477801147987
 20
33.270891269106
 30
0.0
 11
-105.74477801148
 21
33.270891269106
 31
0.0
  0
LINE
  5
20F
330
74
100
AcDbEntity
  8
1
  6
Continuous
 62
     2
100
AcDbLine
 10
-92.24477801147987
 20
12.020891269106
 30
0.0
 11
-105.74477801148
 21
12.020891269106
 31
0.0
  0
LINE
  5
210
330
74
100
AcDbEntity
  8
1
  6
Continuous
 62
     2
100
AcDbLine
 10
-92.24477801147987
 20
16.270891269106
 30
0.0
 11
-105.74477801148
 21
16.270891269106
 31
0.0
  0
LINE
  5
211
330
74
100
AcDbEntity
  8
1
  6
Continuous
 62
     2
100
AcDbLine
 10
-208.4999734847301
 20
12.020891269106
 30
0.0
 11
-208.4999734847301
 21
16.270891269106
 31
0.0
  0
LINE
  5
212
330
74
100
AcDbEntity
  8
1
  6
Continuous
 62
     2
100
AcDbLine
 10
-208.4999734847301
 20
16.270891269106
 30
0.0
 11
-208.4999734847301
 21
20.520891269106
 31
0.0
  0
LINE
  5
213
330
74
100
AcDbEntity
  8
1
  6
Continuous
 62
     7
100
AcDbLine
 10
-208.4999734847301
 20
7.77089126910611
 30
0.0
 11
-194.9999734847301
 21
7.77089126910611
 31
0.0
  0
LINE
  5
214
330
74
100
AcDbEntity
  8
1
  6
Continuous
 62
     2
100
AcDbLine
 10
-208.4999734847301
 20
7.77089126910611
 30
0.0
 11
-208.4999734847301
 21
12.020891269106
 31
0.0
  0
LINE
  5
215
330
74
100
AcDbEntity
  8
1
  6
Continuous
 62
     7
100
AcDbLine
 10
-55.84477801147997
 20
12.020891269106
 30
0.0
 11
-55.84477801147997
 21
16.270891269106
 31
0.0
  0
LINE
  5
216
330
74
100
AcDbEntity
  8
1
  6
Continuous
 62
     6
100
AcDbLine
 10
-69.34477801147999
 20
33.270891269106
 30
0.0
 11
-55.84477801147997
 21
33.270891269106
 31
0.0
  0
LINE
  5
217
330
74
100
AcDbEntity
  8
1
  6
Continuous
 62
     7
100
AcDbLine
 10
-55.84477801147997
 20
33.270891269106
 30
0.0
 11
-55.84477801147997
 21
29.020891269106
 31
0.0
  0
LINE
  5
218
330
74
100
AcDbEntity
  8
1
  6
Continuous
 62
     6
100
AcDbLine
 10
-82.84477801147989
 20
33.270891269106
 30
0.0
 11
-69.34477801147999
 21
33.270891269106
 31
0.0
  0
LINE
  5
219
330
74
100
AcDbEntity
  8
1
  6
Continuous
 62
     7
100
AcDbLine
 10
-92.24477801147987
 20
20.520891269106
 30
0.0
 11
-92.24477801147987
 21
16.270891269106
 31
0.0
  0
LINE
  5
21A
330
74
100
AcDbEntity
  8
1
  6
Continuous
 62
     7
100
AcDbLine
 10
-92.24477801147987
 20
24.770891269106
 30
0.0
 11
-92.24477801147987
 21
20.520891269106
 31
0.0
  0
LINE
  5
21B
330
74
100
AcDbEntity
  8
1
  6
Continuous
 62
     2
100
AcDbLine
 10
-214.6999734847281
 20
24.770891269106
 30
0.0
 11
-208.4999734847301
 21
24.770891269106
 31
0.0
  0
LINE
  5
21C
330
74
100
AcDbEntity
  8
1
  6
Continuous
 62
     7
100
AcDbLine
 10
-92.24477801147987
 20
29.020891269106
 30
0.0
 11
-92.24477801147987
 21
24.770891269106
 31
0.0
  0
LINE
  5
21D
330
74
100
AcDbEntity
  8
1
  6
Continuous
 62
     7
100
AcDbLine
 10
-55.84477801147997
 20
24.770891269106
 30
0.0
 11
-55.84477801147997
 21
20.520891269106
 31
0.0
  0
LINE
  5
21E
330
74
100
AcDbEntity
  8
1
  6
Continuous
 62
     7
100
AcDbLine
 10
-69.34477801147999
 20
33.270891269106
 30
0.0
 11
-69.34477801147999
 21
29.020891269106
 31
0.0
  0
LINE
  5
21F
330
74
100
AcDbEntity
  8
1
  6
Continuous
 62
     7
100
AcDbLine
 10
-82.84477801147989
 20
33.270891269106
 30
0.0
 11
-82.84477801147989
 21
29.020891269106
 31
0.0
  0
LINE
  5
220
330
74
100
AcDbEntity
  8
1
  6
Continuous
 62
     2
100
AcDbLine
 10
-208.4999734847301
 20
3.520891269106
 30
0.0
 11
-208.4999734847301
 21
7.77089126910611
 31
0.0
  0
LINE
  5
221
330
74
100
AcDbEntity
  8
1
  6
Continuous
 62
     2
100
AcDbLine
 10
-214.6999734847281
 20
12.020891269106
 30
0.0
 11
-208.4999734847301
 21
12.020891269106
 31
0.0
  0
LINE
  5
222
330
74
100
AcDbEntity
  8
1
  6
Continuous
 62
     2
100
AcDbLine
 10
-214.6999734847281
 20
16.270891269106
 30
0.0
 11
-208.4999734847301
 21
16.270891269106
 31
0.0
  0
LINE
  5
223
330
74
100
AcDbEntity
  8
1
  6
Continuous
 62
     7
100
AcDbLine
 10
-214.6999734847281
 20
7.77089126910611
 30
0.0
 11
-208.4999734847301
 21
7.77089126910611
 31
0.0
  0
LINE
  5
224
330
74
100
AcDbEntity
  8
1
  6
Continuous
 62
     7
100
AcDbLine
 10
-55.84477801147997
 20
12.020891269106
 30
0.0
 11
-55.84477801147997
 21
7.77089126910611
 31
0.0
  0
LINE
  5
225
330
74
100
AcDbEntity
  8
1
  6
Continuous
 62
     7
100
AcDbLine
 10
-92.24477801147987
 20
16.270891269106
 30
0.0
 11
-92.24477801147987
 21
12.020891269106
 31
0.0
  0
LINE
  5
226
330
74
100
AcDbEntity
  8
1
  6
Continuous
 62
     7
100
AcDbLine
 10
-92.24477801147987
 20
12.020891269106
 30
0.0
 11
-92.24477801147987
 21
7.77089126910611
 31
0.0
  0
LINE
  5
227
330
74
100
AcDbEntity
  8
1
  6
Continuous
 62
     7
100
AcDbLine
 10
-69.34477801147999
 20
29.020891269106
 30
0.0
 11
-69.34477801147999
 21
24.770891269106
 31
0.0
  0
LINE
  5
228
330
74
100
AcDbEntity
  8
1
  6
Continuous
 62
     7
100
AcDbLine
 10
-82.84477801147989
 20
29.020891269106
 30
0.0
 11
-82.84477801147989
 21
24.770891269106
 31
0.0
  0
LINE
  5
229
330
74
100
AcDbEntity
  8
1
  6
Continuous
 62
     7
100
AcDbLine
 10
-92.24477801147987
 20
24.770891269106
 30
0.0
 11
-82.84477801147989
 21
24.770891269106
 31
0.0
  0
LINE
  5
22A
330
74
100
AcDbEntity
  8
1
  6
Continuous
 62
     7
100
AcDbLine
 10
-55.84477801147997
 20
20.520891269106
 30
0.0
 11
-69.34477801147999
 21
20.520891269106
 31
0.0
  0
LINE
  5
22B
330
74
100
AcDbEntity
  8
1
  6
Continuous
 62
     7
100
AcDbLine
 10
-55.84477801147997
 20
7.77089126910611
 30
0.0
 11
-55.84477801147997
 21
3.520891269106
 31
0.0
  0
LINE
  5
22C
330
74
100
AcDbEntity
  8
1
  6
Continuous
 62
     7
100
AcDbLine
 10
-92.24477801147987
 20
7.77089126910611
 30
0.0
 11
-92.24477801147987
 21
3.520891269106
 31
0.0
  0
LINE
  5
22D
330
74
100
AcDbEntity
  8
1
  6
Continuous
 62
     7
100
AcDbLine
 10
-92.24477801147987
 20
33.270891269106
 30
0.0
 11
-92.24477801147987
 21
29.020891269106
 31
0.0
  0
LINE
  5
22E
330
74
100
AcDbEntity
  8
1
  6
Continuous
 62
     7
100
AcDbLine
 10
-55.84477801147997
 20
12.020891269106
 30
0.0
 11
-26.19997348472757
 21
12.020891269106
 31
0.0
  0
LINE
  5
22F
330
74
100
AcDbEntity
  8
1
  6
Continuous
 62
     7
100
AcDbLine
 10
-55.84477801147997
 20
20.520891269106
 30
0.0
 11
-26.19997348472757
 21
20.520891269106
 31
0.0
  0
LINE
  5
230
330
74
100
AcDbEntity
  8
1
  6
Continuous
 62
     7
100
AcDbLine
 10
10.50002651527205
 20
24.77089126910611
 30
0.0
 11
19.41843479695095
 21
24.770891269106
 31
0.0
  0
LINE
  5
231
330
74
100
AcDbEntity
  8
1
  6
Continuous
 62
     7
100
AcDbLine
 10
10.50002651527205
 20
24.77089126910611
 30
0.0
 11
-26.19997348472757
 21
24.77089126910598
 31
0.0
  0
LINE
  5
232
330
74
100
AcDbEntity
  8
1
  6
Continuous
 62
     7
100
AcDbLine
 10
-26.19997348472757
 20
20.520891269106
 30
0.0
 11
-7.69997348472796
 21
20.520891269106
 31
0.0
  0
LINE
  5
233
330
74
100
AcDbEntity
  8
1
  6
Continuous
 62
     7
100
AcDbLine
 10
-26.19997348472757
 20
20.520891269106
 30
0.0
 11
-26.19997348472757
 21
12.020891269106
 31
0.0
  0
LINE
  5
234
330
74
100
AcDbEntity
  8
1
  6
Continuous
 62
     6
100
AcDbLine
 10
-208.4999734847301
 20
3.520891269106
 30
0.0
 11
-214.6999734847281
 21
3.52089126910611
 31
0.0
  0
LINE
  5
235
330
74
100
AcDbEntity
  8
1
  6
Continuous
 62
     6
100
AcDbLine
 10
-214.6999734847281
 20
29.020891269106
 30
0.0
 11
-214.6999734847281
 21
33.270891269106
 31
0.0
  0
LINE
  5
236
330
74
100
AcDbEntity
  8
1
  6
Continuous
 62
     6
100
AcDbLine
 10
-214.6999734847281
 20
24.770891269106
 30
0.0
 11
-214.6999734847281
 21
29.020891269106
 31
0.0
  0
LINE
  5
237
330
74
100
AcDbEntity
  8
1
  6
Continuous
 62
     6
100
AcDbLine
 10
-214.6999734847281
 20
20.520891269106
 30
0.0
 11
-214.6999734847281
 21
24.770891269106
 31
0.0
  0
LINE
  5
238
330
74
100
AcDbEntity
  8
1
  6
Continuous
 62
     6
100
AcDbLine
 10
-214.6999734847281
 20
12.020891269106
 30
0.0
 11
-214.6999734847281
 21
16.270891269106
 31
0.0
  0
LINE
  5
239
330
74
100
AcDbEntity
  8
1
  6
Continuous
 62
     6
100
AcDbLine
 10
-132.7447780114799
 20
33.270891269106
 30
0.0
 11
-194.9999734847301
 21
33.270891269106
 31
0.0
  0
LINE
  5
23A
330
74
100
AcDbEntity
  8
1
  6
Continuous
 62
     2
100
AcDbLine
 10
-194.9999734847301
 20
29.020891269106
 30
0.0
 11
-132.7447780114799
 21
29.020891269106
 31
0.0
  0
LINE
  5
23B
330
74
100
AcDbEntity
  8
1
  6
Continuous
 62
     2
100
AcDbLine
 10
-194.9999734847301
 20
24.770891269106
 30
0.0
 11
-132.7447780114799
 21
24.770891269106
 31
0.0
  0
LINE
  5
23C
330
74
100
AcDbEntity
  8
1
  6
Continuous
 62
     6
100
AcDbLine
 10
-55.84477801147997
 20
3.520891269106
 30
0.0
 11
-56.19997348472995
 21
3.52089126910611
 31
0.0
  0
LINE
  5
23D
330
74
100
AcDbEntity
  8
1
  6
Continuous
 62
     7
100
AcDbLine
 10
-69.34477801147999
 20
24.770891269106
 30
0.0
 11
-55.84477801147997
 21
24.770891269106
 31
0.0
  0
LINE
  5
23E
330
74
100
AcDbEntity
  8
1
  6
Continuous
 62
     7
100
AcDbLine
 10
-32.94477801147994
 20
24.77089126910595
 30
0.0
 11
-55.84477801147997
 21
24.770891269106
 31
0.0
  0
LINE
  5
23F
330
74
100
AcDbEntity
  8
1
  6
Continuous
 62
     6
100
AcDbLine
 10
37.30002651527184
 20
20.520891269106
 30
0.0
 11
37.30002651527136
 21
12.020891269106
 31
0.0
  0
LINE
  5
240
330
74
100
AcDbEntity
  8
1
  6
Continuous
 62
     6
100
AcDbLine
 10
-105.74477801148
 20
3.520891269106
 30
0.0
 11
-92.24477801147987
 21
3.520891269106
 31
0.0
  0
LINE
  5
241
330
74
100
AcDbEntity
  8
1
  6
Continuous
 62
     2
100
AcDbLine
 10
-105.74477801148
 20
12.020891269106
 30
0.0
 11
-105.74477801148
 21
7.77089126910611
 31
0.0
  0
LINE
  5
242
330
74
100
AcDbEntity
  8
1
  6
Continuous
 62
     2
100
AcDbLine
 10
-105.74477801148
 20
12.020891269106
 30
0.0
 11
-119.2447780114799
 21
12.020891269106
 31
0.0
  0
LINE
  5
243
330
74
100
AcDbEntity
  8
1
  6
Continuous
 62
     2
100
AcDbLine
 10
-105.74477801148
 20
7.77089126910611
 30
0.0
 11
-105.74477801148
 21
3.520891269106
 31
0.0
  0
LINE
  5
244
330
74
100
AcDbEntity
  8
1
  6
Continuous
 62
     7
100
AcDbLine
 10
-105.74477801148
 20
7.77089126910611
 30
0.0
 11
-92.24477801147987
 21
7.77089126910611
 31
0.0
  0
LINE
  5
245
330
74
100
AcDbEntity
  8
1
  6
Continuous
 62
     2
100
AcDbLine
 10
-105.74477801148
 20
20.520891269106
 30
0.0
 11
-105.74477801148
 21
16.270891269106
 31
0.0
  0
LINE
  5
246
330
74
100
AcDbEntity
  8
1
  6
Continuous
 62
     2
100
AcDbLine
 10
-105.74477801148
 20
20.520891269106
 30
0.0
 11
-119.2447780114799
 21
20.520891269106
 31
0.0
  0
LINE
  5
247
330
74
100
AcDbEntity
  8
1
  6
Continuous
 62
     2
100
AcDbLine
 10
-105.74477801148
 20
24.770891269106
 30
0.0
 11
-105.74477801148
 21
20.520891269106
 31
0.0
  0
LINE
  5
248
330
74
100
AcDbEntity
  8
1
  6
Continuous
 62
     2
100
AcDbLine
 10
-105.74477801148
 20
24.770891269106
 30
0.0
 11
-119.2447780114799
 21
24.770891269106
 31
0.0
  0
LINE
  5
249
330
74
100
AcDbEntity
  8
1
  6
Continuous
 62
     2
100
AcDbLine
 10
-105.74477801148
 20
29.020891269106
 30
0.0
 11
-105.74477801148
 21
24.770891269106
 31
0.0
  0
LINE
  5
24A
330
74
100
AcDbEntity
  8
1
  6
Continuous
 62
     2
100
AcDbLine
 10
-105.74477801148
 20
29.020891269106
 30
0.0
 11
-119.2447780114799
 21
29.020891269106
 31
0.0
  0
LINE
  5
24B
330
74
100
AcDbEntity
  8
1
  6
Continuous
 62
     2
100
AcDbLine
 10
-105.74477801148
 20
16.270891269106
 30
0.0
 11
-105.74477801148
 21
12.020891269106
 31
0.0
  0
LINE
  5
24C
330
74
100
AcDbEntity
  8
1
  6
Continuous
 62
     2
100
AcDbLine
 10
-105.74477801148
 20
16.270891269106
 30
0.0
 11
-119.2447780114799
 21
16.270891269106
 31
0.0
  0
LINE
  5
24D
330
74
100
AcDbEntity
  8
1
  6
Continuous
 62
     6
100
AcDbLine
 10
-119.2447780114799
 20
3.520891269106
 30
0.0
 11
-106.19997348473
 21
3.52089126910611
 31
0.0
  0
LINE
  5
24E
330
74
100
AcDbEntity
  8
1
  6
Continuous
 62
     2
100
AcDbLine
 10
-119.2447780114799
 20
12.020891269106
 30
0.0
 11
-119.2447780114799
 21
7.77089126910611
 31
0.0
  0
LINE
  5
24F
330
74
100
AcDbEntity
  8
1
  6
Continuous
 62
     2
100
AcDbLine
 10
-119.2447780114799
 20
12.020891269106
 30
0.0
 11
-132.7447780114799
 21
12.020891269106
 31
0.0
  0
LINE
  5
250
330
74
100
AcDbEntity
  8
1
  6
Continuous
 62
     2
100
AcDbLine
 10
-119.2447780114799
 20
7.77089126910611
 30
0.0
 11
-119.2447780114799
 21
3.520891269106
 31
0.0
  0
LINE
  5
251
330
74
100
AcDbEntity
  8
1
  6
Continuous
 62
     7
100
AcDbLine
 10
-119.2447780114799
 20
7.77089126910611
 30
0.0
 11
-105.74477801148
 21
7.77089126910611
 31
0.0
  0
LINE
  5
252
330
74
100
AcDbEntity
  8
1
  6
Continuous
 62
     2
100
AcDbLine
 10
-119.2447780114799
 20
20.520891269106
 30
0.0
 11
-119.2447780114799
 21
16.270891269106
 31
0.0
  0
LINE
  5
253
330
74
100
AcDbEntity
  8
1
  6
Continuous
 62
     2
100
AcDbLine
 10
-119.2447780114799
 20
20.520891269106
 30
0.0
 11
-132.7447780114799
 21
20.520891269106
 31
0.0
  0
LINE
  5
254
330
74
100
AcDbEntity
  8
1
  6
Continuous
 62
     2
100
AcDbLine
 10
-119.2447780114799
 20
24.770891269106
 30
0.0
 11
-119.2447780114799
 21
20.520891269106
 31
0.0
  0
LINE
  5
255
330
74
100
AcDbEntity
  8
1
  6
Continuous
 62
     2
100
AcDbLine
 10
-119.2447780114799
 20
24.770891269106
 30
0.0
 11
-132.7447780114799
 21
24.770891269106
 31
0.0
  0
LINE
  5
256
330
74
100
AcDbEntity
  8
1
  6
Continuous
 62
     2
100
AcDbLine
 10
-119.2447780114799
 20
29.020891269106
 30
0.0
 11
-119.2447780114799
 21
24.770891269106
 31
0.0
  0
LINE
  5
257
330
74
100
AcDbEntity
  8
1
  6
Continuous
 62
     2
100
AcDbLine
 10
-119.2447780114799
 20
29.020891269106
 30
0.0
 11
-132.7447780114799
 21
29.020891269106
 31
0.0
  0
LINE
  5
258
330
74
100
AcDbEntity
  8
1
  6
Continuous
 62
     2
100
AcDbLine
 10
-119.2447780114799
 20
16.270891269106
 30
0.0
 11
-119.2447780114799
 21
12.020891269106
 31
0.0
  0
LINE
  5
259
330
74
100
AcDbEntity
  8
1
  6
Continuous
 62
     2
100
AcDbLine
 10
-119.2447780114799
 20
16.270891269106
 30
0.0
 11
-132.7447780114799
 21
16.270891269106
 31
0.0
  0
LINE
  5
25A
330
74
100
AcDbEntity
  8
1
  6
Continuous
 62
     6
100
AcDbLine
 10
-132.7447780114799
 20
3.520891269106
 30
0.0
 11
-119.2447780114799
 21
3.520891269106
 31
0.0
  0
LINE
  5
25B
330
74
100
AcDbEntity
  8
1
  6
Continuous
 62
     2
100
AcDbLine
 10
-132.7447780114799
 20
12.020891269106
 30
0.0
 11
-132.7447780114799
 21
7.77089126910611
 31
0.0
  0
LINE
  5
25C
330
74
100
AcDbEntity
  8
1
  6
Continuous
 62
     2
100
AcDbLine
 10
-132.7447780114799
 20
12.020891269106
 30
0.0
 11
-194.9999734847301
 21
12.020891269106
 31
0.0
  0
LINE
  5
25D
330
74
100
AcDbEntity
  8
1
  6
Continuous
 62
     2
100
AcDbLine
 10
-132.7447780114799
 20
7.77089126910611
 30
0.0
 11
-132.7447780114799
 21
3.520891269106
 31
0.0
  0
LINE
  5
25E
330
74
100
AcDbEntity
  8
1
  6
Continuous
 62
     7
100
AcDbLine
 10
-132.7447780114799
 20
7.77089126910611
 30
0.0
 11
-119.2447780114799
 21
7.77089126910611
 31
0.0
  0
LINE
  5
25F
330
74
100
AcDbEntity
  8
1
  6
Continuous
 62
     2
100
AcDbLine
 10
-132.7447780114799
 20
20.520891269106
 30
0.0
 11
-132.7447780114799
 21
16.270891269106
 31
0.0
  0
LINE
  5
260
330
74
100
AcDbEntity
  8
1
  6
Continuous
 62
     2
100
AcDbLine
 10
-132.7447780114799
 20
20.520891269106
 30
0.0
 11
-194.9999734847301
 21
20.520891269106
 31
0.0
  0
LINE
  5
261
330
74
100
AcDbEntity
  8
1
  6
Continuous
 62
     2
100
AcDbLine
 10
-132.7447780114799
 20
24.770891269106
 30
0.0
 11
-132.7447780114799
 21
20.520891269106
 31
0.0
  0
LINE
  5
262
330
74
100
AcDbEntity
  8
1
  6
Continuous
 62
     2
100
AcDbLine
 10
-132.7447780114799
 20
29.020891269106
 30
0.0
 11
-132.7447780114799
 21
24.770891269106
 31
0.0
  0
LINE
  5
263
330
74
100
AcDbEntity
  8
1
  6
Continuous
 62
     2
100
AcDbLine
 10
-132.7447780114799
 20
16.270891269106
 30
0.0
 11
-132.7447780114799
 21
12.020891269106
 31
0.0
  0
LINE
  5
264
330
74
100
AcDbEntity
  8
1
  6
Continuous
 62
     2
100
AcDbLine
 10
-132.7447780114799
 20
16.270891269106
 30
0.0
 11
-194.9999734847301
 21
16.270891269106
 31
0.0
  0
LINE
  5
265
330
74
100
AcDbEntity
  8
1
  6
Continuous
 62
     7
100
AcDbLine
 10
-82.84477801147989
 20
20.52089126910611
 30
0.0
 11
-92.24477801147987
 21
20.520891269106
 31
0.0
  0
LINE
  5
266
330
74
100
AcDbEntity
  8
1
  6
Continuous
 62
     6
100
AcDbLine
 10
-82.84477801147989
 20
33.270891269106
 30
0.0
 11
-92.24477801147987
 21
33.270891269106
 31
0.0
  0
LINE
  5
267
330
74
100
AcDbEntity
  8
1
  6
Continuous
 62
     7
100
AcDbLine
 10
-92.24477801147987
 20
29.020891269106
 30
0.0
 11
-82.84477801147989
 21
29.020891269106
 31
0.0
  0
LINE
  5
268
330
74
100
AcDbEntity
  8
1
  6
Continuous
 62
     6
100
AcDbLine
 10
-214.6999734847281
 20
16.270891269106
 30
0.0
 11
-214.6999734847281
 21
20.520891269106
 31
0.0
  0
LINE
  5
269
330
74
100
AcDbEntity
  8
1
  6
Continuous
 62
     6
100
AcDbLine
 10
37.30002651527175
 20
33.270891269106
 30
0.0
 11
37.30002651527084
 21
24.770891269106
 31
0.0
  0
LINE
  5
26A
330
74
100
AcDbEntity
  8
1
  6
Continuous
 62
     6
100
AcDbLine
 10
-214.6999734847281
 20
3.52089126910611
 30
0.0
 11
-249.699973484728
 21
3.52089126910611
 31
0.0
  0
LINE
  5
26B
330
74
100
AcDbEntity
  8
1
  6
Continuous
 62
     2
100
AcDbLine
 10
-83.9645088769646
 20
19.895891269106
 30
0.0
 11
-79.9645088769646
 21
19.395891269106
 31
0.0
  0
LINE
  5
26C
330
74
100
AcDbEntity
  8
1
  6
Continuous
 62
     2
100
AcDbLine
 10
-79.9645088769646
 20
19.395891269106
 30
0.0
 11
-79.9645088769646
 21
17.395891269106
 31
0.0
  0
LINE
  5
26D
330
74
100
AcDbEntity
  8
1
  6
Continuous
 62
     2
100
AcDbLine
 10
-79.9645088769646
 20
17.395891269106
 30
0.0
 11
-83.9645088769646
 21
16.895891269106
 31
0.0
  0
LINE
  5
26E
330
74
100
AcDbEntity
  8
1
  6
Continuous
 62
     2
100
AcDbLine
 10
-83.9645088769646
 20
16.895891269106
 30
0.0
 11
-83.9645088769646
 21
19.895891269106
 31
0.0
  0
LINE
  5
26F
330
74
100
AcDbEntity
  8
1
  6
Continuous
 62
     7
100
AcDbLine
 10
-26.19997348472757
 20
24.77089126910598
 30
0.0
 11
-32.94477801147994
 21
24.77089126910595
 31
0.0
  0
LINE
  5
270
330
74
100
AcDbEntity
  8
1
  6
Continuous
 62
     7
100
AcDbLine
 10
-26.19997348472757
 20
20.520891269106
 30
0.0
 11
-24.19997348472757
 21
20.520891269106
 31
0.0
  0
LINE
  5
271
330
74
100
AcDbEntity
  8
1
  6
Continuous
 62
     2
100
AcDbLine
 10
8.73476320005904
 20
18.97067199007324
 30
0.0
 11
8.73476320005904
 21
16.91327602521974
 31
0.0
  0
ARC
  5
272
102
{ACAD_REACTORS
330
318
330
319
102
}
330
74
100
AcDbEntity
  8
0
  6
Continuous
 62
     2
100
AcDbCircle
 10
-76.36573007845507
 20
10.63279603101715
 30
0.0
 40
0.6378510567600066
100
AcDbArc
 50
321.8795802028405
 51
38.12041979715862
  0
ARC
  5
273
102
{ACAD_REACTORS
330
318
330
319
102
}
330
74
100
AcDbEntity
  8
0
  6
Continuous
 62
     2
100
AcDbCircle
 10
-76.20065566825147
 20
10.50326613174447
 30
0.0
 40
0.4280236140609635
100
AcDbArc
 50
218.1204197971923
 51
321.8795802027983
  0
ARC
  5
274
102
{ACAD_REACTORS
330
318
330
319
102
}
330
74
100
AcDbEntity
  8
0
  6
Continuous
 62
     2
100
AcDbCircle
 10
-76.0355812580481
 20
10.63279603101715
 30
0.0
 40
0.6378510567599095
100
AcDbArc
 50
141.8795802028351
 51
218.1204197971658
  0
ARC
  5
275
102
{ACAD_REACTORS
330
318
330
319
102
}
330
74
100
AcDbEntity
  8
0
  6
Continuous
 62
     2
100
AcDbCircle
 10
-76.20065566825147
 20
10.76232593029027
 30
0.0
 40
0.4280236140605955
100
AcDbArc
 50
38.12041979715423
 51
141.8795802028552
  0
ARC
  5
276
102
{ACAD_REACTORS
330
310
330
311
102
}
330
74
100
AcDbEntity
  8
0
  6
Continuous
 62
     2
100
AcDbCircle
 10
-78.73124586293241
 20
9.46712134886165
 30
0.0
 40
1.840813230556617
100
AcDbArc
 50
58.06909105003761
 51
71.55192388186693
  0
ARC
  5
277
102
{ACAD_REACTORS
330
310
330
311
102
}
330
74
100
AcDbEntity
  8
0
  6
Continuous
 62
     2
100
AcDbCircle
 10
-78.51494197784248
 20
10.80227655113206
 30
0.0
 40
0.4227934381775693
100
AcDbArc
 50
113.3722778881983
 51
151.4785267423096
  0
ARC
  5
278
102
{ACAD_REACTORS
330
310
330
311
102
}
330
74
100
AcDbEntity
  8
0
  6
Continuous
 62
     2
100
AcDbCircle
 10
-78.20307647529674
 20
10.63279603101715
 30
0.0
 40
0.7777353184572794
100
AcDbArc
 50
151.4785267422687
 51
208.5214732577029
  0
ARC
  5
279
102
{ACAD_REACTORS
330
310
330
311
102
}
330
74
100
AcDbEntity
  8
0
  6
Continuous
 62
     2
100
AcDbCircle
 10
-78.86171931342236
 20
13.3705488783365
 30
0.0
 40
4.010410630990211
100
AcDbArc
 50
275.1581447696246
 51
285.9799912583532
  0
ARC
  5
27A
102
{ACAD_REACTORS
330
310
330
311
102
}
330
74
100
AcDbEntity
  8
0
  6
Continuous
 62
     2
100
AcDbCircle
 10
-78.62299526818609
 20
10.72601120625254
 30
0.0
 40
1.355119937140023
100
AcDbArc
 50
195.0618917770909
 51
275.1581447696391
  0
ARC
  5
27B
102
{ACAD_REACTORS
330
310
330
311
102
}
330
74
100
AcDbEntity
  8
0
  6
Continuous
 62
     2
100
AcDbCircle
 10
-78.969381915676
 20
10.63279603101715
 30
0.0
 40
0.9964100565214622
100
AcDbArc
 50
164.9381082228799
 51
195.0618917770962
  0
ARC
  5
27C
102
{ACAD_REACTORS
330
310
330
311
102
}
330
74
100
AcDbEntity
  8
0
  6
Continuous
 62
     2
100
AcDbCircle
 10
-78.62299526818609
 20
10.53958085578174
 30
0.0
 40
1.355119937140908
100
AcDbArc
 50
84.84185523036265
 51
164.9381082228906
  0
ARC
  5
27D
102
{ACAD_REACTORS
330
314
330
315
102
}
330
74
100
AcDbEntity
  8
0
  6
Continuous
 62
     2
100
AcDbCircle
 10
-82.61474258567526
 20
11.48719834040088
 30
0.0
 40
0.2609230769227325
100
AcDbArc
 50
115.3740086783589
 51
180.0
  0
ARC
  5
27E
102
{ACAD_REACTORS
330
314
330
315
102
}
330
74
100
AcDbEntity
  8
0
  6
Continuous
 62
     2
100
AcDbCircle
 10
-82.61474258567526
 20
13.32049024117459
 30
0.0
 40
0.2609230769229498
100
AcDbArc
 50
180.0
 51
244.6259913216401
  0
ARC
  5
27F
102
{ACAD_REACTORS
330
314
330
315
102
}
330
74
100
AcDbEntity
  8
0
  6
Continuous
 62
     2
100
AcDbCircle
 10
-82.61010115153479
 20
12.41363101880908
 30
0.0
 40
1.6682323404407
100
AcDbArc
 50
269.8110329575862
 51
90.18896704241376
  0
ARC
  5
280
102
{ACAD_REACTORS
330
314
330
315
102
}
330
74
100
AcDbEntity
  8
0
  6
Continuous
 62
     2
100
AcDbCircle
 10
-82.61474258567526
 20
11.00632940924791
 30
0.0
 40
0.2609230769229498
100
AcDbArc
 50
180.0
 51
269.8110329574465
  0
ARC
  5
281
102
{ACAD_REACTORS
330
312
330
313
102
}
330
74
100
AcDbEntity
  8
0
  6
Continuous
 62
     2
100
AcDbCircle
 10
-65.2069242263938
 20
10.80227655113206
 30
0.0
 40
0.4227934381772261
100
AcDbArc
 50
109.337143219486
 51
151.478526742422
  0
ARC
  5
282
102
{ACAD_REACTORS
330
312
330
313
102
}
330
74
100
AcDbEntity
  8
0
  6
Continuous
 62
     2
100
AcDbCircle
 10
-65.2069242263938
 20
10.46331551090269
 30
0.0
 40
0.4227934381785468
100
AcDbArc
 50
208.5214732576875
 51
246.6277221118384
  0
ARC
  5
283
102
{ACAD_REACTORS
330
312
330
313
102
}
330
74
100
AcDbEntity
  8
0
  6
Continuous
 62
     2
100
AcDbCircle
 10
-65.66136416422638
 20
10.63279603101715
 30
0.0
 40
0.996410056523109
100
AcDbArc
 50
164.9381082229054
 51
195.0618917770958
  0
ARC
  5
284
102
{ACAD_REACTORS
330
312
330
313
102
}
330
74
100
AcDbEntity
  8
0
  6
Continuous
 62
     2
100
AcDbCircle
 10
-65.31497751673741
 20
10.53958085578174
 30
0.0
 40
1.355119937140591
100
AcDbArc
 50
90.0
 51
164.9381082228991
  0
ARC
  5
285
102
{ACAD_REACTORS
330
316
330
317
102
}
330
74
100
AcDbEntity
  8
0
  6
Continuous
 62
     2
100
AcDbCircle
 10
-73.10588255202973
 20
13.4089865071943
 30
0.0
 40
1.26190476190564
100
AcDbArc
 50
90.0
 51
270.0
  0
ARC
  5
286
102
{ACAD_REACTORS
330
31A
330
31B
102
}
330
74
100
AcDbEntity
  8
0
  6
Continuous
 62
     2
100
AcDbCircle
 10
-78.67835424229898
 20
13.83124691363616
 30
0.0
 40
0.2916229955959899
100
AcDbArc
 50
270.0
 51
90.0
  0
ARC
  5
287
102
{ACAD_REACTORS
330
314
330
315
102
}
330
74
100
AcDbEntity
  8
0
  6
Continuous
 62
     2
100
AcDbCircle
 10
-84.74329521917255
 20
13.82107930328611
 30
0.0
 40
0.2609230769224506
100
AcDbArc
 50
90.0
 51
180.0
  0
ARC
  5
288
102
{ACAD_REACTORS
330
314
330
315
102
}
330
74
100
AcDbEntity
  8
0
  6
Continuous
 62
     2
100
AcDbCircle
 10
-83.09171033604483
 20
12.40384429078797
 30
0.0
 40
0.7536343169897688
100
AcDbArc
 50
115.1944106485234
 51
244.8055893514914
  0
ARC
  5
289
102
{ACAD_REACTORS
330
314
330
315
102
}
330
74
100
AcDbEntity
  8
0
  6
Continuous
 62
     2
100
AcDbCircle
 10
-83.52359830924732
 20
11.48580317833943
 30
0.0
 40
0.2609230769228361
100
AcDbArc
 50
0.0
 51
64.8055893514401
  0
ARC
  5
28A
102
{ACAD_REACTORS
330
314
330
315
102
}
330
74
100
AcDbEntity
  8
0
  6
Continuous
 62
     2
100
AcDbCircle
 10
-85.23411726607051
 20
9.72150665372624
 30
0.0
 40
0.3506153846138886
100
AcDbArc
 50
180.0
 51
270.0
  0
ARC
  5
28B
102
{ACAD_REACTORS
330
316
330
317
102
}
330
74
100
AcDbEntity
  8
0
  6
Continuous
 62
     2
100
AcDbCircle
 10
-72.92714535354608
 20
13.53851640646742
 30
0.0
 40
0.4280236140606861
100
AcDbArc
 50
38.12041979714503
 51
141.8795802028562
  0
ARC
  5
28C
102
{ACAD_REACTORS
330
316
330
317
102
}
330
74
100
AcDbEntity
  8
0
  6
Continuous
 62
     2
100
AcDbCircle
 10
-72.7620709433426
 20
13.4089865071943
 30
0.0
 40
0.6378510567600112
100
AcDbArc
 50
141.879580202842
 51
218.1204197971578
  0
ARC
  5
28D
102
{ACAD_REACTORS
330
318
330
319
102
}
330
74
100
AcDbEntity
  8
0
  6
Continuous
 62
     2
100
AcDbCircle
 10
-76.20065566825147
 20
11.07789934531742
 30
0.0
 40
1.707008076205438
100
AcDbArc
 50
242.45185182434
 51
297.5481481756871
  0
ARC
  5
28E
102
{ACAD_REACTORS
330
318
330
319
102
}
330
74
100
AcDbEntity
  8
0
  6
Continuous
 62
     2
100
AcDbCircle
 10
-76.20065566825147
 20
10.18769271671733
 30
0.0
 40
1.707008076205444
100
AcDbArc
 50
62.45185182430569
 51
117.5481481756673
  0
ARC
  5
28F
102
{ACAD_REACTORS
330
318
330
319
102
}
330
74
100
AcDbEntity
  8
0
  6
Continuous
 62
     2
100
AcDbCircle
 10
-76.43283739703932
 20
10.63279603101715
 30
0.0
 40
1.204986845992994
100
AcDbArc
 50
117.5481481756635
 51
242.4518518243369
  0
ARC
  5
290
102
{ACAD_REACTORS
330
318
330
319
102
}
330
74
100
AcDbEntity
  8
0
  6
Continuous
 62
     2
100
AcDbCircle
 10
-75.96847393946362
 20
10.63279603101715
 30
0.0
 40
1.204986845993431
100
AcDbArc
 50
297.5481481757014
 51
62.45185182429817
  0
ARC
  5
291
102
{ACAD_REACTORS
330
316
330
317
102
}
330
74
100
AcDbEntity
  8
0
  6
Continuous
 62
     2
100
AcDbCircle
 10
-72.92714535354608
 20
13.27945660792117
 30
0.0
 40
0.4280236140606907
100
AcDbArc
 50
218.1204197971427
 51
321.8795802028561
  0
ARC
  5
292
102
{ACAD_REACTORS
330
316
330
317
102
}
330
74
100
AcDbEntity
  8
0
  6
Continuous
 62
     2
100
AcDbCircle
 10
-73.09221976374955
 20
13.4089865071943
 30
0.0
 40
0.6378510567599878
100
AcDbArc
 50
321.8795802028406
 51
38.12041979715953
  0
ARC
  5
293
102
{ACAD_REACTORS
330
314
330
315
102
}
330
74
100
AcDbEntity
  8
0
  6
Continuous
 62
     2
100
AcDbCircle
 10
-80.71071884399046
 20
9.72150665372624
 30
0.0
 40
0.350615384614283
100
AcDbArc
 50
270.0
 51
0.0
  0
ARC
  5
294
102
{ACAD_REACTORS
330
314
330
315
102
}
330
74
100
AcDbEntity
  8
0
  6
Continuous
 62
     2
100
AcDbCircle
 10
-80.71071884399046
 20
14.32027588447021
 30
0.0
 40
0.3506153846147981
100
AcDbArc
 50
0.0
 51
90.0
  0
ARC
  5
295
102
{ACAD_REACTORS
330
314
330
315
102
}
330
74
100
AcDbEntity
  8
0
  6
Continuous
 62
     2
100
AcDbCircle
 10
-85.23411726607051
 20
14.32027588447021
 30
0.0
 40
0.3506153846147395
100
AcDbArc
 50
90.0
 51
180.0
  0
ARC
  5
296
102
{ACAD_REACTORS
330
314
330
315
102
}
330
74
100
AcDbEntity
  8
0
  6
Continuous
 62
     2
100
AcDbCircle
 10
-83.52359830924732
 20
10.22070323492487
 30
0.0
 40
0.2609230769228894
100
AcDbArc
 50
270.0
 51
0.0
  0
ARC
  5
297
102
{ACAD_REACTORS
330
314
330
315
102
}
330
74
100
AcDbEntity
  8
0
  6
Continuous
 62
     2
100
AcDbCircle
 10
-83.52359830924732
 20
13.32188540323605
 30
0.0
 40
0.2609230769224081
100
AcDbArc
 50
295.1944106485599
 51
0.0
  0
ARC
  5
298
102
{ACAD_REACTORS
330
314
330
315
102
}
330
74
100
AcDbEntity
  8
0
  6
Continuous
 62
     2
100
AcDbCircle
 10
-83.52359830924732
 20
13.82107930328611
 30
0.0
 40
0.2609230769228361
100
AcDbArc
 50
0.0
 51
90.0
  0
ARC
  5
299
102
{ACAD_REACTORS
330
314
330
315
102
}
330
74
100
AcDbEntity
  8
0
  6
Continuous
 62
     2
100
AcDbCircle
 10
-84.74329521917255
 20
10.22070323492487
 30
0.0
 40
0.2609230769220403
100
AcDbArc
 50
180.0
 51
270.0
  0
ARC
  5
29A
102
{ACAD_REACTORS
330
31A
330
31B
102
}
330
74
100
AcDbEntity
  8
0
  6
Continuous
 62
     2
100
AcDbCircle
 10
-78.31350091482923
 20
13.79868825973325
 30
0.0
 40
0.87220300936667
100
AcDbArc
 50
270.0
 51
90.0
  0
ARC
  5
29B
102
{ACAD_REACTORS
330
312
330
313
102
}
330
74
100
AcDbEntity
  8
0
  6
Continuous
 62
     2
100
AcDbCircle
 10
-65.31497751673741
 20
10.72601120625254
 30
0.0
 40
1.355119937140881
100
AcDbArc
 50
195.061891777101
 51
275.1581447696763
  0
ARC
  5
29C
102
{ACAD_REACTORS
330
312
330
313
102
}
330
74
100
AcDbEntity
  8
0
  6
Continuous
 62
     2
100
AcDbCircle
 10
-65.55370156197367
 20
13.3705488783365
 30
0.0
 40
4.010410630990746
100
AcDbArc
 50
275.1581447696369
 51
285.9799912583389
  0
ARC
  5
29D
102
{ACAD_REACTORS
330
312
330
313
102
}
330
74
100
AcDbEntity
  8
0
  6
Continuous
 62
     2
100
AcDbCircle
 10
-65.42322811148372
 20
11.79847071317263
 30
0.0
 40
1.840813230556003
100
AcDbArc
 50
288.4480761181333
 51
301.9309089499384
  0
ARC
  5
29E
102
{ACAD_REACTORS
330
312
330
313
102
}
330
74
100
AcDbEntity
  8
0
  6
Continuous
 62
     2
100
AcDbCircle
 10
-65.07763494316806
 20
10.76248246851427
 30
0.0
 40
0.7487023016407095
100
AcDbArc
 50
246.627722111813
 51
288.4480761180791
  0
ARC
  5
29F
102
{ACAD_REACTORS
330
312
330
313
102
}
330
74
100
AcDbEntity
  8
0
  6
Continuous
 62
     2
100
AcDbCircle
 10
-64.89505872384714
 20
10.63279603101715
 30
0.0
 40
0.777735318458663
100
AcDbArc
 50
151.4785267423618
 51
208.5214732576687
  0
ARC
  5
2A0
102
{ACAD_REACTORS
330
312
330
313
102
}
330
74
100
AcDbEntity
  8
0
  6
Continuous
 62
     2
100
AcDbCircle
 10
-65.08570935192793
 20
10.45685921197263
 30
0.0
 40
0.7888619891124407
100
AcDbArc
 50
90.0
 51
109.3371432194314
  0
ARC
  5
2A1
102
{ACAD_REACTORS
330
314
330
315
102
}
330
74
100
AcDbEntity
  8
0
  6
Continuous
 62
     2
100
AcDbCircle
 10
-82.61474258567526
 20
13.82093262837026
 30
0.0
 40
0.2609230769224198
100
AcDbArc
 50
90.18896704255353
 51
180.0
  0
ARC
  5
2A2
102
{ACAD_REACTORS
330
314
330
315
102
}
330
74
100
AcDbEntity
  8
0
  6
Continuous
 62
     2
100
AcDbCircle
 10
-83.04948861715289
 20
12.40384429078797
 30
0.0
 40
0.7535935125160986
100
AcDbArc
 50
295.374008678178
 51
64.62599132180708
  0
ARC
  5
2A3
102
{ACAD_REACTORS
330
310
330
311
102
}
330
74
100
AcDbEntity
  8
0
  6
Continuous
 62
     2
100
AcDbCircle
 10
-78.73124586293241
 20
11.79847071317309
 30
0.0
 40
1.840813230556011
100
AcDbArc
 50
288.4480761181332
 51
301.9309089499624
  0
ARC
  5
2A4
102
{ACAD_REACTORS
330
310
330
311
102
}
330
74
100
AcDbEntity
  8
0
  6
Continuous
 62
     2
100
AcDbCircle
 10
-78.38565269461768
 20
10.76248246851427
 30
0.0
 40
0.7487023016403824
100
AcDbArc
 50
246.6277221118709
 51
288.4480761181571
  0
ARC
  5
2A5
102
{ACAD_REACTORS
330
310
330
311
102
}
330
74
100
AcDbEntity
  8
0
  6
Continuous
 62
     2
100
AcDbCircle
 10
-78.51494197784248
 20
10.46331551090269
 30
0.0
 40
0.422793438177528
100
AcDbArc
 50
208.5214732576916
 51
246.627722111826
  0
ARC
  5
2A6
102
{ACAD_REACTORS
330
310
330
311
102
}
330
74
100
AcDbEntity
  8
0
  6
Continuous
 62
     2
100
AcDbCircle
 10
-78.38565269461768
 20
10.50310959352001
 30
0.0
 40
0.7487023016407717
100
AcDbArc
 50
71.55192388185432
 51
113.3722778881285
  0
ARC
  5
2A7
102
{ACAD_REACTORS
330
310
330
311
102
}
330
74
100
AcDbEntity
  8
0
  6
Continuous
 62
     2
100
AcDbCircle
 10
-78.86171931342236
 20
7.89504318369825
 30
0.0
 40
4.010410630990091
100
AcDbArc
 50
74.02000874164682
 51
84.84185523037544
  0
CIRCLE
  5
2A8
102
{ACAD_REACTORS
330
314
330
315
102
}
330
74
100
AcDbEntity
  8
0
  6
Continuous
 62
     2
100
AcDbCircle
 10
-83.06917044746095
 20
12.40384429078797
 30
0.0
 40
0.3892387874202541
  0
CIRCLE
  5
2A9
330
74
100
AcDbEntity
  8
1
  6
Continuous
 62
     2
100
AcDbCircle
 10
-87.1525181863766
 20
18.395891269106
 30
0.0
 40
1.0
  0
CIRCLE
  5
2AA
330
74
100
AcDbEntity
  8
1
  6
Continuous
 62
     2
100
AcDbCircle
 10
-87.1525181863766
 20
18.395891269106
 30
0.0
 40
1.5
  0
MTEXT
  5
2AC
330
74
100
AcDbEntity
  8
1
 62
     2
100
AcDbMText
 10
-54.74477801147995
 20
22.84589126910599
 30
0.0
 40
1.4
 41
0.0
 71
     4
 72
     1
  1
SAP\Pchange-No.
  7
CONVERTER_12
 73
     1
 44
0.66026410564226
  0
MTEXT
  5
2AD
330
74
100
AcDbEntity
  8
1
 62
     3
100
AcDbMText
 10
-45.51254119336507
 20
22.64589126910599
 30
0.0
 40
2.5
 41
0.0
 71
     4
 72
     1
  1
PBG140001/10
  7
CONVERTER_12
 73
     1
 44
1.20048019207683
  0
MTEXT
  5
2AF
330
74
100
AcDbEntity
  8
1
 62
     2
100
AcDbMText
 10
-193.9999734847301
 20
9.89589126910611
 30
0.0
 40
2.0
 41
0.0
 71
     4
 72
     1
  1
 
  7
CONVERTER_13
 73
     1
 44
1.20048019207683
  0
MTEXT
  5
2B0
330
74
100
AcDbEntity
  8
1
 62
     2
100
AcDbMText
 10
-193.9999734847301
 20
14.145891269106
 30
0.0
 40
2.0
 41
0.0
 71
     4
 72
     1
  1
 
  7
CONVERTER_13
 73
     1
 44
1.20048019207683
  0
MTEXT
  5
2B1
330
74
100
AcDbEntity
  8
1
 62
     2
100
AcDbMText
 10
-193.9999734847301
 20
18.395891269106
 30
0.0
 40
2.0
 41
0.0
 71
     4
 72
     1
  1
 
  7
CONVERTER_13
 73
     1
 44
1.20048019207683
  0
MTEXT
  5
2B2
330
74
100
AcDbEntity
  8
1
 62
     2
100
AcDbMText
 10
-193.9999734847301
 20
22.645891269106
 30
0.0
 40
2.0
 41
0.0
 71
     4
 72
     1
  1
 
  7
CONVERTER_13
 73
     1
 44
1.20048019207683
  0
MTEXT
  5
2B3
330
74
100
AcDbEntity
  8
1
 62
     2
100
AcDbMText
 10
-193.9999734847301
 20
26.895891269106
 30
0.0
 40
2.0
 41
0.0
 71
     4
 72
     1
  1
 
  7
CONVERTER_13
 73
     1
 44
1.20048019207683
  0
MTEXT
  5
2B4
330
74
100
AcDbEntity
  8
1
 62
     2
100
AcDbMText
 10
-193.9999734847301
 20
31.145891269106
 30
0.0
 40
2.0
 41
0.0
 71
     4
 72
     1
  1
 
  7
CONVERTER_13
 73
     1
 44
1.20048019207683
  0
MTEXT
  5
2B5
330
74
100
AcDbEntity
  8
1
 62
     2
100
AcDbMText
 10
-98.99477801147994
 20
9.89589126910611
 30
0.0
 40
2.0
 41
0.0
 71
     5
 72
     1
  1
 
  7
CONVERTER_11
 73
     1
 44
1.20048019207683
  0
MTEXT
  5
2B6
330
74
100
AcDbEntity
  8
1
 62
     2
100
AcDbMText
 10
-98.99477801147994
 20
14.145891269106
 30
0.0
 40
2.0
 41
0.0
 71
     5
 72
     1
  1
 
  7
CONVERTER_11
 73
     1
 44
1.20048019207683
  0
MTEXT
  5
2B7
330
74
100
AcDbEntity
  8
1
 62
     2
100
AcDbMText
 10
-98.99477801147994
 20
18.395891269106
 30
0.0
 40
2.0
 41
0.0
 71
     5
 72
     1
  1
 
  7
CONVERTER_11
 73
     1
 44
1.20048019207683
  0
MTEXT
  5
2B8
330
74
100
AcDbEntity
  8
1
 62
     2
100
AcDbMText
 10
-98.99477801147994
 20
22.645891269106
 30
0.0
 40
2.0
 41
0.0
 71
     5
 72
     1
  1
 
  7
CONVERTER_11
 73
     1
 44
1.20048019207683
  0
MTEXT
  5
2B9
330
74
100
AcDbEntity
  8
1
 62
     2
100
AcDbMText
 10
-98.99477801147994
 20
26.895891269106
 30
0.0
 40
2.0
 41
0.0
 71
     5
 72
     1
  1
 
  7
CONVERTER_11
 73
     1
 44
1.20048019207683
  0
MTEXT
  5
2BA
330
74
100
AcDbEntity
  8
1
 62
     2
100
AcDbMText
 10
-98.99477801147994
 20
31.145891269106
 30
0.0
 40
2.0
 41
0.0
 71
     5
 72
     1
  1
 
  7
CONVERTER_11
 73
     1
 44
1.20048019207683
  0
MTEXT
  5
2BB
330
74
100
AcDbEntity
  8
1
 62
     2
100
AcDbMText
 10
-112.49477801148
 20
9.89589126910611
 30
0.0
 40
2.0
 41
0.0
 71
     5
 72
     1
  1
 
  7
CONVERTER_11
 73
     1
 44
1.20048019207683
  0
MTEXT
  5
2BC
330
74
100
AcDbEntity
  8
1
 62
     2
100
AcDbMText
 10
-112.49477801148
 20
14.145891269106
 30
0.0
 40
2.0
 41
0.0
 71
     5
 72
     1
  1
 
  7
CONVERTER_11
 73
     1
 44
1.20048019207683
  0
MTEXT
  5
2BD
330
74
100
AcDbEntity
  8
1
 62
     2
100
AcDbMText
 10
-112.49477801148
 20
18.395891269106
 30
0.0
 40
2.0
 41
0.0
 71
     5
 72
     1
  1
 
  7
CONVERTER_11
 73
     1
 44
1.20048019207683
  0
MTEXT
  5
2BE
330
74
100
AcDbEntity
  8
1
 62
     2
100
AcDbMText
 10
-112.49477801148
 20
22.645891269106
 30
0.0
 40
2.0
 41
0.0
 71
     5
 72
     1
  1
 
  7
CONVERTER_11
 73
     1
 44
1.20048019207683
  0
MTEXT
  5
2BF
330
74
100
AcDbEntity
  8
1
 62
     2
100
AcDbMText
 10
-112.49477801148
 20
26.895891269106
 30
0.0
 40
2.0
 41
0.0
 71
     5
 72
     1
  1
 
  7
CONVERTER_11
 73
     1
 44
1.20048019207683
  0
MTEXT
  5
2C0
330
74
100
AcDbEntity
  8
1
 62
     2
100
AcDbMText
 10
-112.49477801148
 20
31.145891269106
 30
0.0
 40
2.0
 41
0.0
 71
     5
 72
     1
  1
 
  7
CONVERTER_11
 73
     1
 44
1.20048019207683
  0
MTEXT
  5
2C1
330
74
100
AcDbEntity
  8
1
 62
     2
100
AcDbMText
 10
-125.9947780114799
 20
31.145891269106
 30
0.0
 40
2.0
 41
0.0
 71
     5
 72
     1
  1
 
  7
CONVERTER_11
 73
     1
 44
1.20048019207683
  0
MTEXT
  5
2C2
330
74
100
AcDbEntity
  8
1
 62
     2
100
AcDbMText
 10
-125.9947780114799
 20
26.895891269106
 30
0.0
 40
2.0
 41
0.0
 71
     5
 72
     1
  1
 
  7
CONVERTER_11
 73
     1
 44
1.20048019207683
  0
MTEXT
  5
2C3
330
74
100
AcDbEntity
  8
1
 62
     2
100
AcDbMText
 10
-125.9947780114799
 20
22.645891269106
 30
0.0
 40
2.0
 41
0.0
 71
     5
 72
     1
  1
 
  7
CONVERTER_11
 73
     1
 44
1.20048019207683
  0
MTEXT
  5
2C4
330
74
100
AcDbEntity
  8
1
 62
     2
100
AcDbMText
 10
-125.9947780114799
 20
18.395891269106
 30
0.0
 40
2.0
 41
0.0
 71
     5
 72
     1
  1
 
  7
CONVERTER_11
 73
     1
 44
1.20048019207683
  0
MTEXT
  5
2C5
330
74
100
AcDbEntity
  8
1
 62
     2
100
AcDbMText
 10
-125.9947780114799
 20
14.145891269106
 30
0.0
 40
2.0
 41
0.0
 71
     5
 72
     1
  1
 
  7
CONVERTER_11
 73
     1
 44
1.20048019207683
  0
MTEXT
  5
2C6
330
74
100
AcDbEntity
  8
1
 62
     2
100
AcDbMText
 10
-125.9947780114799
 20
9.89589126910611
 30
0.0
 40
2.0
 41
0.0
 71
     5
 72
     1
  1
 
  7
CONVERTER_11
 73
     1
 44
1.20048019207683
  0
MTEXT
  5
2C7
330
74
100
AcDbEntity
  8
1
 62
     2
100
AcDbMText
 10
-201.7499734847301
 20
31.145891269106
 30
0.0
 40
2.0
 41
0.0
 71
     5
 72
     1
  1
 
  7
CONVERTER_11
 73
     1
 44
1.20048019207683
  0
MTEXT
  5
2C8
330
74
100
AcDbEntity
  8
1
 62
     2
100
AcDbMText
 10
-201.7499734847301
 20
26.895891269106
 30
0.0
 40
2.0
 41
0.0
 71
     5
 72
     1
  1
 
  7
CONVERTER_11
 73
     1
 44
1.20048019207683
  0
MTEXT
  5
2C9
330
74
100
AcDbEntity
  8
1
 62
     2
100
AcDbMText
 10
-201.7499734847301
 20
22.645891269106
 30
0.0
 40
2.0
 41
0.0
 71
     5
 72
     1
  1
 
  7
CONVERTER_11
 73
     1
 44
1.20048019207683
  0
MTEXT
  5
2CA
330
74
100
AcDbEntity
  8
1
 62
     2
100
AcDbMText
 10
-201.7499734847301
 20
18.395891269106
 30
0.0
 40
2.0
 41
0.0
 71
     5
 72
     1
  1
 
  7
CONVERTER_11
 73
     1
 44
1.20048019207683
  0
MTEXT
  5
2CB
330
74
100
AcDbEntity
  8
1
 62
     2
100
AcDbMText
 10
-201.7499734847301
 20
14.145891269106
 30
0.0
 40
2.0
 41
0.0
 71
     5
 72
     1
  1
 
  7
CONVERTER_11
 73
     1
 44
1.20048019207683
  0
MTEXT
  5
2CC
330
74
100
AcDbEntity
  8
1
 62
     2
100
AcDbMText
 10
-201.7499734847301
 20
9.89589126910611
 30
0.0
 40
2.0
 41
0.0
 71
     5
 72
     1
  1
 
  7
CONVERTER_11
 73
     1
 44
1.20048019207683
  0
MTEXT
  5
2CD
330
74
100
AcDbEntity
  8
1
 62
     2
100
AcDbMText
 10
-211.5999734847291
 20
9.89589126910611
 30
0.0
 40
2.0
 41
0.0
 71
     5
 72
     1
  1
 
  7
CONVERTER_11
 73
     1
 44
1.20048019207683
  0
MTEXT
  5
2CE
330
74
100
AcDbEntity
  8
1
 62
     2
100
AcDbMText
 10
-211.5999734847291
 20
14.145891269106
 30
0.0
 40
2.0
 41
0.0
 71
     5
 72
     1
  1
 
  7
CONVERTER_11
 73
     1
 44
1.20048019207683
  0
MTEXT
  5
2CF
330
74
100
AcDbEntity
  8
1
 62
     2
100
AcDbMText
 10
-211.5999734847291
 20
18.395891269106
 30
0.0
 40
2.0
 41
0.0
 71
     5
 72
     1
  1
 
  7
CONVERTER_11
 73
     1
 44
1.20048019207683
  0
MTEXT
  5
2D0
330
74
100
AcDbEntity
  8
1
 62
     2
100
AcDbMText
 10
-211.5999734847291
 20
22.645891269106
 30
0.0
 40
2.0
 41
0.0
 71
     5
 72
     1
  1
 
  7
CONVERTER_11
 73
     1
 44
1.20048019207683
  0
MTEXT
  5
2D1
330
74
100
AcDbEntity
  8
1
 62
     2
100
AcDbMText
 10
-211.5999734847291
 20
26.895891269106
 30
0.0
 40
2.0
 41
0.0
 71
     5
 72
     1
  1
 
  7
CONVERTER_11
 73
     1
 44
1.20048019207683
  0
MTEXT
  5
2D2
330
74
100
AcDbEntity
  8
1
 62
     2
100
AcDbMText
 10
-211.5999734847291
 20
31.145891269106
 30
0.0
 40
2.0
 41
0.0
 71
     5
 72
     1
  1
 
  7
CONVERTER_11
 73
     1
 44
1.20048019207683
  0
MTEXT
  5
2D4
330
74
100
AcDbEntity
  8
1
 62
     2
100
AcDbMText
 10
-25.19997348472757
 20
23.770891269106
 30
0.0
 40
1.8
 41
0.0
 71
     1
 72
     1
  1
part-rev.
  7
CONVERTER_14
 73
     1
 44
1.20048019207683
  0
MTEXT
  5
2D5
330
74
100
AcDbEntity
  8
1
 62
     2
100
AcDbMText
 10
-6.69997348472796
 20
19.520891269106
 30
0.0
 40
1.8
 41
0.0
 71
     1
 72
     1
  1
surface in um
  7
CONVERTER_11
 73
     1
 44
1.32052821128451
  0
MTEXT
  5
2D6
330
74
100
AcDbEntity
  8
1
 62
     7
100
AcDbMText
 10
39.80002651526914
 20
78.52089126910793
 30
0.0
 40
3.5
 41
0.0
 71
     5
 72
     1
  1
C
  7
CONVERTER_11
 73
     1
 44
1.20048019207683
  0
MTEXT
  5
2D7
330
74
100
AcDbEntity
  8
1
 62
     7
100
AcDbMText
 10
39.80002651526914
 20
181.020891269106
 30
0.0
 40
3.5
 41
0.0
 71
     5
 72
     1
  1
A
  7
CONVERTER_11
 73
     1
 44
1.20048019207683
  0
MTEXT
  5
2D8
330
74
100
AcDbEntity
  8
1
 62
     7
100
AcDbMText
 10
39.80002651526914
 20
128.5208912691079
 30
0.0
 40
3.5
 41
0.0
 71
     5
 72
     1
  1
B
  7
CONVERTER_11
 73
     1
 44
1.20048019207683
  0
MTEXT
  5
2D9
330
74
100
AcDbEntity
  8
1
 62
     7
100
AcDbMText
 10
39.80002651526914
 20
26.020891269106
 30
0.0
 40
3.5
 41
0.0
 71
     5
 72
     1
  1
D
  7
CONVERTER_11
 73
     1
 44
1.20048019207683
  0
MTEXT
  5
2DA
330
74
100
AcDbEntity
  8
1
 62
     3
100
AcDbMText
 10
-249.6949056986581
 20
190.3121994244048
 30
0.0
 40
1.8
 41
0.0
 71
     7
 72
     1
  3
Weitergabe sowie Vervielf\U+00e4ltigung dieses Dokuments, Verwertung und\PMitteilung seines Inhalts gem\U+00e4\U+00df \U+00a718 UWG verboten, soweit nicht aus-\Pdr\U+00fccklich gestattet. Zuwiderhandlungen verpflichten zu Schadenersatz\P(\U+00a719 U
  1
WG). Alle Rechte vorbehalten, insbesondere das Recht, Patent-,\PGebrauchsmuster- oder Geschmacksmusteranmeldungen durchzuf\U+00fchren.\PPhoenix Contact GmbH & Co. KG
  7
CONVERTER_11
 73
     1
 44
0.99639855942377
  0
MTEXT
  5
2DB
330
74
100
AcDbEntity
  8
1
 62
     3
100
AcDbMText
 10
-76.84179585986999
 20
190.3121994244048
 30
0.0
 40
1.8
 41
0.0
 71
     7
 72
     1
  3
The copying, distribution and utilistion of this document as well as the communication\Pof the contents to others without expressed authorization is prohibited according to\P\U+00a718 UWG German Law. Offenders will be held liable for the payment of 
  1
damages\Paccording to (\U+00a719 UWG German Law). All rights reserved, in particular the right to\Pcarry out patent, utility model or ornamental design registrations.\PFlachsmarktstra\U+00dfe 8  D-32825 Blomberg
  7
CONVERTER_11
 73
     1
 44
0.99639855942377
  0
MTEXT
  5
2DC
330
74
100
AcDbEntity
  8
1
 62
     7
100
AcDbMText
 10
-230.4499734847296
 20
1.020891269106
 30
0.0
 40
3.5
 41
0.0
 71
     5
 72
     1
  1
1
  7
CONVERTER_11
 73
     1
 44
1.20048019207683
  0
MTEXT
  5
2DD
330
74
100
AcDbEntity
  8
1
 62
     7
100
AcDbMText
 10
-181.19997348473
 20
1.020891269106
 30
0.0
 40
3.5
 41
0.0
 71
     5
 72
     1
  1
2
  7
CONVERTER_11
 73
     1
 44
1.20048019207683
  0
MTEXT
  5
2DE
330
74
100
AcDbEntity
  8
1
 62
     7
100
AcDbMText
 10
-131.19997348473
 20
1.020891269106
 30
0.0
 40
3.5
 41
0.0
 71
     5
 72
     1
  1
3
  7
CONVERTER_11
 73
     1
 44
1.20048019207683
  0
MTEXT
  5
2DF
330
74
100
AcDbEntity
  8
1
 62
     7
100
AcDbMText
 10
-81.19997348473
 20
1.020891269106
 30
0.0
 40
3.5
 41
0.0
 71
     5
 72
     1
  1
4
  7
CONVERTER_11
 73
     1
 44
1.20048019207683
  0
MTEXT
  5
2E0
330
74
100
AcDbEntity
  8
1
 62
     7
100
AcDbMText
 10
-31.19997348472995
 20
1.020891269106
 30
0.0
 40
3.5
 41
0.0
 71
     5
 72
     1
  1
5
  7
CONVERTER_11
 73
     1
 44
1.20048019207683
  0
MTEXT
  5
2E1
330
74
100
AcDbEntity
  8
1
 62
     7
100
AcDbMText
 10
18.05002651526934
 20
1.020891269106
 30
0.0
 40
3.5
 41
0.0
 71
     5
 72
     1
  1
6
  7
CONVERTER_11
 73
     1
 44
1.20048019207683
  0
MTEXT
  5
2E2
330
74
100
AcDbEntity
  8
1
 62
     7
100
AcDbMText
 10
-252.199973484729
 20
181.020891269106
 30
0.0
 40
3.5
 41
0.0
 71
     5
 72
     1
  1
A
  7
CONVERTER_11
 73
     1
 44
1.20048019207683
  0
MTEXT
  5
2E3
330
74
100
AcDbEntity
  8
1
 62
     7
100
AcDbMText
 10
-252.199973484729
 20
128.520891269106
 30
0.0
 40
3.5
 41
0.0
 71
     5
 72
     1
  1
B
  7
CONVERTER_11
 73
     1
 44
1.20048019207683
  0
MTEXT
  5
2E4
330
74
100
AcDbEntity
  8
1
 62
     7
100
AcDbMText
 10
-252.199973484729
 20
78.520891269106
 30
0.0
 40
3.5
 41
0.0
 71
     5
 72
     1
  1
C
  7
CONVERTER_11
 73
     1
 44
1.20048019207683
  0
MTEXT
  5
2E5
330
74
100
AcDbEntity
  8
1
 62
     7
100
AcDbMText
 10
-252.199973484729
 20
26.020891269106
 30
0.0
 40
3.5
 41
0.0
 71
     5
 72
     1
  1
D
  7
CONVERTER_11
 73
     1
 44
1.20048019207683
  0
MTEXT
  5
2E6
330
74
100
AcDbEntity
  8
1
 62
     2
100
AcDbMText
 10
20.71843479695085
 20
32.270891269106
 30
0.0
 40
1.8
 41
0.0
 71
     1
 72
     1
  1
dim.var.
  7
CONVERTER_11
 73
     1
 44
1.20048019207683
  0
MTEXT
  5
2E8
330
74
100
AcDbEntity
  8
1
 62
     2
100
AcDbMText
 10
-25.19997348472757
 20
19.520891269106
 30
0.0
 40
1.8
 41
0.0
 71
     1
 72
     1
  1
document-No.
  7
CONVERTER_15
 73
     1
 44
1.32052821128451
  0
TEXT
  5
2E9
330
74
100
AcDbEntity
  8
1
 62
     2
100
AcDbText
 10
-73.04477801147999
 20
4.76187405411444
 30
0.0
 40
1.8
  1
of
 41
0.9
  7
CONVERTER_11
100
AcDbText
  0
TEXT
  5
2EA
330
74
100
AcDbEntity
  8
1
 62
     2
100
AcDbText
 10
-91.24477801147987
 20
4.76187405411433
 30
0.0
 40
1.8
  1
page
 41
0.9
  7
CONVERTER_11
100
AcDbText
  0
MTEXT
  5
2EB
330
74
100
AcDbEntity
  8
1
 62
     2
100
AcDbMText
 10
-98.99477801147997
 20
4.770891269106
 30
0.0
 40
1.8
 41
0.0
 71
     8
 72
     1
  1
name
  7
CONVERTER_11
 73
     1
 44
1.32052821128451
  0
MTEXT
  5
2EC
330
74
100
AcDbEntity
  8
1
 62
     2
100
AcDbMText
 10
-112.4947780114799
 20
4.770891269106
 30
0.0
 40
1.8
 41
0.0
 71
     8
 72
     1
  1
check.on
  7
CONVERTER_11
 73
     1
 44
1.32052821128451
  0
MTEXT
  5
2ED
330
74
100
AcDbEntity
  8
1
 62
     2
100
AcDbMText
 10
-125.9947780114799
 20
4.770891269106
 30
0.0
 40
1.8
 41
0.0
 71
     8
 72
     1
  1
name
  7
CONVERTER_11
 73
     1
 44
1.32052821128451
  0
MTEXT
  5
2EE
330
74
100
AcDbEntity
  8
1
 62
     2
100
AcDbMText
 10
-201.7499734847301
 20
4.770891269106
 30
0.0
 40
1.8
 41
0.0
 71
     8
 72
     1
  1
date
  7
CONVERTER_11
 73
     1
 44
1.32052821128451
  0
MTEXT
  5
2EF
330
74
100
AcDbEntity
  8
1
 62
     2
100
AcDbMText
 10
-31.71958885388846
 20
32.27089126910583
 30
0.0
 40
1.8
 41
0.0
 71
     1
 72
     1
  1
material
  7
CONVERTER_11
 73
     1
 44
1.20048019207683
  0
MTEXT
  5
2F0
330
74
100
AcDbEntity
  8
1
 62
     2
100
AcDbMText
 10
-211.5999734847291
 20
4.770891269106
 30
0.0
 40
1.8
 41
0.0
 71
     8
 72
     1
  1
RI
  7
CONVERTER_11
 73
     1
 44
1.32052821128451
  0
MTEXT
  5
2F1
330
74
100
AcDbEntity
  8
1
 62
     2
100
AcDbMText
 10
-76.09477801147999
 20
30.22089126910605
 30
0.0
 40
1.8
 41
0.0
 71
     8
 72
     1
  1
date
  7
CONVERTER_11
 73
     1
 44
1.32052821128451
  0
MTEXT
  5
2F2
330
74
100
AcDbEntity
  8
1
 62
     2
100
AcDbMText
 10
-62.59477801148
 20
30.22089126910605
 30
0.0
 40
1.8
 41
0.0
 71
     8
 72
     1
  1
name
  7
CONVERTER_11
 73
     1
 44
1.32052821128451
  0
MTEXT
  5
2F3
330
74
100
AcDbEntity
  8
1
 62
     2
100
AcDbMText
 10
-163.872375748105
 20
4.770891269106
 30
0.0
 40
1.8
 41
0.0
 71
     8
 72
     1
  1
revision
  7
CONVERTER_11
 73
     1
 44
1.32052821128451
  0
MTEXT
  5
2F4
330
74
100
AcDbEntity
  8
1
 62
     2
100
AcDbMText
 10
11.60002651527194
 20
32.270891269106
 30
0.0
 40
1.8
 41
0.0
 71
     1
 72
     1
  1
scale
  7
CONVERTER_11
 73
     1
 44
1.20048019207683
  0
MTEXT
  5
2F5
330
74
100
AcDbEntity
  8
1
 62
     2
100
AcDbMText
 10
-87.54477801147989
 20
26.895891269106
 30
0.0
 40
1.8
 41
0.0
 71
     5
 72
     1
  1
creat.
  7
CONVERTER_11
 73
     1
 44
1.20048019207683
  0
MTEXT
  5
2F6
330
74
100
AcDbEntity
  8
1
 62
     2
100
AcDbMText
 10
-87.54477801147989
 20
22.645891269106
 30
0.0
 40
1.8
 41
0.0
 71
     5
 72
     1
  1
check.
  7
CONVERTER_11
 73
     1
 44
1.20048019207683
  0
MTEXT
  5
2F7
330
74
100
AcDbEntity
  8
1
 62
     3
100
AcDbMText
 10
-66.04477801147999
 20
18.39589126910611
 30
0.0
 40
2.5
 41
0.0
 71
     5
 72
     1
  1
DIN A4
  7
CONVERTER_11
 73
     1
 44
1.20048019207683
  0
MTEXT
  5
2F8
330
74
100
AcDbEntity
  8
1
 62
     2
100
AcDbMText
 10
-54.74477801147995
 20
32.270891269106
 30
0.0
 40
1.8
 41
0.0
 71
     1
 72
     1
  1
ident.-No. / RI
  7
CONVERTER_11
 73
     1
 44
1.20048019207683
  0
TEXT
  5
2F9
330
74
100
AcDbEntity
  8
1
 62
     2
100
AcDbText
 10
-82.59851304113779
 20
4.72164261530405
 30
0.0
 40
1.8
  1
 
 41
0.9
  7
CONVERTER_11
100
AcDbText
  0
TEXT
  5
2FA
330
74
100
AcDbEntity
  8
1
 62
     2
100
AcDbText
 10
-67.80946920166629
 20
4.770891269106
 30
0.0
 40
1.8
  1
1
 41
0.9
  7
CONVERTER_11
100
AcDbText
  0
MTEXT
  5
2FB
330
74
100
AcDbEntity
  8
1
 62
     2
100
AcDbMText
 10
-54.84477801147997
 20
11.020891269106
 30
0.0
 40
1.8
 41
0.0
 71
     1
 72
     1
  1
description
  7
CONVERTER_11
 73
     1
 44
1.20048019207683
  0
MTEXT
  5
2FC
330
74
100
AcDbEntity
  8
1
 62
     2
100
AcDbMText
 10
-87.54477801147989
 20
30.22089126910605
 30
0.0
 40
1.8
 41
0.0
 71
     8
 72
     1
  1
00
  7
CONVERTER_11
 73
     1
 44
1.20048019207683
  0
MTEXT
  5
2FD
330
74
100
AcDbEntity
  8
1
 62
     2
100
AcDbMText
 10
-54.84477801147997
 20
19.52089126910595
 30
0.0
 40
1.8
 41
0.0
 71
     1
 72
     1
  1
document-type
  7
CONVERTER_11
 73
     1
 44
1.20048019207683
  0
MTEXT
  5
2FE
330
74
100
AcDbEntity
  8
1
 62
     2
100
AcDbMText
 10
-62.59477801148
 20
22.645891269106
 30
0.0
 40
1.8
 41
0.0
 71
     5
 72
     1
  1
Angenent
  7
CONVERTER_11
 73
     1
 44
1.32052821128451
  0
MTEXT
  5
2FF
330
74
100
AcDbEntity
  8
1
 62
     2
100
AcDbMText
 10
-62.59477801148
 20
26.895891269106
 30
0.0
 40
1.8
 41
0.0
 71
     5
 72
     1
  1
Schr\U+00f6der
  7
CONVERTER_11
 73
     1
 44
1.32052821128451
  0
MTEXT
  5
300
330
74
100
AcDbEntity
  8
1
 62
     2
100
AcDbMText
 10
-76.09477801147995
 20
22.645891269106
 30
0.0
 40
1.8
 41
0.0
 71
     5
 72
     1
  1
04.06.14
  7
CONVERTER_11
 73
     1
 44
1.32052821128451
  0
MTEXT
  5
301
330
74
100
AcDbEntity
  8
1
 62
     2
100
AcDbMText
 10
-76.09477801147995
 20
26.895891269106
 30
0.0
 40
1.8
 41
0.0
 71
     5
 72
     1
  1
04.06.14
  7
CONVERTER_11
 73
     1
 44
1.32052821128451
  0
TEXT
  5
302
330
74
100
AcDbEntity
  8
1
 62
     7
100
AcDbText
 10
-39.87123028946616
 20
26.070891269106
 30
0.0
 40
2.5
  1
/
 41
0.9
  7
CONVERTER_11
100
AcDbText
  0
TEXT
  5
304
330
74
100
AcDbEntity
  8
1
 62
     3
100
AcDbText
 10
-6.69997348472796
 20
13.320891269106
 30
0.0
 40
2.5
  1
 
 41
0.54
  7
CONVERTER_16
100
AcDbText
  0
MTEXT
  5
306
330
74
100
AcDbEntity
  8
1
 62
     7
100
AcDbMText
 10
-9.27237574810445
 20
6.77089126910623
 30
0.0
 40
3.0
 41
0.0
 71
     5
 72
     1
  1
UC-TM 12
  7
CONVERTER_17
 73
     1
 44
1.20048019207683
  0
MTEXT
  5
307
330
74
100
AcDbEntity
  8
1
 62
     3
100
AcDbMText
 10
14.95923065611146
 20
26.07089126910611
 30
0.0
 40
2.5
 41
0.0
 71
     8
 72
     1
  1
2:1
  7
CONVERTER_14
 73
     1
 44
1.32052821128451
  0
TEXT
  5
308
330
74
100
AcDbEntity
  8
1
 62
     3
100
AcDbText
 10
-31.94477801147994
 20
26.070891269106
 30
0.0
 40
2.5
  1
PA 6.6/T
 41
0.54
  7
CONVERTER_16
100
AcDbText
  0
TEXT
  5
309
330
74
100
AcDbEntity
  8
1
 62
     7
100
AcDbText
 10
-54.34477801148015
 20
26.070891269106
 30
0.0
 40
2.5
  1
0819194
 41
0.81
  7
CONVERTER_17
100
AcDbText
  0
TEXT
  5
30A
330
74
100
AcDbEntity
  8
1
 62
     7
100
AcDbText
 10
-25.19997348472757
 20
13.320891269106
 30
0.0
 40
2.5
  1
00798062
 41
0.81
  7
CONVERTER_17
100
AcDbText
  0
TEXT
  5
30B
330
74
100
AcDbEntity
  8
1
 62
     3
100
AcDbText
 10
20.41843479695095
 20
26.070891269106
 30
0.0
 40
2.5
  1
 
 41
0.54
  7
CONVERTER_16
100
AcDbText
  0
TEXT
  5
30D
330
74
100
AcDbEntity
  8
1
 62
     3
100
AcDbText
 10
-54.84477801147997
 20
13.320891269106
 30
0.0
 40
2.5
  1
KUNDENZCHNG-SELECT
 41
0.45
  7
CONVERTER_18
100
AcDbText
  0
TEXT
  5
30E
330
74
100
AcDbEntity
  8
1
 62
     7
100
AcDbText
 10
-37.71486579242415
 20
26.070891269106
 30
0.0
 40
2.5
  1
03
 41
0.81
  7
CONVERTER_17
100
AcDbText
  0
MTEXT
  5
30F
330
74
100
AcDbEntity
  8
1
 62
     3
100
AcDbMText
 10
-14.99295359811956
 20
23.870891269106
 30
0.0
 40
2.0
 41
0.0
 71
     1
 72
     1
  1
geaendertes Pruefverfahren
  7
CONVERTER_14
 73
     1
 44
1.20048019207683
  0
HATCH
  5
310
330
74
100
AcDbEntity
  8
1
  6
Continuous
 62
     2
100
AcDbHatch
 10
0.0
 20
0.0
 30
0.0
210
0.0
220
0.0
230
1.0
  2
_USER
 70
     0
 71
     1
 91
        1
 92
        1
 93
       14
 72
     2
 10
-78.969381915676
 20
10.63279603101715
 40
0.9964100565214622
 50
164.9381082228799
 51
195.0618917770962
 73
     1
 72
     2
 10
-78.62299526818609
 20
10.72601120625254
 40
1.355119937140023
 50
195.0618917770909
 51
275.1581447696391
 73
     1
 72
     2
 10
-78.86171931342236
 20
13.3705488783365
 40
4.010410630990211
 50
275.1581447696246
 51
285.9799912583532
 73
     1
 72
     1
 10
-77.75764665464729
 20
9.51510895618705
 11
-77.75764665464729
 21
10.23619739156164
 72
     2
 10
-78.73124586293241
 20
11.79847071317309
 40
1.840813230556011
 50
58.0690910500376
 51
71.55192388186683
 73
     0
 72
     2
 10
-78.38565269461768
 20
10.76248246851427
 40
0.7487023016403824
 50
71.55192388184291
 51
113.3722778881291
 73
     0
 72
     2
 10
-78.51494197784248
 20
10.46331551090269
 40
0.422793438177528
 50
113.372277888174
 51
151.4785267423084
 73
     0
 72
     2
 10
-78.20307647529674
 20
10.63279603101715
 40
0.7777353184572794
 50
151.4785267422971
 51
208.5214732577313
 73
     0
 72
     2
 10
-78.51494197784248
 20
10.80227655113206
 40
0.4227934381775693
 50
208.5214732576904
 51
246.6277221118017
 73
     0
 72
     2
 10
-78.38565269461768
 20
10.50310959352001
 40
0.7487023016407717
 50
246.6277221118715
 51
288.4480761181457
 73
     0
 72
     2
 10
-78.73124586293241
 20
9.46712134886165
 40
1.840813230556617
 50
288.4480761181331
 51
301.9309089499624
 73
     0
 72
     1
 10
-77.75764665464729
 20
11.0293946704731
 11
-77.75764665464729
 21
11.75048310584769
 72
     2
 10
-78.86171931342236
 20
7.895043183698249
 40
4.010410630990091
 50
74.02000874164682
 51
84.84185523037544
 73
     1
 72
     2
 10
-78.62299526818609
 20
10.53958085578174
 40
1.355119937140908
 50
84.84185523036265
 51
164.9381082228906
 73
     1
 97
       14
330
2A7
330
131
330
276
330
2A6
330
277
330
278
330
2A5
330
2A4
330
2A3
330
132
330
279
330
27A
330
27B
330
27C
 75
     1
 76
     0
 52
45.0
 41
0.1
 77
     0
 78
     1
 53
45.0
 43
0.0
 44
0.0
 45
-0.0707106781186548
 46
0.0707106781186548
 79
     0
 98
        1
 10
0.0
 20
0.0
  0
HATCH
  5
311
330
74
100
AcDbEntity
  8
1
  6
Continuous
 62
     2
100
AcDbHatch
 10
0.0
 20
0.0
 30
0.0
210
0.0
220
0.0
230
1.0
  2
_USER
 70
     0
 71
     1
 91
        1
 92
        1
 93
       14
 72
     2
 10
-78.969381915676
 20
10.63279603101715
 40
0.9964100565214622
 50
164.9381082228799
 51
195.0618917770962
 73
     1
 72
     2
 10
-78.62299526818609
 20
10.72601120625254
 40
1.355119937140023
 50
195.0618917770909
 51
275.1581447696391
 73
     1
 72
     2
 10
-78.86171931342236
 20
13.3705488783365
 40
4.010410630990211
 50
275.1581447696246
 51
285.9799912583532
 73
     1
 72
     1
 10
-77.75764665464729
 20
9.51510895618705
 11
-77.75764665464729
 21
10.23619739156164
 72
     2
 10
-78.73124586293241
 20
11.79847071317309
 40
1.840813230556011
 50
58.0690910500376
 51
71.55192388186683
 73
     0
 72
     2
 10
-78.38565269461768
 20
10.76248246851427
 40
0.7487023016403824
 50
71.55192388184291
 51
113.3722778881291
 73
     0
 72
     2
 10
-78.51494197784248
 20
10.46331551090269
 40
0.422793438177528
 50
113.372277888174
 51
151.4785267423084
 73
     0
 72
     2
 10
-78.20307647529674
 20
10.63279603101715
 40
0.7777353184572794
 50
151.4785267422971
 51
208.5214732577313
 73
     0
 72
     2
 10
-78.51494197784248
 20
10.80227655113206
 40
0.4227934381775693
 50
208.5214732576904
 51
246.6277221118017
 73
     0
 72
     2
 10
-78.38565269461768
 20
10.50310959352001
 40
0.7487023016407717
 50
246.6277221118715
 51
288.4480761181457
 73
     0
 72
     2
 10
-78.73124586293241
 20
9.46712134886165
 40
1.840813230556617
 50
288.4480761181331
 51
301.9309089499624
 73
     0
 72
     1
 10
-77.75764665464729
 20
11.0293946704731
 11
-77.75764665464729
 21
11.75048310584769
 72
     2
 10
-78.86171931342236
 20
7.895043183698249
 40
4.010410630990091
 50
74.02000874164682
 51
84.84185523037544
 73
     1
 72
     2
 10
-78.62299526818609
 20
10.53958085578174
 40
1.355119937140908
 50
84.84185523036265
 51
164.9381082228906
 73
     1
 97
       14
330
2A7
330
131
330
276
330
2A6
330
277
330
278
330
2A5
330
2A4
330
2A3
330
132
330
279
330
27A
330
27B
330
27C
 75
     1
 76
     0
 52
45.0
 41
0.1
 77
     0
 78
     1
 53
45.0
 43
0.0
 44
0.0
 45
-0.0707106781186548
 46
0.0707106781186548
 79
     0
 98
        1
 10
0.0
 20
0.0
  0
HATCH
  5
312
330
74
100
AcDbEntity
  8
1
  6
Continuous
 62
     2
100
AcDbHatch
 10
0.0
 20
0.0
 30
0.0
210
0.0
220
0.0
230
1.0
  2
_USER
 70
     0
 71
     1
 91
        1
 92
        1
 93
       18
 72
     2
 10
-65.31497751673741
 20
10.53958085578174
 40
1.355119937140591
 50
90.0
 51
164.9381082228991
 73
     1
 72
     2
 10
-65.66136416422638
 20
10.63279603101715
 40
0.996410056523109
 50
164.9381082229054
 51
195.0618917770958
 73
     1
 72
     2
 10
-65.31497751673741
 20
10.72601120625254
 40
1.355119937140881
 50
195.061891777101
 51
275.1581447696763
 73
     1
 72
     2
 10
-65.55370156197367
 20
13.3705488783365
 40
4.010410630990746
 50
275.1581447696369
 51
285.9799912583389
 73
     1
 72
     1
 10
-64.44962890319951
 20
9.515108956186609
 11
-64.44962890319951
 21
10.23619739156118
 72
     2
 10
-65.42322811148372
 20
11.79847071317263
 40
1.840813230556003
 50
58.06909105006162
 51
71.55192388186671
 73
     0
 72
     2
 10
-65.07763494316806
 20
10.76248246851427
 40
0.7487023016407095
 50
71.55192388192091
 51
113.372277888187
 73
     0
 72
     2
 10
-65.2069242263938
 20
10.46331551090269
 40
0.4227934381785468
 50
113.3722778881616
 51
151.4785267423125
 73
     0
 72
     2
 10
-64.89505872384714
 20
10.63279603101715
 40
0.777735318458663
 50
151.4785267423313
 51
208.5214732576382
 73
     0
 72
     2
 10
-65.2069242263938
 20
10.80227655113206
 40
0.4227934381772261
 50
208.521473257578
 51
250.662856780514
 73
     0
 72
     2
 10
-65.08570935192793
 20
10.45685921197263
 40
0.7888619891124407
 50
250.6628567805685
 51
270.0
 73
     0
 72
     1
 10
-65.08570935192793
 20
11.24572120108507
 11
-64.17361075724355
 21
11.24572120108507
 72
     1
 10
-64.17361075724355
 20
11.24572120108507
 11
-64.17361075724355
 21
9.370891269111958
 72
     1
 10
-64.17361075724355
 20
9.370891269111958
 11
-63.18783166454298
 21
9.370891269111958
 72
     1
 10
-63.18783166454298
 20
9.370891269111958
 11
-63.18783166454298
 21
11.24572120108507
 72
     1
 10
-63.18783166454298
 20
11.24572120108507
 11
-62.51750188150712
 21
11.24572120108507
 72
     1
 10
-62.51750188150712
 20
11.24572120108507
 11
-62.51750188150712
 21
11.89470079292279
 72
     1
 10
-62.51750188150712
 20
11.89470079292279
 11
-65.31497751673741
 21
11.89470079292233
 97
       18
330
197
330
196
330
195
330
194
330
199
330
133
330
2A0
330
281
330
29F
330
282
330
29E
330
29D
330
134
330
29C
330
29B
330
283
330
284
330
198
 75
     1
 76
     0
 52
45.0
 41
0.1
 77
     0
 78
     1
 53
45.0
 43
0.0
 44
0.0
 45
-0.0707106781186548
 46
0.0707106781186548
 79
     0
 98
        1
 10
0.0
 20
0.0
  0
HATCH
  5
313
330
74
100
AcDbEntity
  8
1
  6
Continuous
 62
     2
100
AcDbHatch
 10
0.0
 20
0.0
 30
0.0
210
0.0
220
0.0
230
1.0
  2
_USER
 70
     0
 71
     1
 91
        1
 92
        1
 93
       18
 72
     2
 10
-65.31497751673741
 20
10.53958085578174
 40
1.355119937140591
 50
90.0
 51
164.9381082228991
 73
     1
 72
     2
 10
-65.66136416422638
 20
10.63279603101715
 40
0.996410056523109
 50
164.9381082229054
 51
195.0618917770958
 73
     1
 72
     2
 10
-65.31497751673741
 20
10.72601120625254
 40
1.355119937140881
 50
195.061891777101
 51
275.1581447696763
 73
     1
 72
     2
 10
-65.55370156197367
 20
13.3705488783365
 40
4.010410630990746
 50
275.1581447696369
 51
285.9799912583389
 73
     1
 72
     1
 10
-64.44962890319951
 20
9.515108956186609
 11
-64.44962890319951
 21
10.23619739156118
 72
     2
 10
-65.42322811148372
 20
11.79847071317263
 40
1.840813230556003
 50
58.06909105006162
 51
71.55192388186671
 73
     0
 72
     2
 10
-65.07763494316806
 20
10.76248246851427
 40
0.7487023016407095
 50
71.55192388192091
 51
113.372277888187
 73
     0
 72
     2
 10
-65.2069242263938
 20
10.46331551090269
 40
0.4227934381785468
 50
113.3722778881616
 51
151.4785267423125
 73
     0
 72
     2
 10
-64.89505872384714
 20
10.63279603101715
 40
0.777735318458663
 50
151.4785267423313
 51
208.5214732576382
 73
     0
 72
     2
 10
-65.2069242263938
 20
10.80227655113206
 40
0.4227934381772261
 50
208.521473257578
 51
250.662856780514
 73
     0
 72
     2
 10
-65.08570935192793
 20
10.45685921197263
 40
0.7888619891124407
 50
250.6628567805685
 51
270.0
 73
     0
 72
     1
 10
-65.08570935192793
 20
11.24572120108507
 11
-64.17361075724355
 21
11.24572120108507
 72
     1
 10
-64.17361075724355
 20
11.24572120108507
 11
-64.17361075724355
 21
9.370891269111958
 72
     1
 10
-64.17361075724355
 20
9.370891269111958
 11
-63.18783166454298
 21
9.370891269111958
 72
     1
 10
-63.18783166454298
 20
9.370891269111958
 11
-63.18783166454298
 21
11.24572120108507
 72
     1
 10
-63.18783166454298
 20
11.24572120108507
 11
-62.51750188150712
 21
11.24572120108507
 72
     1
 10
-62.51750188150712
 20
11.24572120108507
 11
-62.51750188150712
 21
11.89470079292279
 72
     1
 10
-62.51750188150712
 20
11.89470079292279
 11
-65.31497751673741
 21
11.89470079292233
 97
       18
330
197
330
196
330
195
330
194
330
199
330
133
330
2A0
330
281
330
29F
330
282
330
29E
330
29D
330
134
330
29C
330
29B
330
283
330
284
330
198
 75
     1
 76
     0
 52
45.0
 41
0.1
 77
     0
 78
     1
 53
45.0
 43
0.0
 44
0.0
 45
-0.0707106781186548
 46
0.0707106781186548
 79
     0
 98
        1
 10
0.0
 20
0.0
  0
HATCH
  5
314
330
74
100
AcDbEntity
  8
1
  6
Continuous
 62
     2
100
AcDbHatch
 10
0.0
 20
0.0
 30
0.0
210
0.0
220
0.0
230
1.0
  2
_USER
 70
     0
 71
     1
 91
        4
 92
        1
 93
        8
 72
     2
 10
-85.23411726607051
 20
14.32027588447021
 40
0.3506153846147395
 50
90.0
 51
180.0
 73
     1
 72
     1
 10
-85.5847326506844
 20
14.32027588447021
 11
-85.5847326506844
 21
9.721506653726241
 72
     2
 10
-85.23411726607051
 20
9.721506653726241
 40
0.3506153846138886
 50
180.0
 51
270.0
 73
     1
 72
     1
 10
-85.23411726607051
 20
9.370891269111958
 11
-80.71071884399046
 21
9.370891269111958
 72
     2
 10
-80.71071884399046
 20
9.721506653726241
 40
0.350615384614283
 50
270.0
 51
360.0
 73
     1
 72
     1
 10
-80.36010345937567
 20
9.721506653726241
 11
-80.36010345937567
 21
14.32027588447021
 72
     2
 10
-80.71071884399046
 20
14.32027588447021
 40
0.3506153846147981
 50
0.0
 51
90.0
 73
     1
 72
     1
 10
-80.71071884399046
 20
14.67089126908495
 11
-85.23411726607051
 21
14.67089126908495
 97
        8
330
294
330
162
330
293
330
163
330
28A
330
160
330
295
330
161
 92
       16
 93
        1
 72
     2
 10
-83.06917044746095
 20
12.40384429078797
 40
0.3892387874202541
 50
0.0
 51
360.0
 73
     1
 97
        1
330
2A8
 92
       16
 93
        8
 72
     2
 10
-83.04948861715289
 20
12.40384429078797
 40
0.7535935125160986
 50
295.374008678178
 51
424.6259913218071
 73
     1
 72
     2
 10
-82.61474258567526
 20
13.32049024117459
 40
0.2609230769229498
 50
115.3740086783599
 51
180.0
 73
     0
 72
     1
 10
-82.87566566259821
 20
13.32049024117459
 11
-82.87566566259821
 21
13.82093262837026
 72
     2
 10
-82.61474258567526
 20
13.82093262837026
 40
0.2609230769224198
 50
180.0
 51
269.8110329574465
 73
     0
 72
     2
 10
-82.61010115153479
 20
12.41363101880908
 40
1.6682323404407
 50
269.8110329575862
 51
450.1889670424138
 73
     0
 72
     2
 10
-82.61474258567526
 20
11.00632940924791
 40
0.2609230769229498
 50
90.18896704255353
 51
180.0
 73
     0
 72
     1
 10
-82.87566566259821
 20
11.00632940924791
 11
-82.87566566259821
 21
11.48719834040088
 72
     2
 10
-82.61474258567526
 20
11.48719834040088
 40
0.2609230769227325
 50
180.0
 51
244.625991321641
 73
     0
 97
        8
330
2A2
330
27E
330
19B
330
2A1
330
27F
330
280
330
19A
330
27D
 92
       16
 93
       12
 72
     1
 10
-84.74329521917255
 20
9.95978015800198
 11
-83.52359830924732
 21
9.95978015800198
 72
     2
 10
-83.52359830924732
 20
10.22070323492487
 40
0.2609230769228894
 50
270.0
 51
360.0
 73
     1
 72
     1
 10
-83.26267523232448
 20
10.22070323492487
 11
-83.26267523232448
 21
11.48580317833943
 72
     2
 10
-83.52359830924732
 20
11.48580317833943
 40
0.2609230769228361
 50
0.0
 51
64.8055893514401
 73
     1
 72
     2
 10
-83.09171033604483
 20
12.40384429078797
 40
0.7536343169897688
 50
115.1944106485086
 51
244.8055893514766
 73
     0
 72
     2
 10
-83.52359830924732
 20
13.32188540323605
 40
0.2609230769224081
 50
295.1944106485599
 51
360.0
 73
     1
 72
     1
 10
-83.26267523232448
 20
13.32188540323605
 11
-83.26267523232448
 21
13.82107930328611
 72
     2
 10
-83.52359830924732
 20
13.82107930328611
 40
0.2609230769228361
 50
0.0
 51
90.0
 73
     1
 72
     1
 10
-83.52359830924732
 20
14.08200238020856
 11
-84.74329521917255
 21
14.08200238020856
 72
     2
 10
-84.74329521917255
 20
13.82107930328611
 40
0.2609230769224506
 50
90.0
 51
180.0
 73
     1
 72
     1
 10
-85.00421829609459
 20
13.82107930328611
 11
-85.00421829609459
 21
10.22070323492487
 72
     2
 10
-84.74329521917255
 20
10.22070323492487
 40
0.2609230769220403
 50
180.0
 51
270.0
 73
     1
 97
       12
330
167
330
287
330
166
330
298
330
165
330
297
330
288
330
289
330
164
330
296
330
15F
330
299
 75
     1
 76
     0
 52
45.0
 41
0.1
 77
     0
 78
     1
 53
45.0
 43
0.0
 44
0.0
 45
-0.0707106781186548
 46
0.0707106781186548
 79
     0
 98
        1
 10
0.0
 20
0.0
  0
HATCH
  5
315
330
74
100
AcDbEntity
  8
1
  6
Continuous
 62
     2
100
AcDbHatch
 10
0.0
 20
0.0
 30
0.0
210
0.0
220
0.0
230
1.0
  2
_USER
 70
     0
 71
     1
 91
        4
 92
        1
 93
        8
 72
     2
 10
-85.23411726607051
 20
14.32027588447021
 40
0.3506153846147395
 50
90.0
 51
180.0
 73
     1
 72
     1
 10
-85.5847326506844
 20
14.32027588447021
 11
-85.5847326506844
 21
9.721506653726241
 72
     2
 10
-85.23411726607051
 20
9.721506653726241
 40
0.3506153846138886
 50
180.0
 51
270.0
 73
     1
 72
     1
 10
-85.23411726607051
 20
9.370891269111958
 11
-80.71071884399046
 21
9.370891269111958
 72
     2
 10
-80.71071884399046
 20
9.721506653726241
 40
0.350615384614283
 50
270.0
 51
360.0
 73
     1
 72
     1
 10
-80.36010345937567
 20
9.721506653726241
 11
-80.36010345937567
 21
14.32027588447021
 72
     2
 10
-80.71071884399046
 20
14.32027588447021
 40
0.3506153846147981
 50
0.0
 51
90.0
 73
     1
 72
     1
 10
-80.71071884399046
 20
14.67089126908495
 11
-85.23411726607051
 21
14.67089126908495
 97
        8
330
294
330
162
330
293
330
163
330
28A
330
160
330
295
330
161
 92
       16
 93
        1
 72
     2
 10
-83.06917044746095
 20
12.40384429078797
 40
0.3892387874202541
 50
0.0
 51
360.0
 73
     1
 97
        1
330
2A8
 92
       16
 93
        8
 72
     2
 10
-83.04948861715289
 20
12.40384429078797
 40
0.7535935125160986
 50
295.374008678178
 51
424.6259913218071
 73
     1
 72
     2
 10
-82.61474258567526
 20
13.32049024117459
 40
0.2609230769229498
 50
115.3740086783599
 51
180.0
 73
     0
 72
     1
 10
-82.87566566259821
 20
13.32049024117459
 11
-82.87566566259821
 21
13.82093262837026
 72
     2
 10
-82.61474258567526
 20
13.82093262837026
 40
0.2609230769224198
 50
180.0
 51
269.8110329574465
 73
     0
 72
     2
 10
-82.61010115153479
 20
12.41363101880908
 40
1.6682323404407
 50
269.8110329575862
 51
450.1889670424138
 73
     0
 72
     2
 10
-82.61474258567526
 20
11.00632940924791
 40
0.2609230769229498
 50
90.18896704255353
 51
180.0
 73
     0
 72
     1
 10
-82.87566566259821
 20
11.00632940924791
 11
-82.87566566259821
 21
11.48719834040088
 72
     2
 10
-82.61474258567526
 20
11.48719834040088
 40
0.2609230769227325
 50
180.0
 51
244.625991321641
 73
     0
 97
        8
330
2A2
330
27E
330
19B
330
2A1
330
27F
330
280
330
19A
330
27D
 92
       16
 93
       12
 72
     1
 10
-84.74329521917255
 20
9.95978015800198
 11
-83.52359830924732
 21
9.95978015800198
 72
     2
 10
-83.52359830924732
 20
10.22070323492487
 40
0.2609230769228894
 50
270.0
 51
360.0
 73
     1
 72
     1
 10
-83.26267523232448
 20
10.22070323492487
 11
-83.26267523232448
 21
11.48580317833943
 72
     2
 10
-83.52359830924732
 20
11.48580317833943
 40
0.2609230769228361
 50
0.0
 51
64.8055893514401
 73
     1
 72
     2
 10
-83.09171033604483
 20
12.40384429078797
 40
0.7536343169897688
 50
115.1944106485086
 51
244.8055893514766
 73
     0
 72
     2
 10
-83.52359830924732
 20
13.32188540323605
 40
0.2609230769224081
 50
295.1944106485599
 51
360.0
 73
     1
 72
     1
 10
-83.26267523232448
 20
13.32188540323605
 11
-83.26267523232448
 21
13.82107930328611
 72
     2
 10
-83.52359830924732
 20
13.82107930328611
 40
0.2609230769228361
 50
0.0
 51
90.0
 73
     1
 72
     1
 10
-83.52359830924732
 20
14.08200238020856
 11
-84.74329521917255
 21
14.08200238020856
 72
     2
 10
-84.74329521917255
 20
13.82107930328611
 40
0.2609230769224506
 50
90.0
 51
180.0
 73
     1
 72
     1
 10
-85.00421829609459
 20
13.82107930328611
 11
-85.00421829609459
 21
10.22070323492487
 72
     2
 10
-84.74329521917255
 20
10.22070323492487
 40
0.2609230769220403
 50
180.0
 51
270.0
 73
     1
 97
       12
330
167
330
287
330
166
330
298
330
165
330
297
330
288
330
289
330
164
330
296
330
15F
330
299
 75
     1
 76
     0
 52
45.0
 41
0.1
 77
     0
 78
     1
 53
45.0
 43
0.0
 44
0.0
 45
-0.0707106781186548
 46
0.0707106781186548
 79
     0
 98
        1
 10
0.0
 20
0.0
  0
HATCH
  5
316
330
74
100
AcDbEntity
  8
1
  6
Continuous
 62
     2
100
AcDbHatch
 10
0.0
 20
0.0
 30
0.0
210
0.0
220
0.0
230
1.0
  2
_USER
 70
     0
 71
     1
 91
        2
 92
        1
 93
       12
 72
     2
 10
-73.10588255202973
 20
13.4089865071943
 40
1.26190476190564
 50
90.0
 51
270.0
 73
     1
 72
     1
 10
-73.10588255202973
 20
12.14708174528911
 11
-70.50231253237602
 21
12.14708174528911
 72
     1
 10
-70.50231253237602
 20
12.14708174528911
 11
-70.50231253237602
 21
12.7239524935886
 72
     1
 10
-70.50231253237602
 20
12.7239524935886
 11
-71.60638511620053
 21
12.7239524935886
 72
     1
 10
-71.60638511620053
 20
12.7239524935886
 11
-71.60638511620053
 21
13.12055113304456
 72
     1
 10
-71.60638511620053
 20
13.12055113304456
 11
-70.50231253237602
 21
13.12055113304456
 72
     1
 10
-70.50231253237602
 20
13.12055113304456
 11
-70.50231253237602
 21
13.69742188134404
 72
     1
 10
-70.50231253237602
 20
13.69742188134404
 11
-71.60638511620053
 21
13.69742188134404
 72
     1
 10
-71.60638511620053
 20
13.69742188134404
 11
-71.60638511620053
 21
14.0940205208
 72
     1
 10
-71.60638511620053
 20
14.0940205208
 11
-70.50231253237602
 21
14.0940205208
 72
     1
 10
-70.50231253237602
 20
14.0940205208
 11
-70.50231253237602
 21
14.67089126909994
 72
     1
 10
-70.50231253237602
 20
14.67089126909994
 11
-73.10588255202973
 21
14.67089126909994
 97
       12
330
156
330
150
330
177
330
176
330
175
330
174
330
151
330
152
330
153
330
154
330
285
330
155
 92
       16
 93
        4
 72
     2
 10
-72.7620709433426
 20
13.4089865071943
 40
0.6378510567600112
 50
141.879580202842
 51
218.1204197971578
 73
     1
 72
     2
 10
-72.92714535354608
 20
13.27945660792117
 40
0.4280236140606907
 50
218.1204197971427
 51
321.8795802028561
 73
     1
 72
     2
 10
-73.09221976374955
 20
13.4089865071943
 40
0.6378510567599878
 50
321.8795802028406
 51
398.1204197971595
 73
     1
 72
     2
 10
-72.92714535354608
 20
13.53851640646742
 40
0.4280236140606861
 50
38.12041979714503
 51
141.8795802028562
 73
     1
 97
        4
330
292
330
291
330
28C
330
28B
 75
     1
 76
     0
 52
45.0
 41
0.1
 77
     0
 78
     1
 53
45.0
 43
0.0
 44
0.0
 45
-0.0707106781186548
 46
0.0707106781186548
 79
     0
 98
        1
 10
0.0
 20
0.0
  0
HATCH
  5
317
330
74
100
AcDbEntity
  8
1
  6
Continuous
 62
     2
100
AcDbHatch
 10
0.0
 20
0.0
 30
0.0
210
0.0
220
0.0
230
1.0
  2
_USER
 70
     0
 71
     1
 91
        2
 92
        1
 93
       12
 72
     2
 10
-73.10588255202973
 20
13.4089865071943
 40
1.26190476190564
 50
90.0
 51
270.0
 73
     1
 72
     1
 10
-73.10588255202973
 20
12.14708174528911
 11
-70.50231253237602
 21
12.14708174528911
 72
     1
 10
-70.50231253237602
 20
12.14708174528911
 11
-70.50231253237602
 21
12.7239524935886
 72
     1
 10
-70.50231253237602
 20
12.7239524935886
 11
-71.60638511620053
 21
12.7239524935886
 72
     1
 10
-71.60638511620053
 20
12.7239524935886
 11
-71.60638511620053
 21
13.12055113304456
 72
     1
 10
-71.60638511620053
 20
13.12055113304456
 11
-70.50231253237602
 21
13.12055113304456
 72
     1
 10
-70.50231253237602
 20
13.12055113304456
 11
-70.50231253237602
 21
13.69742188134404
 72
     1
 10
-70.50231253237602
 20
13.69742188134404
 11
-71.60638511620053
 21
13.69742188134404
 72
     1
 10
-71.60638511620053
 20
13.69742188134404
 11
-71.60638511620053
 21
14.0940205208
 72
     1
 10
-71.60638511620053
 20
14.0940205208
 11
-70.50231253237602
 21
14.0940205208
 72
     1
 10
-70.50231253237602
 20
14.0940205208
 11
-70.50231253237602
 21
14.67089126909994
 72
     1
 10
-70.50231253237602
 20
14.67089126909994
 11
-73.10588255202973
 21
14.67089126909994
 97
       12
330
156
330
150
330
177
330
176
330
175
330
174
330
151
330
152
330
153
330
154
330
285
330
155
 92
       16
 93
        4
 72
     2
 10
-72.7620709433426
 20
13.4089865071943
 40
0.6378510567600112
 50
141.879580202842
 51
218.1204197971578
 73
     1
 72
     2
 10
-72.92714535354608
 20
13.27945660792117
 40
0.4280236140606907
 50
218.1204197971427
 51
321.8795802028561
 73
     1
 72
     2
 10
-73.09221976374955
 20
13.4089865071943
 40
0.6378510567599878
 50
321.8795802028406
 51
398.1204197971595
 73
     1
 72
     2
 10
-72.92714535354608
 20
13.53851640646742
 40
0.4280236140606861
 50
38.12041979714503
 51
141.8795802028562
 73
     1
 97
        4
330
292
330
291
330
28C
330
28B
 75
     1
 76
     0
 52
45.0
 41
0.1
 77
     0
 78
     1
 53
45.0
 43
0.0
 44
0.0
 45
-0.0707106781186548
 46
0.0707106781186548
 79
     0
 98
        1
 10
0.0
 20
0.0
  0
HATCH
  5
318
330
74
100
AcDbEntity
  8
1
  6
Continuous
 62
     2
100
AcDbHatch
 10
0.0
 20
0.0
 30
0.0
210
0.0
220
0.0
230
1.0
  2
_USER
 70
     0
 71
     1
 91
        2
 92
        1
 93
        4
 72
     2
 10
-76.43283739703932
 20
10.63279603101715
 40
1.204986845992994
 50
117.5481481756635
 51
242.4518518243369
 73
     1
 72
     2
 10
-76.20065566825147
 20
11.07789934531742
 40
1.707008076205438
 50
242.45185182434
 51
297.5481481756871
 73
     1
 72
     2
 10
-75.96847393946362
 20
10.63279603101715
 40
1.204986845993431
 50
297.5481481757014
 51
422.4518518242982
 73
     1
 72
     2
 10
-76.20065566825147
 20
10.18769271671733
 40
1.707008076205444
 50
62.45185182430569
 51
117.5481481756673
 73
     1
 97
        4
330
290
330
28D
330
28F
330
28E
 92
       16
 93
        4
 72
     2
 10
-76.20065566825147
 20
10.76232593029027
 40
0.4280236140605955
 50
38.12041979715423
 51
141.8795802028552
 73
     1
 72
     2
 10
-76.0355812580481
 20
10.63279603101715
 40
0.6378510567599095
 50
141.8795802028351
 51
218.1204197971658
 73
     1
 72
     2
 10
-76.20065566825147
 20
10.50326613174447
 40
0.4280236140609635
 50
218.1204197971923
 51
321.8795802027983
 73
     1
 72
     2
 10
-76.36573007845507
 20
10.63279603101715
 40
0.6378510567600066
 50
321.8795802028405
 51
398.1204197971587
 73
     1
 97
        4
330
273
330
274
330
275
330
272
 75
     1
 76
     0
 52
45.0
 41
0.1
 77
     0
 78
     1
 53
45.0
 43
0.0
 44
0.0
 45
-0.0707106781186548
 46
0.0707106781186548
 79
     0
 98
        1
 10
0.0
 20
0.0
  0
HATCH
  5
319
330
74
100
AcDbEntity
  8
1
  6
Continuous
 62
     2
100
AcDbHatch
 10
0.0
 20
0.0
 30
0.0
210
0.0
220
0.0
230
1.0
  2
_USER
 70
     0
 71
     1
 91
        2
 92
        1
 93
        4
 72
     2
 10
-76.43283739703932
 20
10.63279603101715
 40
1.204986845992994
 50
117.5481481756635
 51
242.4518518243369
 73
     1
 72
     2
 10
-76.20065566825147
 20
11.07789934531742
 40
1.707008076205438
 50
242.45185182434
 51
297.5481481756871
 73
     1
 72
     2
 10
-75.96847393946362
 20
10.63279603101715
 40
1.204986845993431
 50
297.5481481757014
 51
422.4518518242982
 73
     1
 72
     2
 10
-76.20065566825147
 20
10.18769271671733
 40
1.707008076205444
 50
62.45185182430569
 51
117.5481481756673
 73
     1
 97
        4
330
290
330
28D
330
28F
330
28E
 92
       16
 93
        4
 72
     2
 10
-76.20065566825147
 20
10.76232593029027
 40
0.4280236140605955
 50
38.12041979715423
 51
141.8795802028552
 73
     1
 72
     2
 10
-76.0355812580481
 20
10.63279603101715
 40
0.6378510567599095
 50
141.8795802028351
 51
218.1204197971658
 73
     1
 72
     2
 10
-76.20065566825147
 20
10.50326613174447
 40
0.4280236140609635
 50
218.1204197971923
 51
321.8795802027983
 73
     1
 72
     2
 10
-76.36573007845507
 20
10.63279603101715
 40
0.6378510567600066
 50
321.8795802028405
 51
398.1204197971587
 73
     1
 97
        4
330
273
330
274
330
275
330
272
 75
     1
 76
     0
 52
45.0
 41
0.1
 77
     0
 78
     1
 53
45.0
 43
0.0
 44
0.0
 45
-0.0707106781186548
 46
0.0707106781186548
 79
     0
 98
        1
 10
0.0
 20
0.0
  0
HATCH
  5
31A
330
74
100
AcDbEntity
  8
1
  6
Continuous
 62
     2
100
AcDbHatch
 10
0.0
 20
0.0
 30
0.0
210
0.0
220
0.0
230
1.0
  2
_USER
 70
     0
 71
     1
 91
        2
 92
        1
 93
        6
 72
     1
 10
-79.96579182229564
 20
14.67089126909994
 11
-79.96579182229564
 21
12.14708174528911
 72
     1
 10
-79.96579182229564
 20
12.14708174528911
 11
-78.94058156588736
 21
12.14708174528911
 72
     1
 10
-78.94058156588736
 20
12.14708174528911
 11
-78.94058156588736
 21
12.92648525036658
 72
     1
 10
-78.94058156588736
 20
12.92648525036658
 11
-78.31350091482923
 21
12.92648525036658
 72
     2
 10
-78.31350091482923
 20
13.79868825973325
 40
0.87220300936667
 50
270.0
 51
450.0
 73
     1
 72
     1
 10
-78.31350091482923
 20
14.67089126909994
 11
-79.96579182229564
 21
14.67089126909994
 97
        6
330
29A
330
168
330
15E
330
15D
330
16A
330
169
 92
       16
 93
        4
 72
     1
 10
-78.67835424229898
 20
14.12286990923213
 11
-78.94058156588736
 21
14.12286990923213
 72
     1
 10
-78.94058156588736
 20
14.12286990923213
 11
-78.94058156588736
 21
13.53962391804017
 72
     1
 10
-78.94058156588736
 20
13.53962391804017
 11
-78.67835424229898
 21
13.53962391804017
 72
     2
 10
-78.67835424229898
 20
13.83124691363616
 40
0.2916229955959899
 50
270.0
 51
450.0
 73
     1
 97
        4
330
16B
330
15C
330
16C
330
286
 75
     1
 76
     0
 52
45.0
 41
0.1
 77
     0
 78
     1
 53
45.0
 43
0.0
 44
0.0
 45
-0.0707106781186548
 46
0.0707106781186548
 79
     0
 98
        1
 10
0.0
 20
0.0
  0
HATCH
  5
31B
330
74
100
AcDbEntity
  8
1
  6
Continuous
 62
     2
100
AcDbHatch
 10
0.0
 20
0.0
 30
0.0
210
0.0
220
0.0
230
1.0
  2
_USER
 70
     0
 71
     1
 91
        2
 92
        1
 93
        6
 72
     1
 10
-79.96579182229564
 20
14.67089126909994
 11
-79.96579182229564
 21
12.14708174528911
 72
     1
 10
-79.96579182229564
 20
12.14708174528911
 11
-78.94058156588736
 21
12.14708174528911
 72
     1
 10
-78.94058156588736
 20
12.14708174528911
 11
-78.94058156588736
 21
12.92648525036658
 72
     1
 10
-78.94058156588736
 20
12.92648525036658
 11
-78.31350091482923
 21
12.92648525036658
 72
     2
 10
-78.31350091482923
 20
13.79868825973325
 40
0.87220300936667
 50
270.0
 51
450.0
 73
     1
 72
     1
 10
-78.31350091482923
 20
14.67089126909994
 11
-79.96579182229564
 21
14.67089126909994
 97
        6
330
29A
330
168
330
15E
330
15D
330
16A
330
169
 92
       16
 93
        4
 72
     1
 10
-78.67835424229898
 20
14.12286990923213
 11
-78.94058156588736
 21
14.12286990923213
 72
     1
 10
-78.94058156588736
 20
14.12286990923213
 11
-78.94058156588736
 21
13.53962391804017
 72
     1
 10
-78.94058156588736
 20
13.53962391804017
 11
-78.67835424229898
 21
13.53962391804017
 72
     2
 10
-78.67835424229898
 20
13.83124691363616
 40
0.2916229955959899
 50
270.0
 51
450.0
 73
     1
 97
        4
330
16B
330
15C
330
16C
330
286
 75
     1
 76
     0
 52
45.0
 41
0.1
 77
     0
 78
     1
 53
45.0
 43
0.0
 44
0.0
 45
-0.0707106781186548
 46
0.0707106781186548
 79
     0
 98
        1
 10
0.0
 20
0.0
  0
HATCH
  5
31C
330
74
100
AcDbEntity
  8
1
  6
Continuous
 62
     2
100
AcDbHatch
 10
0.0
 20
0.0
 30
0.0
210
0.0
220
0.0
230
1.0
  2
_USER
 70
     0
 71
     1
 91
        1
 92
        1
 93
       12
 72
     1
 10
-63.75564042193768
 20
14.67089126909994
 11
-62.59636420892346
 21
14.67089126909994
 72
     1
 10
-62.59636420892346
 20
14.67089126909994
 11
-63.672834978152
 21
13.45357678146672
 72
     1
 10
-63.672834978152
 20
13.45357678146672
 11
-62.51750188150712
 21
12.14708174528911
 72
     1
 10
-62.51750188150712
 20
12.14708174528911
 11
-63.67677809452223
 21
12.14708174528911
 72
     1
 10
-63.67677809452223
 20
12.14708174528911
 11
-64.25247308465899
 21
12.79809974966405
 72
     1
 10
-64.25247308465899
 20
12.79809974966405
 11
-64.82816807479595
 21
12.14708174528911
 72
     1
 10
-64.82816807479595
 20
12.14708174528911
 11
-65.98744428781097
 21
12.14708174528911
 72
     1
 10
-65.98744428781097
 20
12.14708174528911
 11
-64.83211119116609
 21
13.45357678146672
 72
     1
 10
-64.83211119116609
 20
13.45357678146672
 11
-65.90858196039542
 21
14.67089126909994
 72
     1
 10
-65.90858196039542
 20
14.67089126909994
 11
-64.74930574737951
 21
14.67089126909994
 72
     1
 10
-64.74930574737951
 20
14.67089126909994
 11
-64.25247308465899
 21
14.10905381326895
 72
     1
 10
-64.25247308465899
 20
14.10905381326895
 11
-63.75564042193768
 21
14.67089126909994
 97
       12
330
137
330
190
330
18F
330
18E
330
18D
330
138
330
139
330
135
330
136
330
193
330
192
330
191
 75
     1
 76
     0
 52
45.0
 41
0.1
 77
     0
 78
     1
 53
45.0
 43
0.0
 44
0.0
 45
-0.0707106781186548
 46
0.0707106781186548
 79
     0
 98
        1
 10
0.0
 20
0.0
  0
HATCH
  5
31D
330
74
100
AcDbEntity
  8
1
  6
Continuous
 62
     2
100
AcDbHatch
 10
0.0
 20
0.0
 30
0.0
210
0.0
220
0.0
230
1.0
  2
_USER
 70
     0
 71
     1
 91
        1
 92
        1
 93
       12
 72
     1
 10
-63.75564042193768
 20
14.67089126909994
 11
-62.59636420892346
 21
14.67089126909994
 72
     1
 10
-62.59636420892346
 20
14.67089126909994
 11
-63.672834978152
 21
13.45357678146672
 72
     1
 10
-63.672834978152
 20
13.45357678146672
 11
-62.51750188150712
 21
12.14708174528911
 72
     1
 10
-62.51750188150712
 20
12.14708174528911
 11
-63.67677809452223
 21
12.14708174528911
 72
     1
 10
-63.67677809452223
 20
12.14708174528911
 11
-64.25247308465899
 21
12.79809974966405
 72
     1
 10
-64.25247308465899
 20
12.79809974966405
 11
-64.82816807479595
 21
12.14708174528911
 72
     1
 10
-64.82816807479595
 20
12.14708174528911
 11
-65.98744428781097
 21
12.14708174528911
 72
     1
 10
-65.98744428781097
 20
12.14708174528911
 11
-64.83211119116609
 21
13.45357678146672
 72
     1
 10
-64.83211119116609
 20
13.45357678146672
 11
-65.90858196039542
 21
14.67089126909994
 72
     1
 10
-65.90858196039542
 20
14.67089126909994
 11
-64.74930574737951
 21
14.67089126909994
 72
     1
 10
-64.74930574737951
 20
14.67089126909994
 11
-64.25247308465899
 21
14.10905381326895
 72
     1
 10
-64.25247308465899
 20
14.10905381326895
 11
-63.75564042193768
 21
14.67089126909994
 97
       12
330
137
330
190
330
18F
330
18E
330
18D
330
138
330
139
330
135
330
136
330
193
330
192
330
191
 75
     1
 76
     0
 52
45.0
 41
0.1
 77
     0
 78
     1
 53
45.0
 43
0.0
 44
0.0
 45
-0.0707106781186548
 46
0.0707106781186548
 79
     0
 98
        1
 10
0.0
 20
0.0
  0
HATCH
  5
31E
330
74
100
AcDbEntity
  8
1
  6
Continuous
 62
     2
100
AcDbHatch
 10
0.0
 20
0.0
 30
0.0
210
0.0
220
0.0
230
1.0
  2
_USER
 70
     0
 71
     1
 91
        1
 92
        1
 93
        4
 72
     1
 10
-66.08602219708112
 20
14.67089126909994
 11
-66.08602219708112
 21
12.14708174528911
 72
     1
 10
-66.08602219708112
 20
12.14708174528911
 11
-67.1112324534885
 21
12.14708174528911
 72
     1
 10
-67.1112324534885
 20
12.14708174528911
 11
-67.1112324534885
 21
14.67089126909994
 72
     1
 10
-67.1112324534885
 20
14.67089126909994
 11
-66.08602219708112
 21
14.67089126909994
 97
        4
330
18B
330
13A
330
18A
330
18C
 75
     1
 76
     0
 52
45.0
 41
0.1
 77
     0
 78
     1
 53
45.0
 43
0.0
 44
0.0
 45
-0.0707106781186548
 46
0.0707106781186548
 79
     0
 98
        1
 10
0.0
 20
0.0
  0
HATCH
  5
31F
330
74
100
AcDbEntity
  8
1
  6
Continuous
 62
     2
100
AcDbHatch
 10
0.0
 20
0.0
 30
0.0
210
0.0
220
0.0
230
1.0
  2
_USER
 70
     0
 71
     1
 91
        1
 92
        1
 93
        4
 72
     1
 10
-66.08602219708112
 20
14.67089126909994
 11
-66.08602219708112
 21
12.14708174528911
 72
     1
 10
-66.08602219708112
 20
12.14708174528911
 11
-67.1112324534885
 21
12.14708174528911
 72
     1
 10
-67.1112324534885
 20
12.14708174528911
 11
-67.1112324534885
 21
14.67089126909994
 72
     1
 10
-67.1112324534885
 20
14.67089126909994
 11
-66.08602219708112
 21
14.67089126909994
 97
        4
330
18B
330
13A
330
18A
330
18C
 75
     1
 76
     0
 52
45.0
 41
0.1
 77
     0
 78
     1
 53
45.0
 43
0.0
 44
0.0
 45
-0.0707106781186548
 46
0.0707106781186548
 79
     0
 98
        1
 10
0.0
 20
0.0
  0
HATCH
  5
320
330
74
100
AcDbEntity
  8
1
  6
Continuous
 62
     2
100
AcDbHatch
 10
0.0
 20
0.0
 30
0.0
210
0.0
220
0.0
230
1.0
  2
_USER
 70
     0
 71
     1
 91
        2
 92
        1
 93
        8
 72
     1
 10
-66.40870319173565
 20
9.370891269111958
 11
-67.43391344814385
 21
9.370891269111958
 72
     1
 10
-67.43391344814385
 20
9.370891269111958
 11
-67.60869035184285
 21
9.817966099044078
 72
     1
 10
-67.60869035184285
 20
9.817966099044078
 11
-68.5445924813254
 21
9.817966099044078
 72
     1
 10
-68.5445924813254
 20
9.817966099044078
 11
-68.71936938502441
 21
9.370891269111958
 72
     1
 10
-68.71936938502441
 20
9.370891269111958
 11
-69.74457964143178
 21
9.370891269111958
 72
     1
 10
-69.74457964143178
 20
9.370891269111958
 11
-68.58924654478781
 21
11.89470079292279
 72
     1
 10
-68.58924654478781
 20
11.89470079292279
 11
-67.56403628838056
 21
11.89470079292279
 72
     1
 10
-67.56403628838056
 20
11.89470079292279
 11
-66.40870319173565
 21
9.370891269111958
 97
        8
330
186
330
140
330
185
330
188
330
13D
330
187
330
13E
330
13F
 92
       16
 93
        3
 72
     1
 10
-68.32471186054435
 20
10.38041507863628
 11
-67.82857097262493
 21
10.38041507863628
 72
     1
 10
-67.82857097262493
 20
10.38041507863628
 11
-68.07664141658373
 21
11.01497290176582
 72
     1
 10
-68.07664141658373
 20
11.01497290176582
 11
-68.32471186054435
 21
10.38041507863628
 97
        3
330
13C
330
13B
330
189
 75
     1
 76
     0
 52
45.0
 41
0.1
 77
     0
 78
     1
 53
45.0
 43
0.0
 44
0.0
 45
-0.0707106781186548
 46
0.0707106781186548
 79
     0
 98
        1
 10
0.0
 20
0.0
  0
HATCH
  5
321
330
74
100
AcDbEntity
  8
1
  6
Continuous
 62
     2
100
AcDbHatch
 10
0.0
 20
0.0
 30
0.0
210
0.0
220
0.0
230
1.0
  2
_USER
 70
     0
 71
     1
 91
        2
 92
        1
 93
        8
 72
     1
 10
-66.40870319173565
 20
9.370891269111958
 11
-67.43391344814385
 21
9.370891269111958
 72
     1
 10
-67.43391344814385
 20
9.370891269111958
 11
-67.60869035184285
 21
9.817966099044078
 72
     1
 10
-67.60869035184285
 20
9.817966099044078
 11
-68.5445924813254
 21
9.817966099044078
 72
     1
 10
-68.5445924813254
 20
9.817966099044078
 11
-68.71936938502441
 21
9.370891269111958
 72
     1
 10
-68.71936938502441
 20
9.370891269111958
 11
-69.74457964143178
 21
9.370891269111958
 72
     1
 10
-69.74457964143178
 20
9.370891269111958
 11
-68.58924654478781
 21
11.89470079292279
 72
     1
 10
-68.58924654478781
 20
11.89470079292279
 11
-67.56403628838056
 21
11.89470079292279
 72
     1
 10
-67.56403628838056
 20
11.89470079292279
 11
-66.40870319173565
 21
9.370891269111958
 97
        8
330
186
330
140
330
185
330
188
330
13D
330
187
330
13E
330
13F
 92
       16
 93
        3
 72
     1
 10
-68.32471186054435
 20
10.38041507863628
 11
-67.82857097262493
 21
10.38041507863628
 72
     1
 10
-67.82857097262493
 20
10.38041507863628
 11
-68.07664141658373
 21
11.01497290176582
 72
     1
 10
-68.07664141658373
 20
11.01497290176582
 11
-68.32471186054435
 21
10.38041507863628
 97
        3
330
13C
330
13B
330
189
 75
     1
 76
     0
 52
45.0
 41
0.1
 77
     0
 78
     1
 53
45.0
 43
0.0
 44
0.0
 45
-0.0707106781186548
 46
0.0707106781186548
 79
     0
 98
        1
 10
0.0
 20
0.0
  0
HATCH
  5
322
330
74
100
AcDbEntity
  8
1
  6
Continuous
 62
     2
100
AcDbHatch
 10
0.0
 20
0.0
 30
0.0
210
0.0
220
0.0
230
1.0
  2
_USER
 70
     0
 71
     1
 91
        1
 92
        1
 93
        8
 72
     1
 10
-71.52764752505348
 20
11.89470079292279
 11
-71.52764752505348
 21
11.24572120108507
 72
     1
 10
-71.52764752505348
 20
11.24572120108507
 11
-70.8573177420166
 21
11.24572120108507
 72
     1
 10
-70.8573177420166
 20
11.24572120108507
 11
-70.8573177420166
 21
9.370891269111958
 72
     1
 10
-70.8573177420166
 20
9.370891269111958
 11
-69.87153864931705
 21
9.370891269111958
 72
     1
 10
-69.87153864931705
 20
9.370891269111958
 11
-69.87153864931705
 21
11.24572120108507
 72
     1
 10
-69.87153864931705
 20
11.24572120108507
 11
-69.20120886628187
 21
11.24572120108507
 72
     1
 10
-69.20120886628187
 20
11.24572120108507
 11
-69.20120886628187
 21
11.89470079292279
 72
     1
 10
-69.20120886628187
 20
11.89470079292279
 11
-71.52764752505348
 21
11.89470079292279
 97
        8
330
182
330
181
330
180
330
141
330
142
330
184
330
143
330
183
 75
     1
 76
     0
 52
45.0
 41
0.1
 77
     0
 78
     1
 53
45.0
 43
0.0
 44
0.0
 45
-0.0707106781186548
 46
0.0707106781186548
 79
     0
 98
        1
 10
0.0
 20
0.0
  0
HATCH
  5
323
330
74
100
AcDbEntity
  8
1
  6
Continuous
 62
     2
100
AcDbHatch
 10
0.0
 20
0.0
 30
0.0
210
0.0
220
0.0
230
1.0
  2
_USER
 70
     0
 71
     1
 91
        1
 92
        1
 93
        8
 72
     1
 10
-71.52764752505348
 20
11.89470079292279
 11
-71.52764752505348
 21
11.24572120108507
 72
     1
 10
-71.52764752505348
 20
11.24572120108507
 11
-70.8573177420166
 21
11.24572120108507
 72
     1
 10
-70.8573177420166
 20
11.24572120108507
 11
-70.8573177420166
 21
9.370891269111958
 72
     1
 10
-70.8573177420166
 20
9.370891269111958
 11
-69.87153864931705
 21
9.370891269111958
 72
     1
 10
-69.87153864931705
 20
9.370891269111958
 11
-69.87153864931705
 21
11.24572120108507
 72
     1
 10
-69.87153864931705
 20
11.24572120108507
 11
-69.20120886628187
 21
11.24572120108507
 72
     1
 10
-69.20120886628187
 20
11.24572120108507
 11
-69.20120886628187
 21
11.89470079292279
 72
     1
 10
-69.20120886628187
 20
11.89470079292279
 11
-71.52764752505348
 21
11.89470079292279
 97
        8
330
182
330
181
330
180
330
141
330
142
330
184
330
143
330
183
 75
     1
 76
     0
 52
45.0
 41
0.1
 77
     0
 78
     1
 53
45.0
 43
0.0
 44
0.0
 45
-0.0707106781186548
 46
0.0707106781186548
 79
     0
 98
        1
 10
0.0
 20
0.0
  0
HATCH
  5
324
330
74
100
AcDbEntity
  8
1
  6
Continuous
 62
     2
100
AcDbHatch
 10
0.0
 20
0.0
 30
0.0
210
0.0
220
0.0
230
1.0
  2
_USER
 70
     0
 71
     1
 91
        1
 92
        1
 93
       10
 72
     1
 10
-69.31937762113685
 20
14.67089126909994
 11
-70.3051567138364
 21
14.67089126909994
 72
     1
 10
-70.3051567138364
 20
14.67089126909994
 11
-70.3051567138364
 21
12.14708174528911
 72
     1
 10
-70.3051567138364
 20
12.14708174528911
 11
-69.31937762113685
 21
12.14708174528911
 72
     1
 10
-69.31937762113685
 20
12.14708174528911
 11
-69.31937762113685
 21
13.22871439835077
 72
     1
 10
-69.31937762113685
 20
13.22871439835077
 11
-68.29416736472857
 21
12.14708174528911
 72
     1
 10
-68.29416736472857
 20
12.14708174528911
 11
-67.3083882720289
 21
12.14708174528911
 72
     1
 10
-67.3083882720289
 20
12.14708174528911
 11
-67.3083882720289
 21
14.67089126909994
 72
     1
 10
-67.3083882720289
 20
14.67089126909994
 11
-68.29416736472857
 21
14.67089126909994
 72
     1
 10
-68.29416736472857
 20
14.67089126909994
 11
-68.29416736472857
 21
13.58925861603783
 72
     1
 10
-68.29416736472857
 20
13.58925861603783
 11
-69.31937762113685
 21
14.67089126909994
 97
       10
330
17C
330
146
330
147
330
148
330
149
330
17F
330
144
330
17E
330
17D
330
145
 75
     1
 76
     0
 52
45.0
 41
0.1
 77
     0
 78
     1
 53
45.0
 43
0.0
 44
0.0
 45
-0.0707106781186548
 46
0.0707106781186548
 79
     0
 98
        1
 10
0.0
 20
0.0
  0
HATCH
  5
325
330
74
100
AcDbEntity
  8
1
  6
Continuous
 62
     2
100
AcDbHatch
 10
0.0
 20
0.0
 30
0.0
210
0.0
220
0.0
230
1.0
  2
_USER
 70
     0
 71
     1
 91
        1
 92
        1
 93
       10
 72
     1
 10
-69.31937762113685
 20
14.67089126909994
 11
-70.3051567138364
 21
14.67089126909994
 72
     1
 10
-70.3051567138364
 20
14.67089126909994
 11
-70.3051567138364
 21
12.14708174528911
 72
     1
 10
-70.3051567138364
 20
12.14708174528911
 11
-69.31937762113685
 21
12.14708174528911
 72
     1
 10
-69.31937762113685
 20
12.14708174528911
 11
-69.31937762113685
 21
13.22871439835077
 72
     1
 10
-69.31937762113685
 20
13.22871439835077
 11
-68.29416736472857
 21
12.14708174528911
 72
     1
 10
-68.29416736472857
 20
12.14708174528911
 11
-67.3083882720289
 21
12.14708174528911
 72
     1
 10
-67.3083882720289
 20
12.14708174528911
 11
-67.3083882720289
 21
14.67089126909994
 72
     1
 10
-67.3083882720289
 20
14.67089126909994
 11
-68.29416736472857
 21
14.67089126909994
 72
     1
 10
-68.29416736472857
 20
14.67089126909994
 11
-68.29416736472857
 21
13.58925861603783
 72
     1
 10
-68.29416736472857
 20
13.58925861603783
 11
-69.31937762113685
 21
14.67089126909994
 97
       10
330
17C
330
146
330
147
330
148
330
149
330
17F
330
144
330
17E
330
17D
330
145
 75
     1
 76
     0
 52
45.0
 41
0.1
 77
     0
 78
     1
 53
45.0
 43
0.0
 44
0.0
 45
-0.0707106781186548
 46
0.0707106781186548
 79
     0
 98
        1
 10
0.0
 20
0.0
  0
HATCH
  5
326
330
74
100
AcDbEntity
  8
1
  6
Continuous
 62
     2
100
AcDbHatch
 10
0.0
 20
0.0
 30
0.0
210
0.0
220
0.0
230
1.0
  2
_USER
 70
     0
 71
     1
 91
        1
 92
        1
 93
       10
 72
     1
 10
-73.65693036528447
 20
11.89470079292279
 11
-74.64270945798492
 21
11.89470079292279
 72
     1
 10
-74.64270945798492
 20
11.89470079292279
 11
-74.64270945798492
 21
9.370891269111958
 72
     1
 10
-74.64270945798492
 20
9.370891269111958
 11
-73.65693036528447
 21
9.370891269111958
 72
     1
 10
-73.65693036528447
 20
9.370891269111958
 11
-73.65693036528447
 21
10.45252392217361
 72
     1
 10
-73.65693036528447
 20
10.45252392217361
 11
-72.6317201088771
 21
9.370891269111958
 72
     1
 10
-72.6317201088771
 20
9.370891269111958
 11
-71.64594101617755
 21
9.370891269111958
 72
     1
 10
-71.64594101617755
 20
9.370891269111958
 11
-71.64594101617755
 21
11.89470079292279
 72
     1
 10
-71.64594101617755
 20
11.89470079292279
 11
-72.6317201088771
 21
11.89470079292279
 72
     1
 10
-72.6317201088771
 20
11.89470079292279
 11
-72.6317201088771
 21
10.81306813986068
 72
     1
 10
-72.6317201088771
 20
10.81306813986068
 11
-73.65693036528447
 21
11.89470079292279
 97
       10
330
14B
330
14C
330
14D
330
179
330
14E
330
14F
330
178
330
17B
330
17A
330
14A
 75
     1
 76
     0
 52
45.0
 41
0.1
 77
     0
 78
     1
 53
45.0
 43
0.0
 44
0.0
 45
-0.0707106781186548
 46
0.0707106781186548
 79
     0
 98
        1
 10
0.0
 20
0.0
  0
HATCH
  5
327
330
74
100
AcDbEntity
  8
1
  6
Continuous
 62
     2
100
AcDbHatch
 10
0.0
 20
0.0
 30
0.0
210
0.0
220
0.0
230
1.0
  2
_USER
 70
     0
 71
     1
 91
        1
 92
        1
 93
       10
 72
     1
 10
-73.65693036528447
 20
11.89470079292279
 11
-74.64270945798492
 21
11.89470079292279
 72
     1
 10
-74.64270945798492
 20
11.89470079292279
 11
-74.64270945798492
 21
9.370891269111958
 72
     1
 10
-74.64270945798492
 20
9.370891269111958
 11
-73.65693036528447
 21
9.370891269111958
 72
     1
 10
-73.65693036528447
 20
9.370891269111958
 11
-73.65693036528447
 21
10.45252392217361
 72
     1
 10
-73.65693036528447
 20
10.45252392217361
 11
-72.6317201088771
 21
9.370891269111958
 72
     1
 10
-72.6317201088771
 20
9.370891269111958
 11
-71.64594101617755
 21
9.370891269111958
 72
     1
 10
-71.64594101617755
 20
9.370891269111958
 11
-71.64594101617755
 21
11.89470079292279
 72
     1
 10
-71.64594101617755
 20
11.89470079292279
 11
-72.6317201088771
 21
11.89470079292279
 72
     1
 10
-72.6317201088771
 20
11.89470079292279
 11
-72.6317201088771
 21
10.81306813986068
 72
     1
 10
-72.6317201088771
 20
10.81306813986068
 11
-73.65693036528447
 21
11.89470079292279
 97
       10
330
14B
330
14C
330
14D
330
179
330
14E
330
14F
330
178
330
17B
330
17A
330
14A
 75
     1
 76
     0
 52
45.0
 41
0.1
 77
     0
 78
     1
 53
45.0
 43
0.0
 44
0.0
 45
-0.0707106781186548
 46
0.0707106781186548
 79
     0
 98
        1
 10
0.0
 20
0.0
  0
HATCH
  5
328
330
74
100
AcDbEntity
  8
1
  6
Continuous
 62
     2
100
AcDbHatch
 10
0.0
 20
0.0
 30
0.0
210
0.0
220
0.0
230
1.0
  2
_USER
 70
     0
 71
     1
 91
        1
 92
        1
 93
       12
 72
     1
 10
-74.48486006688395
 20
14.67089126909994
 11
-74.48486006688395
 21
12.14708174528911
 72
     1
 10
-74.48486006688395
 20
12.14708174528911
 11
-75.4706391595835
 21
12.14708174528911
 72
     1
 10
-75.4706391595835
 20
12.14708174528911
 11
-75.4706391595835
 21
13.08449671127567
 72
     1
 10
-75.4706391595835
 20
13.08449671127567
 11
-76.33812476115989
 21
13.08449671127567
 72
     1
 10
-76.33812476115989
 20
13.08449671127567
 11
-76.33812476115989
 21
12.14708174528911
 72
     1
 10
-76.33812476115989
 20
12.14708174528911
 11
-77.32390385385955
 21
12.14708174528911
 72
     1
 10
-77.32390385385955
 20
12.14708174528911
 11
-77.32390385385955
 21
14.67089126909994
 72
     1
 10
-77.32390385385955
 20
14.67089126909994
 11
-76.33812476115989
 21
14.67089126909994
 72
     1
 10
-76.33812476115989
 20
14.67089126909994
 11
-76.33812476115989
 21
13.78755793576558
 72
     1
 10
-76.33812476115989
 20
13.78755793576558
 11
-75.4706391595835
 21
13.78755793576558
 72
     1
 10
-75.4706391595835
 20
13.78755793576558
 11
-75.4706391595835
 21
14.67089126909994
 72
     1
 10
-75.4706391595835
 20
14.67089126909994
 11
-74.48486006688395
 21
14.67089126909994
 97
       12
330
173
330
172
330
171
330
159
330
15A
330
170
330
15B
330
16F
330
16E
330
16D
330
157
330
158
 75
     1
 76
     0
 52
45.0
 41
0.1
 77
     0
 78
     1
 53
45.0
 43
0.0
 44
0.0
 45
-0.0707106781186548
 46
0.0707106781186548
 79
     0
 98
        1
 10
0.0
 20
0.0
  0
HATCH
  5
329
330
74
100
AcDbEntity
  8
1
  6
Continuous
 62
     2
100
AcDbHatch
 10
0.0
 20
0.0
 30
0.0
210
0.0
220
0.0
230
1.0
  2
_USER
 70
     0
 71
     1
 91
        1
 92
        1
 93
       12
 72
     1
 10
-74.48486006688395
 20
14.67089126909994
 11
-74.48486006688395
 21
12.14708174528911
 72
     1
 10
-74.48486006688395
 20
12.14708174528911
 11
-75.4706391595835
 21
12.14708174528911
 72
     1
 10
-75.4706391595835
 20
12.14708174528911
 11
-75.4706391595835
 21
13.08449671127567
 72
     1
 10
-75.4706391595835
 20
13.08449671127567
 11
-76.33812476115989
 21
13.08449671127567
 72
     1
 10
-76.33812476115989
 20
13.08449671127567
 11
-76.33812476115989
 21
12.14708174528911
 72
     1
 10
-76.33812476115989
 20
12.14708174528911
 11
-77.32390385385955
 21
12.14708174528911
 72
     1
 10
-77.32390385385955
 20
12.14708174528911
 11
-77.32390385385955
 21
14.67089126909994
 72
     1
 10
-77.32390385385955
 20
14.67089126909994
 11
-76.33812476115989
 21
14.67089126909994
 72
     1
 10
-76.33812476115989
 20
14.67089126909994
 11
-76.33812476115989
 21
13.78755793576558
 72
     1
 10
-76.33812476115989
 20
13.78755793576558
 11
-75.4706391595835
 21
13.78755793576558
 72
     1
 10
-75.4706391595835
 20
13.78755793576558
 11
-75.4706391595835
 21
14.67089126909994
 72
     1
 10
-75.4706391595835
 20
14.67089126909994
 11
-74.48486006688395
 21
14.67089126909994
 97
       12
330
173
330
172
330
171
330
159
330
15A
330
170
330
15B
330
16F
330
16E
330
16D
330
157
330
158
 75
     1
 76
     0
 52
45.0
 41
0.1
 77
     0
 78
     1
 53
45.0
 43
0.0
 44
0.0
 45
-0.0707106781186548
 46
0.0707106781186548
 79
     0
 98
        1
 10
0.0
 20
0.0
  0
ENDBLK
  5
76
330
74
100
AcDbEntity
  8
0
100
AcDbBlockEnd
  0
BLOCK
  5
7A
330
77
100
AcDbEntity
  8
0
100
AcDbBlockBegin
  2
A4I
 70
     0
 10
37.30002651527005
 20
-1.479108730894
 30
0.0
  3
A4I
  1

  0
INSERT
  5
78
330
77
100
AcDbEntity
  8
1
100
AcDbBlockReference
  2
_punkt
 10
37.30002651527005
 20
3.52089126910611
 30
0.0
  0
INSERT
  5
79
330
77
100
AcDbEntity
  8
1
100
AcDbBlockReference
  2
_rahmen
 10
37.30002651527005
 20
-1.479108730894
 30
0.0
  0
ENDBLK
  5
7B
330
77
100
AcDbEntity
  8
0
100
AcDbBlockEnd
  0
BLOCK
  5
BC
330
B5
100
AcDbEntity
  8
0
100
AcDbBlockBegin
  2
*D16
 70
     1
 10
0.0
 20
0.0
 30
0.0
  3
*D16
  1

  0
LINE
  5
B6
330
B5
100
AcDbEntity
  8
1
  6
Continuous
 62
     2
100
AcDbLine
 10
-70.7000003100902
 20
55.84999957084659
 30
0.0
 11
-70.7000003100902
 21
44.39999957084663
 31
0.0
  0
LINE
  5
B7
330
B5
100
AcDbEntity
  8
1
  6
Continuous
 62
     2
100
AcDbLine
 10
-65.7000003100902
 20
55.84999957084659
 30
0.0
 11
-71.7000003100902
 21
55.84999957084659
 31
0.0
  0
LINE
  5
B8
330
B5
100
AcDbEntity
  8
1
  6
Continuous
 62
     2
100
AcDbLine
 10
-65.7000003100902
 20
44.39999957084663
 30
0.0
 11
-71.7000003100902
 21
44.39999957084663
 31
0.0
  0
SOLID
  5
B9
330
B5
100
AcDbEntity
  8
1
 62
     2
100
AcDbTrace
 10
-70.46960843931227
 20
54.09999957084659
 30
0.0
 11
-70.93039218086814
 21
54.09999957084659
 31
0.0
 12
-70.7000003100902
 22
55.84999957084659
 32
0.0
 13
-70.7000003100902
 23
55.84999957084659
 33
0.0
  0
SOLID
  5
BA
330
B5
100
AcDbEntity
  8
1
 62
     2
100
AcDbTrace
 10
-70.93039218086814
 20
46.14999957084663
 30
0.0
 11
-70.46960843931227
 21
46.14999957084663
 31
0.0
 12
-70.7000003100902
 22
44.39999957084663
 32
0.0
 13
-70.7000003100902
 23
44.39999957084663
 33
0.0
  0
MTEXT
  5
BB
330
B5
100
AcDbEntity
  8
1
 62
     3
100
AcDbMText
 10
-71.87500031009021
 20
48.24374957084661
 30
0.0
 40
1.75
 41
0.0
 71
     7
 72
     1
  1
11,5
  7
CONVERTER_11
 11
0.0
 21
1.0
 31
0.0
 73
     1
 44
0.60024009603842
  0
ENDBLK
  5
BD
330
B5
100
AcDbEntity
  8
0
100
AcDbBlockEnd
  0
BLOCK
  5
C7
330
C0
100
AcDbEntity
  8
0
100
AcDbBlockBegin
  2
*D17
 70
     1
 10
0.0
 20
0.0
 30
0.0
  3
*D17
  1

  0
LINE
  5
C1
330
C0
100
AcDbEntity
  8
1
  6
Continuous
 62
     2
100
AcDbLine
 10
-65.7000003100902
 20
60.84999957084658
 30
0.0
 11
-55.2000003100902
 21
60.84999957084658
 31
0.0
  0
LINE
  5
C2
330
C0
100
AcDbEntity
  8
1
  6
Continuous
 62
     2
100
AcDbLine
 10
-65.7000003100902
 20
55.84999957084658
 30
0.0
 11
-65.7000003100902
 21
61.84999957084658
 31
0.0
  0
LINE
  5
C3
330
C0
100
AcDbEntity
  8
1
  6
Continuous
 62
     2
100
AcDbLine
 10
-55.2000003100902
 20
55.84999957084658
 30
0.0
 11
-55.2000003100902
 21
61.84999957084658
 31
0.0
  0
SOLID
  5
C4
330
C0
100
AcDbEntity
  8
1
 62
     2
100
AcDbTrace
 10
-63.9500003100902
 20
61.08039144162453
 30
0.0
 11
-63.9500003100902
 21
60.61960770006864
 31
0.0
 12
-65.7000003100902
 22
60.84999957084658
 32
0.0
 13
-65.7000003100902
 23
60.84999957084658
 33
0.0
  0
SOLID
  5
C5
330
C0
100
AcDbEntity
  8
1
 62
     2
100
AcDbTrace
 10
-56.9500003100902
 20
60.61960770006864
 30
0.0
 11
-56.9500003100902
 21
61.08039144162453
 31
0.0
 12
-55.2000003100902
 22
60.84999957084658
 32
0.0
 13
-55.2000003100902
 23
60.84999957084658
 33
0.0
  0
MTEXT
  5
C6
330
C0
100
AcDbEntity
  8
1
 62
     3
100
AcDbMText
 10
-62.59375031009021
 20
62.02499957084658
 30
0.0
 40
1.75
 41
0.0
 71
     7
 72
     1
  1
10,5
  7
CONVERTER_11
 11
0.9999999999970619
 21
2.424068405545306E-6
 31
0.0
 73
     1
 44
0.60024009603842
  0
ENDBLK
  5
C8
330
C0
100
AcDbEntity
  8
0
100
AcDbBlockEnd
  0
BLOCK
  5
12A
330
121
100
AcDbEntity
  8
0
100
AcDbBlockBegin
  2
*D18
 70
     1
 10
0.0
 20
0.0
 30
0.0
  3
*D18
  1

  0
LINE
  5
122
330
121
100
AcDbEntity
  8
1
  6
Continuous
 62
     2
100
AcDbLine
 10
-70.69999995449929
 20
78.6500001127371
 30
0.0
 11
-70.69999995449929
 21
75.1500001127371
 31
0.0
  0
LINE
  5
123
330
121
100
AcDbEntity
  8
1
  6
Continuous
 62
     2
100
AcDbLine
 10
-70.69999995449929
 20
75.1500001127371
 30
0.0
 11
-70.69999995449929
 21
70.8500001127371
 31
0.0
  0
LINE
  5
124
330
121
100
AcDbEntity
  8
1
  6
Continuous
 62
     2
100
AcDbLine
 10
-70.69999995449929
 20
70.8500001127371
 30
0.0
 11
-70.69999995449929
 21
67.3500001127371
 31
0.0
  0
LINE
  5
125
330
121
100
AcDbEntity
  8
1
  6
Continuous
 62
     2
100
AcDbLine
 10
-65.69999995449929
 20
75.1500001127371
 30
0.0
 11
-71.69999995449929
 21
75.1500001127371
 31
0.0
  0
LINE
  5
126
330
121
100
AcDbEntity
  8
1
  6
Continuous
 62
     2
100
AcDbLine
 10
-63.24999995449932
 20
70.8500001127371
 30
0.0
 11
-71.69999995449929
 21
70.8500001127371
 31
0.0
  0
SOLID
  5
127
330
121
100
AcDbEntity
  8
1
 62
     2
100
AcDbTrace
 10
-70.93039182527723
 20
76.9000001127371
 30
0.0
 11
-70.46960808372135
 21
76.9000001127371
 31
0.0
 12
-70.69999995449929
 22
75.1500001127371
 32
0.0
 13
-70.69999995449929
 23
75.1500001127371
 33
0.0
  0
SOLID
  5
128
330
121
100
AcDbEntity
  8
1
 62
     2
100
AcDbTrace
 10
-70.46960808372135
 20
69.1000001127371
 30
0.0
 11
-70.93039182527723
 21
69.1000001127371
 31
0.0
 12
-70.69999995449929
 22
70.8500001127371
 32
0.0
 13
-70.69999995449929
 23
70.8500001127371
 33
0.0
  0
MTEXT
  5
129
330
121
100
AcDbEntity
  8
1
 62
     3
100
AcDbMText
 10
-71.8749999544993
 20
71.38125011273709
 30
0.0
 40
1.75
 41
0.0
 71
     7
 72
     1
  1
4,3
  7
CONVERTER_11
 11
0.0
 21
1.0
 31
0.0
 73
     1
 44
0.60024009603842
  0
ENDBLK
  5
12B
330
121
100
AcDbEntity
  8
0
100
AcDbBlockEnd
  0
ENDSEC
  0
SECTION
  2
ENTITIES
  0
INSERT
  5
7C
330
1F
100
AcDbEntity
  8
0
100
AcDbBlockReference
  2
Allg1
 10
0.00000000004384
 20
65.0000000000041
 30
0.0
 41
2.0
 42
2.0
 43
2.0
  0
INSERT
  5
7D
330
1F
100
AcDbEntity
  8
0
100
AcDbBlockReference
  2
Drfsicht1
 10
-120.9000022370104
 20
100.2500014305115
 30
0.0
 41
2.0
 42
2.0
 43
2.0
  0
INSERT
  5
7E
330
1F
100
AcDbEntity
  8
0
100
AcDbBlockReference
  2
Rckans1
 10
-37.00000000025
 20
146.0000000000999
 30
0.0
 41
2.0
 42
2.0
 43
2.0
  0
INSERT
  5
7F
330
1F
100
AcDbEntity
  8
0
100
AcDbBlockReference
  2
SA_Links1
 10
-78.94999476293945
 20
146.00000000002
 30
0.0
 41
2.0
 42
2.0
 43
2.0
  0
INSERT
  5
80
330
1F
100
AcDbEntity
  8
0
100
AcDbBlockReference
  2
SA_Rechts1
 10
-172.8499949999501
 20
146.0000000000198
 30
0.0
 41
2.0
 42
2.0
 43
2.0
  0
INSERT
  5
81
330
1F
100
AcDbEntity
  8
0
100
AcDbBlockReference
  2
Vordans1
 10
-120.9000015258286
 20
146.0000000000198
 30
0.0
 41
2.0
 42
2.0
 43
2.0
  0
INSERT
  5
82
330
1F
100
AcDbEntity
  8
0
100
AcDbBlockReference
  2
A4I
 10
37.30002651527005
 20
-1.479108730894
 30
0.0
  0
ENDSEC
  0
SECTION
  2
OBJECTS
  0
DICTIONARY
  5
C
330
0
100
AcDbDictionary
281
     1
  3
ACAD_GROUP
350
D
  3
ACAD_LAYOUT
350
1A
  3
ACAD_MATERIAL
350
3B
  3
ACAD_MLEADERSTYLE
350
32C
  3
ACAD_MLINESTYLE
350
17
  3
ACAD_PLOTSETTINGS
350
19
  3
ACAD_PLOTSTYLENAME
350
E
  3
ACAD_VISUALSTYLE
350
2A
  3
AcDbVariableDictionary
350
32A
  0
DICTIONARY
  5
D
102
{ACAD_REACTORS
330
C
102
}
330
C
100
AcDbDictionary
281
     1
  0
DICTIONARY
  5
1A
102
{ACAD_REACTORS
330
C
102
}
330
C
100
AcDbDictionary
281
     1
  3
Layout1
350
1E
  3
Layout2
350
26
  3
Model
350
22
  0
DICTIONARY
  5
3B
102
{ACAD_REACTORS
330
C
102
}
330
C
100
AcDbDictionary
281
     1
  3
ByBlock
350
3D
  3
ByLayer
350
3C
  3
Global
350
3E
  0
DICTIONARY
  5
32C
102
{ACAD_REACTORS
330
C
102
}
330
C
100
AcDbDictionary
281
     1
  0
DICTIONARY
  5
17
102
{ACAD_REACTORS
330
C
102
}
330
C
100
AcDbDictionary
281
     1
  3
Standard
350
18
  0
DICTIONARY
  5
19
102
{ACAD_REACTORS
330
C
102
}
330
C
100
AcDbDictionary
281
     1
  0
ACDBDICTIONARYWDFLT
  5
E
102
{ACAD_REACTORS
330
C
102
}
330
C
100
AcDbDictionary
281
     1
  3
Normal
350
F
100
AcDbDictionaryWithDefault
340
F
  0
DICTIONARY
  5
2A
102
{ACAD_REACTORS
330
C
102
}
330
C
100
AcDbDictionary
281
     1
  3
2dWireframe
350
2F
  3
3D Hidden
350
31
  3
3dWireframe
350
30
  3
Basic
350
32
  3
Brighten
350
36
  3
ColorChange
350
3A
  3
Conceptual
350
34
  3
Dim
350
35
  3
Facepattern
350
39
  3
Flat
350
2B
  3
FlatWithEdges
350
2C
  3
Gouraud
350
2D
  3
GouraudWithEdges
350
2E
  3
Linepattern
350
38
  3
Realistic
350
33
  3
Thicken
350
37
  0
DICTIONARY
  5
32A
102
{ACAD_REACTORS
330
C
102
}
330
C
100
AcDbDictionary
281
     1
  3
DIMASSOC
350
32D
  3
HIDETEXT
350
32E
  0
LAYOUT
  5
1E
102
{ACAD_REACTORS
330
1A
102
}
330
1A
100
AcDbPlotSettings
  1

  2
none_device
  4

  6

 40
0.0
 41
0.0
 42
0.0
 43
0.0
 44
0.0
 45
0.0
 46
0.0
 47
0.0
 48
0.0
 49
0.0
140
0.0
141
0.0
142
1.0
143
1.0
 70
   688
 72
     0
 73
     0
 74
     5
  7

 75
    16
147
1.0
148
0.0
149
0.0
100
AcDbLayout
  1
Layout1
 70
     1
 71
     1
 10
0.0
 20
0.0
 11
12.0
 21
9.0
 12
0.0
 22
0.0
 32
0.0
 14
1.00000000000000E+20
 24
1.00000000000000E+20
 34
1.00000000000000E+20
 15
-1.00000000000000E+20
 25
-1.00000000000000E+20
 35
-1.00000000000000E+20
146
0.0
 13
0.0
 23
0.0
 33
0.0
 16
1.0
 26
0.0
 36
0.0
 17
0.0
 27
1.0
 37
0.0
 76
     0
330
1B
  0
LAYOUT
  5
26
102
{ACAD_REACTORS
330
1A
102
}
330
1A
100
AcDbPlotSettings
  1

  2
none_device
  4

  6

 40
0.0
 41
0.0
 42
0.0
 43
0.0
 44
0.0
 45
0.0
 46
0.0
 47
0.0
 48
0.0
 49
0.0
140
0.0
141
0.0
142
1.0
143
1.0
 70
   688
 72
     0
 73
     0
 74
     5
  7

 75
    16
147
1.0
148
0.0
149
0.0
100
AcDbLayout
  1
Layout2
 70
     1
 71
     2
 10
0.0
 20
0.0
 11
0.0
 21
0.0
 12
0.0
 22
0.0
 32
0.0
 14
0.0
 24
0.0
 34
0.0
 15
0.0
 25
0.0
 35
0.0
146
0.0
 13
0.0
 23
0.0
 33
0.0
 16
1.0
 26
0.0
 36
0.0
 17
0.0
 27
1.0
 37
0.0
 76
     0
330
23
  0
LAYOUT
  5
22
102
{ACAD_REACTORS
330
1A
102
}
330
1A
100
AcDbPlotSettings
  1

  2
none_device
  4

  6

 40
0.0
 41
0.0
 42
0.0
 43
0.0
 44
0.0
 45
0.0
 46
0.0
 47
0.0
 48
0.0
 49
0.0
140
0.0
141
0.0
142
1.0
143
1.0
 70
  1712
 72
     0
 73
     0
 74
     0
  7

 75
     0
147
1.0
148
0.0
149
0.0
100
AcDbLayout
  1
Model
 70
     1
 71
     0
 10
0.0
 20
0.0
 11
12.0
 21
9.0
 12
0.0
 22
0.0
 32
0.0
 14
-254.6999734847291
 24
-1.479108730894
 34
0.0
 15
42.30002651526905
 25
208.520891269106
 35
0.0
146
0.0
 13
0.0
 23
0.0
 33
0.0
 16
1.0
 26
0.0
 36
0.0
 17
0.0
 27
1.0
 37
0.0
 76
     0
330
1F
331
29
  0
MATERIAL
  5
3D
102
{ACAD_REACTORS
330
3B
102
}
102
{ACAD_XDICTIONARY
360
351
102
}
330
3B
100
AcDbMaterial
  1
ByBlock
  0
MATERIAL
  5
3C
102
{ACAD_REACTORS
330
3B
102
}
102
{ACAD_XDICTIONARY
360
34F
102
}
330
3B
100
AcDbMaterial
  1
ByLayer
  0
MATERIAL
  5
3E
102
{ACAD_REACTORS
330
3B
102
}
102
{ACAD_XDICTIONARY
360
353
102
}
330
3B
100
AcDbMaterial
  1
Global
  0
MLINESTYLE
  5
18
102
{ACAD_REACTORS
330
17
102
}
330
17
100
AcDbMlineStyle
  2
Standard
 70
     0
  3

 62
   256
 51
90.0
 52
90.0
 71
     2
 49
0.5
 62
   256
  6
BYLAYER
 49
-0.5
 62
   256
  6
BYLAYER
  0
ACDBPLACEHOLDER
  5
F
102
{ACAD_REACTORS
330
E
102
}
330
E
  0
VISUALSTYLE
  5
2F
102
{ACAD_REACTORS
330
2A
102
}
102
{ACAD_XDICTIONARY
360
337
102
}
330
2A
100
AcDbVisualStyle
  2
2dWireframe
 70
     4
 71
     0
 72
     2
 73
     0
 90
        0
 40
-0.6
 41
-30.0
 62
     5
 63
     7
 74
     1
 91
        4
 64
     7
 65
   257
 75
     1
175
     1
 42
1.0
 92
        0
 66
   257
 43
1.0
 76
     1
 77
     6
 78
     2
 67
     7
 79
     5
170
     0
171
     0
290
     0
174
     0
 93
        1
 44
0.0
173
     0
291
     0
 45
0.0
1001
ACAD
1000
AcDbSavedByObjectVersion
1070
     0
  0
VISUALSTYLE
  5
31
102
{ACAD_REACTORS
330
2A
102
}
102
{ACAD_XDICTIONARY
360
33B
102
}
330
2A
100
AcDbVisualStyle
  2
3D Hidden
 70
     6
 71
     1
 72
     2
 73
     2
 90
        0
 40
-0.6
 41
-30.0
 62
     5
 63
     7
 74
     2
 91
        2
 64
     7
 65
   257
 75
     2
175
     1
 42
40.0
 92
        0
 66
   257
 43
1.0
 76
     1
 77
     6
 78
     2
 67
     7
 79
     3
170
     0
171
     0
290
     0
174
     0
 93
        1
 44
0.0
173
     0
291
     0
 45
0.0
1001
ACAD
1000
AcDbSavedByObjectVersion
1070
     0
  0
VISUALSTYLE
  5
30
102
{ACAD_REACTORS
330
2A
102
}
102
{ACAD_XDICTIONARY
360
339
102
}
330
2A
100
AcDbVisualStyle
  2
3dWireframe
 70
     5
 71
     0
 72
     2
 73
     0
 90
        0
 40
-0.6
 41
-30.0
 62
     5
 63
     7
 74
     1
 91
        4
 64
     7
 65
   257
 75
     1
175
     1
 42
1.0
 92
        0
 66
   257
 43
1.0
 76
     1
 77
     6
 78
     2
 67
     7
 79
     5
170
     0
171
     0
290
     0
174
     0
 93
        1
 44
0.0
173
     0
291
     0
 45
0.0
1001
ACAD
1000
AcDbSavedByObjectVersion
1070
     0
  0
VISUALSTYLE
  5
32
102
{ACAD_REACTORS
330
2A
102
}
102
{ACAD_XDICTIONARY
360
33D
102
}
330
2A
100
AcDbVisualStyle
  2
Basic
 70
     7
 71
     1
 72
     0
 73
     1
 90
        0
 40
-0.6
 41
-30.0
 62
     5
 63
     7
 74
     0
 91
        4
 64
     7
 65
   257
 75
     1
175
     1
 42
1.0
 92
        8
 66
     7
 43
1.0
 76
     1
 77
     6
 78
     2
 67
     7
 79
     5
170
     0
171
     0
290
     0
174
     0
 93
        1
 44
0.0
173
     0
291
     1
 45
0.0
1001
ACAD
1000
AcDbSavedByObjectVersion
1070
     0
  0
VISUALSTYLE
  5
36
102
{ACAD_REACTORS
330
2A
102
}
102
{ACAD_XDICTIONARY
360
345
102
}
330
2A
100
AcDbVisualStyle
  2
Brighten
 70
    12
 71
     2
 72
     2
 73
     0
 90
        0
 40
-0.6
 41
-30.0
 62
     5
 63
     7
 74
     1
 91
        4
 64
     7
 65
   257
 75
     1
175
     1
 42
1.0
 92
        8
 66
     7
 43
1.0
 76
     1
 77
     6
 78
     2
 67
     7
 79
     5
170
     0
171
     0
290
     0
174
     0
 93
        1
 44
50.0
173
     0
291
     1
 45
0.0
1001
ACAD
1000
AcDbSavedByObjectVersion
1070
     0
  0
VISUALSTYLE
  5
3A
102
{ACAD_REACTORS
330
2A
102
}
102
{ACAD_XDICTIONARY
360
34D
102
}
330
2A
100
AcDbVisualStyle
  2
ColorChange
 70
    16
 71
     2
 72
     2
 73
     3
 90
        0
 40
-0.6
 41
-30.0
 62
     5
 63
     8
 74
     1
 91
        4
 64
     7
 65
   257
 75
     1
175
     1
 42
1.0
 92
        8
 66
     8
 43
1.0
 76
     1
 77
     6
 78
     2
 67
     7
 79
     5
170
     0
171
     0
290
     0
174
     0
 93
        1
 44
0.0
173
     0
291
     1
 45
0.0
1001
ACAD
1000
AcDbSavedByObjectVersion
1070
     0
  0
VISUALSTYLE
  5
34
102
{ACAD_REACTORS
330
2A
102
}
102
{ACAD_XDICTIONARY
360
341
102
}
330
2A
100
AcDbVisualStyle
  2
Conceptual
 70
     9
 71
     3
 72
     2
 73
     0
 90
        0
 40
-0.6
 41
-30.0
 62
     5
 63
     7
 74
     2
 91
        2
 64
     7
 65
   257
 75
     1
175
     1
 42
40.0
 92
        8
 66
     7
 43
1.0
 76
     1
 77
     6
 78
     2
 67
     7
 79
     3
170
     0
171
     0
290
     0
174
     0
 93
        1
 44
0.0
173
     0
291
     0
 45
0.0
1001
ACAD
1000
AcDbSavedByObjectVersion
1070
     0
  0
VISUALSTYLE
  5
35
102
{ACAD_REACTORS
330
2A
102
}
102
{ACAD_XDICTIONARY
360
343
102
}
330
2A
100
AcDbVisualStyle
  2
Dim
 70
    11
 71
     2
 72
     2
 73
     0
 90
        0
 40
-0.6
 41
-30.0
 62
     5
 63
     7
 74
     1
 91
        4
 64
     7
 65
   257
 75
     1
175
     1
 42
1.0
 92
        8
 66
     7
 43
1.0
 76
     1
 77
     6
 78
     2
 67
     7
 79
     5
170
     0
171
     0
290
     0
174
     0
 93
        1
 44
-50.0
173
     0
291
     1
 45
0.0
1001
ACAD
1000
AcDbSavedByObjectVersion
1070
     0
  0
VISUALSTYLE
  5
39
102
{ACAD_REACTORS
330
2A
102
}
102
{ACAD_XDICTIONARY
360
34B
102
}
330
2A
100
AcDbVisualStyle
  2
Facepattern
 70
    15
 71
     2
 72
     2
 73
     0
 90
        0
 40
-0.6
 41
-30.0
 62
     5
 63
     7
 74
     1
 91
        4
 64
     7
 65
   257
 75
     1
175
     1
 42
1.0
 92
        8
 66
     7
 43
1.0
 76
     1
 77
     6
 78
     2
 67
     7
 79
     5
170
     0
171
     0
290
     0
174
     0
 93
        1
 44
0.0
173
     0
291
     1
 45
0.0
1001
ACAD
1000
AcDbSavedByObjectVersion
1070
     0
  0
VISUALSTYLE
  5
2B
102
{ACAD_REACTORS
330
2A
102
}
102
{ACAD_XDICTIONARY
360
32F
102
}
330
2A
100
AcDbVisualStyle
  2
Flat
 70
     0
 71
     2
 72
     1
 73
     1
 90
        2
 40
-0.6
 41
30.0
 62
     5
 63
     7
 74
     0
 91
        4
 64
     7
 65
   257
 75
     1
175
     1
 42
1.0
 92
        8
 66
     7
 43
1.0
 76
     1
 77
     6
 78
     2
 67
     7
 79
     5
170
     0
171
     0
290
     0
174
     0
 93
       13
 44
0.0
173
     0
291
     1
 45
0.0
1001
ACAD
1000
AcDbSavedByObjectVersion
1070
     0
  0
VISUALSTYLE
  5
2C
102
{ACAD_REACTORS
330
2A
102
}
102
{ACAD_XDICTIONARY
360
331
102
}
330
2A
100
AcDbVisualStyle
  2
FlatWithEdges
 70
     1
 71
     2
 72
     1
 73
     1
 90
        2
 40
-0.6
 41
30.0
 62
     5
 63
     7
 74
     1
 91
        4
 64
     7
 65
   257
 75
     1
175
     1
 42
1.0
 92
        0
 66
   257
 43
1.0
 76
     1
 77
     6
 78
     2
 67
     7
 79
     5
170
     0
171
     0
290
     0
174
     0
 93
       13
 44
0.0
173
     0
291
     1
 45
0.0
1001
ACAD
1000
AcDbSavedByObjectVersion
1070
     0
  0
VISUALSTYLE
  5
2D
102
{ACAD_REACTORS
330
2A
102
}
102
{ACAD_XDICTIONARY
360
333
102
}
330
2A
100
AcDbVisualStyle
  2
Gouraud
 70
     2
 71
     2
 72
     2
 73
     1
 90
        2
 40
-0.6
 41
30.0
 62
     5
 63
     7
 74
     0
 91
        4
 64
     7
 65
   257
 75
     1
175
     1
 42
1.0
 92
        0
 66
     7
 43
1.0
 76
     1
 77
     6
 78
     2
 67
     7
 79
     5
170
     0
171
     0
290
     0
174
     0
 93
       13
 44
0.0
173
     0
291
     1
 45
0.0
1001
ACAD
1000
AcDbSavedByObjectVersion
1070
     0
  0
VISUALSTYLE
  5
2E
102
{ACAD_REACTORS
330
2A
102
}
102
{ACAD_XDICTIONARY
360
335
102
}
330
2A
100
AcDbVisualStyle
  2
GouraudWithEdges
 70
     3
 71
     2
 72
     2
 73
     1
 90
        2
 40
-0.6
 41
30.0
 62
     5
 63
     7
 74
     1
 91
        4
 64
     7
 65
   257
 75
     1
175
     1
 42
1.0
 92
        0
 66
   257
 43
1.0
 76
     1
 77
     6
 78
     2
 67
     7
 79
     5
170
     0
171
     0
290
     0
174
     0
 93
       13
 44
0.0
173
     0
291
     1
 45
0.0
1001
ACAD
1000
AcDbSavedByObjectVersion
1070
     0
  0
VISUALSTYLE
  5
38
102
{ACAD_REACTORS
330
2A
102
}
102
{ACAD_XDICTIONARY
360
349
102
}
330
2A
100
AcDbVisualStyle
  2
Linepattern
 70
    14
 71
     2
 72
     2
 73
     0
 90
        0
 40
-0.6
 41
-30.0
 62
     5
 63
     7
 74
     1
 91
        4
 64
     7
 65
   257
 75
     7
175
     7
 42
1.0
 92
        8
 66
     7
 43
1.0
 76
     1
 77
     6
 78
     2
 67
     7
 79
     5
170
     0
171
     0
290
     0
174
     0
 93
        1
 44
0.0
173
     0
291
     1
 45
0.0
1001
ACAD
1000
AcDbSavedByObjectVersion
1070
     0
  0
VISUALSTYLE
  5
33
102
{ACAD_REACTORS
330
2A
102
}
102
{ACAD_XDICTIONARY
360
33F
102
}
330
2A
100
AcDbVisualStyle
  2
Realistic
 70
     8
 71
     2
 72
     2
 73
     0
 90
        0
 40
-0.6
 41
-30.0
 62
     5
 63
     7
 74
     1
 91
        0
 64
     7
 65
   257
 75
     1
175
     1
 42
1.0
 92
        8
 66
     8
 43
1.0
 76
     1
 77
     6
 78
     2
 67
     7
 79
     5
170
     0
171
     0
290
     0
174
     0
 93
       13
 44
0.0
173
     0
291
     0
 45
0.0
1001
ACAD
1000
AcDbSavedByObjectVersion
1070
     0
  0
VISUALSTYLE
  5
37
102
{ACAD_REACTORS
330
2A
102
}
102
{ACAD_XDICTIONARY
360
347
102
}
330
2A
100
AcDbVisualStyle
  2
Thicken
 70
    13
 71
     2
 72
     2
 73
     0
 90
        0
 40
-0.6
 41
-30.0
 62
     5
 63
     7
 74
     1
 91
        4
 64
     7
 65
   257
 75
     1
175
     1
 42
1.0
 92
       12
 66
     7
 43
1.0
 76
     1
 77
     6
 78
     2
 67
     7
 79
     5
170
     0
171
     0
290
     0
174
     0
 93
        1
 44
0.0
173
     0
291
     1
 45
0.0
1001
ACAD
1000
AcDbSavedByObjectVersion
1070
     0
  0
DICTIONARYVAR
  5
32D
102
{ACAD_REACTORS
330
32A
102
}
330
32A
100
DictionaryVariables
280
     0
  1
2
  0
DICTIONARYVAR
  5
32E
102
{ACAD_REACTORS
330
32A
102
}
330
32A
100
DictionaryVariables
280
     0
  1
1
  0
DICTIONARY
  5
351
330
3D
100
AcDbDictionary
280
     1
281
     1
  3
ACAD_XREC_ROUNDTRIP
360
352
  0
DICTIONARY
  5
34F
330
3C
100
AcDbDictionary
280
     1
281
     1
  3
ACAD_XREC_ROUNDTRIP
360
350
  0
DICTIONARY
  5
353
330
3E
100
AcDbDictionary
280
     1
281
     1
  3
ACAD_XREC_ROUNDTRIP
360
354
  0
DICTIONARY
  5
337
330
2F
100
AcDbDictionary
280
     1
281
     1
  3
ACAD_XREC_ROUNDTRIP
360
338
  0
DICTIONARY
  5
33B
330
31
100
AcDbDictionary
280
     1
281
     1
  3
ACAD_XREC_ROUNDTRIP
360
33C
  0
DICTIONARY
  5
339
330
30
100
AcDbDictionary
280
     1
281
     1
  3
ACAD_XREC_ROUNDTRIP
360
33A
  0
DICTIONARY
  5
33D
330
32
100
AcDbDictionary
280
     1
281
     1
  3
ACAD_XREC_ROUNDTRIP
360
33E
  0
DICTIONARY
  5
345
330
36
100
AcDbDictionary
280
     1
281
     1
  3
ACAD_XREC_ROUNDTRIP
360
346
  0
DICTIONARY
  5
34D
330
3A
100
AcDbDictionary
280
     1
281
     1
  3
ACAD_XREC_ROUNDTRIP
360
34E
  0
DICTIONARY
  5
341
330
34
100
AcDbDictionary
280
     1
281
     1
  3
ACAD_XREC_ROUNDTRIP
360
342
  0
DICTIONARY
  5
343
330
35
100
AcDbDictionary
280
     1
281
     1
  3
ACAD_XREC_ROUNDTRIP
360
344
  0
DICTIONARY
  5
34B
330
39
100
AcDbDictionary
280
     1
281
     1
  3
ACAD_XREC_ROUNDTRIP
360
34C
  0
DICTIONARY
  5
32F
330
2B
100
AcDbDictionary
280
     1
281
     1
  3
ACAD_XREC_ROUNDTRIP
360
330
  0
DICTIONARY
  5
331
330
2C
100
AcDbDictionary
280
     1
281
     1
  3
ACAD_XREC_ROUNDTRIP
360
332
  0
DICTIONARY
  5
333
330
2D
100
AcDbDictionary
280
     1
281
     1
  3
ACAD_XREC_ROUNDTRIP
360
334
  0
DICTIONARY
  5
335
330
2E
100
AcDbDictionary
280
     1
281
     1
  3
ACAD_XREC_ROUNDTRIP
360
336
  0
DICTIONARY
  5
349
330
38
100
AcDbDictionary
280
     1
281
     1
  3
ACAD_XREC_ROUNDTRIP
360
34A
  0
DICTIONARY
  5
33F
330
33
100
AcDbDictionary
280
     1
281
     1
  3
ACAD_XREC_ROUNDTRIP
360
340
  0
DICTIONARY
  5
347
330
37
100
AcDbDictionary
280
     1
281
     1
  3
ACAD_XREC_ROUNDTRIP
360
348
  0
XRECORD
  5
352
102
{ACAD_REACTORS
330
351
102
}
330
351
100
AcDbXrecord
280
     1
102
MATERIAL
148
0.0
149
0.0
149
0.0
 93
        0
 94
      127
282
     0
 72
     1
 77
     1
171
     1
175
     1
179
     1
273
     0
  0
XRECORD
  5
350
102
{ACAD_REACTORS
330
34F
102
}
330
34F
100
AcDbXrecord
280
     1
102
MATERIAL
148
0.0
149
0.0
149
0.0
 93
        0
 94
      127
282
     0
 72
     1
 77
     1
171
     1
175
     1
179
     1
273
     0
  0
XRECORD
  5
354
102
{ACAD_REACTORS
330
353
102
}
330
353
100
AcDbXrecord
280
     1
102
MATERIAL
148
0.0
149
0.0
149
0.0
 93
        0
 94
      127
282
     0
 72
     1
 77
     1
171
     1
175
     1
179
     1
273
     0
  0
XRECORD
  5
338
102
{ACAD_REACTORS
330
337
102
}
330
337
100
AcDbXrecord
280
     1
102
RTVSPropertyOp0
 70
     1
102
RTVSPropertyOp1
 70
     1
102
RTVSPropertyOp2
 70
     1
102
RTVSPropertyOp3
 70
     1
102
RTVSPropertyOp4
 70
     1
102
RTVSPropertyOp5
 70
     1
102
RTVSPropertyOp6
 70
     1
102
RTVSPropertyOp7
 70
     1
102
RTVSPropertyOp8
 70
     1
102
RTVSPropertyOp9
 70
     1
102
RTVSPropertyOp10
 70
     1
102
RTVSPropertyOp11
 70
     1
102
RTVSPropertyOp12
 70
     1
102
RTVSPropertyOp13
 70
     1
102
RTVSPropertyOp14
 70
     1
102
RTVSPropertyOp15
 70
     1
102
RTVSPropertyOp16
 70
     1
102
RTVSPropertyOp17
 70
     1
102
RTVSPropertyOp18
 70
     1
102
RTVSPropertyOp19
 70
     1
102
RTVSPropertyOp20
 70
     1
102
RTVSPropertyOp21
 70
     1
102
RTVSPropertyOp22
 70
     1
102
RTVSPropertyOp23
 70
     1
102
RTVSPropertyOp24
 70
     1
102
RTVSPropertyOp25
 70
     1
102
RTVSPropertyOp26
 70
     1
102
RTVSPropertyOp27
 70
     1
102
RTVSPropertyOp28
 70
     1
102
RTVSPropertyOp29
 70
     1
102
RTVSPropertyOp30
 70
     1
102
RTVSPropertyOp31
 70
     1
102
RTVSPropertyOp32
 70
     1
  0
XRECORD
  5
33C
102
{ACAD_REACTORS
330
33B
102
}
330
33B
100
AcDbXrecord
280
     1
102
RTVSPropertyOp0
 70
     1
102
RTVSPropertyOp1
 70
     1
102
RTVSPropertyOp2
 70
     1
102
RTVSPropertyOp3
 70
     1
102
RTVSPropertyOp4
 70
     1
102
RTVSPropertyOp5
 70
     1
102
RTVSPropertyOp6
 70
     1
102
RTVSPropertyOp7
 70
     1
102
RTVSPropertyOp8
 70
     1
102
RTVSPropertyOp9
 70
     1
102
RTVSPropertyOp10
 70
     1
102
RTVSPropertyOp11
 70
     1
102
RTVSPropertyOp12
 70
     1
102
RTVSPropertyOp13
 70
     1
102
RTVSPropertyOp14
 70
     1
102
RTVSPropertyOp15
 70
     1
102
RTVSPropertyOp16
 70
     1
102
RTVSPropertyOp17
 70
     1
102
RTVSPropertyOp18
 70
     1
102
RTVSPropertyOp19
 70
     1
102
RTVSPropertyOp20
 70
     1
102
RTVSPropertyOp21
 70
     1
102
RTVSPropertyOp22
 70
     1
102
RTVSPropertyOp23
 70
     1
102
RTVSPropertyOp24
 70
     1
102
RTVSPropertyOp25
 70
     1
102
RTVSPropertyOp26
 70
     1
102
RTVSPropertyOp27
 70
     1
102
RTVSPropertyOp28
 70
     1
102
RTVSPropertyOp29
 70
     1
102
RTVSPropertyOp30
 70
     1
102
RTVSPropertyOp31
 70
     1
102
RTVSPropertyOp32
 70
     1
  0
XRECORD
  5
33A
102
{ACAD_REACTORS
330
339
102
}
330
339
100
AcDbXrecord
280
     1
102
RTVSPropertyOp0
 70
     1
102
RTVSPropertyOp1
 70
     1
102
RTVSPropertyOp2
 70
     1
102
RTVSPropertyOp3
 70
     1
102
RTVSPropertyOp4
 70
     1
102
RTVSPropertyOp5
 70
     1
102
RTVSPropertyOp6
 70
     1
102
RTVSPropertyOp7
 70
     1
102
RTVSPropertyOp8
 70
     1
102
RTVSPropertyOp9
 70
     1
102
RTVSPropertyOp10
 70
     1
102
RTVSPropertyOp11
 70
     1
102
RTVSPropertyOp12
 70
     1
102
RTVSPropertyOp13
 70
     1
102
RTVSPropertyOp14
 70
     1
102
RTVSPropertyOp15
 70
     1
102
RTVSPropertyOp16
 70
     1
102
RTVSPropertyOp17
 70
     1
102
RTVSPropertyOp18
 70
     1
102
RTVSPropertyOp19
 70
     1
102
RTVSPropertyOp20
 70
     1
102
RTVSPropertyOp21
 70
     1
102
RTVSPropertyOp22
 70
     1
102
RTVSPropertyOp23
 70
     1
102
RTVSPropertyOp24
 70
     1
102
RTVSPropertyOp25
 70
     1
102
RTVSPropertyOp26
 70
     1
102
RTVSPropertyOp27
 70
     1
102
RTVSPropertyOp28
 70
     1
102
RTVSPropertyOp29
 70
     1
102
RTVSPropertyOp30
 70
     1
102
RTVSPropertyOp31
 70
     1
102
RTVSPropertyOp32
 70
     1
  0
XRECORD
  5
33E
102
{ACAD_REACTORS
330
33D
102
}
330
33D
100
AcDbXrecord
280
     1
102
RTVSPropertyOp0
 70
     1
102
RTVSPropertyOp1
 70
     1
102
RTVSPropertyOp2
 70
     1
102
RTVSPropertyOp3
 70
     1
102
RTVSPropertyOp4
 70
     1
102
RTVSPropertyOp5
 70
     1
102
RTVSPropertyOp6
 70
     1
102
RTVSPropertyOp7
 70
     1
102
RTVSPropertyOp8
 70
     1
102
RTVSPropertyOp9
 70
     1
102
RTVSPropertyOp10
 70
     1
102
RTVSPropertyOp11
 70
     1
102
RTVSPropertyOp12
 70
     1
102
RTVSPropertyOp13
 70
     1
102
RTVSPropertyOp14
 70
     1
102
RTVSPropertyOp15
 70
     1
102
RTVSPropertyOp16
 70
     1
102
RTVSPropertyOp17
 70
     1
102
RTVSPropertyOp18
 70
     1
102
RTVSPropertyOp19
 70
     1
102
RTVSPropertyOp20
 70
     1
102
RTVSPropertyOp21
 70
     1
102
RTVSPropertyOp22
 70
     1
102
RTVSPropertyOp23
 70
     1
102
RTVSPropertyOp24
 70
     1
102
RTVSPropertyOp25
 70
     1
102
RTVSPropertyOp26
 70
     1
102
RTVSPropertyOp27
 70
     1
102
RTVSPropertyOp28
 70
     1
102
RTVSPropertyOp29
 70
     1
102
RTVSPropertyOp30
 70
     1
102
RTVSPropertyOp31
 70
     1
102
RTVSPropertyOp32
 70
     1
  0
XRECORD
  5
346
102
{ACAD_REACTORS
330
345
102
}
330
345
100
AcDbXrecord
280
     1
102
RTVSPropertyOp0
 70
     1
102
RTVSPropertyOp1
 70
     1
102
RTVSPropertyOp2
 70
     1
102
RTVSPropertyOp3
 70
     1
102
RTVSPropertyOp4
 70
     1
102
RTVSPropertyOp5
 70
     1
102
RTVSPropertyOp6
 70
     1
102
RTVSPropertyOp7
 70
     1
102
RTVSPropertyOp8
 70
     1
102
RTVSPropertyOp9
 70
     1
102
RTVSPropertyOp10
 70
     1
102
RTVSPropertyOp11
 70
     1
102
RTVSPropertyOp12
 70
     1
102
RTVSPropertyOp13
 70
     1
102
RTVSPropertyOp14
 70
     1
102
RTVSPropertyOp15
 70
     1
102
RTVSPropertyOp16
 70
     1
102
RTVSPropertyOp17
 70
     1
102
RTVSPropertyOp18
 70
     1
102
RTVSPropertyOp19
 70
     1
102
RTVSPropertyOp20
 70
     1
102
RTVSPropertyOp21
 70
     1
102
RTVSPropertyOp22
 70
     1
102
RTVSPropertyOp23
 70
     1
102
RTVSPropertyOp24
 70
     1
102
RTVSPropertyOp25
 70
     1
102
RTVSPropertyOp26
 70
     1
102
RTVSPropertyOp27
 70
     1
102
RTVSPropertyOp28
 70
     1
102
RTVSPropertyOp29
 70
     1
102
RTVSPropertyOp30
 70
     1
102
RTVSPropertyOp31
 70
     1
102
RTVSPropertyOp32
 70
     1
  0
XRECORD
  5
34E
102
{ACAD_REACTORS
330
34D
102
}
330
34D
100
AcDbXrecord
280
     1
102
RTVSPropertyOp0
 70
     1
102
RTVSPropertyOp1
 70
     1
102
RTVSPropertyOp2
 70
     1
102
RTVSPropertyOp3
 70
     1
102
RTVSPropertyOp4
 70
     1
102
RTVSPropertyOp5
 70
     1
102
RTVSPropertyOp6
 70
     1
102
RTVSPropertyOp7
 70
     1
102
RTVSPropertyOp8
 70
     1
102
RTVSPropertyOp9
 70
     1
102
RTVSPropertyOp10
 70
     1
102
RTVSPropertyOp11
 70
     1
102
RTVSPropertyOp12
 70
     1
102
RTVSPropertyOp13
 70
     1
102
RTVSPropertyOp14
 70
     1
102
RTVSPropertyOp15
 70
     1
102
RTVSPropertyOp16
 70
     1
102
RTVSPropertyOp17
 70
     1
102
RTVSPropertyOp18
 70
     1
102
RTVSPropertyOp19
 70
     1
102
RTVSPropertyOp20
 70
     1
102
RTVSPropertyOp21
 70
     1
102
RTVSPropertyOp22
 70
     1
102
RTVSPropertyOp23
 70
     1
102
RTVSPropertyOp24
 70
     1
102
RTVSPropertyOp25
 70
     1
102
RTVSPropertyOp26
 70
     1
102
RTVSPropertyOp27
 70
     1
102
RTVSPropertyOp28
 70
     1
102
RTVSPropertyOp29
 70
     1
102
RTVSPropertyOp30
 70
     1
102
RTVSPropertyOp31
 70
     1
102
RTVSPropertyOp32
 70
     1
  0
XRECORD
  5
342
102
{ACAD_REACTORS
330
341
102
}
330
341
100
AcDbXrecord
280
     1
102
RTVSPropertyOp0
 70
     1
102
RTVSPropertyOp1
 70
     1
102
RTVSPropertyOp2
 70
     1
102
RTVSPropertyOp3
 70
     1
102
RTVSPropertyOp4
 70
     1
102
RTVSPropertyOp5
 70
     1
102
RTVSPropertyOp6
 70
     1
102
RTVSPropertyOp7
 70
     1
102
RTVSPropertyOp8
 70
     1
102
RTVSPropertyOp9
 70
     1
102
RTVSPropertyOp10
 70
     1
102
RTVSPropertyOp11
 70
     1
102
RTVSPropertyOp12
 70
     1
102
RTVSPropertyOp13
 70
     1
102
RTVSPropertyOp14
 70
     1
102
RTVSPropertyOp15
 70
     1
102
RTVSPropertyOp16
 70
     1
102
RTVSPropertyOp17
 70
     1
102
RTVSPropertyOp18
 70
     1
102
RTVSPropertyOp19
 70
     1
102
RTVSPropertyOp20
 70
     1
102
RTVSPropertyOp21
 70
     1
102
RTVSPropertyOp22
 70
     1
102
RTVSPropertyOp23
 70
     1
102
RTVSPropertyOp24
 70
     1
102
RTVSPropertyOp25
 70
     1
102
RTVSPropertyOp26
 70
     1
102
RTVSPropertyOp27
 70
     1
102
RTVSPropertyOp28
 70
     1
102
RTVSPropertyOp29
 70
     1
102
RTVSPropertyOp30
 70
     1
102
RTVSPropertyOp31
 70
     1
102
RTVSPropertyOp32
 70
     1
  0
XRECORD
  5
344
102
{ACAD_REACTORS
330
343
102
}
330
343
100
AcDbXrecord
280
     1
102
RTVSPropertyOp0
 70
     1
102
RTVSPropertyOp1
 70
     1
102
RTVSPropertyOp2
 70
     1
102
RTVSPropertyOp3
 70
     1
102
RTVSPropertyOp4
 70
     1
102
RTVSPropertyOp5
 70
     1
102
RTVSPropertyOp6
 70
     1
102
RTVSPropertyOp7
 70
     1
102
RTVSPropertyOp8
 70
     1
102
RTVSPropertyOp9
 70
     1
102
RTVSPropertyOp10
 70
     1
102
RTVSPropertyOp11
 70
     1
102
RTVSPropertyOp12
 70
     1
102
RTVSPropertyOp13
 70
     1
102
RTVSPropertyOp14
 70
     1
102
RTVSPropertyOp15
 70
     1
102
RTVSPropertyOp16
 70
     1
102
RTVSPropertyOp17
 70
     1
102
RTVSPropertyOp18
 70
     1
102
RTVSPropertyOp19
 70
     1
102
RTVSPropertyOp20
 70
     1
102
RTVSPropertyOp21
 70
     1
102
RTVSPropertyOp22
 70
     1
102
RTVSPropertyOp23
 70
     1
102
RTVSPropertyOp24
 70
     1
102
RTVSPropertyOp25
 70
     1
102
RTVSPropertyOp26
 70
     1
102
RTVSPropertyOp27
 70
     1
102
RTVSPropertyOp28
 70
     1
102
RTVSPropertyOp29
 70
     1
102
RTVSPropertyOp30
 70
     1
102
RTVSPropertyOp31
 70
     1
102
RTVSPropertyOp32
 70
     1
  0
XRECORD
  5
34C
102
{ACAD_REACTORS
330
34B
102
}
330
34B
100
AcDbXrecord
280
     1
102
RTVSPropertyOp0
 70
     1
102
RTVSPropertyOp1
 70
     1
102
RTVSPropertyOp2
 70
     1
102
RTVSPropertyOp3
 70
     1
102
RTVSPropertyOp4
 70
     1
102
RTVSPropertyOp5
 70
     1
102
RTVSPropertyOp6
 70
     1
102
RTVSPropertyOp7
 70
     1
102
RTVSPropertyOp8
 70
     1
102
RTVSPropertyOp9
 70
     1
102
RTVSPropertyOp10
 70
     1
102
RTVSPropertyOp11
 70
     1
102
RTVSPropertyOp12
 70
     1
102
RTVSPropertyOp13
 70
     1
102
RTVSPropertyOp14
 70
     1
102
RTVSPropertyOp15
 70
     1
102
RTVSPropertyOp16
 70
     1
102
RTVSPropertyOp17
 70
     1
102
RTVSPropertyOp18
 70
     1
102
RTVSPropertyOp19
 70
     1
102
RTVSPropertyOp20
 70
     1
102
RTVSPropertyOp21
 70
     1
102
RTVSPropertyOp22
 70
     1
102
RTVSPropertyOp23
 70
     1
102
RTVSPropertyOp24
 70
     1
102
RTVSPropertyOp25
 70
     1
102
RTVSPropertyOp26
 70
     1
102
RTVSPropertyOp27
 70
     1
102
RTVSPropertyOp28
 70
     1
102
RTVSPropertyOp29
 70
     1
102
RTVSPropertyOp30
 70
     1
102
RTVSPropertyOp31
 70
     1
102
RTVSPropertyOp32
 70
     1
  0
XRECORD
  5
330
102
{ACAD_REACTORS
330
32F
102
}
330
32F
100
AcDbXrecord
280
     1
102
RTVSPropertyOp0
 70
     1
102
RTVSPropertyOp1
 70
     1
102
RTVSPropertyOp2
 70
     1
102
RTVSPropertyOp3
 70
     1
102
RTVSPropertyOp4
 70
     1
102
RTVSPropertyOp5
 70
     1
102
RTVSPropertyOp6
 70
     1
102
RTVSPropertyOp7
 70
     1
102
RTVSPropertyOp8
 70
     1
102
RTVSPropertyOp9
 70
     1
102
RTVSPropertyOp10
 70
     1
102
RTVSPropertyOp11
 70
     1
102
RTVSPropertyOp12
 70
     1
102
RTVSPropertyOp13
 70
     1
102
RTVSPropertyOp14
 70
     1
102
RTVSPropertyOp15
 70
     1
102
RTVSPropertyOp16
 70
     1
102
RTVSPropertyOp17
 70
     1
102
RTVSPropertyOp18
 70
     1
102
RTVSPropertyOp19
 70
     1
102
RTVSPropertyOp20
 70
     1
102
RTVSPropertyOp21
 70
     1
102
RTVSPropertyOp22
 70
     1
102
RTVSPropertyOp23
 70
     1
102
RTVSPropertyOp24
 70
     1
102
RTVSPropertyOp25
 70
     1
102
RTVSPropertyOp26
 70
     1
102
RTVSPropertyOp27
 70
     1
102
RTVSPropertyOp28
 70
     1
102
RTVSPropertyOp29
 70
     1
102
RTVSPropertyOp30
 70
     1
102
RTVSPropertyOp31
 70
     1
102
RTVSPropertyOp32
 70
     1
  0
XRECORD
  5
332
102
{ACAD_REACTORS
330
331
102
}
330
331
100
AcDbXrecord
280
     1
102
RTVSPropertyOp0
 70
     1
102
RTVSPropertyOp1
 70
     1
102
RTVSPropertyOp2
 70
     1
102
RTVSPropertyOp3
 70
     1
102
RTVSPropertyOp4
 70
     1
102
RTVSPropertyOp5
 70
     1
102
RTVSPropertyOp6
 70
     1
102
RTVSPropertyOp7
 70
     1
102
RTVSPropertyOp8
 70
     1
102
RTVSPropertyOp9
 70
     1
102
RTVSPropertyOp10
 70
     1
102
RTVSPropertyOp11
 70
     1
102
RTVSPropertyOp12
 70
     1
102
RTVSPropertyOp13
 70
     1
102
RTVSPropertyOp14
 70
     1
102
RTVSPropertyOp15
 70
     1
102
RTVSPropertyOp16
 70
     1
102
RTVSPropertyOp17
 70
     1
102
RTVSPropertyOp18
 70
     1
102
RTVSPropertyOp19
 70
     1
102
RTVSPropertyOp20
 70
     1
102
RTVSPropertyOp21
 70
     1
102
RTVSPropertyOp22
 70
     1
102
RTVSPropertyOp23
 70
     1
102
RTVSPropertyOp24
 70
     1
102
RTVSPropertyOp25
 70
     1
102
RTVSPropertyOp26
 70
     1
102
RTVSPropertyOp27
 70
     1
102
RTVSPropertyOp28
 70
     1
102
RTVSPropertyOp29
 70
     1
102
RTVSPropertyOp30
 70
     1
102
RTVSPropertyOp31
 70
     1
102
RTVSPropertyOp32
 70
     1
  0
XRECORD
  5
334
102
{ACAD_REACTORS
330
333
102
}
330
333
100
AcDbXrecord
280
     1
102
RTVSPropertyOp0
 70
     1
102
RTVSPropertyOp1
 70
     1
102
RTVSPropertyOp2
 70
     1
102
RTVSPropertyOp3
 70
     1
102
RTVSPropertyOp4
 70
     1
102
RTVSPropertyOp5
 70
     1
102
RTVSPropertyOp6
 70
     1
102
RTVSPropertyOp7
 70
     1
102
RTVSPropertyOp8
 70
     1
102
RTVSPropertyOp9
 70
     1
102
RTVSPropertyOp10
 70
     1
102
RTVSPropertyOp11
 70
     1
102
RTVSPropertyOp12
 70
     1
102
RTVSPropertyOp13
 70
     1
102
RTVSPropertyOp14
 70
     1
102
RTVSPropertyOp15
 70
     1
102
RTVSPropertyOp16
 70
     1
102
RTVSPropertyOp17
 70
     1
102
RTVSPropertyOp18
 70
     1
102
RTVSPropertyOp19
 70
     1
102
RTVSPropertyOp20
 70
     1
102
RTVSPropertyOp21
 70
     1
102
RTVSPropertyOp22
 70
     1
102
RTVSPropertyOp23
 70
     1
102
RTVSPropertyOp24
 70
     1
102
RTVSPropertyOp25
 70
     1
102
RTVSPropertyOp26
 70
     1
102
RTVSPropertyOp27
 70
     1
102
RTVSPropertyOp28
 70
     1
102
RTVSPropertyOp29
 70
     1
102
RTVSPropertyOp30
 70
     1
102
RTVSPropertyOp31
 70
     1
102
RTVSPropertyOp32
 70
     1
  0
XRECORD
  5
336
102
{ACAD_REACTORS
330
335
102
}
330
335
100
AcDbXrecord
280
     1
102
RTVSPropertyOp0
 70
     1
102
RTVSPropertyOp1
 70
     1
102
RTVSPropertyOp2
 70
     1
102
RTVSPropertyOp3
 70
     1
102
RTVSPropertyOp4
 70
     1
102
RTVSPropertyOp5
 70
     1
102
RTVSPropertyOp6
 70
     1
102
RTVSPropertyOp7
 70
     1
102
RTVSPropertyOp8
 70
     1
102
RTVSPropertyOp9
 70
     1
102
RTVSPropertyOp10
 70
     1
102
RTVSPropertyOp11
 70
     1
102
RTVSPropertyOp12
 70
     1
102
RTVSPropertyOp13
 70
     1
102
RTVSPropertyOp14
 70
     1
102
RTVSPropertyOp15
 70
     1
102
RTVSPropertyOp16
 70
     1
102
RTVSPropertyOp17
 70
     1
102
RTVSPropertyOp18
 70
     1
102
RTVSPropertyOp19
 70
     1
102
RTVSPropertyOp20
 70
     1
102
RTVSPropertyOp21
 70
     1
102
RTVSPropertyOp22
 70
     1
102
RTVSPropertyOp23
 70
     1
102
RTVSPropertyOp24
 70
     1
102
RTVSPropertyOp25
 70
     1
102
RTVSPropertyOp26
 70
     1
102
RTVSPropertyOp27
 70
     1
102
RTVSPropertyOp28
 70
     1
102
RTVSPropertyOp29
 70
     1
102
RTVSPropertyOp30
 70
     1
102
RTVSPropertyOp31
 70
     1
102
RTVSPropertyOp32
 70
     1
  0
XRECORD
  5
34A
102
{ACAD_REACTORS
330
349
102
}
330
349
100
AcDbXrecord
280
     1
102
RTVSPropertyOp0
 70
     1
102
RTVSPropertyOp1
 70
     1
102
RTVSPropertyOp2
 70
     1
102
RTVSPropertyOp3
 70
     1
102
RTVSPropertyOp4
 70
     1
102
RTVSPropertyOp5
 70
     1
102
RTVSPropertyOp6
 70
     1
102
RTVSPropertyOp7
 70
     1
102
RTVSPropertyOp8
 70
     1
102
RTVSPropertyOp9
 70
     1
102
RTVSPropertyOp10
 70
     1
102
RTVSPropertyOp11
 70
     1
102
RTVSPropertyOp12
 70
     1
102
RTVSPropertyOp13
 70
     1
102
RTVSPropertyOp14
 70
     1
102
RTVSPropertyOp15
 70
     1
102
RTVSPropertyOp16
 70
     1
102
RTVSPropertyOp17
 70
     1
102
RTVSPropertyOp18
 70
     1
102
RTVSPropertyOp19
 70
     1
102
RTVSPropertyOp20
 70
     1
102
RTVSPropertyOp21
 70
     1
102
RTVSPropertyOp22
 70
     1
102
RTVSPropertyOp23
 70
     1
102
RTVSPropertyOp24
 70
     1
102
RTVSPropertyOp25
 70
     1
102
RTVSPropertyOp26
 70
     1
102
RTVSPropertyOp27
 70
     1
102
RTVSPropertyOp28
 70
     1
102
RTVSPropertyOp29
 70
     1
102
RTVSPropertyOp30
 70
     1
102
RTVSPropertyOp31
 70
     1
102
RTVSPropertyOp32
 70
     1
  0
XRECORD
  5
340
102
{ACAD_REACTORS
330
33F
102
}
330
33F
100
AcDbXrecord
280
     1
102
RTVSPropertyOp0
 70
     1
102
RTVSPropertyOp1
 70
     1
102
RTVSPropertyOp2
 70
     1
102
RTVSPropertyOp3
 70
     1
102
RTVSPropertyOp4
 70
     1
102
RTVSPropertyOp5
 70
     1
102
RTVSPropertyOp6
 70
     1
102
RTVSPropertyOp7
 70
     1
102
RTVSPropertyOp8
 70
     1
102
RTVSPropertyOp9
 70
     1
102
RTVSPropertyOp10
 70
     1
102
RTVSPropertyOp11
 70
     1
102
RTVSPropertyOp12
 70
     1
102
RTVSPropertyOp13
 70
     1
102
RTVSPropertyOp14
 70
     1
102
RTVSPropertyOp15
 70
     1
102
RTVSPropertyOp16
 70
     1
102
RTVSPropertyOp17
 70
     1
102
RTVSPropertyOp18
 70
     1
102
RTVSPropertyOp19
 70
     1
102
RTVSPropertyOp20
 70
     1
102
RTVSPropertyOp21
 70
     1
102
RTVSPropertyOp22
 70
     1
102
RTVSPropertyOp23
 70
     1
102
RTVSPropertyOp24
 70
     1
102
RTVSPropertyOp25
 70
     1
102
RTVSPropertyOp26
 70
     1
102
RTVSPropertyOp27
 70
     1
102
RTVSPropertyOp28
 70
     1
102
RTVSPropertyOp29
 70
     1
102
RTVSPropertyOp30
 70
     1
102
RTVSPropertyOp31
 70
     1
102
RTVSPropertyOp32
 70
     1
  0
XRECORD
  5
348
102
{ACAD_REACTORS
330
347
102
}
330
347
100
AcDbXrecord
280
     1
102
RTVSPropertyOp0
 70
     1
102
RTVSPropertyOp1
 70
     1
102
RTVSPropertyOp2
 70
     1
102
RTVSPropertyOp3
 70
     1
102
RTVSPropertyOp4
 70
     1
102
RTVSPropertyOp5
 70
     1
102
RTVSPropertyOp6
 70
     1
102
RTVSPropertyOp7
 70
     1
102
RTVSPropertyOp8
 70
     1
102
RTVSPropertyOp9
 70
     1
102
RTVSPropertyOp10
 70
     1
102
RTVSPropertyOp11
 70
     1
102
RTVSPropertyOp12
 70
     1
102
RTVSPropertyOp13
 70
     1
102
RTVSPropertyOp14
 70
     1
102
RTVSPropertyOp15
 70
     1
102
RTVSPropertyOp16
 70
     1
102
RTVSPropertyOp17
 70
     1
102
RTVSPropertyOp18
 70
     1
102
RTVSPropertyOp19
 70
     1
102
RTVSPropertyOp20
 70
     1
102
RTVSPropertyOp21
 70
     1
102
RTVSPropertyOp22
 70
     1
102
RTVSPropertyOp23
 70
     1
102
RTVSPropertyOp24
 70
     1
102
RTVSPropertyOp25
 70
     1
102
RTVSPropertyOp26
 70
     1
102
RTVSPropertyOp27
 70
     1
102
RTVSPropertyOp28
 70
     1
102
RTVSPropertyOp29
 70
     1
102
RTVSPropertyOp30
 70
     1
102
RTVSPropertyOp31
 70
     1
102
RTVSPropertyOp32
 70
     1
  0
ENDSEC
  0
EOF
