  0
SECTION
  2
HEADER
  9
$ACADVER
  1
AC1015
  9
$ACADMAINTVER
 70
     6
  9
$DWGCODEPAGE
  3
ANSI_1252
  9
$INSBASE
 10
0.0
 20
0.0
 30
0.0
  9
$EXTMIN
 10
-354.6999991329935
 20
-263.5207398594571
 30
0.0
  9
$EXTMAX
 10
-57.69999913299543
 20
-53.520739859457
 30
0.0
  9
$LIMMIN
 10
0.0
 20
0.0
  9
$LIMMAX
 10
12.0
 20
9.0
  9
$ORTHOMODE
 70
     0
  9
$REGENMODE
 70
     1
  9
$FILLMODE
 70
     1
  9
$QTEXTMODE
 70
     0
  9
$MIRRTEXT
 70
     1
  9
$LTSCALE
 40
1.0
  9
$ATTMODE
 70
     1
  9
$TEXTSIZE
 40
0.2
  9
$TRACEWID
 40
0.05
  9
$TEXTSTYLE
  7
Standard
  9
$CLAYER
  8
0
  9
$CELTYPE
  6
ByLayer
  9
$CECOLOR
 62
   256
  9
$CELTSCALE
 40
1.0
  9
$DISPSILH
 70
     0
  9
$DIMSCALE
 40
1.0
  9
$DIMASZ
 40
0.18
  9
$DIMEXO
 40
0.0625
  9
$DIMDLI
 40
0.38
  9
$DIMRND
 40
0.0
  9
$DIMDLE
 40
0.0
  9
$DIMEXE
 40
0.18
  9
$DIMTP
 40
0.0
  9
$DIMTM
 40
0.0
  9
$DIMTXT
 40
0.18
  9
$DIMCEN
 40
0.09
  9
$DIMTSZ
 40
0.0
  9
$DIMTOL
 70
     0
  9
$DIMLIM
 70
     0
  9
$DIMTIH
 70
     1
  9
$DIMTOH
 70
     1
  9
$DIMSE1
 70
     0
  9
$DIMSE2
 70
     0
  9
$DIMTAD
 70
     0
  9
$DIMZIN
 70
     0
  9
$DIMBLK
  1

  9
$DIMASO
 70
     1
  9
$DIMSHO
 70
     1
  9
$DIMPOST
  1

  9
$DIMAPOST
  1

  9
$DIMALT
 70
     0
  9
$DIMALTD
 70
     2
  9
$DIMALTF
 40
25.4
  9
$DIMLFAC
 40
1.0
  9
$DIMTOFL
 70
     0
  9
$DIMTVP
 40
0.0
  9
$DIMTIX
 70
     0
  9
$DIMSOXD
 70
     0
  9
$DIMSAH
 70
     0
  9
$DIMBLK1
  1

  9
$DIMBLK2
  1

  9
$DIMSTYLE
  2
Standard
  9
$DIMCLRD
 70
     0
  9
$DIMCLRE
 70
     0
  9
$DIMCLRT
 70
     0
  9
$DIMTFAC
 40
1.0
  9
$DIMGAP
 40
0.09
  9
$DIMJUST
 70
     0
  9
$DIMSD1
 70
     0
  9
$DIMSD2
 70
     0
  9
$DIMTOLJ
 70
     1
  9
$DIMTZIN
 70
     0
  9
$DIMALTZ
 70
     0
  9
$DIMALTTZ
 70
     0
  9
$DIMUPT
 70
     0
  9
$DIMDEC
 70
     4
  9
$DIMTDEC
 70
     4
  9
$DIMALTU
 70
     2
  9
$DIMALTTD
 70
     2
  9
$DIMTXSTY
  7
Standard
  9
$DIMAUNIT
 70
     0
  9
$DIMADEC
 70
     0
  9
$DIMALTRND
 40
0.0
  9
$DIMAZIN
 70
     0
  9
$DIMDSEP
 70
    46
  9
$DIMATFIT
 70
     3
  9
$DIMFRAC
 70
     0
  9
$DIMLDRBLK
  1

  9
$DIMLUNIT
 70
     2
  9
$DIMLWD
 70
    -2
  9
$DIMLWE
 70
    -2
  9
$DIMTMOVE
 70
     0
  9
$LUNITS
 70
     2
  9
$LUPREC
 70
     4
  9
$SKETCHINC
 40
0.1
  9
$FILLETRAD
 40
0.5
  9
$AUNITS
 70
     0
  9
$AUPREC
 70
     0
  9
$MENU
  1
.
  9
$ELEVATION
 40
0.0
  9
$PELEVATION
 40
0.0
  9
$THICKNESS
 40
0.0
  9
$LIMCHECK
 70
     0
  9
$CHAMFERA
 40
0.5
  9
$CHAMFERB
 40
0.5
  9
$CHAMFERC
 40
1.0
  9
$CHAMFERD
 40
0.0
  9
$SKPOLY
 70
     0
  9
$TDCREATE
 40
2457212.655121597
  9
$TDUCREATE
 40
2457212.571788264
  9
$TDUPDATE
 40
2457212.655122604
  9
$TDUUPDATE
 40
2457212.571789271
  9
$TDINDWG
 40
0.0000000116
  9
$TDUSRTIMER
 40
0.0000000116
  9
$USRTIMER
 70
     1
  9
$ANGBASE
 50
0.0
  9
$ANGDIR
 70
     0
  9
$PDMODE
 70
     0
  9
$PDSIZE
 40
0.0
  9
$PLINEWID
 40
0.0
  9
$SPLFRAME
 70
     0
  9
$SPLINETYPE
 70
     6
  9
$SPLINESEGS
 70
     8
  9
$HANDSEED
  5
2F9
  9
$SURFTAB1
 70
     6
  9
$SURFTAB2
 70
     6
  9
$SURFTYPE
 70
     6
  9
$SURFU
 70
     6
  9
$SURFV
 70
     6
  9
$UCSBASE
  2

  9
$UCSNAME
  2

  9
$UCSORG
 10
0.0
 20
0.0
 30
0.0
  9
$UCSXDIR
 10
1.0
 20
0.0
 30
0.0
  9
$UCSYDIR
 10
0.0
 20
1.0
 30
0.0
  9
$UCSORTHOREF
  2

  9
$UCSORTHOVIEW
 70
     0
  9
$UCSORGTOP
 10
0.0
 20
0.0
 30
0.0
  9
$UCSORGBOTTOM
 10
0.0
 20
0.0
 30
0.0
  9
$UCSORGLEFT
 10
0.0
 20
0.0
 30
0.0
  9
$UCSORGRIGHT
 10
0.0
 20
0.0
 30
0.0
  9
$UCSORGFRONT
 10
0.0
 20
0.0
 30
0.0
  9
$UCSORGBACK
 10
0.0
 20
0.0
 30
0.0
  9
$PUCSBASE
  2

  9
$PUCSNAME
  2

  9
$PUCSORG
 10
0.0
 20
0.0
 30
0.0
  9
$PUCSXDIR
 10
1.0
 20
0.0
 30
0.0
  9
$PUCSYDIR
 10
0.0
 20
1.0
 30
0.0
  9
$PUCSORTHOREF
  2

  9
$PUCSORTHOVIEW
 70
     0
  9
$PUCSORGTOP
 10
0.0
 20
0.0
 30
0.0
  9
$PUCSORGBOTTOM
 10
0.0
 20
0.0
 30
0.0
  9
$PUCSORGLEFT
 10
0.0
 20
0.0
 30
0.0
  9
$PUCSORGRIGHT
 10
0.0
 20
0.0
 30
0.0
  9
$PUCSORGFRONT
 10
0.0
 20
0.0
 30
0.0
  9
$PUCSORGBACK
 10
0.0
 20
0.0
 30
0.0
  9
$USERI1
 70
     0
  9
$USERI2
 70
     0
  9
$USERI3
 70
     0
  9
$USERI4
 70
     0
  9
$USERI5
 70
     0
  9
$USERR1
 40
18.1
  9
$USERR2
 40
0.0
  9
$USERR3
 40
0.0
  9
$USERR4
 40
0.0
  9
$USERR5
 40
0.0
  9
$WORLDVIEW
 70
     1
  9
$SHADEDGE
 70
     3
  9
$SHADEDIF
 70
    70
  9
$TILEMODE
 70
     1
  9
$MAXACTVP
 70
    64
  9
$PINSBASE
 10
0.0
 20
0.0
 30
0.0
  9
$PLIMCHECK
 70
     0
  9
$PEXTMIN
 10
1.00000000000000E+20
 20
1.00000000000000E+20
 30
1.00000000000000E+20
  9
$PEXTMAX
 10
-1.00000000000000E+20
 20
-1.00000000000000E+20
 30
-1.00000000000000E+20
  9
$PLIMMIN
 10
0.0
 20
0.0
  9
$PLIMMAX
 10
12.0
 20
9.0
  9
$UNITMODE
 70
     0
  9
$VISRETAIN
 70
     1
  9
$PLINEGEN
 70
     0
  9
$PSLTSCALE
 70
     1
  9
$TREEDEPTH
 70
  3020
  9
$CMLSTYLE
  2
Standard
  9
$CMLJUST
 70
     0
  9
$CMLSCALE
 40
1.0
  9
$PROXYGRAPHICS
 70
     1
  9
$MEASUREMENT
 70
     1
  9
$CELWEIGHT
370
    -1
  9
$ENDCAPS
280
     0
  9
$JOINSTYLE
280
     0
  9
$LWDISPLAY
290
     0
  9
$INSUNITS
 70
     4
  9
$HYPERLINKBASE
  1

  9
$STYLESHEET
  1

  9
$XEDIT
290
     1
  9
$CEPSNTYPE
380
     0
  9
$PSTYLEMODE
290
     1
  9
$FINGERPRINTGUID
  2
{543A53DA-3DFD-462E-84C3-A43336CA376A}
  9
$VERSIONGUID
  2
{FAEB1C32-E019-11D5-929B-00C0DF256EC4}
  9
$EXTNAMES
290
     1
  9
$PSVPSCALE
 40
0.0
  9
$OLESTARTUP
290
     0
  0
ENDSEC
  0
SECTION
  2
CLASSES
  0
CLASS
  1
ACDBDICTIONARYWDFLT
  2
AcDbDictionaryWithDefault
  3
ObjectDBX Classes
 90
        0
280
     0
281
     0
  0
CLASS
  1
VISUALSTYLE
  2
AcDbVisualStyle
  3
ObjectDBX Classes
 90
     4095
280
     0
281
     0
  0
CLASS
  1
MATERIAL
  2
AcDbMaterial
  3
ObjectDBX Classes
 90
     1153
280
     0
281
     0
  0
CLASS
  1
DICTIONARYVAR
  2
AcDbDictionaryVar
  3
ObjectDBX Classes
 90
        0
280
     0
281
     0
  0
CLASS
  1
ACDBPLACEHOLDER
  2
AcDbPlaceHolder
  3
ObjectDBX Classes
 90
        0
280
     0
281
     0
  0
CLASS
  1
LAYOUT
  2
AcDbLayout
  3
ObjectDBX Classes
 90
        0
280
     0
281
     0
  0
ENDSEC
  0
SECTION
  2
TABLES
  0
TABLE
  2
VPORT
  5
8
330
0
100
AcDbSymbolTable
 70
     1
  0
VPORT
  5
29
330
8
100
AcDbSymbolTableRecord
100
AcDbViewportTableRecord
  2
*Active
 70
     0
 10
0.0
 20
0.0
 11
1.0
 21
1.0
 12
-206.1999991329945
 22
-158.5207398594571
 13
0.0
 23
0.0
 14
0.5
 24
0.5
 15
0.5
 25
0.5
 16
0.0
 26
0.0
 36
1.0
 17
0.0
 27
0.0
 37
0.0
 40
231.0000000000001
 41
1.60267857142857
 42
50.0
 43
0.0
 44
0.0
 50
0.0
 51
0.0
 71
     0
 72
   100
 73
     1
 74
     3
 75
     0
 76
     0
 77
     0
 78
     0
281
     0
 65
     1
110
0.0
120
0.0
130
0.0
111
1.0
121
0.0
131
0.0
112
0.0
122
1.0
132
0.0
 79
     0
146
0.0
  0
ENDTAB
  0
TABLE
  2
LTYPE
  5
5
330
0
100
AcDbSymbolTable
 70
     8
  0
LTYPE
  5
14
330
5
100
AcDbSymbolTableRecord
100
AcDbLinetypeTableRecord
  2
ByBlock
 70
     0
  3

 72
    65
 73
     0
 40
0.0
  0
LTYPE
  5
15
330
5
100
AcDbSymbolTableRecord
100
AcDbLinetypeTableRecord
  2
ByLayer
 70
     0
  3

 72
    65
 73
     0
 40
0.0
  0
LTYPE
  5
16
330
5
100
AcDbSymbolTableRecord
100
AcDbLinetypeTableRecord
  2
Continuous
 70
     0
  3
Solid line
 72
    65
 73
     0
 40
0.0
  0
LTYPE
  5
3F
330
5
100
AcDbSymbolTableRecord
100
AcDbLinetypeTableRecord
  2
DASHED
 70
     0
  3
Dashed
 72
    65
 73
     2
 40
15.0
 49
7.0
 74
     0
 49
-8.0
 74
     0
  0
LTYPE
  5
40
330
5
100
AcDbSymbolTableRecord
100
AcDbLinetypeTableRecord
  2
DOTTED
 70
     0
  3
Dotted
 72
    65
 73
     2
 40
1.0
 49
0.0
 74
     0
 49
-1.0
 74
     0
  0
LTYPE
  5
41
330
5
100
AcDbSymbolTableRecord
100
AcDbLinetypeTableRecord
  2
DOT_CENTER
 70
     0
  3
Dot_Center
 72
    65
 73
     4
 40
14.0
 49
12.0
 74
     0
 49
-1.0
 74
     0
 49
0.0
 74
     0
 49
-1.0
 74
     0
  0
LTYPE
  5
42
330
5
100
AcDbSymbolTableRecord
100
AcDbLinetypeTableRecord
  2
LONG_DASHED
 70
     0
  3
Long_Dashed
 72
    65
 73
     2
 40
15.0
 49
10.0
 74
     0
 49
-5.0
 74
     0
  0
LTYPE
  5
43
330
5
100
AcDbSymbolTableRecord
100
AcDbLinetypeTableRecord
  2
DASH_CENTER
 70
     0
  3
Dash_Center
 72
    65
 73
     4
 40
14.0
 49
11.0
 74
     0
 49
-1.0
 74
     0
 49
1.0
 74
     0
 49
-1.0
 74
     0
  0
LTYPE
  5
44
330
5
100
AcDbSymbolTableRecord
100
AcDbLinetypeTableRecord
  2
PHANTOM
 70
     0
  3
Phantom
 72
    65
 73
     6
 40
13.0
 49
10.0
 74
     0
 49
-1.0
 74
     0
 49
0.0
 74
     0
 49
-1.0
 74
     0
 49
0.0
 74
     0
 49
-1.0
 74
     0
  0
LTYPE
  5
45
330
5
100
AcDbSymbolTableRecord
100
AcDbLinetypeTableRecord
  2
CENTER_DASH_DASH
 70
     0
  3
Center_Dash_Dash
 72
    65
 73
     6
 40
14.0
 49
9.0
 74
     0
 49
-1.0
 74
     0
 49
1.0
 74
     0
 49
-1.0
 74
     0
 49
1.0
 74
     0
 49
-1.0
 74
     0
  0
ENDTAB
  0
TABLE
  2
LAYER
  5
2
330
0
100
AcDbSymbolTable
 70
     2
  0
LAYER
  5
10
330
2
100
AcDbSymbolTableRecord
100
AcDbLayerTableRecord
  2
0
 70
     0
 62
     7
  6
Continuous
370
    -3
390
F
  0
LAYER
  5
46
330
2
100
AcDbSymbolTableRecord
100
AcDbLayerTableRecord
  2
1
 70
     0
 62
     7
  6
Continuous
370
    -3
390
F
  0
ENDTAB
  0
TABLE
  2
STYLE
  5
3
330
0
100
AcDbSymbolTable
 70
     5
  0
STYLE
  5
11
330
3
100
AcDbSymbolTableRecord
100
AcDbTextStyleTableRecord
  2
Standard
 70
     0
 40
0.0
 41
1.0
 50
0.0
 71
     0
 42
0.2
  3
txt
  4

  0
STYLE
  5
D3
330
3
100
AcDbSymbolTableRecord
100
AcDbTextStyleTableRecord
  2
CONVERTER_11
 70
     0
 40
0.0
 41
0.9
 50
0.0
 71
     0
 42
0.2
  3
txt.shx
  4

  0
STYLE
  5
28E
330
3
100
AcDbSymbolTableRecord
100
AcDbTextStyleTableRecord
  2
CONVERTER_12
 70
     0
 40
0.0
 41
0.81
 50
0.0
 71
     0
 42
0.2
  3
txt.shx
  4

  0
STYLE
  5
294
330
3
100
AcDbSymbolTableRecord
100
AcDbTextStyleTableRecord
  2
CONVERTER_13
 70
     0
 40
0.0
 41
0.855
 50
0.0
 71
     0
 42
0.2
  3
txt.shx
  4

  0
STYLE
  5
297
330
3
100
AcDbSymbolTableRecord
100
AcDbTextStyleTableRecord
  2
CONVERTER_14
 70
     0
 40
0.0
 41
0.72
 50
0.0
 71
     0
 42
0.2
  3
txt.shx
  4

  0
ENDTAB
  0
TABLE
  2
VIEW
  5
6
330
0
100
AcDbSymbolTable
 70
     0
  0
ENDTAB
  0
TABLE
  2
UCS
  5
7
330
0
100
AcDbSymbolTable
 70
     0
  0
ENDTAB
  0
TABLE
  2
APPID
  5
9
330
0
100
AcDbSymbolTable
 70
     1
  0
APPID
  5
12
330
9
100
AcDbSymbolTableRecord
100
AcDbRegAppTableRecord
  2
ACAD
 70
     0
  0
ENDTAB
  0
TABLE
  2
DIMSTYLE
  5
A
330
0
100
AcDbSymbolTable
 70
     4
100
AcDbDimStyleTable
  0
DIMSTYLE
105
27
330
A
100
AcDbSymbolTableRecord
100
AcDbDimStyleTableRecord
  2
Standard
 70
     0
178
     0
340
11
  0
DIMSTYLE
105
FB
102
{ACAD_REACTORS
330
FC
102
}
330
A
100
AcDbSymbolTableRecord
100
AcDbDimStyleTableRecord
  2
ME10_DIM_10
 70
     0
 41
1.75
 42
0.0
 44
0.75
 73
     0
 74
     0
 77
     1
 78
     8
140
1.75
147
0.75
172
     1
173
     1
174
     1
175
     1
176
     2
177
     2
271
     1
178
     3
271
     1
340
D3
  0
DIMSTYLE
105
188
102
{ACAD_REACTORS
330
189
102
}
330
A
100
AcDbSymbolTableRecord
100
AcDbDimStyleTableRecord
  2
ME10_DIM_11
 70
     0
 41
1.75
 42
0.0
 44
0.75
 73
     0
 74
     0
 77
     1
 78
     8
140
1.75
147
0.75
172
     1
173
     1
174
     1
175
     1
176
     2
177
     2
271
     1
178
     3
271
     1
340
D3
  0
DIMSTYLE
105
193
102
{ACAD_REACTORS
330
194
102
}
330
A
100
AcDbSymbolTableRecord
100
AcDbDimStyleTableRecord
  2
ME10_DIM_12
 70
     0
 41
1.75
 42
0.0
 44
0.75
 73
     0
 74
     0
 77
     1
 78
     8
140
1.75
147
0.75
172
     1
173
     1
174
     1
175
     1
176
     2
177
     2
271
     1
178
     3
271
     1
340
D3
  0
ENDTAB
  0
TABLE
  2
BLOCK_RECORD
  5
1
330
0
100
AcDbSymbolTable
 70
    19
  0
BLOCK_RECORD
  5
1F
330
1
100
AcDbSymbolTableRecord
100
AcDbBlockTableRecord
  2
*Model_Space
340
22
  0
BLOCK_RECORD
  5
1B
330
1
100
AcDbSymbolTableRecord
100
AcDbBlockTableRecord
  2
*Paper_Space
340
1E
  0
BLOCK_RECORD
  5
23
330
1
100
AcDbSymbolTableRecord
100
AcDbBlockTableRecord
  2
*Paper_Space0
340
26
  0
BLOCK_RECORD
  5
47
330
1
100
AcDbSymbolTableRecord
100
AcDbBlockTableRecord
  2
0808037_PATG_6_23-select__1
340
0
102
{BLKREFS
331
4B
102
}
  0
BLOCK_RECORD
  5
4A
330
1
100
AcDbSymbolTableRecord
100
AcDbBlockTableRecord
  2
Allg1
340
0
102
{BLKREFS
331
7C
102
}
  0
BLOCK_RECORD
  5
4E
330
1
100
AcDbSymbolTableRecord
100
AcDbBlockTableRecord
  2
0808037_PATG_6_23-select__2
340
0
102
{BLKREFS
331
52
102
}
  0
BLOCK_RECORD
  5
51
330
1
100
AcDbSymbolTableRecord
100
AcDbBlockTableRecord
  2
Drfsicht1
340
0
102
{BLKREFS
331
7D
102
}
  0
BLOCK_RECORD
  5
55
330
1
100
AcDbSymbolTableRecord
100
AcDbBlockTableRecord
  2
0808037_PATG_6_23-select__3
340
0
102
{BLKREFS
331
59
102
}
  0
BLOCK_RECORD
  5
58
330
1
100
AcDbSymbolTableRecord
100
AcDbBlockTableRecord
  2
Rckans1
340
0
102
{BLKREFS
331
7E
102
}
  0
BLOCK_RECORD
  5
5C
330
1
100
AcDbSymbolTableRecord
100
AcDbBlockTableRecord
  2
0808037_PATG_6_23-select__4
340
0
102
{BLKREFS
331
60
102
}
  0
BLOCK_RECORD
  5
5F
330
1
100
AcDbSymbolTableRecord
100
AcDbBlockTableRecord
  2
SA_Links1
340
0
102
{BLKREFS
331
7F
102
}
  0
BLOCK_RECORD
  5
63
330
1
100
AcDbSymbolTableRecord
100
AcDbBlockTableRecord
  2
0808037_PATG_6_23-select__5
340
0
102
{BLKREFS
331
67
102
}
  0
BLOCK_RECORD
  5
66
330
1
100
AcDbSymbolTableRecord
100
AcDbBlockTableRecord
  2
SA_Rechts1
340
0
102
{BLKREFS
331
80
102
}
  0
BLOCK_RECORD
  5
6A
330
1
100
AcDbSymbolTableRecord
100
AcDbBlockTableRecord
  2
0808037_PATG_6_23-select__6
340
0
102
{BLKREFS
331
6E
102
}
  0
BLOCK_RECORD
  5
6D
330
1
100
AcDbSymbolTableRecord
100
AcDbBlockTableRecord
  2
Vordans1
340
0
102
{BLKREFS
331
81
102
}
  0
BLOCK_RECORD
  5
71
330
1
100
AcDbSymbolTableRecord
100
AcDbBlockTableRecord
  2
_punkt
340
0
102
{BLKREFS
331
78
102
}
  0
BLOCK_RECORD
  5
74
330
1
100
AcDbSymbolTableRecord
100
AcDbBlockTableRecord
  2
_rahmen
340
0
102
{BLKREFS
331
79
102
}
  0
BLOCK_RECORD
  5
77
330
1
100
AcDbSymbolTableRecord
100
AcDbBlockTableRecord
  2
A4I_CS
340
0
102
{BLKREFS
331
82
102
}
  0
BLOCK_RECORD
  5
F2
330
1
100
AcDbSymbolTableRecord
100
AcDbBlockTableRecord
  2
*D16
340
0
  0
BLOCK_RECORD
  5
17F
330
1
100
AcDbSymbolTableRecord
100
AcDbBlockTableRecord
  2
*D17
340
0
  0
BLOCK_RECORD
  5
18A
330
1
100
AcDbSymbolTableRecord
100
AcDbBlockTableRecord
  2
*D18
340
0
  0
ENDTAB
  0
ENDSEC
  0
SECTION
  2
BLOCKS
  0
BLOCK
  5
20
330
1F
100
AcDbEntity
  8
0
100
AcDbBlockBegin
  2
*Model_Space
 70
     0
 10
0.0
 20
0.0
 30
0.0
  3
*Model_Space
  1

  0
ENDBLK
  5
21
330
1F
100
AcDbEntity
  8
0
100
AcDbBlockEnd
  0
BLOCK
  5
1C
330
1B
100
AcDbEntity
 67
     1
  8
0
100
AcDbBlockBegin
  2
*Paper_Space
 70
     0
 10
0.0
 20
0.0
 30
0.0
  3
*Paper_Space
  1

  0
ENDBLK
  5
1D
330
1B
100
AcDbEntity
 67
     1
  8
0
100
AcDbBlockEnd
  0
BLOCK
  5
24
330
23
100
AcDbEntity
  8
0
100
AcDbBlockBegin
  2
*Paper_Space0
 70
     0
 10
0.0
 20
0.0
 30
0.0
  3
*Paper_Space0
  1

  0
ENDBLK
  5
25
330
23
100
AcDbEntity
  8
0
100
AcDbBlockEnd
  0
BLOCK
  5
48
330
47
100
AcDbEntity
  8
0
100
AcDbBlockBegin
  2
0808037_PATG_6_23-select__1
 70
     0
 10
-70.60929196000383
 20
-107.3743362656146
 30
0.0
  3
0808037_PATG_6_23-select__1
  1

  0
LINE
  5
83
330
47
100
AcDbEntity
  8
0
  6
Continuous
 62
     7
100
AcDbLine
 10
-48.92953210521955
 20
-94.46460966675563
 30
0.0
 11
-44.35096757764016
 21
-95.78632739800565
 31
0.0
  0
LINE
  5
84
330
47
100
AcDbEntity
  8
0
  6
Continuous
 62
     2
100
AcDbLine
 10
-44.38542820811962
 20
-100.5386373384606
 30
0.0
 11
-42.8970941040744
 21
-100.9682823862679
 31
0.0
  0
LINE
  5
85
330
47
100
AcDbEntity
  8
0
  6
Continuous
 62
     2
100
AcDbLine
 10
-48.08992752893359
 20
-92.81874713849922
 30
0.0
 11
-41.74070767296175
 21
-94.65160903499395
 31
0.0
  0
LINE
  5
86
330
47
100
AcDbEntity
  8
0
  6
Continuous
 62
     2
100
AcDbLine
 10
-47.6603807524839
 20
-92.16332374859962
 30
0.0
 11
-41.74070767296175
 21
-93.87218617158797
 31
0.0
  0
LINE
  5
87
330
47
100
AcDbEntity
  8
0
  6
Continuous
 62
     2
100
AcDbLine
 10
-50.23385842383154
 20
-103.7235306856117
 30
0.0
 11
-46.82101316181257
 21
-104.7087342509763
 31
0.0
  0
LINE
  5
88
330
47
100
AcDbEntity
  8
0
  6
Continuous
 62
     2
100
AcDbLine
 10
-50.28396020277748
 20
-103.3047123450684
 30
0.0
 11
-46.83045593885751
 21
-104.3016531532793
 31
0.0
  0
LINE
  5
89
330
47
100
AcDbEntity
  8
0
  6
Continuous
 62
     7
100
AcDbLine
 10
-50.69070767296174
 20
-101.6231135354587
 30
0.0
 11
-50.69070767296174
 21
-102.4025363988647
 31
0.0
  0
LINE
  5
8A
330
47
100
AcDbEntity
  8
0
  6
Continuous
 62
     7
100
AcDbLine
 10
-70.60929196000383
 20
-95.87311353545869
 30
0.0
 11
-70.60929196000383
 21
-96.65253639886468
 31
0.0
  0
LINE
  5
8B
330
47
100
AcDbEntity
  8
0
  6
Continuous
 62
     7
100
AcDbLine
 10
-50.34070767296173
 20
-101.3200046441341
 30
0.0
 11
-50.34070767296173
 21
-102.0994275075401
 31
0.0
  0
LINE
  5
8C
330
47
100
AcDbEntity
  8
0
  6
Continuous
 62
     7
100
AcDbLine
 10
-50.01080863794937
 20
-98.05475961371332
 30
0.0
 11
-47.73044776828331
 21
-98.71304309468891
 31
0.0
  0
LINE
  5
8D
330
47
100
AcDbEntity
  8
0
  6
Continuous
 62
     2
100
AcDbLine
 10
-46.51845505917717
 20
-103.7193194290608
 30
0.0
 11
-45.48135604345895
 21
-104.0187041270114
 31
0.0
  0
LINE
  5
8E
330
47
100
AcDbEntity
  8
0
  6
Continuous
 62
     2
100
AcDbLine
 10
-70.60929196000383
 20
-96.65253639886468
 30
0.0
 11
-50.69070767296174
 21
-102.4025363988647
 31
0.0
  0
LINE
  5
8F
330
47
100
AcDbEntity
  8
0
  6
Continuous
 62
     2
100
AcDbLine
 10
-70.60929196000383
 20
-95.87311353545869
 30
0.0
 11
-50.69070767296174
 21
-101.6231135354587
 31
0.0
  0
LINE
  5
90
330
47
100
AcDbEntity
  8
0
  6
Continuous
 62
     2
100
AcDbLine
 10
-70.04754993698765
 20
-91.39844833163252
 30
0.0
 11
-50.12896564994555
 21
-97.14844833163252
 31
0.0
  0
LINE
  5
91
330
47
100
AcDbEntity
  8
0
  6
Continuous
 62
     7
100
AcDbLine
 10
-49.04239160082038
 20
-107.3042088135566
 30
0.0
 11
-68.96097588786249
 21
-101.5542088135566
 31
0.0
  0
LINE
  5
92
330
47
100
AcDbEntity
  8
0
  6
Continuous
 62
     7
100
AcDbLine
 10
-41.39070767296175
 20
-93.56907728026341
 30
0.0
 11
-41.39070767296174
 21
-94.34850014366941
 31
0.0
  0
LINE
  5
93
330
47
100
AcDbEntity
  8
0
  6
Continuous
 62
     7
100
AcDbLine
 10
-41.74070767296175
 20
-93.87218617158797
 30
0.0
 11
-41.74070767296175
 21
-94.65160903499395
 31
0.0
  0
LINE
  5
94
330
47
100
AcDbEntity
  8
0
  6
Continuous
 62
     2
100
AcDbLine
 10
-47.63805055073169
 20
-101.9755788423854
 30
0.0
 11
-45.44988011997585
 21
-102.6072492360002
 31
0.0
  0
LINE
  5
95
330
47
100
AcDbEntity
  8
0
  6
Continuous
 62
     7
100
AcDbLine
 10
-44.35096757764016
 20
-95.78632739800565
 30
0.0
 11
-47.73044776828331
 21
-98.71304309468891
 31
0.0
  0
LINE
  5
96
330
47
100
AcDbEntity
  8
0
  6
Continuous
 62
     7
100
AcDbLine
 10
-47.50989134478682
 20
-99.12825341162221
 30
0.0
 11
-44.57152400113665
 21
-96.58355264637056
 31
0.0
  0
LINE
  5
97
330
47
100
AcDbEntity
  8
0
  6
Continuous
 62
     7
100
AcDbLine
 10
-44.89672252637888
 20
-88.18120842119149
 30
0.0
 11
-43.28425529266404
 21
-88.64668761691384
 31
0.0
  0
LINE
  5
98
330
47
100
AcDbEntity
  8
0
  6
Continuous
 62
     7
100
AcDbLine
 10
-46.66974055188756
 20
-91.25475394210184
 30
0.0
 11
-46.45673282013065
 21
-91.31624397773649
 31
0.0
  0
LINE
  5
99
330
47
100
AcDbEntity
  8
0
  6
Continuous
 62
     2
100
AcDbLine
 10
-46.64409100720386
 20
-91.25569499742302
 30
0.0
 11
-46.51173468060661
 21
-91.29390297781794
 31
0.0
  0
LINE
  5
9A
330
47
100
AcDbEntity
  8
0
  6
Continuous
 62
     2
100
AcDbLine
 10
-45.14076392102871
 20
-89.78490364819142
 30
0.0
 11
-42.26312775436679
 21
-90.61560565591743
 31
0.0
  0
LINE
  5
9B
330
47
100
AcDbEntity
  8
0
  6
Continuous
 62
     7
100
AcDbLine
 10
-67.03851134955589
 20
-85.11868119757376
 30
0.0
 11
-47.1199270625138
 21
-90.86868119757376
 31
0.0
  0
LINE
  5
9C
330
47
100
AcDbEntity
  8
0
  6
Continuous
 62
     2
100
AcDbLine
 10
-67.10930111094322
 20
-84.09395731628933
 30
0.0
 11
-47.19071682390114
 21
-89.84395731628935
 31
0.0
  0
LINE
  5
9D
330
47
100
AcDbEntity
  8
0
  6
Continuous
 62
     2
100
AcDbLine
 10
-66.47961839555327
 20
-82.23214233431761
 30
0.0
 11
-46.56103410851118
 21
-87.98214233431763
 31
0.0
  0
LINE
  5
9E
330
47
100
AcDbEntity
  8
0
  6
Continuous
 62
     2
100
AcDbLine
 10
-65.43896552445437
 20
-81.33091051142478
 30
0.0
 11
-45.5203812374123
 21
-87.08091051142478
 31
0.0
  0
LINE
  5
9F
330
47
100
AcDbEntity
  8
0
  6
Continuous
 62
     7
100
AcDbLine
 10
-45.23580497724794
 20
-87.03609753516066
 30
0.0
 11
-65.15438926429005
 21
-81.28609753516066
 31
0.0
  0
LINE
  5
A0
330
47
100
AcDbEntity
  8
0
  6
Continuous
 62
     7
100
AcDbLine
 10
-46.50281207260548
 20
-103.7432549487248
 30
0.0
 11
-45.32362021011797
 21
-104.0836583183415
 31
0.0
  0
LINE
  5
A1
330
47
100
AcDbEntity
  8
0
  6
Continuous
 62
     2
100
AcDbLine
 10
-69.36586568999023
 20
-101.2909808068255
 30
0.0
 11
-49.44728140294813
 21
-107.0409808068255
 31
0.0
  0
SPLINE
  5
A2
330
47
100
AcDbEntity
  8
0
  6
Continuous
 62
     7
100
AcDbSpline
210
0.0
220
0.0
230
1.0
 70
     8
 71
     3
 72
     9
 73
     5
 74
     3
 42
0.000000001
 43
0.0000000001
 44
0.00000001
 40
0.0
 40
0.0
 40
0.0
 40
0.0
 40
0.0858331128661531
 40
0.1708388804230701
 40
0.1708388804230701
 40
0.1708388804230701
 40
0.1708388804230701
 10
-45.48135604345895
 20
-104.0187041270114
 30
0.0
 10
-45.45582594664164
 20
-104.0317367143632
 30
0.0
 10
-45.40501182950527
 20
-104.0576762497309
 30
0.0
 10
-45.3506630180692
 20
-104.0750256417659
 30
0.0
 10
-45.32362021011797
 20
-104.0836583183415
 30
0.0
 11
-45.48135604345895
 21
-104.0187041270114
 31
0.0
 11
-45.40387349540898
 21
-104.0556334934468
 31
0.0
 11
-45.32362021011797
 21
-104.0836583183415
 31
0.0
  0
SPLINE
  5
A3
330
47
100
AcDbEntity
  8
0
  6
Continuous
 62
     7
100
AcDbSpline
210
0.0
220
0.0
230
1.0
 70
     8
 71
     3
 72
    13
 73
     9
 74
     7
 42
0.000000001
 43
0.0000000001
 44
0.00000001
 40
0.0
 40
0.0
 40
0.0
 40
0.0
 40
0.3647403848327961
 40
0.8034548065049341
 40
1.349297066379571
 40
2.001737781244969
 40
2.741254602254152
 40
3.537645789596143
 40
3.537645789596143
 40
3.537645789596143
 40
3.537645789596143
 10
-45.12947514143913
 20
-103.4111200723602
 30
0.0
 10
-45.00608304274801
 20
-103.4234976633745
 30
0.0
 10
-44.73427334379967
 20
-103.4507631643453
 30
0.0
 10
-44.32224422919424
 20
-103.2230876362065
 30
0.0
 10
-43.92048143119963
 20
-102.8558169107284
 30
0.0
 10
-43.53340651507531
 20
-102.333120824839
 30
0.0
 10
-43.17710201722126
 20
-101.6945403079498
 30
0.0
 10
-42.99270612285591
 20
-101.216271756499
 30
0.0
 10
-42.8970941040744
 20
-100.9682823862679
 30
0.0
 11
-45.12947514143913
 21
-103.4111200723602
 31
0.0
 11
-44.76475226574385
 21
-103.4146945803198
 31
0.0
 11
-44.36667485067331
 21
-103.2302908903822
 31
0.0
 11
-43.95800075288884
 21
-102.8684494150297
 31
0.0
 11
-43.56209386437481
 21
-102.3498584185299
 31
0.0
 11
-43.2015884440715
 21
-101.7041642410973
 31
0.0
 11
-42.8970941040744
 21
-100.9682823862679
 31
0.0
  0
SPLINE
  5
A4
330
47
100
AcDbEntity
  8
0
  6
Continuous
 62
     7
100
AcDbSpline
210
0.0
220
0.0
230
1.0
 70
     8
 71
     3
 72
    13
 73
     9
 74
     7
 42
0.000000001
 43
0.0000000001
 44
0.00000001
 40
0.0
 40
0.0
 40
0.0
 40
0.0
 40
0.439425099340385
 40
0.9679712549404571
 40
1.625580882012829
 40
2.411616201811924
 40
3.302557444020495
 40
4.262018719318618
 40
4.262018719318618
 40
4.262018719318618
 40
4.262018719318618
 10
-45.32362021011797
 20
-104.0836583183415
 30
0.0
 10
-45.1749621851778
 20
-104.0985703609538
 30
0.0
 10
-44.84749637934956
 20
-104.1314187844596
 30
0.0
 10
-44.3510996513328
 20
-103.8571241145629
 30
0.0
 10
-43.8670713826037
 20
-103.4146505612119
 30
0.0
 10
-43.4007385061724
 20
-102.7849265478388
 30
0.0
 10
-42.97147663826719
 20
-102.0155894589995
 30
0.0
 10
-42.74932360219312
 20
-101.4393900206853
 30
0.0
 10
-42.63413394297535
 20
-101.1406220267596
 30
0.0
 11
-45.32362021011797
 21
-104.0836583183415
 31
0.0
 11
-44.88421620646581
 21
-104.0879647471761
 31
0.0
 11
-44.40462794479713
 21
-103.8658023190796
 31
0.0
 11
-43.91227320995056
 21
-103.4298697150328
 31
0.0
 11
-43.43529991466465
 21
-102.8050913550641
 31
0.0
 11
-43.00097693802768
 21
-102.0271840023709
 31
0.0
 11
-42.63413394297535
 21
-101.1406220267596
 31
0.0
  0
SPLINE
  5
A5
330
47
100
AcDbEntity
  8
0
  6
Continuous
 62
     7
100
AcDbSpline
210
0.0
220
0.0
230
1.0
 70
     8
 71
     3
 72
     9
 73
     5
 74
     3
 42
0.000000001
 43
0.0000000001
 44
0.00000001
 40
0.0
 40
0.0
 40
0.0
 40
0.0
 40
0.1956091190829006
 40
0.4048279598540329
 40
0.4048279598540329
 40
0.4048279598540329
 40
0.4048279598540329
 10
-48.84824653214156
 20
-106.6316705675753
 30
0.0
 10
-48.90985969087374
 20
-106.6081116259138
 30
0.0
 10
-49.037372802899
 20
-106.5593545857504
 30
0.0
 10
-49.13425277871271
 20
-106.4629853362225
 30
0.0
 10
-49.18432124184908
 20
-106.4131808069437
 30
0.0
 11
-48.84824653214156
 21
-106.6316705675753
 31
0.0
 11
-49.02593398572819
 21
-106.5498775553224
 31
0.0
 11
-49.18432124184908
 21
-106.4131808069437
 31
0.0
  0
SPLINE
  5
A6
330
47
100
AcDbEntity
  8
0
  6
Continuous
 62
     7
100
AcDbSpline
210
0.0
220
0.0
230
1.0
 70
     8
 71
     3
 72
    11
 73
     7
 74
     5
 42
0.000000001
 43
0.0000000001
 44
0.00000001
 40
0.0
 40
0.0
 40
0.0
 40
0.0
 40
0.8920636410846366
 40
1.946211028427521
 40
3.16994926770684
 40
4.550192795836597
 40
4.550192795836597
 40
4.550192795836597
 40
4.550192795836597
 10
-49.18432124184908
 20
-106.4131808069437
 30
0.0
 10
-49.3615436122586
 20
-106.1723941912229
 30
0.0
 10
-49.74818880698712
 20
-105.647071161595
 30
0.0
 10
-50.08124989996902
 20
-104.6299150607912
 30
0.0
 10
-50.3050304949037
 20
-103.4295434401508
 30
0.0
 10
-50.32834813711042
 20
-102.5602156841389
 30
0.0
 10
-50.34070767296173
 20
-102.0994275075401
 30
0.0
 11
-49.18432124184908
 21
-106.4131808069437
 31
0.0
 11
-49.67771775423073
 21
-105.669986737491
 31
0.0
 11
-50.04201799833076
 21
-104.6807890550932
 31
0.0
 11
-50.26542573213276
 21
-103.4776164704676
 31
0.0
 11
-50.34070767296173
 21
-102.0994275075401
 31
0.0
  0
SPLINE
  5
A7
330
47
100
AcDbEntity
  8
0
  6
Continuous
 62
     7
100
AcDbSpline
210
0.0
220
0.0
230
1.0
 70
     8
 71
     3
 72
    11
 73
     7
 74
     5
 42
0.000000001
 43
0.0000000001
 44
0.00000001
 40
0.0
 40
0.0
 40
0.0
 40
0.0
 40
1.065232317532682
 40
2.181666044866872
 40
3.337294262357332
 40
4.519158028816116
 40
4.519158028816116
 40
4.519158028816116
 40
4.519158028816116
 10
-50.69070767296174
 20
-101.6231135354587
 30
0.0
 10
-50.68349291255478
 20
-101.2679776681529
 30
0.0
 10
-50.66871659222896
 20
-100.5406359890998
 30
0.0
 10
-50.55564290939641
 20
-99.43299523553219
 30
0.0
 10
-50.38366342862841
 20
-98.29392330758537
 30
0.0
 10
-50.21449780829211
 20
-97.53311969250778
 30
0.0
 10
-50.12896564994555
 20
-97.14844833163252
 30
0.0
 11
-50.69070767296174
 21
-101.6231135354587
 31
0.0
 11
-50.65496361289414
 21
-100.5584810855902
 31
0.0
 11
-50.54824253567342
 21
-99.44715985358673
 31
0.0
 11
-50.37207025128743
 21
-98.30503906112112
 31
0.0
 11
-50.12896564994555
 21
-97.14844833163252
 31
0.0
  0
SPLINE
  5
A8
330
47
100
AcDbEntity
  8
0
  6
Continuous
 62
     7
100
AcDbSpline
210
0.0
220
0.0
230
1.0
 70
     8
 71
     3
 72
    11
 73
     7
 74
     5
 42
0.000000001
 43
0.0000000001
 44
0.00000001
 40
0.0
 40
0.0
 40
0.0
 40
0.0
 40
0.9592082163699742
 40
2.092700031019584
 40
3.408547600310709
 40
4.892680426016839
 40
4.892680426016839
 40
4.892680426016839
 40
4.892680426016839
 10
-49.44728140294813
 20
-107.0409808068255
 30
0.0
 10
-49.63784309159032
 20
-106.7820704673004
 30
0.0
 10
-50.05359061386883
 20
-106.2172069950963
 30
0.0
 10
-50.41172082084465
 20
-105.1234907571383
 30
0.0
 10
-50.6523451169346
 20
-103.832768584444
 30
0.0
 10
-50.67741784946785
 20
-102.8980075564177
 30
0.0
 10
-50.69070767296174
 20
-102.4025363988647
 30
0.0
 11
-49.44728140294813
 21
-107.0409808068255
 31
0.0
 11
-49.97781528722947
 21
-106.2418473988118
 31
0.0
 11
-50.36953597981015
 21
-105.1781939768788
 31
0.0
 11
-50.60975934948974
 21
-103.8844600149157
 31
0.0
 11
-50.69070767296174
 21
-102.4025363988647
 31
0.0
  0
SPLINE
  5
A9
330
47
100
AcDbEntity
  8
0
  6
Continuous
 62
     7
100
AcDbSpline
210
0.0
220
0.0
230
1.0
 70
     8
 71
     3
 72
    13
 73
     9
 74
     7
 42
0.000000001
 43
0.0000000001
 44
0.00000001
 40
0.0
 40
0.0
 40
0.0
 40
0.0
 40
0.0424117442153397
 40
0.0978630646517262
 40
0.1691768463130279
 40
0.2533631520574217
 40
0.3446846223892222
 40
0.4362228327166283
 40
0.4362228327166283
 40
0.4362228327166283
 40
0.4362228327166283
 10
-46.83045593885751
 20
-104.3016531532793
 30
0.0
 10
-46.8181997197106
 20
-104.3093905557616
 30
0.0
 10
-46.78991909340503
 20
-104.3272442516256
 30
0.0
 10
-46.77118295044109
 20
-104.3839439391003
 30
0.0
 10
-46.76327559454619
 20
-104.4532341959768
 30
0.0
 10
-46.76961454833982
 20
-104.535941222388
 30
0.0
 10
-46.7876838630733
 20
-104.6233847686203
 30
0.0
 10
-46.80989462013819
 20
-104.6802619516527
 30
0.0
 10
-46.82101316181257
 20
-104.7087342509763
 30
0.0
 11
-46.83045593885751
 21
-104.3016531532793
 31
0.0
 11
-46.79696325919274
 21
-104.3276723204871
 31
0.0
 11
-46.77471682943378
 21
-104.3784654873438
 31
0.0
 11
-46.76582398990131
 21
-104.4492226262875
 31
0.0
 11
-46.77112659167845
 21
-104.5332417697321
 31
0.0
 11
-46.79012282394709
 21
-104.6225656421521
 31
0.0
 11
-46.82101316181257
 21
-104.7087342509763
 31
0.0
  0
SPLINE
  5
AA
330
47
100
AcDbEntity
  8
0
  6
Continuous
 62
     7
100
AcDbSpline
210
0.0
220
0.0
230
1.0
 70
     8
 71
     3
 72
    13
 73
     9
 74
     7
 42
0.000000001
 43
0.0000000001
 44
0.00000001
 40
0.0
 40
0.0
 40
0.0
 40
0.0
 40
0.6757031916946284
 40
1.292425166826148
 40
1.832546997472386
 40
2.286867759582794
 40
2.660317874022673
 40
2.980858858198184
 40
2.980858858198184
 40
2.980858858198184
 40
2.980858858198184
 10
-46.82101316181257
 20
-104.7087342509763
 30
0.0
 10
-46.91725889751815
 20
-104.9126421917391
 30
0.0
 10
-47.10134920974141
 20
-105.3026592246618
 30
0.0
 10
-47.43582649142195
 20
-105.8156551766328
 30
0.0
 10
-47.78729105930763
 20
-106.2262618294598
 30
0.0
 10
-48.14506718576325
 20
-106.5088626935413
 30
0.0
 10
-48.50705050543412
 20
-106.6743550234473
 30
0.0
 10
-48.74044579100264
 20
-106.6451567083369
 30
0.0
 10
-48.84824653214156
 20
-106.6316705675753
 30
0.0
 11
-46.82101316181257
 21
-104.7087342509763
 31
0.0
 11
-47.12391031995516
 21
-105.3127442685672
 31
0.0
 11
-47.46151959117317
 21
-105.8288508222218
 31
0.0
 11
-47.8187426922123
 21
-106.2339720975286
 31
0.0
 11
-48.17960392200668
 21
-106.5099911676554
 31
0.0
 11
-48.52796492328965
 21
-106.6445631044034
 31
0.0
 11
-48.84824653214156
 21
-106.6316705675753
 31
0.0
  0
SPLINE
  5
AB
330
47
100
AcDbEntity
  8
0
  6
Continuous
 62
     7
100
AcDbSpline
210
0.0
220
0.0
230
1.0
 70
     8
 71
     3
 72
     9
 73
     5
 74
     3
 42
0.000000001
 43
0.0000000001
 44
0.00000001
 40
0.0
 40
0.0
 40
0.0
 40
0.0
 40
0.2356622956991365
 40
0.4877210573095239
 40
0.4877210573095239
 40
0.4877210573095239
 40
0.4877210573095239
 10
-49.04239160082038
 20
-107.3042088135566
 30
0.0
 10
-49.11662074974851
 20
-107.2758259124822
 30
0.0
 10
-49.27024361368755
 20
-107.217085321162
 30
0.0
 10
-49.38696085644583
 20
-107.1009833760317
 30
0.0
 10
-49.44728140294813
 20
-107.0409808068255
 30
0.0
 11
-49.04239160082038
 21
-107.3042088135566
 31
0.0
 11
-49.25646256732033
 21
-107.2056677582795
 31
0.0
 11
-49.44728140294813
 21
-107.0409808068255
 31
0.0
  0
SPLINE
  5
AC
330
47
100
AcDbEntity
  8
0
  6
Continuous
 62
     7
100
AcDbSpline
210
0.0
220
0.0
230
1.0
 70
     8
 71
     3
 72
    13
 73
     9
 74
     7
 42
0.000000001
 43
0.0000000001
 44
0.00000001
 40
0.0
 40
0.0
 40
0.0
 40
0.0
 40
0.8140610494990764
 40
1.557063814280945
 40
2.207781689795213
 40
2.755129758874402
 40
3.205048003449362
 40
3.591223375563358
 40
3.591223375563358
 40
3.591223375563358
 40
3.591223375563358
 10
-46.60005930246454
 20
-104.9875295686067
 30
0.0
 10
-46.71601243925795
 20
-105.2331899625472
 30
0.0
 10
-46.93779732157277
 20
-105.7030673872987
 30
0.0
 10
-47.34076260423932
 20
-106.3211050532296
 30
0.0
 10
-47.76419351151603
 20
-106.8157880561023
 30
0.0
 10
-48.19522834063017
 20
-107.1562546382883
 30
0.0
 10
-48.63133183270213
 20
-107.3556333971944
 30
0.0
 10
-48.91251744001512
 20
-107.3204563940037
 30
0.0
 10
-49.04239160082038
 20
-107.3042088135566
 30
0.0
 11
-46.60005930246454
 21
-104.9875295686067
 31
0.0
 11
-46.96497807463915
 21
-105.7152174589522
 31
0.0
 11
-47.37171665707788
 21
-106.337002658344
 31
0.0
 11
-47.80208522251104
 21
-106.8250770901854
 31
0.0
 11
-48.2368368646509
 21
-107.1576141822634
 31
0.0
 11
-48.6565287153148
 21
-107.3197412429079
 31
0.0
 11
-49.04239160082038
 21
-107.3042088135566
 31
0.0
  0
SPLINE
  5
AD
330
47
100
AcDbEntity
  8
0
  6
Continuous
 62
     7
100
AcDbSpline
210
0.0
220
0.0
230
1.0
 70
     8
 71
     3
 72
    11
 73
     7
 74
     5
 42
0.000000001
 43
0.0000000001
 44
0.00000001
 40
0.0
 40
0.0
 40
0.0
 40
0.0
 40
1.065232317532667
 40
2.181666044866845
 40
3.337294262357316
 40
4.5191580288161
 40
4.5191580288161
 40
4.5191580288161
 40
4.5191580288161
 10
-70.60929196000383
 20
-95.87311353545869
 30
0.0
 10
-70.60207719959686
 20
-95.51797766815285
 30
0.0
 10
-70.58730087927104
 20
-94.79063598909975
 30
0.0
 10
-70.47422719643853
 20
-93.68299523553226
 30
0.0
 10
-70.3022477156705
 20
-92.54392330758535
 30
0.0
 10
-70.1330820953342
 20
-91.78311969250778
 30
0.0
 10
-70.04754993698765
 20
-91.39844833163252
 30
0.0
 11
-70.60929196000383
 21
-95.87311353545869
 31
0.0
 11
-70.57354789993624
 21
-94.80848108559016
 31
0.0
 11
-70.46682682271552
 21
-93.69715985358674
 31
0.0
 11
-70.29065453832953
 21
-92.55503906112112
 31
0.0
 11
-70.04754993698765
 21
-91.39844833163252
 31
0.0
  0
SPLINE
  5
AE
330
47
100
AcDbEntity
  8
0
  6
Continuous
 62
     7
100
AcDbSpline
210
0.0
220
0.0
230
1.0
 70
     8
 71
     3
 72
    11
 73
     7
 74
     5
 42
0.000000001
 43
0.0000000001
 44
0.00000001
 40
0.0
 40
0.0
 40
0.0
 40
0.0
 40
0.9906660552781553
 40
2.028949421652054
 40
3.103683663878575
 40
4.202816966677438
 40
4.202816966677438
 40
4.202816966677438
 40
4.202816966677438
 10
-50.34070767296173
 20
-101.3200046441341
 30
0.0
 10
-50.33399794578343
 20
-100.9897282875488
 30
0.0
 10
-50.32025596682011
 20
-100.3133005260935
 30
0.0
 10
-50.21509744232918
 20
-99.28319462527735
 30
0.0
 10
-50.05515652470315
 20
-98.22385773240428
 30
0.0
 10
-49.89783249881842
 20
-97.51631037018724
 30
0.0
 10
-49.81828759155668
 20
-97.1585660045758
 30
0.0
 11
-50.34070767296173
 21
-101.3200046441341
 31
0.0
 11
-50.30746569709887
 21
-100.3298964657564
 31
0.0
 11
-50.20821509528361
 21
-99.29636771999324
 31
0.0
 11
-50.04437487080463
 21
-98.23419538300023
 31
0.0
 11
-49.81828759155668
 21
-97.1585660045758
 31
0.0
  0
SPLINE
  5
AF
330
47
100
AcDbEntity
  8
0
  6
Continuous
 62
     7
100
AcDbSpline
210
0.0
220
0.0
230
1.0
 70
     8
 71
     3
 72
    11
 73
     7
 74
     5
 42
0.000000001
 43
0.0000000001
 44
0.00000001
 40
0.0
 40
0.0
 40
0.0
 40
0.0
 40
1.67040476124247
 40
3.303759364002001
 40
4.83230259754507
 40
6.197788053105184
 40
6.197788053105184
 40
6.197788053105184
 40
6.197788053105184
 10
-49.81828759155668
 20
-97.1585660045758
 30
0.0
 10
-49.67410579142
 20
-96.620153650358
 30
0.0
 10
-49.38894017930024
 20
-95.55527111950113
 30
0.0
 10
-48.77512765166885
 20
-94.06303641182005
 30
0.0
 10
-48.07891905691746
 20
-92.71733902190223
 30
0.0
 10
-47.49095322764292
 20
-91.95046483797064
 30
0.0
 10
-47.21353413764139
 20
-91.58863168264904
 30
0.0
 11
-49.81828759155668
 21
-97.1585660045758
 31
0.0
 11
-49.35136207730252
 21
-95.5547478634958
 31
0.0
 11
-48.73924017445923
 21
-94.04043150353002
 31
0.0
 11
-48.01397200525003
 21
-92.69490911256446
 31
0.0
 11
-47.21353413764139
 21
-91.58863168264904
 31
0.0
  0
SPLINE
  5
B0
330
47
100
AcDbEntity
  8
0
  6
Continuous
 62
     7
100
AcDbSpline
210
0.0
220
0.0
230
1.0
 70
     8
 71
     3
 72
    13
 73
     9
 74
     7
 42
0.000000001
 43
0.0000000001
 44
0.00000001
 40
0.0
 40
0.0
 40
0.0
 40
0.0
 40
1.273408161580375
 40
2.538590260619442
 40
3.769682679061937
 40
4.942223938773582
 40
6.034314413861805
 40
7.027982339210716
 40
7.027982339210716
 40
7.027982339210716
 40
7.027982339210716
 10
-50.12896564994555
 20
-97.14844833163252
 30
0.0
 10
-50.02244690870199
 20
-96.73738308749427
 30
0.0
 10
-49.81009751032793
 20
-95.9179080348065
 30
0.0
 10
-49.38946665082737
 20
-94.73230079499885
 30
0.0
 10
-48.90589543597935
 20
-93.60783420161061
 30
0.0
 10
-48.36084212445321
 20
-92.57709048502882
 30
0.0
 10
-47.78045500772252
 20
-91.6557138251942
 30
0.0
 10
-47.33306593163921
 20
-91.12264053485387
 30
0.0
 10
-47.1199270625138
 20
-90.86868119757376
 30
0.0
 11
-50.12896564994555
 21
-97.14844833163252
 31
0.0
 11
-49.79156608931908
 21
-95.92055180540734
 31
0.0
 11
-49.37269510143824
 21
-94.72672064577225
 31
0.0
 11
-48.88297308446811
 21
-93.5972247889678
 31
0.0
 11
-48.33481717658132
 21
-92.5607026661742
 31
0.0
 11
-47.74212587360125
 21
-91.64343573131012
 31
0.0
 11
-47.1199270625138
 21
-90.86868119757376
 31
0.0
  0
SPLINE
  5
B1
330
47
100
AcDbEntity
  8
0
  6
Continuous
 62
     7
100
AcDbSpline
210
0.0
220
0.0
230
1.0
 70
     8
 71
     3
 72
     9
 73
     5
 74
     3
 42
0.000000001
 43
0.0000000001
 44
0.00000001
 40
0.0
 40
0.0
 40
0.0
 40
0.0
 40
0.2356622956991171
 40
0.4877210573095153
 40
0.4877210573095153
 40
0.4877210573095153
 40
0.4877210573095153
 10
-68.96097588786249
 20
-101.5542088135566
 30
0.0
 10
-69.03520503679061
 20
-101.5258259124822
 30
0.0
 10
-69.18882790072962
 20
-101.467085321162
 30
0.0
 10
-69.30554514348795
 20
-101.3509833760317
 30
0.0
 10
-69.36586568999023
 20
-101.2909808068255
 30
0.0
 11
-68.96097588786249
 21
-101.5542088135566
 31
0.0
 11
-69.17504685436242
 21
-101.4556677582795
 31
0.0
 11
-69.36586568999023
 21
-101.2909808068255
 31
0.0
  0
SPLINE
  5
B2
330
47
100
AcDbEntity
  8
0
  6
Continuous
 62
     7
100
AcDbSpline
210
0.0
220
0.0
230
1.0
 70
     8
 71
     3
 72
    11
 73
     7
 74
     5
 42
0.000000001
 43
0.0000000001
 44
0.00000001
 40
0.0
 40
0.0
 40
0.0
 40
0.0
 40
0.9592082163699702
 40
2.092700031019569
 40
3.408547600310708
 40
4.892680426016852
 40
4.892680426016852
 40
4.892680426016852
 40
4.892680426016852
 10
-69.36586568999023
 20
-101.2909808068255
 30
0.0
 10
-69.55642737863242
 20
-101.0320704673004
 30
0.0
 10
-69.97217490091091
 20
-100.4672069950963
 30
0.0
 10
-70.33030510788673
 20
-99.37349075713831
 30
0.0
 10
-70.57092940397672
 20
-98.08276858444404
 30
0.0
 10
-70.59600213650995
 20
-97.14800755641777
 30
0.0
 10
-70.60929196000383
 20
-96.65253639886468
 30
0.0
 11
-69.36586568999023
 21
-101.2909808068255
 31
0.0
 11
-69.89639957427157
 21
-100.4918473988118
 31
0.0
 11
-70.28812026685225
 21
-99.42819397687882
 31
0.0
 11
-70.52834363653183
 21
-98.13446001491567
 31
0.0
 11
-70.60929196000383
 21
-96.65253639886468
 31
0.0
  0
SPLINE
  5
B3
330
47
100
AcDbEntity
  8
0
  6
Continuous
 62
     7
100
AcDbSpline
210
0.0
220
0.0
230
1.0
 70
     8
 71
     3
 72
    13
 73
     9
 74
     7
 42
0.000000001
 43
0.0000000001
 44
0.00000001
 40
0.0
 40
0.0
 40
0.0
 40
0.0
 40
0.1413724973856392
 40
0.3262102426557133
 40
0.5639228457658011
 40
0.8445438645797003
 40
1.148948766719889
 40
1.45407611115676
 40
1.45407611115676
 40
1.45407611115676
 40
1.45407611115676
 10
-46.63153522594764
 20
-103.6305925762834
 30
0.0
 10
-46.59068115730787
 20
-103.656383920932
 30
0.0
 10
-46.49641236883225
 20
-103.7158962199638
 30
0.0
 10
-46.4339586247398
 20
-103.904895223977
 30
0.0
 10
-46.40760075079932
 20
-104.135862736104
 30
0.0
 10
-46.42873060645691
 20
-104.411552827774
 30
0.0
 10
-46.48896164482024
 20
-104.7030313077961
 30
0.0
 10
-46.56299749971593
 20
-104.8926219114485
 30
0.0
 10
-46.60005930246454
 20
-104.9875295686067
 30
0.0
 11
-46.63153522594764
 21
-103.6305925762834
 31
0.0
 11
-46.51989296039841
 21
-103.7173231336426
 31
0.0
 11
-46.4457381945352
 21
-103.8866336898316
 31
0.0
 11
-46.41609539609363
 21
-104.1224908196439
 31
0.0
 11
-46.43377073535073
 21
-104.4025546311261
 31
0.0
 11
-46.4970915095796
 21
-104.7003008725261
 31
0.0
 11
-46.60005930246454
 21
-104.9875295686067
 31
0.0
  0
SPLINE
  5
B4
330
47
100
AcDbEntity
  8
0
  6
Continuous
 62
     7
100
AcDbSpline
210
0.0
220
0.0
230
1.0
 70
     8
 71
     3
 72
    15
 73
    11
 74
     9
 42
0.000000001
 43
0.0000000001
 44
0.00000001
 40
0.0
 40
0.0
 40
0.0
 40
0.0
 40
0.4584818169400006
 40
0.9787314547560398
 40
1.593969299275547
 40
2.314880320381664
 40
3.136970614026796
 40
4.046099874139651
 40
5.021862915990488
 40
6.039824009755643
 40
6.039824009755643
 40
6.039824009755643
 40
6.039824009755643
 10
-46.83045593885751
 20
-104.3016531532793
 30
0.0
 10
-46.96977955658377
 20
-104.2342950930792
 30
0.0
 10
-47.26719681099412
 20
-104.090504314286
 30
0.0
 10
-47.59435582348387
 20
-103.6512424782242
 30
0.0
 10
-47.84204670897246
 20
-103.0831282209352
 30
0.0
 10
-48.00151600134909
 20
-102.3772061593179
 30
0.0
 10
-48.07276218096254
 20
-101.5613752686447
 30
0.0
 10
-48.0512998253313
 20
-100.6578689190428
 30
0.0
 10
-47.94418763901483
 20
-99.69449270453285
 30
0.0
 10
-47.80269265964505
 20
-99.04477680600003
 30
0.0
 10
-47.73044776828331
 20
-98.71304309468891
 30
0.0
 11
-46.83045593885751
 21
-104.3016531532793
 31
0.0
 11
-47.22724318014245
 21
-104.0719457988855
 31
0.0
 11
-47.55773976302
 21
-103.6701601619165
 31
0.0
 11
-47.81108100833971
 21
-103.1095035673178
 31
0.0
 11
-47.97893910979314
 21
-102.4084070281245
 31
0.0
 11
-48.05579574959668
 21
-101.5899172557992
 31
0.0
 11
-48.03912474432774
 21
-100.6809408594399
 31
0.0
 11
-47.92947378961992
 21
-99.71135838102016
 31
0.0
 11
-47.73044776828331
 21
-98.71304309468891
 31
0.0
  0
SPLINE
  5
B5
330
47
100
AcDbEntity
  8
0
  6
Continuous
 62
     7
100
AcDbSpline
210
0.0
220
0.0
230
1.0
 70
     8
 71
     3
 72
    13
 73
     9
 74
     7
 42
0.000000001
 43
0.0000000001
 44
0.00000001
 40
0.0
 40
0.0
 40
0.0
 40
0.0
 40
0.5110306789384234
 40
1.12205081116384
 40
1.874964766127321
 40
2.770563639739625
 40
3.785851272106351
 40
4.884099744736178
 40
4.884099744736178
 40
4.884099744736178
 40
4.884099744736178
 10
-46.63153522594764
 20
-103.6305925762834
 30
0.0
 10
-46.78450612575698
 20
-103.5489948389542
 30
0.0
 10
-47.12037855807228
 20
-103.3698337484665
 30
0.0
 10
-47.43803989712087
 20
-102.8014125683482
 30
0.0
 10
-47.64670510912691
 20
-102.0789912391424
 30
0.0
 10
-47.72860795969869
 20
-101.1890592768564
 30
0.0
 10
-47.6936834373853
 20
-100.1841853888179
 30
0.0
 10
-47.57273783410506
 20
-99.48932236047206
 30
0.0
 10
-47.50989134478682
 20
-99.12825341162221
 30
0.0
 11
-46.63153522594764
 21
-103.6305925762834
 31
0.0
 11
-47.06021068659145
 21
-103.352402514128
 31
0.0
 11
-47.39290271893649
 21
-102.8398972734398
 31
0.0
 11
-47.61234497293243
 21
-102.1196719481807
 31
0.0
 11
-47.70715029142771
 21
-101.2291051098959
 31
0.0
 11
-47.67239752659859
 21
-100.2144124361434
 31
0.0
 11
-47.50989134478682
 21
-99.12825341162221
 31
0.0
  0
SPLINE
  5
B6
330
47
100
AcDbEntity
  8
0
  6
Continuous
 62
     7
100
AcDbSpline
210
0.0
220
0.0
230
1.0
 70
     8
 71
     3
 72
    11
 73
     7
 74
     5
 42
0.000000001
 43
0.0000000001
 44
0.00000001
 40
0.0
 40
0.0
 40
0.0
 40
0.0
 40
1.672228186847171
 40
3.332864075196635
 40
4.938607554975825
 40
6.449065873640857
 40
6.449065873640857
 40
6.449065873640857
 40
6.449065873640857
 10
-42.8970941040744
 20
-100.9682823862679
 30
0.0
 10
-42.72360814070708
 20
-100.4382053286913
 30
0.0
 10
-42.37783887585227
 20
-99.38172583419473
 30
0.0
 10
-42.02476833159785
 20
-97.77179950731461
 30
0.0
 10
-41.7882369745797
 20
-96.19430200779473
 30
0.0
 10
-41.75622448297806
 20
-95.15524953941741
 30
0.0
 10
-41.74070767296175
 20
-94.65160903499395
 30
0.0
 11
-42.8970941040744
 21
-100.9682823862679
 31
0.0
 11
-42.40369759169276
 21
-99.37050048909289
 31
0.0
 11
-42.03939734759273
 21
-97.75031627470415
 31
0.0
 11
-41.81598961379072
 21
-96.16019014432953
 31
0.0
 11
-41.74070767296175
 21
-94.65160903499395
 31
0.0
  0
SPLINE
  5
B7
330
47
100
AcDbEntity
  8
0
  6
Continuous
 62
     7
100
AcDbSpline
210
0.0
220
0.0
230
1.0
 70
     8
 71
     3
 72
    11
 73
     7
 74
     5
 42
0.000000001
 43
0.0000000001
 44
0.00000001
 40
0.0
 40
0.0
 40
0.0
 40
0.0
 40
0.9331236884135606
 40
1.800442872189491
 40
2.595891727016205
 40
3.316321432114778
 40
3.316321432114778
 40
3.316321432114778
 40
3.316321432114778
 10
-41.74070767296175
 20
-93.87218617158797
 30
0.0
 10
-41.74650011735093
 20
-93.56100384245647
 30
0.0
 10
-41.75767653383481
 20
-92.96058397018048
 30
0.0
 10
-41.8589472413171
 20
-92.10034562208484
 30
0.0
 10
-42.01223318476428
 20
-91.31851476791701
 30
0.0
 10
-42.18230172777761
 20
-90.84204876699158
 30
0.0
 10
-42.26312775436679
 20
-90.61560565591743
 30
0.0
 11
-41.74070767296175
 21
-93.87218617158797
 31
0.0
 11
-41.77394964882461
 21
-92.93965478434865
 31
0.0
 11
-41.87320025063988
 21
-92.07803312361133
 31
0.0
 11
-42.03704047511884
 21
-91.29964037973937
 31
0.0
 11
-42.26312775436679
 21
-90.61560565591743
 31
0.0
  0
SPLINE
  5
B8
330
47
100
AcDbEntity
  8
0
  6
Continuous
 62
     7
100
AcDbSpline
210
0.0
220
0.0
230
1.0
 70
     8
 71
     3
 72
    11
 73
     7
 74
     5
 42
0.000000001
 43
0.0000000001
 44
0.00000001
 40
0.0
 40
0.0
 40
0.0
 40
0.0
 40
1.003358804716183
 40
1.935960077665879
 40
2.791281427047182
 40
3.565937023992303
 40
3.565937023992303
 40
3.565937023992303
 40
3.565937023992303
 10
-41.39070767296175
 20
-93.56907728026341
 30
0.0
 10
-41.39693610778864
 20
-93.23447262529317
 30
0.0
 10
-41.40895375881221
 20
-92.58885985934064
 30
0.0
 10
-41.51784699321517
 20
-91.663872388284
 30
0.0
 10
-41.68267058775498
 20
-90.82319405022673
 30
0.0
 10
-41.86553998996077
 20
-90.31086501727695
 30
0.0
 10
-41.95244969597793
 20
-90.0673778010478
 30
0.0
 11
-41.39070767296175
 21
-93.56907728026341
 31
0.0
 11
-41.42645173302933
 21
-92.56635535850073
 31
0.0
 11
-41.53317281025006
 21
-91.63988045448208
 31
0.0
 11
-41.70934509463604
 21
-90.80289900945846
 31
0.0
 11
-41.95244969597793
 21
-90.0673778010478
 31
0.0
  0
SPLINE
  5
B9
330
47
100
AcDbEntity
  8
0
  6
Continuous
 62
     7
100
AcDbSpline
210
0.0
220
0.0
230
1.0
 70
     8
 71
     3
 72
    11
 73
     7
 74
     5
 42
0.000000001
 43
0.0000000001
 44
0.00000001
 40
0.0
 40
0.0
 40
0.0
 40
0.0
 40
1.7980948245777
 40
3.583724812112143
 40
5.310330704422094
 40
6.934479434210172
 40
6.934479434210172
 40
6.934479434210172
 40
6.934479434210172
 10
-42.63413394297535
 20
-101.1406220267596
 30
0.0
 10
-42.44758989634269
 20
-100.5706466960286
 30
0.0
 10
-42.07579498680785
 20
-99.43464723988355
 30
0.0
 10
-41.69614924084131
 20
-97.70354366240957
 30
0.0
 10
-41.44181444775237
 20
-96.00730979195717
 30
0.0
 10
-41.40739241491521
 20
-94.8900490731706
 30
0.0
 10
-41.39070767296174
 20
-94.34850014366941
 30
0.0
 11
-42.63413394297535
 21
-101.1406220267596
 31
0.0
 11
-42.10360005869402
 21
-99.42257697603384
 31
0.0
 11
-41.71187936611333
 21
-97.68044341217498
 31
0.0
 11
-41.47165599643375
 21
-95.97063036876143
 31
0.0
 11
-41.39070767296174
 21
-94.34850014366941
 31
0.0
  0
SPLINE
  5
BA
330
47
100
AcDbEntity
  8
0
  6
Continuous
 62
     7
100
AcDbSpline
210
0.0
220
0.0
230
1.0
 70
     8
 71
     3
 72
    13
 73
     9
 74
     7
 42
0.000000001
 43
0.0000000001
 44
0.00000001
 40
0.0
 40
0.0
 40
0.0
 40
0.0
 40
0.0904590196893264
 40
0.1825126964843277
 40
0.2691303983521827
 40
0.3441527964189668
 40
0.4036862688405699
 40
0.4486441709950738
 40
0.4486441709950738
 40
0.4486441709950738
 40
0.4486441709950738
 10
-45.25095940706598
 20
-102.9337690315584
 30
0.0
 10
-45.26293101937085
 20
-102.9615012142952
 30
0.0
 10
-45.28708528436806
 20
-103.0174544567827
 30
0.0
 10
-45.30816315302995
 20
-103.1049664623008
 30
0.0
 10
-45.31792024243597
 20
-103.189546702472
 30
0.0
 10
-45.31320431592174
 20
-103.26267404946
 30
0.0
 10
-45.29828162411537
 20
-103.32341731277
 30
0.0
 10
-45.2717972260734
 20
-103.3470412108208
 30
0.0
 10
-45.2604021841109
 20
-103.3572054988618
 30
0.0
 11
-45.25095940706598
 21
-102.9337690315584
 31
0.0
 11
-45.28445208673075
 21
-103.0177992216271
 31
0.0
 11
-45.30669851648971
 21
-103.1071243351134
 31
0.0
 11
-45.31559135602217
 21
-103.1932843239509
 31
0.0
 11
-45.31028875424505
 21
-103.2681190917052
 31
0.0
 11
-45.29129252197639
 21
-103.3245405246836
 31
0.0
 11
-45.2604021841109
 21
-103.3572054988618
 31
0.0
  0
SPLINE
  5
BB
330
47
100
AcDbEntity
  8
0
  6
Continuous
 62
     7
100
AcDbSpline
210
0.0
220
0.0
230
1.0
 70
     8
 71
     3
 72
    15
 73
    11
 74
     9
 42
0.000000001
 43
0.0000000001
 44
0.00000001
 40
0.0
 40
0.0
 40
0.0
 40
0.0
 40
0.9991302720231281
 40
2.027885586382727
 40
3.058950611561344
 40
4.064889776114091
 40
5.019597768910946
 40
5.899857017570759
 40
6.687191317784356
 40
7.370414556450115
 40
7.370414556450115
 40
7.370414556450115
 40
7.370414556450115
 10
-45.25095940706598
 20
-102.9337690315584
 30
0.0
 10
-45.11340933720265
 20
-102.6302496923947
 30
0.0
 10
-44.83423073683538
 20
-102.0142114081295
 30
0.0
 10
-44.51167815214954
 20
-101.0451518066885
 30
0.0
 10
-44.25854092301844
 20
-100.0542445752376
 30
0.0
 10
-44.09101538504319
 20
-99.07009369528441
 30
0.0
 10
-44.01081090362474
 20
-98.12482337255071
 30
0.0
 10
-44.02605246451018
 20
-97.25034093422329
 30
0.0
 10
-44.11913664687096
 20
-96.46754914782935
 30
0.0
 10
-44.27742606740923
 20
-96.00242484475646
 30
0.0
 10
-44.35096757764016
 20
-95.78632739800565
 30
0.0
 11
-45.25095940706598
 21
-102.9337690315584
 31
0.0
 11
-44.85417216578104
 21
-102.0168060154641
 31
0.0
 11
-44.52367558290349
 21
-101.0425835052231
 31
0.0
 11
-44.27033433758378
 21
-100.043127002078
 31
0.0
 11
-44.10247623613034
 21
-99.05129170270526
 31
0.0
 11
-44.0256195963268
 21
-98.09968232534125
 31
0.0
 11
-44.04229060159575
 21
-97.21958095712097
 31
0.0
 11
-44.15194155630357
 21
-96.43991950335362
 31
0.0
 11
-44.35096757764016
 21
-95.78632739800565
 31
0.0
  0
SPLINE
  5
BC
330
47
100
AcDbEntity
  8
0
  6
Continuous
 62
     7
100
AcDbSpline
210
0.0
220
0.0
230
1.0
 70
     8
 71
     3
 72
     9
 73
     5
 74
     3
 42
0.000000001
 43
0.0000000001
 44
0.00000001
 40
0.0
 40
0.0
 40
0.0
 40
0.0
 40
0.0712449123212859
 40
0.1418030949863293
 40
0.1418030949863293
 40
0.1418030949863293
 40
0.1418030949863293
 10
-45.2604021841109
 20
-103.3572054988618
 30
0.0
 10
-45.23921118394131
 20
-103.3680230669564
 30
0.0
 10
-45.1970334355514
 20
-103.3895539143784
 30
0.0
 10
-45.15192175227551
 20
-103.4039546059663
 30
0.0
 10
-45.12947514143913
 20
-103.4111200723602
 30
0.0
 11
-45.2604021841109
 21
-103.3572054988618
 31
0.0
 11
-45.19608857407071
 21
-103.3878583482031
 31
0.0
 11
-45.12947514143913
 21
-103.4111200723602
 31
0.0
  0
SPLINE
  5
BD
330
47
100
AcDbEntity
  8
0
  6
Continuous
 62
     7
100
AcDbSpline
210
0.0
220
0.0
230
1.0
 70
     8
 71
     3
 72
     9
 73
     5
 74
     3
 42
0.000000001
 43
0.0000000001
 44
0.00000001
 40
0.0
 40
0.0
 40
0.0
 40
0.0
 40
0.5880740144235473
 40
1.15002648072912
 40
1.15002648072912
 40
1.15002648072912
 40
1.15002648072912
 10
-44.96148828340968
 20
-88.99941838235613
 30
0.0
 10
-44.94075164616312
 20
-88.80438148919734
 30
0.0
 10
-44.90019948836526
 20
-88.42297100814702
 30
0.0
 10
-44.89381718201123
 20
-88.03947547265632
 30
0.0
 10
-44.89069852202232
 20
-87.85208303769313
 30
0.0
 11
-44.96148828340968
 21
-88.99941838235613
 31
0.0
 11
-44.90821331689015
 21
-88.41376248958915
 31
0.0
 11
-44.89069852202232
 21
-87.85208303769313
 31
0.0
  0
SPLINE
  5
BE
330
47
100
AcDbEntity
  8
0
  6
Continuous
 62
     7
100
AcDbSpline
210
0.0
220
0.0
230
1.0
 70
     8
 71
     3
 72
    11
 73
     7
 74
     5
 42
0.000000001
 43
0.0000000001
 44
0.00000001
 40
0.0
 40
0.0
 40
0.0
 40
0.0
 40
0.1694815246595616
 40
0.3746644991819571
 40
0.6309779451704136
 40
0.9374838013731337
 40
0.9374838013731337
 40
0.9374838013731337
 40
0.9374838013731337
 10
-45.23580497724794
 20
-87.03609753516066
 30
0.0
 10
-45.18430955457694
 20
-87.0620650965411
 30
0.0
 10
-45.07047115620384
 20
-87.1194703242669
 30
0.0
 10
-44.9672134816245
 20
-87.31403208091392
 30
0.0
 10
-44.90127771248618
 20
-87.56110876477601
 30
0.0
 10
-44.89442852047934
 20
-87.74949159862793
 30
0.0
 10
-44.89069852202232
 20
-87.85208303769313
 30
0.0
 11
-45.23580497724794
 21
-87.03609753516066
 31
0.0
 11
-45.09206679535251
 21
-87.12589354637778
 31
0.0
 11
-44.98267753558968
 21
-87.29948515430772
 31
0.0
 11
-44.91418788753581
 21
-87.54647857974044
 31
0.0
 11
-44.89069852202232
 21
-87.85208303769313
 31
0.0
  0
SPLINE
  5
BF
330
47
100
AcDbEntity
  8
0
  6
Continuous
 62
     7
100
AcDbSpline
210
0.0
220
0.0
230
1.0
 70
     8
 71
     3
 72
     9
 73
     5
 74
     3
 42
0.000000001
 43
0.0000000001
 44
0.00000001
 40
0.0
 40
0.0
 40
0.0
 40
0.0
 40
0.1570300971118113
 40
0.2936839449579891
 40
0.2936839449579891
 40
0.2936839449579891
 40
0.2936839449579891
 10
-45.5203812374123
 20
-87.08091051142478
 30
0.0
 10
-45.47178208087924
 20
-87.05813094425228
 30
0.0
 10
-45.38088999738059
 20
-87.0155277088972
 30
0.0
 10
-45.28187675313697
 20
-87.02956557674395
 30
0.0
 10
-45.23580497724794
 20
-87.03609753516066
 30
0.0
 11
-45.5203812374123
 21
-87.08091051142478
 31
0.0
 11
-45.37226197157403
 21
-87.02876518470818
 31
0.0
 11
-45.23580497724794
 21
-87.03609753516066
 31
0.0
  0
SPLINE
  5
C0
330
47
100
AcDbEntity
  8
0
  6
Continuous
 62
     7
100
AcDbSpline
210
0.0
220
0.0
230
1.0
 70
     8
 71
     3
 72
    13
 73
     9
 74
     7
 42
0.000000001
 43
0.0000000001
 44
0.00000001
 40
0.0
 40
0.0
 40
0.0
 40
0.0
 40
1.107043678601584
 40
2.24548520724227
 40
3.367464711980012
 40
4.426491253011152
 40
5.381622821249584
 40
6.202557867810493
 40
6.202557867810493
 40
6.202557867810493
 40
6.202557867810493
 10
-45.44988011997585
 20
-102.6072492360002
 30
0.0
 10
-45.2996592745541
 20
-102.2698304495018
 30
0.0
 10
-44.99495705051588
 20
-101.5854230366001
 30
0.0
 10
-44.6736670377749
 20
-100.507084751442
 30
0.0
 10
-44.45199852863367
 20
-99.42104320794795
 30
0.0
 10
-44.35817375992954
 20
-98.37905449359599
 30
0.0
 10
-44.37111031560391
 20
-97.42795767105048
 30
0.0
 10
-44.50817146922351
 20
-96.85047649400096
 30
0.0
 10
-44.57152400113665
 20
-96.58355264637056
 30
0.0
 11
-45.44988011997585
 21
-102.6072492360002
 31
0.0
 11
-45.02120465933204
 21
-101.5865714960517
 31
0.0
 11
-44.688512626987
 21
-100.4978267520686
 31
0.0
 11
-44.46907037299106
 21
-99.39751629356111
 31
0.0
 11
-44.37426505449578
 21
-98.34274182681472
 31
0.0
 11
-44.40901781932489
 21
-97.38824270744975
 31
0.0
 11
-44.57152400113665
 21
-96.58355264637056
 31
0.0
  0
SPLINE
  5
C1
330
47
100
AcDbEntity
  8
0
  6
Continuous
 62
     7
100
AcDbSpline
210
0.0
220
0.0
230
1.0
 70
     8
 71
     3
 72
    13
 73
     9
 74
     7
 42
0.000000001
 43
0.0000000001
 44
0.00000001
 40
0.0
 40
0.0
 40
0.0
 40
0.0
 40
0.3246959842097999
 40
0.672223795136151
 40
1.028088945507342
 40
1.377087998196199
 40
1.704599199421765
 40
1.99795040660691
 40
1.99795040660691
 40
1.99795040660691
 40
1.99795040660691
 10
-47.19071682390114
 20
-89.84395731628935
 30
0.0
 10
-47.18633044713717
 20
-89.73569329520834
 30
0.0
 10
-47.17724923935982
 20
-89.51155239310121
 30
0.0
 10
-47.11395266548332
 20
-89.17371271675282
 30
0.0
 10
-47.0190892765962
 20
-88.835493347456
 30
0.0
 10
-46.89184728200194
 20
-88.51535718401857
 30
0.0
 10
-46.7444204230116
 20
-88.22612926385806
 30
0.0
 10
-46.61987878053213
 20
-88.06043241502294
 30
0.0
 10
-46.56103410851118
 20
-87.98214233431763
 30
0.0
 11
-47.19071682390114
 21
-89.84395731628935
 31
0.0
 11
-47.17002056340669
 21
-89.51992159814938
 31
0.0
 11
-47.10955978693148
 21
-89.17769349632331
 31
0.0
 11
-47.01252146772549
 21
-88.8353142177963
 31
0.0
 11
-46.88402149833554
 21
-88.51083294186749
 31
0.0
 11
-46.73083377604062
 21
-88.22135563688461
 31
0.0
 11
-46.56103410851118
 21
-87.98214233431763
 31
0.0
  0
SPLINE
  5
C2
330
47
100
AcDbEntity
  8
0
  6
Continuous
 62
     7
100
AcDbSpline
210
0.0
220
0.0
230
1.0
 70
     8
 71
     3
 72
     9
 73
     5
 74
     3
 42
0.000000001
 43
0.0000000001
 44
0.00000001
 40
0.0
 40
0.0
 40
0.0
 40
0.0
 40
0.6357931218913365
 40
1.38271369242374
 40
1.38271369242374
 40
1.38271369242374
 40
1.38271369242374
 10
-45.5203812374123
 20
-87.08091051142478
 30
0.0
 10
-45.69975611972667
 20
-87.19574332412351
 30
0.0
 10
-46.08985800916937
 20
-87.44548008139992
 30
0.0
 10
-46.3957798594839
 20
-87.7939203029281
 30
0.0
 10
-46.56103410851118
 20
-87.98214233431763
 30
0.0
 11
-45.5203812374123
 21
-87.08091051142478
 31
0.0
 11
-46.04070767296174
 21
-87.44627785466407
 31
0.0
 11
-46.56103410851118
 21
-87.98214233431763
 31
0.0
  0
SPLINE
  5
C3
330
47
100
AcDbEntity
  8
0
  6
Continuous
 62
     7
100
AcDbSpline
210
0.0
220
0.0
230
1.0
 70
     8
 71
     3
 72
     9
 73
     5
 74
     3
 42
0.000000001
 43
0.0000000001
 44
0.00000001
 40
0.0
 40
0.0
 40
0.0
 40
0.0
 40
0.4962489068740124
 40
1.027880437788173
 40
1.027880437788173
 40
1.027880437788173
 40
1.027880437788173
 10
-47.1199270625138
 20
-90.86868119757376
 30
0.0
 10
-47.14065661548879
 20
-90.70442997687353
 30
0.0
 10
-47.18359372186272
 20
-90.36421639615673
 30
0.0
 10
-47.18828859308248
 20
-90.02131160225503
 30
0.0
 10
-47.19071682390114
 20
-89.84395731628935
 30
0.0
 11
-47.1199270625138
 21
-90.86868119757376
 31
0.0
 11
-47.17320202903333
 21
-90.37530025359014
 31
0.0
 11
-47.19071682390114
 21
-89.84395731628935
 31
0.0
  0
SPLINE
  5
C4
330
47
100
AcDbEntity
  8
0
  6
Continuous
 62
     7
100
AcDbSpline
210
0.0
220
0.0
230
1.0
 70
     8
 71
     3
 72
     9
 73
     5
 74
     3
 42
0.000000001
 43
0.0000000001
 44
0.00000001
 40
0.0
 40
0.0
 40
0.0
 40
0.0
 40
0.029854956124642
 40
0.0594465263841476
 40
0.0594465263841476
 40
0.0594465263841476
 40
0.0594465263841476
 10
-46.51173468060661
 20
-91.29390297781794
 30
0.0
 10
-46.50281874760305
 20
-91.29836149360875
 30
0.0
 10
-46.48506553160301
 20
-91.30723917306338
 30
0.0
 10
-46.4661491223811
 20
-91.31325126150078
 30
0.0
 10
-46.45673282013065
 20
-91.31624397773649
 30
0.0
 11
-46.51173468060661
 21
-91.29390297781794
 31
0.0
 11
-46.48469349648622
 21
-91.30655575607553
 31
0.0
 11
-46.45673282013065
 21
-91.31624397773649
 31
0.0
  0
SPLINE
  5
C5
330
47
100
AcDbEntity
  8
0
  6
Continuous
 62
     7
100
AcDbSpline
210
0.0
220
0.0
230
1.0
 70
     8
 71
     3
 72
    11
 73
     7
 74
     5
 42
0.000000001
 43
0.0000000001
 44
0.00000001
 40
0.0
 40
0.0
 40
0.0
 40
0.0
 40
0.1471173414320327
 40
0.3144859241817218
 40
0.5140710680161327
 40
0.7494642056714382
 40
0.7494642056714382
 40
0.7494642056714382
 40
0.7494642056714382
 10
-46.57590351782855
 20
-91.26783847791297
 30
0.0
 10
-46.62514914337155
 20
-91.2607690775676
 30
0.0
 10
-46.73041923604136
 20
-91.24565716277277
 30
0.0
 10
-46.89564691123425
 20
-91.30950391934186
 30
0.0
 10
-47.06185669715065
 20
-91.4233370295965
 30
0.0
 10
-47.16027436904768
 20
-91.53059038193797
 30
0.0
 10
-47.21353413764139
 20
-91.58863168264904
 30
0.0
 11
-46.57590351782855
 21
-91.26783847791297
 31
0.0
 11
-46.72272321728216
 21
-91.25848492276349
 31
0.0
 11
-46.88182088992583
 21
-91.31044813028507
 31
0.0
 11
-47.04742655199667
 21
-91.42184380186208
 31
0.0
 11
-47.21353413764139
 21
-91.58863168264904
 31
0.0
  0
SPLINE
  5
C6
330
47
100
AcDbEntity
  8
0
  6
Continuous
 62
     7
100
AcDbSpline
210
0.0
220
0.0
230
1.0
 70
     8
 71
     3
 72
     9
 73
     5
 74
     3
 42
0.000000001
 43
0.0000000001
 44
0.00000001
 40
0.0
 40
0.0
 40
0.0
 40
0.0
 40
0.0348307822321365
 40
0.0693542809549021
 40
0.0693542809549021
 40
0.0693542809549021
 40
0.0693542809549021
 10
-46.51173468060661
 20
-91.29390297781794
 30
0.0
 10
-46.52213660247001
 20
-91.28870137604906
 30
0.0
 10
-46.54284868652529
 20
-91.27834408027806
 30
0.0
 10
-46.56491783184209
 20
-91.27132998019668
 30
0.0
 10
-46.57590351782855
 20
-91.26783847791297
 30
0.0
 11
-46.51173468060661
 21
-91.29390297781794
 31
0.0
 11
-46.54328272874707
 21
-91.27914140318408
 31
0.0
 11
-46.57590351782855
 21
-91.26783847791297
 31
0.0
  0
SPLINE
  5
C7
330
47
100
AcDbEntity
  8
0
  6
Continuous
 62
     7
100
AcDbSpline
210
0.0
220
0.0
230
1.0
 70
     8
 71
     3
 72
    13
 73
     9
 74
     7
 42
0.000000001
 43
0.0000000001
 44
0.00000001
 40
0.0
 40
0.0
 40
0.0
 40
0.0
 40
0.1401611873587852
 40
0.3033276955653382
 40
0.5017045365163719
 40
0.737496885681117
 40
1.006760106118991
 40
1.301880993556031
 40
1.301880993556031
 40
1.301880993556031
 40
1.301880993556031
 10
-46.45673282013065
 20
-91.31624397773649
 30
0.0
 10
-46.40960280023536
 20
-91.32216897963801
 30
0.0
 10
-46.30760708732777
 20
-91.33499146658619
 30
0.0
 10
-46.14933799751088
 20
-91.26301251827377
 30
0.0
 10
-45.99285509944166
 20
-91.13990231020946
 30
0.0
 10
-45.83906692512314
 20
-90.96092681566908
 30
0.0
 10
-45.69260343114473
 20
-90.73719867754403
 30
0.0
 10
-45.61188760501616
 20
-90.56703841060836
 30
0.0
 10
-45.56968066531687
 20
-90.47806026883988
 30
0.0
 11
-46.45673282013065
 21
-91.31624397773649
 31
0.0
 11
-46.31668943059346
 21
-91.32198934170324
 31
0.0
 11
-46.16438477307457
 21
-91.2634521478428
 31
0.0
 11
-46.00658537604775
 21
-91.14323267749758
 31
0.0
 11
-45.85030195830232
 21
-90.96667241831071
 31
0.0
 11
-45.70247790612999
 21
-90.74161524438773
 31
0.0
 11
-45.56968066531687
 21
-90.47806026883988
 31
0.0
  0
SPLINE
  5
C8
330
47
100
AcDbEntity
  8
0
  6
Continuous
 62
     7
100
AcDbSpline
210
0.0
220
0.0
230
1.0
 70
     8
 71
     3
 72
    11
 73
     7
 74
     5
 42
0.000000001
 43
0.0000000001
 44
0.00000001
 40
0.0
 40
0.0
 40
0.0
 40
0.0
 40
0.2322656383342107
 40
0.5091869989264821
 40
0.8261699999422574
 40
1.17409728599069
 40
1.17409728599069
 40
1.17409728599069
 40
1.17409728599069
 10
-44.86788120828209
 20
-89.55723665736248
 30
0.0
 10
-44.9320040480395
 20
-89.60117218585556
 30
0.0
 10
-45.0725780665748
 20
-89.69749036252492
 30
0.0
 10
-45.25109075801961
 20
-89.91059476509403
 30
0.0
 10
-45.42496069290746
 20
-90.17246163745199
 30
0.0
 10
-45.51996684720736
 20
-90.37308183245395
 30
0.0
 10
-45.56968066531687
 20
-90.47806026883988
 30
0.0
 11
-44.86788120828209
 21
-89.55723665736248
 31
0.0
 11
-45.05389254754895
 21
-89.69633054357752
 31
0.0
 11
-45.23837184813314
 21
-89.90285615827366
 31
0.0
 11
-45.41294319787007
 21
-90.16743708721744
 31
0.0
 11
-45.56968066531687
 21
-90.47806026883988
 31
0.0
  0
SPLINE
  5
C9
330
47
100
AcDbEntity
  8
0
  6
Continuous
 62
     7
100
AcDbSpline
210
0.0
220
0.0
230
1.0
 70
     8
 71
     3
 72
     9
 73
     5
 74
     3
 42
0.000000001
 43
0.0000000001
 44
0.00000001
 40
0.0
 40
0.0
 40
0.0
 40
0.0
 40
0.6665677779444217
 40
1.438477332245792
 40
1.438477332245792
 40
1.438477332245792
 40
1.438477332245792
 10
-43.47840036134288
 20
-89.31922586289521
 30
0.0
 10
-43.70351921499071
 20
-89.28869115655472
 30
0.0
 10
-44.18933382865866
 20
-89.22279617720687
 30
0.0
 10
-44.63091943249587
 20
-89.44044361173566
 30
0.0
 10
-44.86788120828209
 20
-89.55723665736248
 30
0.0
 11
-43.47840036134288
 21
-89.31922586289521
 31
0.0
 11
-44.14425984952683
 21
-89.28850539335552
 31
0.0
 11
-44.86788120828209
 21
-89.55723665736248
 31
0.0
  0
SPLINE
  5
CA
330
47
100
AcDbEntity
  8
0
  6
Continuous
 62
     7
100
AcDbSpline
210
0.0
220
0.0
230
1.0
 70
     8
 71
     3
 72
    11
 73
     7
 74
     5
 42
0.000000001
 43
0.0000000001
 44
0.00000001
 40
0.0
 40
0.0
 40
0.0
 40
0.0
 40
0.532769124727624
 40
1.00665068599558
 40
1.434238295670229
 40
1.835839779545246
 40
1.835839779545246
 40
1.835839779545246
 40
1.835839779545246
 10
-42.26312775436679
 20
-90.61560565591743
 30
0.0
 10
-42.33611064416798
 20
-90.45310816303765
 30
0.0
 10
-42.47400955653333
 20
-90.1460742124057
 30
0.0
 10
-42.76244729358949
 20
-89.76129381706184
 30
0.0
 10
-43.09292541288021
 20
-89.46795088303472
 30
0.0
 10
-43.3526216003923
 20
-89.36775417021506
 30
0.0
 10
-43.47840036134288
 20
-89.31922586289521
 30
0.0
 11
-42.26312775436679
 21
-90.61560565591743
 31
0.0
 11
-42.5001564220909
 21
-90.13846799224493
 31
0.0
 11
-42.78483715440805
 21
-89.75962684234891
 31
0.0
 11
-43.11265247865077
 21
-89.48509400317282
 31
0.0
 11
-43.47840036134288
 21
-89.31922586289521
 31
0.0
  0
SPLINE
  5
CB
330
47
100
AcDbEntity
  8
0
  6
Continuous
 62
     7
100
AcDbSpline
210
0.0
220
0.0
230
1.0
 70
     8
 71
     3
 72
    11
 73
     7
 74
     5
 42
0.000000001
 43
0.0000000001
 44
0.00000001
 40
0.0
 40
0.0
 40
0.0
 40
0.0
 40
0.5838565749679168
 40
1.103178834103913
 40
1.571767995688036
 40
2.011879211108696
 40
2.011879211108696
 40
2.011879211108696
 40
2.011879211108696
 10
-41.95244969597793
 20
-90.0673778010478
 30
0.0
 10
-42.03243094506472
 20
-89.8892983568192
 30
0.0
 10
-42.18355303960993
 20
-89.55282279380404
 30
0.0
 10
-42.49964919038221
 20
-89.13114564847993
 30
0.0
 10
-42.86181699214973
 20
-88.80967393915529
 30
0.0
 10
-43.14641555456863
 20
-88.69986932359178
 30
0.0
 10
-43.28425529266404
 20
-88.64668761691384
 30
0.0
 11
-41.95244969597793
 21
-90.0673778010478
 31
0.0
 11
-42.21220714005914
 21
-89.54448721072175
 31
0.0
 11
-42.52418602479026
 21
-89.12931882727406
 31
0.0
 11
-42.88343569519324
 21
-88.82846092132765
 31
0.0
 11
-43.28425529266404
 21
-88.64668761691384
 31
0.0
  0
SPLINE
  5
CC
330
47
100
AcDbEntity
  8
0
  6
Continuous
 62
     7
100
AcDbSpline
210
0.0
220
0.0
230
1.0
 70
     8
 71
     3
 72
     9
 73
     5
 74
     3
 42
0.000000001
 43
0.0000000001
 44
0.00000001
 40
0.0
 40
0.0
 40
0.0
 40
0.0
 40
0.8028151284506563
 40
1.753488572989002
 40
1.753488572989002
 40
1.753488572989002
 40
1.753488572989002
 10
-43.28425529266404
 20
-88.64668761691384
 30
0.0
 10
-43.5566588487457
 20
-88.61459120479911
 30
0.0
 10
-44.15163583025719
 20
-88.54448704964236
 30
0.0
 10
-44.67677708223993
 20
-88.83948301164433
 30
0.0
 10
-44.96148828340968
 20
-88.99941838235613
 30
0.0
 11
-43.28425529266404
 21
-88.64668761691384
 31
0.0
 11
-44.08682724886994
 21
-88.62692935320372
 31
0.0
 11
-44.96148828340968
 21
-88.99941838235613
 31
0.0
  0
SPLINE
  5
CD
330
47
100
AcDbEntity
  8
0
  6
Continuous
 62
     7
100
AcDbSpline
210
0.0
220
0.0
230
1.0
 70
     8
 71
     3
 72
    13
 73
     9
 74
     7
 42
0.000000001
 43
0.0000000001
 44
0.00000001
 40
0.0
 40
0.0
 40
0.0
 40
0.0
 40
1.273408161580375
 40
2.538590260619442
 40
3.769682679061932
 40
4.942223938773608
 40
6.034314413861838
 40
7.027982339210728
 40
7.027982339210728
 40
7.027982339210728
 40
7.027982339210728
 10
-70.04754993698765
 20
-91.39844833163252
 30
0.0
 10
-69.9410311957441
 20
-90.98738308749427
 30
0.0
 10
-69.72868179737003
 20
-90.16790803480653
 30
0.0
 10
-69.30805093786945
 20
-88.98230079499885
 30
0.0
 10
-68.82447972302148
 20
-87.85783420161061
 30
0.0
 10
-68.2794264114953
 20
-86.8270904850288
 30
0.0
 10
-67.69903929476462
 20
-85.90571382519417
 30
0.0
 10
-67.2516502186813
 20
-85.37264053485387
 30
0.0
 10
-67.03851134955589
 20
-85.11868119757376
 30
0.0
 11
-70.04754993698765
 21
-91.39844833163252
 31
0.0
 11
-69.71015037636118
 21
-90.17055180540734
 31
0.0
 11
-69.29127938848033
 21
-88.97672064577225
 31
0.0
 11
-68.80155737151021
 21
-87.8472247889678
 31
0.0
 11
-68.25340146362342
 21
-86.81070266617417
 31
0.0
 11
-67.66071016064333
 21
-85.89343573131009
 31
0.0
 11
-67.03851134955589
 21
-85.11868119757376
 31
0.0
  0
SPLINE
  5
CE
330
47
100
AcDbEntity
  8
0
  6
Continuous
 62
     7
100
AcDbSpline
210
0.0
220
0.0
230
1.0
 70
     8
 71
     3
 72
     9
 73
     5
 74
     3
 42
0.000000001
 43
0.0000000001
 44
0.00000001
 40
0.0
 40
0.0
 40
0.0
 40
0.0
 40
0.4962489068740273
 40
1.027880437788188
 40
1.027880437788188
 40
1.027880437788188
 40
1.027880437788188
 10
-67.03851134955589
 20
-85.11868119757376
 30
0.0
 10
-67.05924090253087
 20
-84.95442997687353
 30
0.0
 10
-67.10217800890483
 20
-84.61421639615676
 30
0.0
 10
-67.10687288012457
 20
-84.271311602255
 30
0.0
 10
-67.10930111094322
 20
-84.09395731628933
 30
0.0
 11
-67.03851134955589
 21
-85.11868119757376
 31
0.0
 11
-67.09178631607541
 21
-84.62530025359013
 31
0.0
 11
-67.10930111094322
 21
-84.09395731628933
 31
0.0
  0
SPLINE
  5
CF
330
47
100
AcDbEntity
  8
0
  6
Continuous
 62
     7
100
AcDbSpline
210
0.0
220
0.0
230
1.0
 70
     8
 71
     3
 72
    13
 73
     9
 74
     7
 42
0.000000001
 43
0.0000000001
 44
0.00000001
 40
0.0
 40
0.0
 40
0.0
 40
0.0
 40
0.3246959842097994
 40
0.6722237951361494
 40
1.02808894550735
 40
1.377087998196199
 40
1.704599199421759
 40
1.997950406606911
 40
1.997950406606911
 40
1.997950406606911
 40
1.997950406606911
 10
-67.10930111094322
 20
-84.09395731628933
 30
0.0
 10
-67.10491473417925
 20
-83.9856932952083
 30
0.0
 10
-67.09583352640192
 20
-83.7615523931012
 30
0.0
 10
-67.0325369525254
 20
-83.42371271675282
 30
0.0
 10
-66.93767356363831
 20
-83.08549334745594
 30
0.0
 10
-66.81043156904401
 20
-82.76535718401854
 30
0.0
 10
-66.66300471005371
 20
-82.47612926385807
 30
0.0
 10
-66.53846306757421
 20
-82.3104324150229
 30
0.0
 10
-66.47961839555327
 20
-82.23214233431761
 30
0.0
 11
-67.10930111094322
 21
-84.09395731628933
 31
0.0
 11
-67.08860485044879
 21
-83.76992159814937
 31
0.0
 11
-67.02814407397358
 21
-83.4276934963233
 31
0.0
 11
-66.9311057547676
 21
-83.08531421779627
 31
0.0
 11
-66.80260578537764
 21
-82.76083294186748
 31
0.0
 11
-66.64941806308272
 21
-82.4713556368846
 31
0.0
 11
-66.47961839555327
 21
-82.23214233431761
 31
0.0
  0
SPLINE
  5
D0
330
47
100
AcDbEntity
  8
0
  6
Continuous
 62
     7
100
AcDbSpline
210
0.0
220
0.0
230
1.0
 70
     8
 71
     3
 72
     9
 73
     5
 74
     3
 42
0.000000001
 43
0.0000000001
 44
0.00000001
 40
0.0
 40
0.0
 40
0.0
 40
0.0
 40
0.6357931218913423
 40
1.382713692423745
 40
1.382713692423745
 40
1.382713692423745
 40
1.382713692423745
 10
-65.43896552445437
 20
-81.33091051142478
 30
0.0
 10
-65.61834040676875
 20
-81.44574332412353
 30
0.0
 10
-66.00844229621144
 20
-81.69548008139991
 30
0.0
 10
-66.31436414652599
 20
-82.04392030292807
 30
0.0
 10
-66.47961839555327
 20
-82.23214233431761
 30
0.0
 11
-65.43896552445437
 21
-81.33091051142478
 31
0.0
 11
-65.95929196000382
 21
-81.69627785466407
 31
0.0
 11
-66.47961839555327
 21
-82.23214233431761
 31
0.0
  0
SPLINE
  5
D1
330
47
100
AcDbEntity
  8
0
  6
Continuous
 62
     7
100
AcDbSpline
210
0.0
220
0.0
230
1.0
 70
     8
 71
     3
 72
     9
 73
     5
 74
     3
 42
0.000000001
 43
0.0000000001
 44
0.00000001
 40
0.0
 40
0.0
 40
0.0
 40
0.0
 40
0.1570300971117778
 40
0.2936839449579556
 40
0.2936839449579556
 40
0.2936839449579556
 40
0.2936839449579556
 10
-65.43896552445437
 20
-81.33091051142478
 30
0.0
 10
-65.39036636792133
 20
-81.30813094425228
 30
0.0
 10
-65.29947428442267
 20
-81.26552770889717
 30
0.0
 10
-65.20046104017908
 20
-81.27956557674395
 30
0.0
 10
-65.15438926429005
 20
-81.28609753516066
 30
0.0
 11
-65.43896552445437
 21
-81.33091051142478
 31
0.0
 11
-65.29084625861614
 21
-81.27876518470818
 31
0.0
 11
-65.15438926429005
 21
-81.28609753516066
 31
0.0
  0
SPLINE
  5
D2
330
47
100
AcDbEntity
  8
0
  6
Continuous
 62
     7
100
AcDbSpline
210
0.0
220
0.0
230
1.0
 70
     8
 71
     3
 72
    13
 73
     9
 74
     7
 42
0.000000001
 43
0.0000000001
 44
0.00000001
 40
0.0
 40
0.0
 40
0.0
 40
0.0
 40
0.3015300422997125
 40
0.6083756331989159
 40
0.8971013060184487
 40
1.147175963733689
 40
1.345620883586475
 40
1.495480571587304
 40
1.495480571587304
 40
1.495480571587304
 40
1.495480571587304
 10
-45.44988011997585
 20
-102.6072492360002
 30
0.0
 10
-45.48978549123768
 20
-102.6996898379701
 30
0.0
 10
-45.57029970785572
 20
-102.8862006392544
 30
0.0
 10
-45.64055925526677
 20
-103.1779073187819
 30
0.0
 10
-45.67308289708891
 20
-103.4598414555596
 30
0.0
 10
-45.65736311860794
 20
-103.7035992703406
 30
0.0
 10
-45.60762088592772
 20
-103.9060768552698
 30
0.0
 10
-45.51933952025442
 20
-103.9848231636751
 30
0.0
 10
-45.48135604345895
 20
-104.0187041270114
 30
0.0
 11
-45.44988011997585
 21
-102.6072492360002
 31
0.0
 11
-45.56152238552509
 21
-102.8873498695628
 31
0.0
 11
-45.63567715138829
 21
-103.1851002478502
 31
0.0
 11
-45.66531994982986
 21
-103.4723002106419
 31
0.0
 11
-45.64764461057275
 21
-103.7217494364897
 31
0.0
 11
-45.5843238363439
 21
-103.9098208797508
 31
0.0
 11
-45.48135604345895
 21
-104.0187041270114
 31
0.0
  0
ENDBLK
  5
49
330
47
100
AcDbEntity
  8
0
100
AcDbBlockEnd
  0
BLOCK
  5
4C
330
4A
100
AcDbEntity
  8
0
100
AcDbBlockBegin
  2
Allg1
 70
     0
 10
-55.99999999999607
 20
-93.50000000000102
 30
0.0
  3
Allg1
  1

  0
INSERT
  5
4B
330
4A
100
AcDbEntity
  8
0
100
AcDbBlockReference
  2
0808037_PATG_6_23-select__1
 10
-70.60929196000383
 20
-107.3743362656146
 30
0.0
  0
MTEXT
  5
D4
330
4A
100
AcDbEntity
  8
1
 62
     6
100
AcDbMText
 10
-55.99999999999602
 20
-111.8307401510812
 30
0.0
 40
2.5
 41
0.0
 71
     2
 72
     1
  1
 
  7
CONVERTER_11
 73
     1
 44
1.32052821128451
  0
ENDBLK
  5
4D
330
4A
100
AcDbEntity
  8
0
100
AcDbBlockEnd
  0
BLOCK
  5
4F
330
4E
100
AcDbEntity
  8
0
100
AcDbBlockBegin
  2
0808037_PATG_6_23-select__2
 70
     0
 10
-128.6000011304411
 20
-98.40999916448953
 30
0.0
  3
0808037_PATG_6_23-select__2
  1

  0
LINE
  5
D5
330
4E
100
AcDbEntity
  8
0
  6
Continuous
 62
     7
100
AcDbLine
 10
-128.6000011304411
 20
-91.41001746636836
 30
0.0
 11
-128.6000011304411
 21
-90.15065203558842
 31
0.0
  0
LINE
  5
D6
330
4E
100
AcDbEntity
  8
0
  6
Continuous
 62
     7
100
AcDbLine
 10
-105.6000011304411
 20
-91.41001746636836
 30
0.0
 11
-105.6000011304411
 21
-90.15065203558842
 31
0.0
  0
LINE
  5
D7
330
4E
100
AcDbEntity
  8
0
  6
Continuous
 62
     2
100
AcDbLine
 10
-128.6000011304411
 20
-90.15065203558842
 30
0.0
 11
-105.6000011304411
 21
-90.15065203558842
 31
0.0
  0
LINE
  5
D8
330
4E
100
AcDbEntity
  8
0
  6
Continuous
 62
     7
100
AcDbLine
 10
-128.6000011304411
 20
-90.15065203558842
 30
0.0
 11
-128.6000011304411
 21
-88.06934629339064
 31
0.0
  0
LINE
  5
D9
330
4E
100
AcDbEntity
  8
0
  6
Continuous
 62
     7
100
AcDbLine
 10
-105.6000011304411
 20
-90.15065203558842
 30
0.0
 11
-105.6000011304411
 21
-88.06934629339064
 31
0.0
  0
LINE
  5
DA
330
4E
100
AcDbEntity
  8
0
  6
Continuous
 62
     7
100
AcDbLine
 10
-105.6000011304411
 20
-91.41002385925101
 30
0.0
 11
-128.6000011304411
 21
-91.41002385925101
 31
0.0
  0
LINE
  5
DB
330
4E
100
AcDbEntity
  8
0
  6
Continuous
 62
     7
100
AcDbLine
 10
-128.6000011304411
 20
-79.80999916448954
 30
0.0
 11
-105.6000011304411
 21
-79.80999916448954
 31
0.0
  0
LINE
  5
DC
330
4E
100
AcDbEntity
  8
0
  6
Continuous
 62
     7
100
AcDbLine
 10
-128.6000011304411
 20
-79.80999916448954
 30
0.0
 11
-128.6000011304411
 21
-80.93348321052193
 31
0.0
  0
LINE
  5
DD
330
4E
100
AcDbEntity
  8
0
  6
Continuous
 62
     2
100
AcDbLine
 10
-128.6000011304411
 20
-80.93348321052193
 30
0.0
 11
-105.6000011304411
 21
-80.93348321052193
 31
0.0
  0
LINE
  5
DE
330
4E
100
AcDbEntity
  8
0
  6
Continuous
 62
     7
100
AcDbLine
 10
-128.6000011304411
 20
-80.93348321052193
 30
0.0
 11
-128.6000011304411
 21
-86.80997446972806
 31
0.0
  0
LINE
  5
DF
330
4E
100
AcDbEntity
  8
0
  6
Continuous
 62
     7
100
AcDbLine
 10
-105.6000011304411
 20
-88.06934629339064
 30
0.0
 11
-105.6000011304411
 21
-86.80998086261071
 31
0.0
  0
LINE
  5
E0
330
4E
100
AcDbEntity
  8
0
  6
Continuous
 62
     7
100
AcDbLine
 10
-105.6000011304411
 20
-86.80998086261071
 30
0.0
 11
-105.6000011304411
 21
-86.80997446972806
 31
0.0
  0
LINE
  5
E1
330
4E
100
AcDbEntity
  8
0
  6
Continuous
 62
     7
100
AcDbLine
 10
-105.6000011304411
 20
-86.80997446972806
 30
0.0
 11
-105.6000011304411
 21
-80.93348321052193
 31
0.0
  0
LINE
  5
E2
330
4E
100
AcDbEntity
  8
0
  6
Continuous
 62
     7
100
AcDbLine
 10
-105.6000011304411
 20
-98.40999916448953
 30
0.0
 11
-128.6000011304411
 21
-98.40999916448953
 31
0.0
  0
LINE
  5
E3
330
4E
100
AcDbEntity
  8
0
  6
Continuous
 62
     7
100
AcDbLine
 10
-105.6000011304411
 20
-97.28651511845717
 30
0.0
 11
-105.6000011304411
 21
-91.41002385925101
 31
0.0
  0
LINE
  5
E4
330
4E
100
AcDbEntity
  8
0
  6
Continuous
 62
     7
100
AcDbLine
 10
-105.6000011304411
 20
-91.41002385925101
 30
0.0
 11
-105.6000011304411
 21
-91.41001746636836
 31
0.0
  0
LINE
  5
E5
330
4E
100
AcDbEntity
  8
0
  6
Continuous
 62
     7
100
AcDbLine
 10
-105.6000011304411
 20
-98.40999916448953
 30
0.0
 11
-105.6000011304411
 21
-97.28651511845717
 31
0.0
  0
LINE
  5
E6
330
4E
100
AcDbEntity
  8
0
  6
Continuous
 62
     7
100
AcDbLine
 10
-105.6000011304411
 20
-79.80999916448954
 30
0.0
 11
-105.6000011304411
 21
-80.93348321052193
 31
0.0
  0
LINE
  5
E7
330
4E
100
AcDbEntity
  8
0
  6
Continuous
 62
     7
100
AcDbLine
 10
-128.6000011304411
 20
-86.80998086261071
 30
0.0
 11
-128.6000011304411
 21
-86.80997446972806
 31
0.0
  0
LINE
  5
E8
330
4E
100
AcDbEntity
  8
0
  6
Continuous
 62
     7
100
AcDbLine
 10
-128.6000011304411
 20
-88.06934629339064
 30
0.0
 11
-128.6000011304411
 21
-86.80998086261071
 31
0.0
  0
LINE
  5
E9
330
4E
100
AcDbEntity
  8
0
  6
Continuous
 62
     2
100
AcDbLine
 10
-128.6000011304411
 20
-88.06934629339064
 30
0.0
 11
-105.6000011304411
 21
-88.06934629339064
 31
0.0
  0
LINE
  5
EA
330
4E
100
AcDbEntity
  8
0
  6
Continuous
 62
     2
100
AcDbLine
 10
-128.6000011304411
 20
-86.80998086261071
 30
0.0
 11
-105.6000011304411
 21
-86.80998086261071
 31
0.0
  0
LINE
  5
EB
330
4E
100
AcDbEntity
  8
0
  6
Continuous
 62
     7
100
AcDbLine
 10
-128.6000011304411
 20
-86.80997446972806
 30
0.0
 11
-105.6000011304411
 21
-86.80997446972806
 31
0.0
  0
LINE
  5
EC
330
4E
100
AcDbEntity
  8
0
  6
Continuous
 62
     7
100
AcDbLine
 10
-128.6000011304411
 20
-97.28651511845717
 30
0.0
 11
-128.6000011304411
 21
-91.41002385925101
 31
0.0
  0
LINE
  5
ED
330
4E
100
AcDbEntity
  8
0
  6
Continuous
 62
     7
100
AcDbLine
 10
-128.6000011304411
 20
-91.41002385925101
 30
0.0
 11
-128.6000011304411
 21
-91.41001746636836
 31
0.0
  0
LINE
  5
EE
330
4E
100
AcDbEntity
  8
0
  6
Continuous
 62
     7
100
AcDbLine
 10
-128.6000011304411
 20
-98.40999916448953
 30
0.0
 11
-128.6000011304411
 21
-97.28651511845717
 31
0.0
  0
LINE
  5
EF
330
4E
100
AcDbEntity
  8
0
  6
Continuous
 62
     2
100
AcDbLine
 10
-128.6000011304411
 20
-97.28651511845717
 30
0.0
 11
-105.6000011304411
 21
-97.28651511845717
 31
0.0
  0
LINE
  5
F0
330
4E
100
AcDbEntity
  8
0
  6
Continuous
 62
     2
100
AcDbLine
 10
-128.6000011304411
 20
-91.41001746636836
 30
0.0
 11
-105.6000011304411
 21
-91.41001746636836
 31
0.0
  0
ENDBLK
  5
50
330
4E
100
AcDbEntity
  8
0
100
AcDbBlockEnd
  0
BLOCK
  5
53
330
51
100
AcDbEntity
  8
0
100
AcDbBlockBegin
  2
Drfsicht1
 70
     0
 10
-117.1000011304461
 20
-89.10999953150747
 30
0.0
  3
Drfsicht1
  1

  0
INSERT
  5
52
330
51
100
AcDbEntity
  8
0
100
AcDbBlockReference
  2
0808037_PATG_6_23-select__2
 10
-128.6000011304411
 20
-98.40999916448953
 30
0.0
  0
MTEXT
  5
F1
330
51
100
AcDbEntity
  8
1
 62
     6
100
AcDbMText
 10
-117.1000011304461
 20
-100.9099999010563
 30
0.0
 40
2.5
 41
0.0
 71
     2
 72
     1
  1
 
  7
CONVERTER_11
 73
     1
 44
1.32052821128451
  0
DIMENSION
  5
FC
330
51
100
AcDbEntity
  8
1
100
AcDbDimension
  2
*D16
 10
-133.6000011304411
 20
-79.80999916448954
 30
0.0
 11
-135.3125011304411
 21
-89.10999916448952
 31
0.0
 70
    32
  1
<>
 71
     5
 42
-1.0
 53
90.0
  3
ME10_DIM_10
100
AcDbAlignedDimension
 13
-128.6000011304411
 23
-98.40999916448953
 33
0.0
 14
-128.6000011304411
 24
-79.80999916448954
 34
0.0
 50
90.0
100
AcDbRotatedDimension
  0
ENDBLK
  5
54
330
51
100
AcDbEntity
  8
0
100
AcDbBlockEnd
  0
BLOCK
  5
56
330
55
100
AcDbEntity
  8
0
100
AcDbBlockBegin
  2
0808037_PATG_6_23-select__3
 70
     0
 10
-67.00000000001748
 20
-64.80999970837595
 30
0.0
  3
0808037_PATG_6_23-select__3
  1

  0
LINE
  5
FD
330
55
100
AcDbEntity
  8
0
  6
Continuous
 62
     2
100
AcDbLine
 10
-44.00000000001749
 20
-63.40944023350416
 30
0.0
 11
-67.00000000001748
 21
-63.40944023350416
 31
0.0
  0
LINE
  5
FE
330
55
100
AcDbEntity
  8
0
  6
Continuous
 62
     7
100
AcDbLine
 10
-44.00000000001749
 20
-64.80999970837595
 30
0.0
 11
-44.00000000001749
 21
-63.40944023350416
 31
0.0
  0
LINE
  5
FF
330
55
100
AcDbEntity
  8
0
  6
Continuous
 62
     7
100
AcDbLine
 10
-44.00000000001749
 20
-64.80999970837595
 30
0.0
 11
-67.00000000001748
 21
-64.80999970837595
 31
0.0
  0
LINE
  5
100
330
55
100
AcDbEntity
  8
0
  6
Continuous
 62
     7
100
AcDbLine
 10
-67.00000000001748
 20
-64.80999970837595
 30
0.0
 11
-67.00000000001748
 21
-63.40944023350416
 31
0.0
  0
LINE
  5
101
330
55
100
AcDbEntity
  8
0
  6
Continuous
 62
     2
100
AcDbLine
 10
-44.00000000001749
 20
-55.90999970837596
 30
0.0
 11
-67.00000000001748
 21
-55.90999970837596
 31
0.0
  0
LINE
  5
102
330
55
100
AcDbEntity
  8
0
  6
Continuous
 62
     2
100
AcDbLine
 10
-44.00000000001749
 20
-51.30484341146718
 30
0.0
 11
-67.00000000001748
 21
-51.30484341146718
 31
0.0
  0
LINE
  5
103
330
55
100
AcDbEntity
  8
0
  6
Continuous
 62
     7
100
AcDbLine
 10
-67.00000000001748
 20
-55.90999970837596
 30
0.0
 11
-67.00000000001748
 21
-51.30484341146718
 31
0.0
  0
LINE
  5
104
330
55
100
AcDbEntity
  8
0
  6
Continuous
 62
     7
100
AcDbLine
 10
-67.00000000001748
 20
-51.30484341146718
 30
0.0
 11
-67.00000000001748
 21
-47.06263150830493
 31
0.0
  0
LINE
  5
105
330
55
100
AcDbEntity
  8
0
  6
Continuous
 62
     7
100
AcDbLine
 10
-67.00000000001748
 20
-47.06263150830493
 30
0.0
 11
-67.00000000001748
 21
-45.80859252950839
 31
0.0
  0
LINE
  5
106
330
55
100
AcDbEntity
  8
0
  6
Continuous
 62
     7
100
AcDbLine
 10
-67.00000000001748
 20
-44.28843648285306
 30
0.0
 11
-67.00000000001748
 21
-45.80859252950839
 31
0.0
  0
LINE
  5
107
330
55
100
AcDbEntity
  8
0
  6
Continuous
 62
     7
100
AcDbLine
 10
-67.00000000001748
 20
-63.40944023350416
 30
0.0
 11
-67.00000000001748
 21
-56.80999970837594
 31
0.0
  0
LINE
  5
108
330
55
100
AcDbEntity
  8
0
  6
Continuous
 62
     7
100
AcDbLine
 10
-67.00000000001748
 20
-55.90999970837596
 30
0.0
 11
-67.00000000001748
 21
-56.80999970837594
 31
0.0
  0
LINE
  5
109
330
55
100
AcDbEntity
  8
0
  6
Continuous
 62
     7
100
AcDbLine
 10
-44.00000000001749
 20
-55.90999970837596
 30
0.0
 11
-44.00000000001749
 21
-51.30484341146718
 31
0.0
  0
LINE
  5
10A
330
55
100
AcDbEntity
  8
0
  6
Continuous
 62
     7
100
AcDbLine
 10
-44.00000000001749
 20
-51.30484341146718
 30
0.0
 11
-44.00000000001749
 21
-47.06263150830493
 31
0.0
  0
LINE
  5
10B
330
55
100
AcDbEntity
  8
0
  6
Continuous
 62
     7
100
AcDbLine
 10
-44.00000000001749
 20
-47.06263150830493
 30
0.0
 11
-44.00000000001749
 21
-45.80859252950839
 31
0.0
  0
LINE
  5
10C
330
55
100
AcDbEntity
  8
0
  6
Continuous
 62
     7
100
AcDbLine
 10
-44.00000000001749
 20
-63.40944023350416
 30
0.0
 11
-44.00000000001749
 21
-56.80999970837594
 31
0.0
  0
LINE
  5
10D
330
55
100
AcDbEntity
  8
0
  6
Continuous
 62
     7
100
AcDbLine
 10
-44.00000000001749
 20
-55.90999970837596
 30
0.0
 11
-44.00000000001749
 21
-56.80999970837594
 31
0.0
  0
LINE
  5
10E
330
55
100
AcDbEntity
  8
0
  6
Continuous
 62
     7
100
AcDbLine
 10
-44.00000000001749
 20
-44.28843648285306
 30
0.0
 11
-44.00000000001749
 21
-44.18999970837595
 31
0.0
  0
LINE
  5
10F
330
55
100
AcDbEntity
  8
0
  6
Continuous
 62
     7
100
AcDbLine
 10
-67.00000000001748
 20
-44.28843648285306
 30
0.0
 11
-67.00000000001748
 21
-44.18999970837595
 31
0.0
  0
LINE
  5
110
330
55
100
AcDbEntity
  8
0
  6
Continuous
 62
     7
100
AcDbLine
 10
-44.00000000001749
 20
-44.28843648285306
 30
0.0
 11
-44.00000000001749
 21
-45.80859252950839
 31
0.0
  0
LINE
  5
111
330
55
100
AcDbEntity
  8
0
  6
Continuous
 62
     2
100
AcDbLine
 10
-44.00000000001749
 20
-44.28843648285306
 30
0.0
 11
-67.00000000001748
 21
-44.28843648285306
 31
0.0
  0
LINE
  5
112
330
55
100
AcDbEntity
  8
0
  6
Continuous
 62
     2
100
AcDbLine
 10
-44.00000000001749
 20
-45.80859252950839
 30
0.0
 11
-67.00000000001748
 21
-45.80859252950839
 31
0.0
  0
LINE
  5
113
330
55
100
AcDbEntity
  8
0
  6
Continuous
 62
     7
100
AcDbLine
 10
-44.00000000001749
 20
-47.06263150830493
 30
0.0
 11
-67.00000000001748
 21
-47.06263150830493
 31
0.0
  0
LINE
  5
114
330
55
100
AcDbEntity
  8
0
  6
Continuous
 62
     7
100
AcDbLine
 10
-44.00000000001749
 20
-44.18999970837595
 30
0.0
 11
-67.00000000001748
 21
-44.18999970837595
 31
0.0
  0
LINE
  5
115
330
55
100
AcDbEntity
  8
0
  6
Continuous
 62
     2
100
AcDbLine
 10
-44.00000000001749
 20
-56.80999970837594
 30
0.0
 11
-67.00000000001748
 21
-56.80999970837594
 31
0.0
  0
ENDBLK
  5
57
330
55
100
AcDbEntity
  8
0
100
AcDbBlockEnd
  0
BLOCK
  5
5A
330
58
100
AcDbEntity
  8
0
100
AcDbBlockBegin
  2
Rckans1
 70
     0
 10
-55.50000000001251
 20
-54.50000000000002
 30
0.0
  3
Rckans1
  1

  0
INSERT
  5
59
330
58
100
AcDbEntity
  8
0
100
AcDbBlockReference
  2
0808037_PATG_6_23-select__3
 10
-67.00000000001748
 20
-64.80999970837595
 30
0.0
  0
MTEXT
  5
116
330
58
100
AcDbEntity
  8
1
 62
     6
100
AcDbMText
 10
-55.50000000001251
 20
-67.30999994277954
 30
0.0
 40
2.5
 41
0.0
 71
     2
 72
     1
  1
 
  7
CONVERTER_11
 73
     1
 44
1.32052821128451
  0
ENDBLK
  5
5B
330
58
100
AcDbEntity
  8
0
100
AcDbBlockEnd
  0
BLOCK
  5
5D
330
5C
100
AcDbEntity
  8
0
100
AcDbBlockBegin
  2
0808037_PATG_6_23-select__4
 70
     0
 10
-95.59999981269478
 20
-64.80999970837593
 30
0.0
  3
0808037_PATG_6_23-select__4
  1

  0
LINE
  5
117
330
5C
100
AcDbEntity
  8
0
  6
Continuous
 62
     7
100
AcDbLine
 10
-95.59999981269478
 20
-55.90999970837593
 30
0.0
 11
-95.59999981269478
 21
-56.80999970837593
 31
0.0
  0
LINE
  5
118
330
5C
100
AcDbEntity
  8
0
  6
Continuous
 62
     7
100
AcDbLine
 10
-89.67948000333793
 20
-55.50999970837594
 30
0.0
 11
-82.92051962205161
 21
-55.50999970837594
 31
0.0
  0
LINE
  5
119
330
5C
100
AcDbEntity
  8
0
  6
Continuous
 62
     7
100
AcDbLine
 10
-83.3616324690446
 20
-56.20999970837593
 30
0.0
 11
-89.23836715634494
 21
-56.20999970837593
 31
0.0
  0
LINE
  5
11A
330
5C
100
AcDbEntity
  8
0
  6
Continuous
 62
     7
100
AcDbLine
 10
-76.99999981269477
 20
-55.90999970837593
 30
0.0
 11
-76.99999981269477
 21
-56.80999970837593
 31
0.0
  0
LINE
  5
11B
330
5C
100
AcDbEntity
  8
0
  6
Continuous
 62
     7
100
AcDbLine
 10
-77.69999981269478
 20
-55.90999970837593
 30
0.0
 11
-77.69999981269477
 21
-56.80999970837593
 31
0.0
  0
LINE
  5
11C
330
5C
100
AcDbEntity
  8
0
  6
Continuous
 62
     7
100
AcDbLine
 10
-94.89999981269476
 20
-55.90999970837593
 30
0.0
 11
-94.89999981269476
 21
-56.80999970837593
 31
0.0
  0
ARC
  5
11D
330
5C
100
AcDbEntity
  8
0
  6
Continuous
 62
     7
100
AcDbCircle
 10
-85.59999981269478
 20
-55.90999970837593
 30
0.0
 40
9.300000000000027
100
AcDbArc
 50
152.5796148504468
 51
180.0
  0
ARC
  5
11E
330
5C
100
AcDbEntity
  8
0
  6
Continuous
 62
     7
100
AcDbCircle
 10
-85.59999981269478
 20
-55.90999970837593
 30
0.0
 40
9.999999999999995
100
AcDbArc
 50
152.5796148504468
 51
180.0
  0
ARC
  5
11F
330
5C
100
AcDbEntity
  8
0
  6
Continuous
 62
     7
100
AcDbCircle
 10
-84.63993044852569
 20
-58.17325716581252
 30
0.0
 40
4.999999999999989
100
AcDbArc
 50
156.8804161268833
 51
235.3651093591449
  0
ARC
  5
120
330
5C
100
AcDbEntity
  8
0
  6
Continuous
 62
     7
100
AcDbCircle
 10
-88.34111684582257
 20
-49.52365019458705
 30
0.0
 40
1.750000000000003
100
AcDbArc
 50
51.09462888819218
 51
100.0216630149555
  0
ARC
  5
121
330
5C
100
AcDbEntity
  8
0
  6
Continuous
 62
     7
100
AcDbCircle
 10
-84.63993044852569
 20
-58.17325716581252
 30
0.0
 40
5.699999999999982
100
AcDbArc
 50
152.1448322651394
 51
235.3651093591447
  0
ARC
  5
122
330
5C
100
AcDbEntity
  8
0
  6
Continuous
 62
     7
100
AcDbCircle
 10
-84.54999981269478
 20
-63.10999970837593
 30
0.0
 40
0.9999999999999949
100
AcDbArc
 50
124.6348906408559
 51
230.8541413369846
  0
ARC
  5
123
330
5C
100
AcDbEntity
  8
0
  6
Continuous
 62
     7
100
AcDbCircle
 10
-82.58122842199234
 20
-60.6913848591985
 30
0.0
 40
3.418614849177424
100
AcDbArc
 50
230.854141336985
 51
318.7043939417159
  0
ARC
  5
124
330
5C
100
AcDbEntity
  8
0
  6
Continuous
 62
     7
100
AcDbCircle
 10
-88.04999981269478
 20
-63.10999970837593
 30
0.0
 40
0.2999999999999976
100
AcDbArc
 50
309.1458586630178
 51
55.36510935914325
  0
ARC
  5
125
330
5C
100
AcDbEntity
  8
0
  6
Continuous
 62
     7
100
AcDbCircle
 10
-90.0187712033972
 20
-60.6913848591985
 30
0.0
 40
3.418614849177424
100
AcDbArc
 50
221.2956060582838
 51
309.1458586630148
  0
ARC
  5
126
330
5C
100
AcDbEntity
  8
0
  6
Continuous
 62
     7
100
AcDbCircle
 10
-90.0187712033972
 20
-60.6913848591985
 30
0.0
 40
4.118614849177431
100
AcDbArc
 50
221.2956060582838
 51
309.1458586630147
  0
ARC
  5
127
330
5C
100
AcDbEntity
  8
0
  6
Continuous
 62
     7
100
AcDbCircle
 10
-88.04999981269478
 20
-63.10999970837593
 30
0.0
 40
0.9999999999999978
100
AcDbArc
 50
309.1458586630154
 51
55.36510935914344
  0
ARC
  5
128
330
5C
100
AcDbEntity
  8
0
  6
Continuous
 62
     7
100
AcDbCircle
 10
-82.58122842199234
 20
-60.6913848591985
 30
0.0
 40
4.118614849177433
100
AcDbArc
 50
230.8541413369849
 51
318.7043939417158
  0
ARC
  5
129
330
5C
100
AcDbEntity
  8
0
  6
Continuous
 62
     7
100
AcDbCircle
 10
-86.99999981269477
 20
-56.80999970837593
 30
0.0
 40
9.299999999999988
100
AcDbArc
 50
318.7043939417161
 51
0.0
  0
ARC
  5
12A
330
5C
100
AcDbEntity
  8
0
  6
Continuous
 62
     7
100
AcDbCircle
 10
-86.99999981269477
 20
-56.80999970837593
 30
0.0
 40
9.99999999999999
100
AcDbArc
 50
318.704393941716
 51
0.0
  0
ARC
  5
12B
330
5C
100
AcDbEntity
  8
0
  6
Continuous
 62
     7
100
AcDbCircle
 10
-83.05002450745624
 20
-45.81701636216861
 30
0.0
 40
5.550000000000007
100
AcDbArc
 50
179.9130359920588
 51
192.9696658582868
  0
ARC
  5
12C
330
5C
100
AcDbEntity
  8
0
  6
Continuous
 62
     7
100
AcDbCircle
 10
-86.29999981269478
 20
-49.73999970837593
 30
0.0
 40
5.550000000000013
100
AcDbArc
 50
79.19278420079999
 51
100.8072157991999
  0
ARC
  5
12D
330
5C
100
AcDbEntity
  8
0
  6
Continuous
 62
     7
100
AcDbCircle
 10
-86.29999981269478
 20
-46.9945512923937
 30
0.0
 40
1.499999999999995
100
AcDbArc
 50
231.0946288881926
 51
308.9053711118078
  0
ARC
  5
12E
330
5C
100
AcDbEntity
  8
0
  6
Continuous
 62
     7
100
AcDbCircle
 10
-87.37530300348831
 20
-54.98896844899416
 30
0.0
 40
7.300000000000005
100
AcDbArc
 50
100.0216630149554
 51
152.5796148504469
  0
ARC
  5
12F
330
5C
100
AcDbEntity
  8
0
  6
Continuous
 62
     7
100
AcDbCircle
 10
-87.05001989997325
 20
-45.81094513142249
 30
0.0
 40
1.550000000000012
100
AcDbArc
 50
100.8072157992
 51
179.9130359920585
  0
ARC
  5
130
330
5C
100
AcDbEntity
  8
0
  6
Continuous
 62
     7
100
AcDbCircle
 10
-86.99999981269477
 20
-55.90999970837593
 30
0.0
 40
9.299999999999983
100
AcDbArc
 50
0.0
 51
27.42038514955315
  0
ARC
  5
131
330
5C
100
AcDbEntity
  8
0
  6
Continuous
 62
     7
100
AcDbCircle
 10
-86.99999981269477
 20
-55.90999970837593
 30
0.0
 40
10.0
100
AcDbArc
 50
0.0
 51
27.42038514955316
  0
ARC
  5
132
330
5C
100
AcDbEntity
  8
0
  6
Continuous
 62
     7
100
AcDbCircle
 10
-84.54999981269478
 20
-63.10999970837593
 30
0.0
 40
0.3000000000000013
100
AcDbArc
 50
124.6348906408545
 51
230.8541413369843
  0
ARC
  5
133
330
5C
100
AcDbEntity
  8
0
  6
Continuous
 62
     7
100
AcDbCircle
 10
-87.96006917686387
 20
-58.17325716581252
 30
0.0
 40
5.699999999999999
100
AcDbArc
 50
304.6348906408554
 51
27.8551677348605
  0
ARC
  5
134
330
5C
100
AcDbEntity
  8
0
  6
Continuous
 62
     7
100
AcDbCircle
 10
-87.96006917686387
 20
-58.17325716581252
 30
0.0
 40
5.000000000000005
100
AcDbArc
 50
304.6348906408552
 51
23.11958387311653
  0
ARC
  5
135
330
5C
100
AcDbEntity
  8
0
  6
Continuous
 62
     7
100
AcDbCircle
 10
-84.25888277956697
 20
-49.52365019458705
 30
0.0
 40
1.750000000000002
100
AcDbArc
 50
79.97833698504452
 51
128.9053711118079
  0
ARC
  5
136
330
5C
100
AcDbEntity
  8
0
  6
Continuous
 62
     7
100
AcDbCircle
 10
-85.22469662190122
 20
-54.98896844899416
 30
0.0
 40
7.299999999999991
100
AcDbArc
 50
27.42038514955316
 51
79.97833698504478
  0
ARC
  5
137
330
5C
100
AcDbEntity
  8
0
  6
Continuous
 62
     7
100
AcDbCircle
 10
-89.54997511793329
 20
-45.81701636216862
 30
0.0
 40
5.549999999999992
100
AcDbArc
 50
347.0303341417133
 51
0.08696400794134
  0
ARC
  5
138
330
5C
100
AcDbEntity
  8
0
  6
Continuous
 62
     7
100
AcDbCircle
 10
-85.54997972541629
 20
-45.81094513142249
 30
0.0
 40
1.549999999999999
100
AcDbArc
 50
0.08696400794154
 51
79.19278420080005
  0
ARC
  5
139
330
5C
100
AcDbEntity
  8
0
  6
Continuous
 62
     7
100
AcDbCircle
 10
-85.22469662190122
 20
-54.98896844899416
 30
0.0
 40
7.999999999999993
100
AcDbArc
 50
27.42038514955317
 51
82.21871502325304
  0
ARC
  5
13A
330
5C
100
AcDbEntity
  8
0
  6
Continuous
 62
     7
100
AcDbCircle
 10
-85.59999981269478
 20
-56.80999970837593
 30
0.0
 40
9.299999999999983
100
AcDbArc
 50
180.0
 51
221.2956060582839
  0
ARC
  5
13B
330
5C
100
AcDbEntity
  8
0
  6
Continuous
 62
     7
100
AcDbCircle
 10
-85.59999981269478
 20
-56.80999970837593
 30
0.0
 40
10.0
100
AcDbArc
 50
180.0
 51
221.2956060582839
  0
ARC
  5
13C
330
5C
100
AcDbEntity
  8
0
  6
Continuous
 62
     7
100
AcDbCircle
 10
-87.37530300348831
 20
-54.98896844899416
 30
0.0
 40
8.000000000000005
100
AcDbArc
 50
97.78128497674707
 51
152.5796148504469
  0
ENDBLK
  5
5E
330
5C
100
AcDbEntity
  8
0
100
AcDbBlockEnd
  0
BLOCK
  5
61
330
5F
100
AcDbEntity
  8
0
100
AcDbBlockBegin
  2
SA_Links1
 70
     0
 10
-86.29999944567683
 20
-54.5
 30
0.0
  3
SA_Links1
  1

  0
INSERT
  5
60
330
5F
100
AcDbEntity
  8
0
100
AcDbBlockReference
  2
0808037_PATG_6_23-select__4
 10
-95.59999981269478
 20
-64.80999970837593
 30
0.0
  0
MTEXT
  5
13D
330
5F
100
AcDbEntity
  8
1
 62
     6
100
AcDbMText
 10
-86.2999994456768
 20
-67.30999994277954
 30
0.0
 40
2.5
 41
0.0
 71
     2
 72
     1
  1
 
  7
CONVERTER_11
 73
     1
 44
1.32052821128451
  0
ENDBLK
  5
62
330
5F
100
AcDbEntity
  8
0
100
AcDbBlockEnd
  0
BLOCK
  5
64
330
63
100
AcDbEntity
  8
0
100
AcDbBlockBegin
  2
0808037_PATG_6_23-select__5
 70
     0
 10
-162.199999132977
 20
-64.80999970837595
 30
0.0
  3
0808037_PATG_6_23-select__5
  1

  0
LINE
  5
13E
330
63
100
AcDbEntity
  8
0
  6
Continuous
 62
     7
100
AcDbLine
 10
-143.599999132977
 20
-55.90999970837596
 30
0.0
 11
-143.599999132977
 21
-56.80999970837594
 31
0.0
  0
LINE
  5
13F
330
63
100
AcDbEntity
  8
0
  6
Continuous
 62
     7
100
AcDbLine
 10
-144.299999132977
 20
-55.90999970837596
 30
0.0
 11
-144.299999132977
 21
-56.80999970837594
 31
0.0
  0
LINE
  5
140
330
63
100
AcDbEntity
  8
0
  6
Continuous
 62
     7
100
AcDbLine
 10
-162.199999132977
 20
-55.90999970837596
 30
0.0
 11
-162.199999132977
 21
-56.80999970837594
 31
0.0
  0
LINE
  5
141
330
63
100
AcDbEntity
  8
0
  6
Continuous
 62
     7
100
AcDbLine
 10
-161.499999132977
 20
-55.90999970837596
 30
0.0
 11
-161.499999132977
 21
-56.80999970837594
 31
0.0
  0
LINE
  5
142
330
63
100
AcDbEntity
  8
0
  6
Continuous
 62
     7
100
AcDbLine
 10
-149.5205189423339
 20
-55.50999970837595
 30
0.0
 11
-156.2794793236202
 21
-55.50999970837595
 31
0.0
  0
LINE
  5
143
330
63
100
AcDbEntity
  8
0
  6
Continuous
 62
     7
100
AcDbLine
 10
-155.8383664766272
 20
-56.20999970837595
 30
0.0
 11
-149.9616317893268
 21
-56.20999970837595
 31
0.0
  0
ARC
  5
144
330
63
100
AcDbEntity
  8
0
  6
Continuous
 62
     7
100
AcDbCircle
 10
-153.599999132977
 20
-56.80999970837594
 30
0.0
 40
9.299999999999997
100
AcDbArc
 50
318.704393941716
 51
0.0
  0
ARC
  5
145
330
63
100
AcDbEntity
  8
0
  6
Continuous
 62
     7
100
AcDbCircle
 10
-153.599999132977
 20
-55.90999970837596
 30
0.0
 40
9.299999999999983
100
AcDbArc
 50
0.0
 51
27.42038514955323
  0
ARC
  5
146
330
63
100
AcDbEntity
  8
0
  6
Continuous
 62
     7
100
AcDbCircle
 10
-153.599999132977
 20
-55.90999970837596
 30
0.0
 40
10.0
100
AcDbArc
 50
0.0
 51
27.4203851495532
  0
ARC
  5
147
330
63
100
AcDbEntity
  8
0
  6
Continuous
 62
     7
100
AcDbCircle
 10
-153.599999132977
 20
-56.80999970837594
 30
0.0
 40
9.99999999999993
100
AcDbArc
 50
318.7043939417157
 51
0.0
  0
ARC
  5
148
330
63
100
AcDbEntity
  8
0
  6
Continuous
 62
     7
100
AcDbCircle
 10
-151.149999132977
 20
-63.10999970837597
 30
0.0
 40
1.00000000000002
100
AcDbArc
 50
124.6348906408559
 51
230.8541413369838
  0
ARC
  5
149
330
63
100
AcDbEntity
  8
0
  6
Continuous
 62
     7
100
AcDbCircle
 10
-149.1812277422746
 20
-60.69138485919854
 30
0.0
 40
3.418614849177382
100
AcDbArc
 50
230.8541413369857
 51
318.7043939417165
  0
ARC
  5
14A
330
63
100
AcDbEntity
  8
0
  6
Continuous
 62
     7
100
AcDbCircle
 10
-154.649999132977
 20
-63.10999970837597
 30
0.0
 40
0.9999999999999813
100
AcDbArc
 50
309.1458586630162
 51
55.36510935914414
  0
ARC
  5
14B
330
63
100
AcDbEntity
  8
0
  6
Continuous
 62
     7
100
AcDbCircle
 10
-149.1812277422746
 20
-60.69138485919854
 30
0.0
 40
4.118614849177399
100
AcDbArc
 50
230.8541413369851
 51
318.7043939417156
  0
ARC
  5
14C
330
63
100
AcDbEntity
  8
0
  6
Continuous
 62
     7
100
AcDbCircle
 10
-152.899999132977
 20
-46.99455129239372
 30
0.0
 40
1.50000000000004
100
AcDbArc
 50
231.0946288881905
 51
308.9053711118061
  0
ARC
  5
14D
330
63
100
AcDbEntity
  8
0
  6
Continuous
 62
     7
100
AcDbCircle
 10
-151.8246959421835
 20
-54.98896844899419
 30
0.0
 40
7.300000000000048
100
AcDbArc
 50
27.42038514955305
 51
79.97833698504466
  0
ARC
  5
14E
330
63
100
AcDbEntity
  8
0
  6
Continuous
 62
     7
100
AcDbCircle
 10
-152.899999132977
 20
-49.73999970837595
 30
0.0
 40
5.549999999999992
100
AcDbArc
 50
79.19278420079995
 51
100.8072157992001
  0
ARC
  5
14F
330
63
100
AcDbEntity
  8
0
  6
Continuous
 62
     7
100
AcDbCircle
 10
-154.9411161661048
 20
-49.52365019458708
 30
0.0
 40
1.749999999999964
100
AcDbArc
 50
51.09462888819414
 51
100.0216630149582
  0
ARC
  5
150
330
63
100
AcDbEntity
  8
0
  6
Continuous
 62
     7
100
AcDbCircle
 10
-150.8588820998492
 20
-49.52365019458708
 30
0.0
 40
1.749999999999997
100
AcDbArc
 50
79.97833698504544
 51
128.9053711118088
  0
ARC
  5
151
330
63
100
AcDbEntity
  8
0
  6
Continuous
 62
     7
100
AcDbCircle
 10
-153.9753023237706
 20
-54.98896844899419
 30
0.0
 40
7.300000000000017
100
AcDbArc
 50
100.0216630149556
 51
152.5796148504467
  0
ARC
  5
152
330
63
100
AcDbEntity
  8
0
  6
Continuous
 62
     7
100
AcDbCircle
 10
-153.9753023237706
 20
-54.98896844899419
 30
0.0
 40
8.000000000000007
100
AcDbArc
 50
97.78128497674717
 51
152.5796148504468
  0
ARC
  5
153
330
63
100
AcDbEntity
  8
0
  6
Continuous
 62
     7
100
AcDbCircle
 10
-152.199999132977
 20
-55.90999970837596
 30
0.0
 40
9.300000000000031
100
AcDbArc
 50
152.5796148504468
 51
180.0
  0
ARC
  5
154
330
63
100
AcDbEntity
  8
0
  6
Continuous
 62
     7
100
AcDbCircle
 10
-152.199999132977
 20
-55.90999970837596
 30
0.0
 40
10.0000000000001
100
AcDbArc
 50
152.5796148504469
 51
180.0
  0
ARC
  5
155
330
63
100
AcDbEntity
  8
0
  6
Continuous
 62
     7
100
AcDbCircle
 10
-152.199999132977
 20
-56.80999970837594
 30
0.0
 40
9.299999999999983
100
AcDbArc
 50
180.0
 51
221.295606058284
  0
ARC
  5
156
330
63
100
AcDbEntity
  8
0
  6
Continuous
 62
     7
100
AcDbCircle
 10
-152.199999132977
 20
-56.80999970837594
 30
0.0
 40
10.0
100
AcDbArc
 50
180.0
 51
221.2956060582839
  0
ARC
  5
157
330
63
100
AcDbEntity
  8
0
  6
Continuous
 62
     7
100
AcDbCircle
 10
-153.6500192202555
 20
-45.81094513142251
 30
0.0
 40
1.549999999999989
100
AcDbArc
 50
100.8072157991996
 51
179.913035992059
  0
ARC
  5
158
330
63
100
AcDbEntity
  8
0
  6
Continuous
 62
     7
100
AcDbCircle
 10
-149.6500238277385
 20
-45.81701636216864
 30
0.0
 40
5.550000000000078
100
AcDbArc
 50
179.9130359920588
 51
192.9696658582868
  0
ARC
  5
159
330
63
100
AcDbEntity
  8
0
  6
Continuous
 62
     7
100
AcDbCircle
 10
-151.2399297688079
 20
-58.17325716581255
 30
0.0
 40
5.700000000000029
100
AcDbArc
 50
152.1448322651395
 51
235.3651093591443
  0
ARC
  5
15A
330
63
100
AcDbEntity
  8
0
  6
Continuous
 62
     7
100
AcDbCircle
 10
-151.2399297688079
 20
-58.17325716581255
 30
0.0
 40
5.000000000000019
100
AcDbArc
 50
156.8804161268834
 51
235.3651093591448
  0
ARC
  5
15B
330
63
100
AcDbEntity
  8
0
  6
Continuous
 62
     7
100
AcDbCircle
 10
-152.1499790456986
 20
-45.81094513142251
 30
0.0
 40
1.550000000000041
100
AcDbArc
 50
0.08696400794101
 51
79.19278420079733
  0
ARC
  5
15C
330
63
100
AcDbEntity
  8
0
  6
Continuous
 62
     7
100
AcDbCircle
 10
-151.149999132977
 20
-63.10999970837597
 30
0.0
 40
0.3000000000000314
100
AcDbArc
 50
124.6348906408605
 51
230.8541413369877
  0
ARC
  5
15D
330
63
100
AcDbEntity
  8
0
  6
Continuous
 62
     7
100
AcDbCircle
 10
-154.5600684971461
 20
-58.17325716581255
 30
0.0
 40
5.699999999999981
100
AcDbArc
 50
304.634890640855
 51
27.85516773486095
  0
ARC
  5
15E
330
63
100
AcDbEntity
  8
0
  6
Continuous
 62
     7
100
AcDbCircle
 10
-156.1499744382155
 20
-45.81701636216863
 30
0.0
 40
5.549999999999971
100
AcDbArc
 50
347.030334141713
 51
0.08696400794112
  0
ARC
  5
15F
330
63
100
AcDbEntity
  8
0
  6
Continuous
 62
     7
100
AcDbCircle
 10
-154.5600684971461
 20
-58.17325716581255
 30
0.0
 40
4.999999999999991
100
AcDbArc
 50
304.6348906408552
 51
23.11958387311648
  0
ARC
  5
160
330
63
100
AcDbEntity
  8
0
  6
Continuous
 62
     7
100
AcDbCircle
 10
-154.649999132977
 20
-63.10999970837597
 30
0.0
 40
0.2999999999999831
100
AcDbArc
 50
309.1458586630166
 51
55.36510935915295
  0
ARC
  5
161
330
63
100
AcDbEntity
  8
0
  6
Continuous
 62
     7
100
AcDbCircle
 10
-156.6187705236794
 20
-60.69138485919854
 30
0.0
 40
3.418614849177447
100
AcDbArc
 50
221.2956060582832
 51
309.1458586630143
  0
ARC
  5
162
330
63
100
AcDbEntity
  8
0
  6
Continuous
 62
     7
100
AcDbCircle
 10
-156.6187705236794
 20
-60.69138485919854
 30
0.0
 40
4.118614849177465
100
AcDbArc
 50
221.2956060582831
 51
309.1458586630146
  0
ARC
  5
163
330
63
100
AcDbEntity
  8
0
  6
Continuous
 62
     7
100
AcDbCircle
 10
-151.8246959421835
 20
-54.98896844899419
 30
0.0
 40
7.999999999999999
100
AcDbArc
 50
27.42038514955304
 51
82.21871502325283
  0
ENDBLK
  5
65
330
63
100
AcDbEntity
  8
0
100
AcDbBlockEnd
  0
BLOCK
  5
68
330
66
100
AcDbEntity
  8
0
100
AcDbBlockBegin
  2
SA_Rechts1
 70
     0
 10
-152.899999499995
 20
-54.50000000000002
 30
0.0
  3
SA_Rechts1
  1

  0
INSERT
  5
67
330
66
100
AcDbEntity
  8
0
100
AcDbBlockReference
  2
0808037_PATG_6_23-select__5
 10
-162.199999132977
 20
-64.80999970837595
 30
0.0
  0
MTEXT
  5
164
330
66
100
AcDbEntity
  8
1
 62
     6
100
AcDbMText
 10
-152.8999994999949
 20
-67.30999994277954
 30
0.0
 40
2.5
 41
0.0
 71
     2
 72
     1
  1
 
  7
CONVERTER_11
 73
     1
 44
1.32052821128451
  0
ENDBLK
  5
69
330
66
100
AcDbEntity
  8
0
100
AcDbBlockEnd
  0
BLOCK
  5
6B
330
6A
100
AcDbEntity
  8
0
100
AcDbBlockBegin
  2
0808037_PATG_6_23-select__6
 70
     0
 10
-128.6000007390876
 20
-64.80999970837595
 30
0.0
  3
0808037_PATG_6_23-select__6
  1

  0
LINE
  5
165
330
6A
100
AcDbEntity
  8
0
  6
Continuous
 62
     2
100
AcDbLine
 10
-128.6000007390876
 20
-55.90999970837596
 30
0.0
 11
-105.6000007390876
 21
-55.90999970837596
 31
0.0
  0
LINE
  5
166
330
6A
100
AcDbEntity
  8
0
  6
Continuous
 62
     7
100
AcDbLine
 10
-128.6000007390876
 20
-55.90999970837596
 30
0.0
 11
-128.6000007390876
 21
-51.30484341146716
 31
0.0
  0
LINE
  5
167
330
6A
100
AcDbEntity
  8
0
  6
Continuous
 62
     7
100
AcDbLine
 10
-128.6000007390876
 20
-55.90999970837596
 30
0.0
 11
-128.6000007390876
 21
-56.80999970837595
 31
0.0
  0
LINE
  5
168
330
6A
100
AcDbEntity
  8
0
  6
Continuous
 62
     7
100
AcDbLine
 10
-105.6000007390876
 20
-44.18999970837596
 30
0.0
 11
-105.6000007390876
 21
-44.28843648285306
 31
0.0
  0
LINE
  5
169
330
6A
100
AcDbEntity
  8
0
  6
Continuous
 62
     7
100
AcDbLine
 10
-105.6000007390876
 20
-55.90999970837596
 30
0.0
 11
-105.6000007390876
 21
-51.30484341146716
 31
0.0
  0
LINE
  5
16A
330
6A
100
AcDbEntity
  8
0
  6
Continuous
 62
     7
100
AcDbLine
 10
-105.6000007390876
 20
-55.90999970837596
 30
0.0
 11
-105.6000007390876
 21
-56.80999970837595
 31
0.0
  0
LINE
  5
16B
330
6A
100
AcDbEntity
  8
0
  6
Continuous
 62
     7
100
AcDbLine
 10
-105.6000007390876
 20
-47.06263150830494
 30
0.0
 11
-105.6000007390876
 21
-45.80859252950839
 31
0.0
  0
LINE
  5
16C
330
6A
100
AcDbEntity
  8
0
  6
Continuous
 62
     7
100
AcDbLine
 10
-105.6000007390876
 20
-45.80859252950839
 30
0.0
 11
-105.6000007390876
 21
-44.28843648285306
 31
0.0
  0
LINE
  5
16D
330
6A
100
AcDbEntity
  8
0
  6
Continuous
 62
     2
100
AcDbLine
 10
-128.6000007390876
 20
-63.40944023350417
 30
0.0
 11
-105.6000007390876
 21
-63.40944023350416
 31
0.0
  0
LINE
  5
16E
330
6A
100
AcDbEntity
  8
0
  6
Continuous
 62
     7
100
AcDbLine
 10
-105.6000007390876
 20
-64.80999970837595
 30
0.0
 11
-105.6000007390876
 21
-63.40944023350416
 31
0.0
  0
LINE
  5
16F
330
6A
100
AcDbEntity
  8
0
  6
Continuous
 62
     7
100
AcDbLine
 10
-105.6000007390876
 20
-56.80999970837595
 30
0.0
 11
-105.6000007390876
 21
-63.40944023350416
 31
0.0
  0
LINE
  5
170
330
6A
100
AcDbEntity
  8
0
  6
Continuous
 62
     2
100
AcDbLine
 10
-128.6000007390876
 20
-56.80999970837595
 30
0.0
 11
-105.6000007390876
 21
-56.80999970837595
 31
0.0
  0
LINE
  5
171
330
6A
100
AcDbEntity
  8
0
  6
Continuous
 62
     2
100
AcDbLine
 10
-128.6000007390876
 20
-51.30484341146716
 30
0.0
 11
-105.6000007390876
 21
-51.30484341146716
 31
0.0
  0
LINE
  5
172
330
6A
100
AcDbEntity
  8
0
  6
Continuous
 62
     7
100
AcDbLine
 10
-128.6000007390876
 20
-56.80999970837595
 30
0.0
 11
-128.6000007390876
 21
-63.40944023350417
 31
0.0
  0
LINE
  5
173
330
6A
100
AcDbEntity
  8
0
  6
Continuous
 62
     7
100
AcDbLine
 10
-128.6000007390876
 20
-63.40944023350417
 30
0.0
 11
-128.6000007390876
 21
-64.80999970837595
 31
0.0
  0
LINE
  5
174
330
6A
100
AcDbEntity
  8
0
  6
Continuous
 62
     7
100
AcDbLine
 10
-128.6000007390876
 20
-44.18999970837596
 30
0.0
 11
-105.6000007390876
 21
-44.18999970837596
 31
0.0
  0
LINE
  5
175
330
6A
100
AcDbEntity
  8
0
  6
Continuous
 62
     7
100
AcDbLine
 10
-128.6000007390876
 20
-44.18999970837596
 30
0.0
 11
-128.6000007390876
 21
-44.28843648285306
 31
0.0
  0
LINE
  5
176
330
6A
100
AcDbEntity
  8
0
  6
Continuous
 62
     2
100
AcDbLine
 10
-128.6000007390876
 20
-44.28843648285306
 30
0.0
 11
-105.6000007390876
 21
-44.28843648285306
 31
0.0
  0
LINE
  5
177
330
6A
100
AcDbEntity
  8
0
  6
Continuous
 62
     7
100
AcDbLine
 10
-128.6000007390876
 20
-45.80859252950839
 30
0.0
 11
-128.6000007390876
 21
-44.28843648285306
 31
0.0
  0
LINE
  5
178
330
6A
100
AcDbEntity
  8
0
  6
Continuous
 62
     2
100
AcDbLine
 10
-128.6000007390876
 20
-45.80859252950839
 30
0.0
 11
-105.6000007390876
 21
-45.80859252950839
 31
0.0
  0
LINE
  5
179
330
6A
100
AcDbEntity
  8
0
  6
Continuous
 62
     7
100
AcDbLine
 10
-128.6000007390876
 20
-47.06263150830494
 30
0.0
 11
-128.6000007390876
 21
-45.80859252950839
 31
0.0
  0
LINE
  5
17A
330
6A
100
AcDbEntity
  8
0
  6
Continuous
 62
     7
100
AcDbLine
 10
-128.6000007390876
 20
-51.30484341146716
 30
0.0
 11
-128.6000007390876
 21
-47.06263150830494
 31
0.0
  0
LINE
  5
17B
330
6A
100
AcDbEntity
  8
0
  6
Continuous
 62
     7
100
AcDbLine
 10
-105.6000007390876
 20
-51.30484341146716
 30
0.0
 11
-105.6000007390876
 21
-47.06263150830494
 31
0.0
  0
LINE
  5
17C
330
6A
100
AcDbEntity
  8
0
  6
Continuous
 62
     7
100
AcDbLine
 10
-128.6000007390876
 20
-47.06263150830494
 30
0.0
 11
-105.6000007390876
 21
-47.06263150830494
 31
0.0
  0
LINE
  5
17D
330
6A
100
AcDbEntity
  8
0
  6
Continuous
 62
     7
100
AcDbLine
 10
-105.6000007390876
 20
-64.80999970837595
 30
0.0
 11
-128.6000007390876
 21
-64.80999970837595
 31
0.0
  0
ENDBLK
  5
6C
330
6A
100
AcDbEntity
  8
0
100
AcDbBlockEnd
  0
BLOCK
  5
6F
330
6D
100
AcDbEntity
  8
0
100
AcDbBlockBegin
  2
Vordans1
 70
     0
 10
-117.1000007390926
 20
-54.50000000000003
 30
0.0
  3
Vordans1
  1

  0
INSERT
  5
6E
330
6D
100
AcDbEntity
  8
0
100
AcDbBlockReference
  2
0808037_PATG_6_23-select__6
 10
-128.6000007390876
 20
-64.80999970837595
 30
0.0
  0
MTEXT
  5
17E
330
6D
100
AcDbEntity
  8
1
 62
     6
100
AcDbMText
 10
-117.1000007390926
 20
-67.30999994277954
 30
0.0
 40
2.5
 41
0.0
 71
     2
 72
     1
  1
 
  7
CONVERTER_11
 73
     1
 44
1.32052821128451
  0
DIMENSION
  5
189
330
6D
100
AcDbEntity
  8
1
100
AcDbDimension
  2
*D17
 10
-128.6000007390876
 20
-69.80999970837595
 30
0.0
 11
-117.1000007390876
 21
-68.18499970837595
 31
0.0
 70
    33
  1
<>
 71
     5
 42
-1.0
 53
0.00013888888889
  3
ME10_DIM_11
100
AcDbAlignedDimension
 13
-105.6000007390876
 23
-64.80999970837595
 33
0.0
 14
-128.6000007390876
 24
-64.80999970837595
 34
0.0
  0
DIMENSION
  5
194
330
6D
100
AcDbEntity
  8
1
100
AcDbDimension
  2
*D18
 10
-133.6000007390876
 20
-64.80999970837595
 30
0.0
 11
-135.3125007390876
 21
-54.49999970837596
 31
0.0
 70
    32
  1
<>
 71
     5
 42
-1.0
 53
90.0
  3
ME10_DIM_12
100
AcDbAlignedDimension
 13
-128.6000007390876
 23
-44.18999970837596
 33
0.0
 14
-128.6000007390876
 24
-64.80999970837595
 34
0.0
 50
90.0
100
AcDbRotatedDimension
  0
ENDBLK
  5
70
330
6D
100
AcDbEntity
  8
0
100
AcDbBlockEnd
  0
BLOCK
  5
72
330
71
100
AcDbEntity
  8
0
100
AcDbBlockBegin
  2
_punkt
 70
     0
 10
-62.69999913299442
 20
-258.520739859457
 30
0.0
  3
_punkt
  1

  0
LINE
  5
195
330
71
100
AcDbEntity
  8
1
  6
Continuous
 62
     2
100
AcDbLine
 10
-62.69999913299442
 20
-258.520739859457
 30
0.0
 11
-62.69999913299442
 21
-263.5207398594571
 31
0.0
  0
LINE
  5
196
330
71
100
AcDbEntity
  8
1
  6
Continuous
 62
     2
100
AcDbLine
 10
-62.69999913299442
 20
-258.520739859457
 30
0.0
 11
-57.69999913299543
 21
-258.520739859457
 31
0.0
  0
ENDBLK
  5
73
330
71
100
AcDbEntity
  8
0
100
AcDbBlockEnd
  0
BLOCK
  5
75
330
74
100
AcDbEntity
  8
0
100
AcDbBlockBegin
  2
_rahmen
 70
     0
 10
-62.69999913299442
 20
-263.5207398594571
 30
0.0
  3
_rahmen
  1

  0
LINE
  5
197
330
74
100
AcDbEntity
  8
1
  6
DOT_CENTER
 62
     2
100
AcDbLine
 10
-188.2581487731818
 20
-237.3957398594571
 30
0.0
 11
-182.7581487731818
 21
-237.3957398594571
 31
0.0
  0
LINE
  5
198
330
74
100
AcDbEntity
  8
1
  6
PHANTOM
 62
     2
100
AcDbLine
 10
-179.5081487731818
 20
-234.6457398594571
 30
0.0
 11
-179.5081487731818
 21
-240.1457398594571
 31
0.0
  0
LINE
  5
199
330
74
100
AcDbEntity
  8
1
  6
PHANTOM
 62
     2
100
AcDbLine
 10
-176.7581487731818
 20
-237.3957398594571
 30
0.0
 11
-182.2581487731818
 21
-237.3957398594571
 31
0.0
  0
LINE
  5
19A
330
74
100
AcDbEntity
  8
1
  6
Continuous
 62
     7
100
AcDbLine
 10
-127.9448036597444
 20
-250.0207398594571
 30
0.0
 11
-127.9448036597444
 21
-241.520739859457
 31
0.0
  0
LINE
  5
19B
330
74
100
AcDbEntity
  8
1
  6
Continuous
 62
     6
100
AcDbLine
 10
-155.8448036597445
 20
-241.520739859457
 30
0.0
 11
-62.69999913299273
 21
-241.520739859457
 31
0.0
  0
LINE
  5
19C
330
74
100
AcDbEntity
  8
1
  6
Continuous
 62
     7
100
AcDbLine
 10
-192.2448036597444
 20
-241.520739859457
 30
0.0
 11
-192.2448036597444
 21
-233.020739859457
 31
0.0
  0
LINE
  5
19D
330
74
100
AcDbEntity
  8
1
  6
Continuous
 62
     7
100
AcDbLine
 10
-155.8448036597445
 20
-241.520739859457
 30
0.0
 11
-155.8448036597445
 21
-233.020739859457
 31
0.0
  0
LINE
  5
19E
330
74
100
AcDbEntity
  8
1
  6
Continuous
 62
     7
100
AcDbLine
 10
-98.11840741467154
 20
-233.020739859457
 30
0.0
 11
-98.11840741467154
 21
-241.520739859457
 31
0.0
  0
LINE
  5
19F
330
74
100
AcDbEntity
  8
1
  6
Continuous
 62
     7
100
AcDbLine
 10
-71.61840741467194
 20
-233.020739859457
 30
0.0
 11
-71.61840741467194
 21
-241.520739859457
 31
0.0
  0
LINE
  5
1A0
330
74
100
AcDbEntity
  8
1
  6
Continuous
 62
     6
100
AcDbLine
 10
-261.2448036597444
 20
-258.520739859457
 30
0.0
 11
-306.1999991329944
 21
-258.520739859457
 31
0.0
  0
LINE
  5
1A1
330
74
100
AcDbEntity
  8
1
  6
Continuous
 62
     7
100
AcDbLine
 10
-62.69999913299313
 20
-250.020739859457
 30
0.0
 11
-155.8448036597445
 21
-250.020739859457
 31
0.0
  0
LINE
  5
1A2
102
{ACAD_REACTORS
330
2B4
330
2B5
102
}
330
74
100
AcDbEntity
  8
0
  6
Continuous
 62
     2
100
AcDbLine
 10
-178.537374717977
 20
-249.2204507437937
 30
0.0
 11
-178.537374717977
 21
-248.3479337369904
 31
0.0
  0
LINE
  5
1A3
102
{ACAD_REACTORS
330
2B4
330
2B5
102
}
330
74
100
AcDbEntity
  8
0
  6
Continuous
 62
     2
100
AcDbLine
 10
-178.537374717977
 20
-250.1802194512766
 30
0.0
 11
-178.537374717977
 21
-251.0527364580798
 31
0.0
  0
LINE
  5
1A4
102
{ACAD_REACTORS
330
2B6
330
2B7
102
}
330
74
100
AcDbEntity
  8
0
  6
Continuous
 62
     2
100
AcDbLine
 10
-163.2043305816865
 20
-248.9586956417532
 30
0.0
 11
-162.1006912821184
 21
-248.9586956417532
 31
0.0
  0
LINE
  5
1A5
102
{ACAD_REACTORS
330
2B6
330
2B7
102
}
330
74
100
AcDbEntity
  8
0
  6
Continuous
 62
     2
100
AcDbLine
 10
-162.4346732387251
 20
-250.1802194512771
 30
0.0
 11
-162.4346732387251
 21
-251.0527364580804
 31
0.0
  0
LINE
  5
1A6
102
{ACAD_REACTORS
330
2C0
330
2C1
102
}
330
74
100
AcDbEntity
  8
0
  6
Continuous
 62
     2
100
AcDbLine
 10
-164.295429854105
 20
-247.8680493832664
 30
0.0
 11
-162.8974768071647
 21
-246.2871903894914
 31
0.0
  0
LINE
  5
1A7
102
{ACAD_REACTORS
330
2C0
330
2C1
102
}
330
74
100
AcDbEntity
  8
0
  6
Continuous
 62
     2
100
AcDbLine
 10
-164.2000064379322
 20
-244.8142398594552
 30
0.0
 11
-162.8974768071647
 21
-246.2871903894914
 31
0.0
  0
LINE
  5
1A8
102
{ACAD_REACTORS
330
2C0
330
2C1
102
}
330
74
100
AcDbEntity
  8
0
  6
Continuous
 62
     2
100
AcDbLine
 10
-161.5949471763983
 20
-244.8142398594552
 30
0.0
 11
-160.1922229586511
 21
-244.8142398594552
 31
0.0
  0
LINE
  5
1A9
102
{ACAD_REACTORS
330
2C0
330
2C1
102
}
330
74
100
AcDbEntity
  8
0
  6
Continuous
 62
     2
100
AcDbLine
 10
-162.8927056363568
 20
-247.8680493832664
 30
0.0
 11
-162.1961146982911
 21
-247.0803175979727
 31
0.0
  0
LINE
  5
1AA
102
{ACAD_REACTORS
330
2C0
330
2C1
102
}
330
74
100
AcDbEntity
  8
0
  6
Continuous
 62
     2
100
AcDbLine
 10
-162.8927056363568
 20
-247.8680493832664
 30
0.0
 11
-164.295429854105
 21
-247.8680493832664
 31
0.0
  0
LINE
  5
1AB
102
{ACAD_REACTORS
330
2C2
330
2C3
102
}
330
74
100
AcDbEntity
  8
0
  6
Continuous
 62
     2
100
AcDbLine
 10
-164.4147091243219
 20
-247.8680493832664
 30
0.0
 11
-165.6552135345748
 21
-247.8680493832664
 31
0.0
  0
LINE
  5
1AC
102
{ACAD_REACTORS
330
2C4
330
2C5
102
}
330
74
100
AcDbEntity
  8
0
  6
Continuous
 62
     2
100
AcDbLine
 10
-166.5231931427299
 20
-250.0057160499162
 30
0.0
 11
-166.82335837992
 21
-249.2379010839295
 31
0.0
  0
LINE
  5
1AD
102
{ACAD_REACTORS
330
2C4
330
2C5
102
}
330
74
100
AcDbEntity
  8
0
  6
Continuous
 62
     2
100
AcDbLine
 10
-167.1235236171124
 20
-250.0057160499162
 30
0.0
 11
-166.5231931427299
 21
-250.0057160499162
 31
0.0
  0
LINE
  5
1AE
102
{ACAD_REACTORS
330
2C4
330
2C5
102
}
330
74
100
AcDbEntity
  8
0
  6
Continuous
 62
     2
100
AcDbLine
 10
-168.8415636319862
 20
-251.2272398594407
 30
0.0
 11
-167.6010592217332
 21
-251.2272398594407
 31
0.0
  0
LINE
  5
1AF
102
{ACAD_REACTORS
330
2C4
330
2C5
102
}
330
74
100
AcDbEntity
  8
0
  6
Continuous
 62
     2
100
AcDbLine
 10
-167.4436105850469
 20
-248.1734303356296
 30
0.0
 11
-166.2031061747942
 21
-248.1734303356296
 31
0.0
  0
LINE
  5
1B0
102
{ACAD_REACTORS
330
2C4
330
2C5
102
}
330
74
100
AcDbEntity
  8
0
  6
Continuous
 62
     2
100
AcDbLine
 10
-166.2031061747942
 20
-248.1734303356296
 30
0.0
 11
-164.8051531278539
 21
-251.2272398594407
 31
0.0
  0
LINE
  5
1B1
102
{ACAD_REACTORS
330
2C4
330
2C5
102
}
330
74
100
AcDbEntity
  8
0
  6
Continuous
 62
     2
100
AcDbLine
 10
-166.0456575381078
 20
-251.2272398594407
 30
0.0
 11
-166.2571375915836
 21
-250.6862793152228
 31
0.0
  0
LINE
  5
1B2
102
{ACAD_REACTORS
330
2C6
330
2C7
102
}
330
74
100
AcDbEntity
  8
0
  6
Continuous
 62
     2
100
AcDbLine
 10
-170.1879767336938
 20
-251.2272398594407
 30
0.0
 11
-168.9951840315273
 21
-251.2272398594407
 31
0.0
  0
LINE
  5
1B3
102
{ACAD_REACTORS
330
2C6
330
2C7
102
}
330
74
100
AcDbEntity
  8
0
  6
Continuous
 62
     2
100
AcDbLine
 10
-170.1879767336938
 20
-248.9586956417532
 30
0.0
 11
-170.1879767336938
 21
-251.2272398594407
 31
0.0
  0
LINE
  5
1B4
102
{ACAD_REACTORS
330
2C6
330
2C7
102
}
330
74
100
AcDbEntity
  8
0
  6
Continuous
 62
     2
100
AcDbLine
 10
-170.9990757711684
 20
-248.1734303356296
 30
0.0
 11
-170.9990757711684
 21
-248.9586956417532
 31
0.0
  0
LINE
  5
1B5
102
{ACAD_REACTORS
330
2C8
330
2C9
102
}
330
74
100
AcDbEntity
  8
0
  6
Continuous
 62
     2
100
AcDbLine
 10
-169.5198618895958
 20
-247.8680493832664
 30
0.0
 11
-168.3270691874293
 21
-247.8680493832664
 31
0.0
  0
LINE
  5
1B6
102
{ACAD_REACTORS
330
2C8
330
2C9
102
}
330
74
100
AcDbEntity
  8
0
  6
Continuous
 62
     2
100
AcDbLine
 10
-167.0865647771753
 20
-246.1230153696604
 30
0.0
 11
-168.3270691874293
 21
-244.8142398594552
 31
0.0
  0
LINE
  5
1B7
102
{ACAD_REACTORS
330
2C8
330
2C9
102
}
330
74
100
AcDbEntity
  8
0
  6
Continuous
 62
     2
100
AcDbLine
 10
-165.8937720750087
 20
-244.8142398594552
 30
0.0
 11
-167.0865647771753
 21
-244.8142398594552
 31
0.0
  0
LINE
  5
1B8
102
{ACAD_REACTORS
330
2C8
330
2C9
102
}
330
74
100
AcDbEntity
  8
0
  6
Continuous
 62
     2
100
AcDbLine
 10
-165.8937720750087
 20
-247.8680493832664
 30
0.0
 11
-165.8937720750087
 21
-244.8142398594552
 31
0.0
  0
LINE
  5
1B9
102
{ACAD_REACTORS
330
2C8
330
2C9
102
}
330
74
100
AcDbEntity
  8
0
  6
Continuous
 62
     2
100
AcDbLine
 10
-167.0865647771753
 20
-247.8680493832664
 30
0.0
 11
-165.8937720750087
 21
-247.8680493832664
 31
0.0
  0
LINE
  5
1BA
102
{ACAD_REACTORS
330
2C8
330
2C9
102
}
330
74
100
AcDbEntity
  8
0
  6
Continuous
 62
     2
100
AcDbLine
 10
-168.3270691874293
 20
-246.5592738730617
 30
0.0
 11
-167.0865647771753
 21
-247.8680493832664
 31
0.0
  0
LINE
  5
1BB
102
{ACAD_REACTORS
330
2CA
330
2CB
102
}
330
74
100
AcDbEntity
  8
0
  6
Continuous
 62
     2
100
AcDbLine
 10
-172.335003597595
 20
-249.4822058458347
 30
0.0
 11
-173.5755080078479
 21
-248.1734303356296
 31
0.0
  0
LINE
  5
1BC
102
{ACAD_REACTORS
330
2CA
330
2CB
102
}
330
74
100
AcDbEntity
  8
0
  6
Continuous
 62
     2
100
AcDbLine
 10
-172.335003597595
 20
-248.1734303356296
 30
0.0
 11
-172.335003597595
 21
-249.4822058458347
 31
0.0
  0
LINE
  5
1BD
102
{ACAD_REACTORS
330
2CA
330
2CB
102
}
330
74
100
AcDbEntity
  8
0
  6
Continuous
 62
     2
100
AcDbLine
 10
-171.1422108954286
 20
-248.1734303356296
 30
0.0
 11
-172.335003597595
 21
-248.1734303356296
 31
0.0
  0
LINE
  5
1BE
102
{ACAD_REACTORS
330
2CA
330
2CB
102
}
330
74
100
AcDbEntity
  8
0
  6
Continuous
 62
     2
100
AcDbLine
 10
-171.1422108954286
 20
-251.2272398594407
 30
0.0
 11
-171.1422108954286
 21
-248.1734303356296
 31
0.0
  0
LINE
  5
1BF
102
{ACAD_REACTORS
330
2CA
330
2CB
102
}
330
74
100
AcDbEntity
  8
0
  6
Continuous
 62
     2
100
AcDbLine
 10
-173.5755080078479
 20
-249.9184643492361
 30
0.0
 11
-172.335003597595
 21
-251.2272398594407
 31
0.0
  0
LINE
  5
1C0
102
{ACAD_REACTORS
330
2CA
330
2CB
102
}
330
74
100
AcDbEntity
  8
0
  6
Continuous
 62
     2
100
AcDbLine
 10
-173.5755080078479
 20
-251.2272398594407
 30
0.0
 11
-173.5755080078479
 21
-249.9184643492361
 31
0.0
  0
LINE
  5
1C1
102
{ACAD_REACTORS
330
2BA
330
2BB
102
}
330
74
100
AcDbEntity
  8
0
  6
Continuous
 62
     2
100
AcDbLine
 10
-171.0943482564564
 20
-245.5122534648982
 30
0.0
 11
-169.7584204300287
 21
-245.5122534648982
 31
0.0
  0
LINE
  5
1C2
102
{ACAD_REACTORS
330
2BA
330
2BB
102
}
330
74
100
AcDbEntity
  8
0
  6
Continuous
 62
     2
100
AcDbLine
 10
-171.0943482564564
 20
-247.1700357778239
 30
0.0
 11
-171.0943482564564
 21
-246.6901514240822
 31
0.0
  0
LINE
  5
1C3
102
{ACAD_REACTORS
330
2BA
330
2BB
102
}
330
74
100
AcDbEntity
  8
0
  6
Continuous
 62
     2
100
AcDbLine
 10
-169.7584204300287
 20
-247.1700357778239
 30
0.0
 11
-171.0943482564564
 21
-247.1700357778239
 31
0.0
  0
LINE
  5
1C4
102
{ACAD_REACTORS
330
2BA
330
2BB
102
}
330
74
100
AcDbEntity
  8
0
  6
Continuous
 62
     2
100
AcDbLine
 10
-169.7584204300287
 20
-247.8680493832664
 30
0.0
 11
-169.7584204300287
 21
-247.1700357778239
 31
0.0
  0
LINE
  5
1C5
102
{ACAD_REACTORS
330
2BA
330
2BB
102
}
330
74
100
AcDbEntity
  8
0
  6
Continuous
 62
     2
100
AcDbLine
 10
-172.9087401538097
 20
-247.8680493832664
 30
0.0
 11
-169.7584204300287
 21
-247.8680493832664
 31
0.0
  0
LINE
  5
1C6
102
{ACAD_REACTORS
330
2BA
330
2BB
102
}
330
74
100
AcDbEntity
  8
0
  6
Continuous
 62
     2
100
AcDbLine
 10
-172.9087401538097
 20
-244.8142398594552
 30
0.0
 11
-169.7584204300287
 21
-244.8142398594552
 31
0.0
  0
LINE
  5
1C7
102
{ACAD_REACTORS
330
2BA
330
2BB
102
}
330
74
100
AcDbEntity
  8
0
  6
Continuous
 62
     2
100
AcDbLine
 10
-169.7584204300287
 20
-245.5122534648982
 30
0.0
 11
-169.7584204300287
 21
-244.8142398594552
 31
0.0
  0
LINE
  5
1C8
102
{ACAD_REACTORS
330
2CC
330
2CD
102
}
330
74
100
AcDbEntity
  8
0
  6
Continuous
 62
     2
100
AcDbLine
 10
-175.7700956489497
 20
-245.8830731927898
 30
0.0
 11
-175.7700956489497
 21
-244.8142398594552
 31
0.0
  0
LINE
  5
1C9
102
{ACAD_REACTORS
330
2CC
330
2CD
102
}
330
74
100
AcDbEntity
  8
0
  6
Continuous
 62
     2
100
AcDbLine
 10
-175.7700956489497
 20
-244.8142398594552
 30
0.0
 11
-174.5773029467833
 21
-244.8142398594552
 31
0.0
  0
LINE
  5
1CA
102
{ACAD_REACTORS
330
2CC
330
2CD
102
}
330
74
100
AcDbEntity
  8
0
  6
Continuous
 62
     2
100
AcDbLine
 10
-175.7700956489497
 20
-246.7337772744226
 30
0.0
 11
-176.8197532268572
 21
-246.7337772744226
 31
0.0
  0
LINE
  5
1CB
102
{ACAD_REACTORS
330
2CC
330
2CD
102
}
330
74
100
AcDbEntity
  8
0
  6
Continuous
 62
     2
100
AcDbLine
 10
-176.8197532268572
 20
-246.7337772744226
 30
0.0
 11
-176.8197532268572
 21
-247.8680493832664
 31
0.0
  0
LINE
  5
1CC
102
{ACAD_REACTORS
330
2CC
330
2CD
102
}
330
74
100
AcDbEntity
  8
0
  6
Continuous
 62
     2
100
AcDbLine
 10
-178.0125459290238
 20
-244.8142398594552
 30
0.0
 11
-178.0125459290238
 21
-247.8680493832664
 31
0.0
  0
LINE
  5
1CD
102
{ACAD_REACTORS
330
2BE
330
2BF
102
}
330
74
100
AcDbEntity
  8
0
  6
Continuous
 62
     2
100
AcDbLine
 10
-179.9687259605774
 20
-246.1830733542375
 30
0.0
 11
-179.9687259605774
 21
-245.4773457048953
 31
0.0
  0
LINE
  5
1CE
102
{ACAD_REACTORS
330
2BE
330
2BF
102
}
330
74
100
AcDbEntity
  8
0
  6
Continuous
 62
     2
100
AcDbLine
 10
-181.2092303708315
 20
-247.8680493832664
 30
0.0
 11
-179.9687259605774
 21
-247.8680493832664
 31
0.0
  0
LINE
  5
1CF
102
{ACAD_REACTORS
330
2BE
330
2BF
102
}
330
74
100
AcDbEntity
  8
0
  6
Continuous
 62
     2
100
AcDbLine
 10
-179.9687259605774
 20
-247.8680493832664
 30
0.0
 11
-179.9687259605774
 21
-246.9249711421226
 31
0.0
  0
LINE
  5
1D0
102
{ACAD_REACTORS
330
2B8
330
2B9
102
}
330
74
100
AcDbEntity
  8
0
  6
Continuous
 62
     2
100
AcDbLine
 10
-185.5141762200429
 20
-250.5146843038838
 30
0.0
 11
-186.9900094810525
 21
-250.5146843038838
 31
0.0
  0
LINE
  5
1D1
102
{ACAD_REACTORS
330
2B8
330
2B9
102
}
330
74
100
AcDbEntity
  8
0
  6
Continuous
 62
     2
100
AcDbLine
 10
-188.0081487731818
 20
-245.2384844748572
 30
0.0
 11
-188.0081487731818
 21
-250.8029952440574
 31
0.0
  0
LINE
  5
1D2
102
{ACAD_REACTORS
330
2B8
330
2B9
102
}
330
74
100
AcDbEntity
  8
0
  6
Continuous
 62
     2
100
AcDbLine
 10
-187.583904157799
 20
-244.8142398594734
 30
0.0
 11
-182.1105920670822
 21
-244.8142398594734
 31
0.0
  0
LINE
  5
1D3
102
{ACAD_REACTORS
330
2B8
330
2B9
102
}
330
74
100
AcDbEntity
  8
0
  6
Continuous
 62
     2
100
AcDbLine
 10
-181.6863474516983
 20
-245.2384844748572
 30
0.0
 11
-181.6863474516983
 21
-250.8029952440574
 31
0.0
  0
LINE
  5
1D4
102
{ACAD_REACTORS
330
2B8
330
2B9
102
}
330
74
100
AcDbEntity
  8
0
  6
Continuous
 62
     2
100
AcDbLine
 10
-182.1105920670822
 20
-251.2272398594407
 30
0.0
 11
-187.583904157799
 21
-251.2272398594407
 31
0.0
  0
LINE
  5
1D5
102
{ACAD_REACTORS
330
2B8
330
2B9
102
}
330
74
100
AcDbEntity
  8
0
  6
Continuous
 62
     2
100
AcDbLine
 10
-185.1984592969663
 20
-250.1989673808071
 30
0.0
 11
-185.1984592969663
 21
-248.6681964492755
 31
0.0
  0
LINE
  5
1D6
102
{ACAD_REACTORS
330
2B8
330
2B9
102
}
330
74
100
AcDbEntity
  8
0
  6
Continuous
 62
     2
100
AcDbLine
 10
-185.1984592969663
 20
-246.4465369571505
 30
0.0
 11
-185.1984592969663
 21
-245.84251233809
 31
0.0
  0
LINE
  5
1D7
102
{ACAD_REACTORS
330
2B8
330
2B9
102
}
330
74
100
AcDbEntity
  8
0
  6
Continuous
 62
     2
100
AcDbLine
 10
-186.9900094810525
 20
-245.5267954150138
 30
0.0
 11
-185.5141762200429
 21
-245.5267954150138
 31
0.0
  0
LINE
  5
1D8
102
{ACAD_REACTORS
330
2B8
330
2B9
102
}
330
74
100
AcDbEntity
  8
0
  6
Continuous
 62
     2
100
AcDbLine
 10
-187.3057264041282
 20
-245.84251233809
 30
0.0
 11
-187.3057264041282
 21
-250.1989673808071
 31
0.0
  0
LINE
  5
1D9
102
{ACAD_REACTORS
330
2BE
330
2BF
102
}
330
74
100
AcDbEntity
  8
0
  6
Continuous
 62
     2
100
AcDbLine
 10
-179.9687259605774
 20
-246.9249711421226
 30
0.0
 11
-179.2099583727971
 21
-246.9249711421226
 31
0.0
  0
LINE
  5
1DA
102
{ACAD_REACTORS
330
2BE
330
2BF
102
}
330
74
100
AcDbEntity
  8
0
  6
Continuous
 62
     2
100
AcDbLine
 10
-181.2092303708315
 20
-244.8142398594552
 30
0.0
 11
-179.2099583727971
 21
-244.8142398594552
 31
0.0
  0
LINE
  5
1DB
102
{ACAD_REACTORS
330
2BE
330
2BF
102
}
330
74
100
AcDbEntity
  8
0
  6
Continuous
 62
     2
100
AcDbLine
 10
-181.2092303708315
 20
-244.8142398594552
 30
0.0
 11
-181.2092303708315
 21
-247.8680493832664
 31
0.0
  0
LINE
  5
1DC
102
{ACAD_REACTORS
330
2BE
330
2BF
102
}
330
74
100
AcDbEntity
  8
0
  6
Continuous
 62
     2
100
AcDbLine
 10
-179.9687259605774
 20
-246.1830733542375
 30
0.0
 11
-179.6514308990355
 21
-246.1830733542375
 31
0.0
  0
LINE
  5
1DD
102
{ACAD_REACTORS
330
2BE
330
2BF
102
}
330
74
100
AcDbEntity
  8
0
  6
Continuous
 62
     2
100
AcDbLine
 10
-179.9687259605774
 20
-245.4773457048953
 30
0.0
 11
-179.6514308990355
 21
-245.4773457048953
 31
0.0
  0
LINE
  5
1DE
102
{ACAD_REACTORS
330
2CC
330
2CD
102
}
330
74
100
AcDbEntity
  8
0
  6
Continuous
 62
     2
100
AcDbLine
 10
-176.8197532268572
 20
-245.8830731927898
 30
0.0
 11
-175.7700956489497
 21
-245.8830731927898
 31
0.0
  0
LINE
  5
1DF
102
{ACAD_REACTORS
330
2CC
330
2CD
102
}
330
74
100
AcDbEntity
  8
0
  6
Continuous
 62
     2
100
AcDbLine
 10
-176.8197532268572
 20
-244.8142398594552
 30
0.0
 11
-176.8197532268572
 21
-245.8830731927898
 31
0.0
  0
LINE
  5
1E0
102
{ACAD_REACTORS
330
2CC
330
2CD
102
}
330
74
100
AcDbEntity
  8
0
  6
Continuous
 62
     2
100
AcDbLine
 10
-178.0125459290238
 20
-244.8142398594552
 30
0.0
 11
-176.8197532268572
 21
-244.8142398594552
 31
0.0
  0
LINE
  5
1E1
102
{ACAD_REACTORS
330
2CC
330
2CD
102
}
330
74
100
AcDbEntity
  8
0
  6
Continuous
 62
     2
100
AcDbLine
 10
-176.8197532268572
 20
-247.8680493832664
 30
0.0
 11
-178.0125459290238
 21
-247.8680493832664
 31
0.0
  0
LINE
  5
1E2
102
{ACAD_REACTORS
330
2CC
330
2CD
102
}
330
74
100
AcDbEntity
  8
0
  6
Continuous
 62
     2
100
AcDbLine
 10
-175.7700956489497
 20
-247.8680493832664
 30
0.0
 11
-175.7700956489497
 21
-246.7337772744226
 31
0.0
  0
LINE
  5
1E3
102
{ACAD_REACTORS
330
2CC
330
2CD
102
}
330
74
100
AcDbEntity
  8
0
  6
Continuous
 62
     2
100
AcDbLine
 10
-174.5773029467833
 20
-247.8680493832664
 30
0.0
 11
-175.7700956489497
 21
-247.8680493832664
 31
0.0
  0
LINE
  5
1E4
102
{ACAD_REACTORS
330
2CC
330
2CD
102
}
330
74
100
AcDbEntity
  8
0
  6
Continuous
 62
     2
100
AcDbLine
 10
-174.5773029467833
 20
-244.8142398594552
 30
0.0
 11
-174.5773029467833
 21
-247.8680493832664
 31
0.0
  0
LINE
  5
1E5
102
{ACAD_REACTORS
330
2BA
330
2BB
102
}
330
74
100
AcDbEntity
  8
0
  6
Continuous
 62
     2
100
AcDbLine
 10
-171.0943482564564
 20
-246.6901514240822
 30
0.0
 11
-169.7584204300287
 21
-246.6901514240822
 31
0.0
  0
LINE
  5
1E6
102
{ACAD_REACTORS
330
2BA
330
2BB
102
}
330
74
100
AcDbEntity
  8
0
  6
Continuous
 62
     2
100
AcDbLine
 10
-169.7584204300287
 20
-246.6901514240822
 30
0.0
 11
-169.7584204300287
 21
-245.9921378186399
 31
0.0
  0
LINE
  5
1E7
102
{ACAD_REACTORS
330
2BA
330
2BB
102
}
330
74
100
AcDbEntity
  8
0
  6
Continuous
 62
     2
100
AcDbLine
 10
-169.7584204300287
 20
-245.9921378186399
 30
0.0
 11
-171.0943482564564
 21
-245.9921378186399
 31
0.0
  0
LINE
  5
1E8
102
{ACAD_REACTORS
330
2BA
330
2BB
102
}
330
74
100
AcDbEntity
  8
0
  6
Continuous
 62
     2
100
AcDbLine
 10
-171.0943482564564
 20
-245.9921378186399
 30
0.0
 11
-171.0943482564564
 21
-245.5122534648982
 31
0.0
  0
LINE
  5
1E9
102
{ACAD_REACTORS
330
2CA
330
2CB
102
}
330
74
100
AcDbEntity
  8
0
  6
Continuous
 62
     2
100
AcDbLine
 10
-174.7683007100155
 20
-251.2272398594407
 30
0.0
 11
-173.5755080078479
 21
-251.2272398594407
 31
0.0
  0
LINE
  5
1EA
102
{ACAD_REACTORS
330
2CA
330
2CB
102
}
330
74
100
AcDbEntity
  8
0
  6
Continuous
 62
     2
100
AcDbLine
 10
-172.335003597595
 20
-251.2272398594407
 30
0.0
 11
-171.1422108954286
 21
-251.2272398594407
 31
0.0
  0
LINE
  5
1EB
102
{ACAD_REACTORS
330
2CA
330
2CB
102
}
330
74
100
AcDbEntity
  8
0
  6
Continuous
 62
     2
100
AcDbLine
 10
-173.5755080078479
 20
-248.1734303356296
 30
0.0
 11
-174.7683007100155
 21
-248.1734303356296
 31
0.0
  0
LINE
  5
1EC
102
{ACAD_REACTORS
330
2CA
330
2CB
102
}
330
74
100
AcDbEntity
  8
0
  6
Continuous
 62
     2
100
AcDbLine
 10
-174.7683007100155
 20
-248.1734303356296
 30
0.0
 11
-174.7683007100155
 21
-251.2272398594407
 31
0.0
  0
LINE
  5
1ED
102
{ACAD_REACTORS
330
2C8
330
2C9
102
}
330
74
100
AcDbEntity
  8
0
  6
Continuous
 62
     2
100
AcDbLine
 10
-167.0865647771753
 20
-244.8142398594552
 30
0.0
 11
-167.0865647771753
 21
-246.1230153696604
 31
0.0
  0
LINE
  5
1EE
102
{ACAD_REACTORS
330
2C8
330
2C9
102
}
330
74
100
AcDbEntity
  8
0
  6
Continuous
 62
     2
100
AcDbLine
 10
-168.3270691874293
 20
-244.8142398594552
 30
0.0
 11
-169.5198618895958
 21
-244.8142398594552
 31
0.0
  0
LINE
  5
1EF
102
{ACAD_REACTORS
330
2C8
330
2C9
102
}
330
74
100
AcDbEntity
  8
0
  6
Continuous
 62
     2
100
AcDbLine
 10
-169.5198618895958
 20
-244.8142398594552
 30
0.0
 11
-169.5198618895958
 21
-247.8680493832664
 31
0.0
  0
LINE
  5
1F0
102
{ACAD_REACTORS
330
2C8
330
2C9
102
}
330
74
100
AcDbEntity
  8
0
  6
Continuous
 62
     2
100
AcDbLine
 10
-168.3270691874293
 20
-247.8680493832664
 30
0.0
 11
-168.3270691874293
 21
-246.5592738730617
 31
0.0
  0
LINE
  5
1F1
102
{ACAD_REACTORS
330
2C6
330
2C7
102
}
330
74
100
AcDbEntity
  8
0
  6
Continuous
 62
     2
100
AcDbLine
 10
-168.9951840315273
 20
-251.2272398594407
 30
0.0
 11
-168.9951840315273
 21
-248.9586956417532
 31
0.0
  0
LINE
  5
1F2
102
{ACAD_REACTORS
330
2C6
330
2C7
102
}
330
74
100
AcDbEntity
  8
0
  6
Continuous
 62
     2
100
AcDbLine
 10
-168.9951840315273
 20
-248.9586956417532
 30
0.0
 11
-168.1840849940548
 21
-248.9586956417532
 31
0.0
  0
LINE
  5
1F3
102
{ACAD_REACTORS
330
2C6
330
2C7
102
}
330
74
100
AcDbEntity
  8
0
  6
Continuous
 62
     2
100
AcDbLine
 10
-168.1840849940548
 20
-248.9586956417532
 30
0.0
 11
-168.1840849940548
 21
-248.1734303356296
 31
0.0
  0
LINE
  5
1F4
102
{ACAD_REACTORS
330
2C6
330
2C7
102
}
330
74
100
AcDbEntity
  8
0
  6
Continuous
 62
     2
100
AcDbLine
 10
-168.1840849940548
 20
-248.1734303356296
 30
0.0
 11
-170.9990757711684
 21
-248.1734303356296
 31
0.0
  0
LINE
  5
1F5
102
{ACAD_REACTORS
330
2C6
330
2C7
102
}
330
74
100
AcDbEntity
  8
0
  6
Continuous
 62
     2
100
AcDbLine
 10
-170.9990757711684
 20
-248.9586956417532
 30
0.0
 11
-170.1879767336938
 21
-248.9586956417532
 31
0.0
  0
LINE
  5
1F6
102
{ACAD_REACTORS
330
2C4
330
2C5
102
}
330
74
100
AcDbEntity
  8
0
  6
Continuous
 62
     2
100
AcDbLine
 10
-167.3895791682574
 20
-250.6862793152228
 30
0.0
 11
-166.2571375915836
 21
-250.6862793152228
 31
0.0
  0
LINE
  5
1F7
102
{ACAD_REACTORS
330
2C4
330
2C5
102
}
330
74
100
AcDbEntity
  8
0
  6
Continuous
 62
     2
100
AcDbLine
 10
-164.8051531278539
 20
-251.2272398594407
 30
0.0
 11
-166.0456575381078
 21
-251.2272398594407
 31
0.0
  0
LINE
  5
1F8
102
{ACAD_REACTORS
330
2C4
330
2C5
102
}
330
74
100
AcDbEntity
  8
0
  6
Continuous
 62
     2
100
AcDbLine
 10
-167.4436105850469
 20
-248.1734303356296
 30
0.0
 11
-168.8415636319862
 21
-251.2272398594407
 31
0.0
  0
LINE
  5
1F9
102
{ACAD_REACTORS
330
2C4
330
2C5
102
}
330
74
100
AcDbEntity
  8
0
  6
Continuous
 62
     2
100
AcDbLine
 10
-167.6010592217332
 20
-251.2272398594407
 30
0.0
 11
-167.3895791682574
 21
-250.6862793152228
 31
0.0
  0
LINE
  5
1FA
102
{ACAD_REACTORS
330
2C4
330
2C5
102
}
330
74
100
AcDbEntity
  8
0
  6
Continuous
 62
     2
100
AcDbLine
 10
-167.1235236171124
 20
-250.0057160499162
 30
0.0
 11
-166.82335837992
 21
-249.2379010839295
 31
0.0
  0
LINE
  5
1FB
102
{ACAD_REACTORS
330
2C2
330
2C3
102
}
330
74
100
AcDbEntity
  8
0
  6
Continuous
 62
     2
100
AcDbLine
 10
-165.6552135345748
 20
-247.8680493832664
 30
0.0
 11
-165.6552135345748
 21
-244.8142398594552
 31
0.0
  0
LINE
  5
1FC
102
{ACAD_REACTORS
330
2C2
330
2C3
102
}
330
74
100
AcDbEntity
  8
0
  6
Continuous
 62
     2
100
AcDbLine
 10
-164.4147091243219
 20
-244.8142398594552
 30
0.0
 11
-164.4147091243219
 21
-247.8680493832664
 31
0.0
  0
LINE
  5
1FD
102
{ACAD_REACTORS
330
2C2
330
2C3
102
}
330
74
100
AcDbEntity
  8
0
  6
Continuous
 62
     2
100
AcDbLine
 10
-165.6552135345748
 20
-244.8142398594552
 30
0.0
 11
-164.4147091243219
 21
-244.8142398594552
 31
0.0
  0
LINE
  5
1FE
102
{ACAD_REACTORS
330
2C0
330
2C1
102
}
330
74
100
AcDbEntity
  8
0
  6
Continuous
 62
     2
100
AcDbLine
 10
-162.1961146982911
 20
-247.0803175979727
 30
0.0
 11
-161.4995237602256
 21
-247.8680493832664
 31
0.0
  0
LINE
  5
1FF
102
{ACAD_REACTORS
330
2C0
330
2C1
102
}
330
74
100
AcDbEntity
  8
0
  6
Continuous
 62
     2
100
AcDbLine
 10
-161.4995237602256
 20
-247.8680493832664
 30
0.0
 11
-160.0967995424773
 21
-247.8680493832664
 31
0.0
  0
LINE
  5
200
102
{ACAD_REACTORS
330
2C0
330
2C1
102
}
330
74
100
AcDbEntity
  8
0
  6
Continuous
 62
     2
100
AcDbLine
 10
-161.4947525894176
 20
-246.2871903894914
 30
0.0
 11
-160.0967995424773
 21
-247.8680493832664
 31
0.0
  0
LINE
  5
201
102
{ACAD_REACTORS
330
2C0
330
2C1
102
}
330
74
100
AcDbEntity
  8
0
  6
Continuous
 62
     2
100
AcDbLine
 10
-161.4947525894176
 20
-246.2871903894914
 30
0.0
 11
-160.1922229586511
 21
-244.8142398594552
 31
0.0
  0
LINE
  5
202
102
{ACAD_REACTORS
330
2C0
330
2C1
102
}
330
74
100
AcDbEntity
  8
0
  6
Continuous
 62
     2
100
AcDbLine
 10
-162.1961146982911
 20
-245.4940631810107
 30
0.0
 11
-161.5949471763983
 21
-244.8142398594552
 31
0.0
  0
LINE
  5
203
102
{ACAD_REACTORS
330
2C0
330
2C1
102
}
330
74
100
AcDbEntity
  8
0
  6
Continuous
 62
     2
100
AcDbLine
 10
-162.7972822201829
 20
-244.8142398594552
 30
0.0
 11
-162.1961146982911
 21
-245.4940631810107
 31
0.0
  0
LINE
  5
204
102
{ACAD_REACTORS
330
2C0
330
2C1
102
}
330
74
100
AcDbEntity
  8
0
  6
Continuous
 62
     2
100
AcDbLine
 10
-162.7972822201829
 20
-244.8142398594552
 30
0.0
 11
-164.2000064379322
 21
-244.8142398594552
 31
0.0
  0
LINE
  5
205
102
{ACAD_REACTORS
330
2B6
330
2B7
102
}
330
74
100
AcDbEntity
  8
0
  6
Continuous
 62
     2
100
AcDbLine
 10
-162.1006912821184
 20
-251.2272398594407
 30
0.0
 11
-160.9078985799507
 21
-251.2272398594407
 31
0.0
  0
LINE
  5
206
102
{ACAD_REACTORS
330
2B6
330
2B7
102
}
330
74
100
AcDbEntity
  8
0
  6
Continuous
 62
     2
100
AcDbLine
 10
-160.9078985799507
 20
-251.2272398594407
 30
0.0
 11
-160.9078985799507
 21
-248.9586956417532
 31
0.0
  0
LINE
  5
207
102
{ACAD_REACTORS
330
2B6
330
2B7
102
}
330
74
100
AcDbEntity
  8
0
  6
Continuous
 62
     2
100
AcDbLine
 10
-160.9078985799507
 20
-248.9586956417532
 30
0.0
 11
-160.0967995424773
 21
-248.9586956417532
 31
0.0
  0
LINE
  5
208
102
{ACAD_REACTORS
330
2B6
330
2B7
102
}
330
74
100
AcDbEntity
  8
0
  6
Continuous
 62
     2
100
AcDbLine
 10
-160.0967995424773
 20
-248.9586956417532
 30
0.0
 11
-160.0967995424773
 21
-248.1734303356296
 31
0.0
  0
LINE
  5
209
102
{ACAD_REACTORS
330
2B6
330
2B7
102
}
330
74
100
AcDbEntity
  8
0
  6
Continuous
 62
     2
100
AcDbLine
 10
-163.481745061106
 20
-248.1734303356301
 30
0.0
 11
-160.0967995424773
 21
-248.1734303356296
 31
0.0
  0
LINE
  5
20A
102
{ACAD_REACTORS
330
2B6
330
2B7
102
}
330
74
100
AcDbEntity
  8
0
  6
Continuous
 62
     2
100
AcDbLine
 10
-162.1006912821184
 20
-248.9586956417532
 30
0.0
 11
-162.1006912821184
 21
-251.2272398594407
 31
0.0
  0
LINE
  5
20B
102
{ACAD_REACTORS
330
2B8
330
2B9
102
}
330
74
100
AcDbEntity
  8
0
  6
Continuous
 62
     2
100
AcDbLine
 10
-184.7301777175976
 20
-249.2483597098762
 30
0.0
 11
-184.7301777175976
 21
-248.6665083031811
 31
0.0
  0
LINE
  5
20C
102
{ACAD_REACTORS
330
2B8
330
2B9
102
}
330
74
100
AcDbEntity
  8
0
  6
Continuous
 62
     2
100
AcDbLine
 10
-184.7301777175976
 20
-246.4482251032449
 30
0.0
 11
-184.7301777175976
 21
-245.8426898147381
 31
0.0
  0
LINE
  5
20D
330
74
100
AcDbEntity
  8
1
  6
Continuous
 62
     6
100
AcDbLine
 10
-206.1999991329944
 20
-258.520739859457
 30
0.0
 11
-192.2448036597444
 21
-258.5207398594571
 31
0.0
  0
LINE
  5
20E
330
74
100
AcDbEntity
  8
1
  6
Continuous
 62
     6
100
AcDbLine
 10
-256.1999991329947
 20
-258.520739859457
 30
0.0
 11
-261.2448036597444
 21
-258.520739859457
 31
0.0
  0
LINE
  5
20F
330
74
100
AcDbEntity
  8
1
  6
Continuous
 62
     6
100
AcDbLine
 10
-106.1999991329944
 20
-258.520739859457
 30
0.0
 11
-62.69999913299442
 21
-258.520739859457
 31
0.0
  0
LINE
  5
210
330
74
100
AcDbEntity
  8
1
  6
Continuous
 62
     6
100
AcDbLine
 10
-156.1999991329944
 20
-258.520739859457
 30
0.0
 11
-174.0448036597444
 21
-258.520739859457
 31
0.0
  0
LINE
  5
211
330
74
100
AcDbEntity
  8
1
  6
Continuous
 62
     2
100
AcDbLine
 10
-62.69999913299442
 20
-258.520739859457
 30
0.0
 11
-57.69999913299543
 21
-258.520739859457
 31
0.0
  0
LINE
  5
212
330
74
100
AcDbEntity
  8
1
  6
Continuous
 62
     2
100
AcDbLine
 10
-62.69999913299442
 20
-258.520739859457
 30
0.0
 11
-62.69999913299442
 21
-263.5207398594571
 31
0.0
  0
LINE
  5
213
330
74
100
AcDbEntity
  8
1
  6
Continuous
 62
     6
100
AcDbLine
 10
-192.2448036597444
 20
-241.520739859457
 30
0.0
 11
-155.8448036597445
 21
-241.520739859457
 31
0.0
  0
LINE
  5
214
330
74
100
AcDbEntity
  8
1
  6
Continuous
 62
     2
100
AcDbLine
 10
-57.69999913299543
 20
-263.5207398594571
 30
0.0
 11
-57.69999913299543
 21
-258.520739859457
 31
0.0
  0
LINE
  5
215
330
74
100
AcDbEntity
  8
1
  6
Continuous
 62
     2
100
AcDbLine
 10
-57.69999913299543
 20
-263.5207398594571
 30
0.0
 11
-62.69999913299442
 21
-263.5207398594571
 31
0.0
  0
LINE
  5
216
330
74
100
AcDbEntity
  8
1
  6
Continuous
 62
     2
100
AcDbLine
 10
-62.69999913299442
 20
-263.5207398594571
 30
0.0
 11
-106.1999991329944
 21
-263.5207398594571
 31
0.0
  0
LINE
  5
217
330
74
100
AcDbEntity
  8
1
  6
Continuous
 62
     6
100
AcDbLine
 10
-62.69999913299273
 20
-241.520739859457
 30
0.0
 11
-62.69999913299353
 21
-208.5207398594569
 31
0.0
  0
LINE
  5
218
330
74
100
AcDbEntity
  8
1
  6
Continuous
 62
     2
100
AcDbLine
 10
-57.69999913299543
 20
-53.520739859457
 30
0.0
 11
-206.1999991329944
 21
-53.520739859457
 31
0.0
  0
LINE
  5
219
330
74
100
AcDbEntity
  8
1
  6
Continuous
 62
     6
100
AcDbLine
 10
-62.69999913299543
 20
-73.520739859457
 30
0.0
 11
-349.6999991329935
 21
-73.520739859457
 31
0.0
  0
LINE
  5
21A
330
74
100
AcDbEntity
  8
1
  6
Continuous
 62
     2
100
AcDbLine
 10
-62.69999913299353
 20
-208.5207398594569
 30
0.0
 11
-57.69999913299543
 21
-208.5207398594569
 31
0.0
  0
LINE
  5
21B
330
74
100
AcDbEntity
  8
1
  6
Continuous
 62
     6
100
AcDbLine
 10
-62.69999913299353
 20
-208.5207398594569
 30
0.0
 11
-62.69999913299402
 21
-158.5207398594571
 31
0.0
  0
LINE
  5
21C
330
74
100
AcDbEntity
  8
1
  6
Continuous
 62
     2
100
AcDbLine
 10
-57.69999913299543
 20
-208.5207398594569
 30
0.0
 11
-57.69999913299543
 21
-158.5207398594571
 31
0.0
  0
LINE
  5
21D
330
74
100
AcDbEntity
  8
1
  6
Continuous
 62
     2
100
AcDbLine
 10
-62.69999913299402
 20
-158.5207398594571
 30
0.0
 11
-57.69999913299543
 21
-158.5207398594571
 31
0.0
  0
LINE
  5
21E
330
74
100
AcDbEntity
  8
1
  6
Continuous
 62
     6
100
AcDbLine
 10
-62.69999913299402
 20
-158.5207398594571
 30
0.0
 11
-62.69999913299523
 21
-108.520739859457
 31
0.0
  0
LINE
  5
21F
330
74
100
AcDbEntity
  8
1
  6
Continuous
 62
     2
100
AcDbLine
 10
-57.69999913299543
 20
-158.5207398594571
 30
0.0
 11
-57.69999913299543
 21
-108.520739859457
 31
0.0
  0
LINE
  5
220
330
74
100
AcDbEntity
  8
1
  6
Continuous
 62
     2
100
AcDbLine
 10
-62.69999913299523
 20
-108.520739859457
 30
0.0
 11
-57.69999913299543
 21
-108.520739859457
 31
0.0
  0
LINE
  5
221
330
74
100
AcDbEntity
  8
1
  6
Continuous
 62
     6
100
AcDbLine
 10
-62.69999913299523
 20
-108.520739859457
 30
0.0
 11
-62.69999913299543
 21
-73.520739859457
 31
0.0
  0
LINE
  5
222
330
74
100
AcDbEntity
  8
1
  6
Continuous
 62
     2
100
AcDbLine
 10
-57.69999913299543
 20
-108.520739859457
 30
0.0
 11
-57.69999913299543
 21
-53.520739859457
 31
0.0
  0
LINE
  5
223
330
74
100
AcDbEntity
  8
1
  6
Continuous
 62
     2
100
AcDbLine
 10
-57.69999913299543
 20
-258.520739859457
 30
0.0
 11
-57.69999913299543
 21
-208.5207398594569
 31
0.0
  0
LINE
  5
224
330
74
100
AcDbEntity
  8
1
  6
Continuous
 62
     2
100
AcDbLine
 10
-206.1999991329944
 20
-53.520739859457
 30
0.0
 11
-354.6999991329935
 21
-53.520739859457
 31
0.0
  0
LINE
  5
225
330
74
100
AcDbEntity
  8
1
  6
Continuous
 62
     2
100
AcDbLine
 10
-206.1999991329944
 20
-53.520739859457
 30
0.0
 11
-206.1999991329944
 21
-62.72943170415832
 31
0.0
  0
LINE
  5
226
330
74
100
AcDbEntity
  8
1
  6
Continuous
 62
     2
100
AcDbLine
 10
-354.6999991329935
 20
-263.5207398594571
 30
0.0
 11
-349.6999991329925
 21
-263.5207398594571
 31
0.0
  0
LINE
  5
227
330
74
100
AcDbEntity
  8
1
  6
Continuous
 62
     2
100
AcDbLine
 10
-354.6999991329935
 20
-53.520739859457
 30
0.0
 11
-354.6999991329935
 21
-108.520739859457
 31
0.0
  0
LINE
  5
228
330
74
100
AcDbEntity
  8
1
  6
Continuous
 62
     6
100
AcDbLine
 10
-349.6999991329935
 20
-73.520739859457
 30
0.0
 11
-349.6999991329934
 21
-108.520739859457
 31
0.0
  0
LINE
  5
229
330
74
100
AcDbEntity
  8
1
  6
Continuous
 62
     2
100
AcDbLine
 10
-354.6999991329935
 20
-108.520739859457
 30
0.0
 11
-349.6999991329934
 21
-108.520739859457
 31
0.0
  0
LINE
  5
22A
330
74
100
AcDbEntity
  8
1
  6
Continuous
 62
     2
100
AcDbLine
 10
-354.6999991329935
 20
-108.520739859457
 30
0.0
 11
-354.6999991329935
 21
-158.5207398594571
 31
0.0
  0
LINE
  5
22B
330
74
100
AcDbEntity
  8
1
  6
Continuous
 62
     6
100
AcDbLine
 10
-349.6999991329934
 20
-108.520739859457
 30
0.0
 11
-349.699999132993
 21
-158.5207398594571
 31
0.0
  0
LINE
  5
22C
330
74
100
AcDbEntity
  8
1
  6
Continuous
 62
     2
100
AcDbLine
 10
-354.6999991329935
 20
-158.5207398594571
 30
0.0
 11
-349.699999132993
 21
-158.5207398594571
 31
0.0
  0
LINE
  5
22D
330
74
100
AcDbEntity
  8
1
  6
Continuous
 62
     2
100
AcDbLine
 10
-354.6999991329935
 20
-158.5207398594571
 30
0.0
 11
-354.6999991329935
 21
-208.5207398594569
 31
0.0
  0
LINE
  5
22E
330
74
100
AcDbEntity
  8
1
  6
Continuous
 62
     6
100
AcDbLine
 10
-349.699999132993
 20
-158.5207398594571
 30
0.0
 11
-349.6999991329927
 21
-208.5207398594569
 31
0.0
  0
LINE
  5
22F
330
74
100
AcDbEntity
  8
1
  6
Continuous
 62
     2
100
AcDbLine
 10
-354.6999991329935
 20
-208.5207398594569
 30
0.0
 11
-349.6999991329927
 21
-208.5207398594569
 31
0.0
  0
LINE
  5
230
330
74
100
AcDbEntity
  8
1
  6
Continuous
 62
     2
100
AcDbLine
 10
-354.6999991329935
 20
-208.5207398594569
 30
0.0
 11
-354.6999991329935
 21
-258.520739859457
 31
0.0
  0
LINE
  5
231
330
74
100
AcDbEntity
  8
1
  6
Continuous
 62
     6
100
AcDbLine
 10
-349.6999991329927
 20
-208.5207398594569
 30
0.0
 11
-349.6999991329925
 21
-258.520739859457
 31
0.0
  0
LINE
  5
232
330
74
100
AcDbEntity
  8
1
  6
Continuous
 62
     2
100
AcDbLine
 10
-306.1999991329944
 20
-263.5207398594571
 30
0.0
 11
-306.1999991329944
 21
-258.520739859457
 31
0.0
  0
LINE
  5
233
330
74
100
AcDbEntity
  8
1
  6
Continuous
 62
     2
100
AcDbLine
 10
-306.1999991329944
 20
-263.5207398594571
 30
0.0
 11
-256.1999991329947
 21
-263.5207398594571
 31
0.0
  0
LINE
  5
234
330
74
100
AcDbEntity
  8
1
  6
Continuous
 62
     2
100
AcDbLine
 10
-256.1999991329947
 20
-263.5207398594571
 30
0.0
 11
-256.1999991329947
 21
-258.520739859457
 31
0.0
  0
LINE
  5
235
330
74
100
AcDbEntity
  8
1
  6
Continuous
 62
     2
100
AcDbLine
 10
-256.1999991329947
 20
-263.5207398594571
 30
0.0
 11
-206.1999991329944
 21
-263.5207398594571
 31
0.0
  0
LINE
  5
236
330
74
100
AcDbEntity
  8
1
  6
Continuous
 62
     2
100
AcDbLine
 10
-206.1999991329944
 20
-263.5207398594571
 30
0.0
 11
-206.1999991329944
 21
-258.520739859457
 31
0.0
  0
LINE
  5
237
330
74
100
AcDbEntity
  8
1
  6
Continuous
 62
     2
100
AcDbLine
 10
-206.1999991329944
 20
-263.5207398594571
 30
0.0
 11
-156.1999991329944
 21
-263.5207398594571
 31
0.0
  0
LINE
  5
238
330
74
100
AcDbEntity
  8
1
  6
Continuous
 62
     2
100
AcDbLine
 10
-156.1999991329944
 20
-263.5207398594571
 30
0.0
 11
-156.1999991329944
 21
-258.520739859457
 31
0.0
  0
LINE
  5
239
330
74
100
AcDbEntity
  8
1
  6
Continuous
 62
     2
100
AcDbLine
 10
-106.1999991329944
 20
-263.5207398594571
 30
0.0
 11
-106.1999991329944
 21
-258.520739859457
 31
0.0
  0
LINE
  5
23A
330
74
100
AcDbEntity
  8
1
  6
Continuous
 62
     2
100
AcDbLine
 10
-106.1999991329944
 20
-263.5207398594571
 30
0.0
 11
-156.1999991329944
 21
-263.5207398594571
 31
0.0
  0
LINE
  5
23B
330
74
100
AcDbEntity
  8
1
  6
Continuous
 62
     2
100
AcDbLine
 10
-349.6999991329925
 20
-258.520739859457
 30
0.0
 11
-349.6999991329925
 21
-263.5207398594571
 31
0.0
  0
LINE
  5
23C
330
74
100
AcDbEntity
  8
1
  6
Continuous
 62
     2
100
AcDbLine
 10
-349.6999991329925
 20
-263.5207398594571
 30
0.0
 11
-306.1999991329944
 21
-263.5207398594571
 31
0.0
  0
LINE
  5
23D
330
74
100
AcDbEntity
  8
1
  6
Continuous
 62
     2
100
AcDbLine
 10
-349.6999991329925
 20
-258.520739859457
 30
0.0
 11
-354.6999991329935
 21
-258.520739859457
 31
0.0
  0
LINE
  5
23E
330
74
100
AcDbEntity
  8
1
  6
Continuous
 62
     2
100
AcDbLine
 10
-354.6999991329935
 20
-258.520739859457
 30
0.0
 11
-354.6999991329935
 21
-263.5207398594571
 31
0.0
  0
LINE
  5
23F
330
74
100
AcDbEntity
  8
1
  6
Continuous
 62
     6
100
AcDbLine
 10
-62.69999913299442
 20
-258.520739859457
 30
0.0
 11
-62.69999913299313
 21
-250.020739859457
 31
0.0
  0
LINE
  5
240
330
74
100
AcDbEntity
  8
1
  6
Continuous
 62
     6
100
AcDbLine
 10
-155.8448036597445
 20
-258.5207398594571
 30
0.0
 11
-106.1999991329944
 21
-258.520739859457
 31
0.0
  0
LINE
  5
241
330
74
100
AcDbEntity
  8
1
  6
Continuous
 62
     6
100
AcDbLine
 10
-308.4999991329946
 20
-258.5207398594571
 30
0.0
 11
-306.1999991329944
 21
-258.520739859457
 31
0.0
  0
LINE
  5
242
330
74
100
AcDbEntity
  8
1
  6
Continuous
 62
     6
100
AcDbLine
 10
-206.1999991329944
 20
-258.520739859457
 30
0.0
 11
-256.1999991329947
 21
-258.520739859457
 31
0.0
  0
LINE
  5
243
330
74
100
AcDbEntity
  8
1
  6
Continuous
 62
     7
100
AcDbLine
 10
-192.2448036597444
 20
-241.520739859457
 30
0.0
 11
-192.2448036597444
 21
-254.2707398594571
 31
0.0
  0
LINE
  5
244
330
74
100
AcDbEntity
  8
1
  6
Continuous
 62
     7
100
AcDbLine
 10
-155.8448036597445
 20
-241.520739859457
 30
0.0
 11
-155.8448036597445
 21
-254.270739859457
 31
0.0
  0
LINE
  5
245
330
74
100
AcDbEntity
  8
1
  6
Continuous
 62
     6
100
AcDbLine
 10
-308.4999991329946
 20
-258.5207398594571
 30
0.0
 11
-314.6999991329926
 21
-258.520739859457
 31
0.0
  0
LINE
  5
246
330
74
100
AcDbEntity
  8
1
  6
Continuous
 62
     6
100
AcDbLine
 10
-155.8448036597445
 20
-258.5207398594571
 30
0.0
 11
-156.1999991329944
 21
-258.520739859457
 31
0.0
  0
LINE
  5
247
330
74
100
AcDbEntity
  8
1
  6
Continuous
 62
     6
100
AcDbLine
 10
-62.69999913299273
 20
-241.520739859457
 30
0.0
 11
-62.69999913299313
 21
-250.020739859457
 31
0.0
  0
LINE
  5
248
330
74
100
AcDbEntity
  8
1
  6
Continuous
 62
     6
100
AcDbLine
 10
-314.6999991329926
 20
-258.520739859457
 30
0.0
 11
-349.6999991329925
 21
-258.520739859457
 31
0.0
  0
LINE
  5
249
330
74
100
AcDbEntity
  8
1
  6
Continuous
 62
     2
100
AcDbLine
 10
-188.0081487731818
 20
-236.1457398594571
 30
0.0
 11
-183.0081487731818
 21
-234.8957398594571
 31
0.0
  0
LINE
  5
24A
330
74
100
AcDbEntity
  8
1
  6
Continuous
 62
     2
100
AcDbLine
 10
-188.0081487731818
 20
-238.6457398594571
 30
0.0
 11
-188.0081487731818
 21
-236.1457398594571
 31
0.0
  0
LINE
  5
24B
330
74
100
AcDbEntity
  8
1
  6
Continuous
 62
     2
100
AcDbLine
 10
-183.0081487731818
 20
-239.8957398594571
 30
0.0
 11
-188.0081487731818
 21
-238.6457398594571
 31
0.0
  0
LINE
  5
24C
330
74
100
AcDbEntity
  8
1
  6
Continuous
 62
     2
100
AcDbLine
 10
-183.0081487731818
 20
-234.8957398594571
 30
0.0
 11
-183.0081487731818
 21
-239.8957398594571
 31
0.0
  0
LINE
  5
24D
330
74
100
AcDbEntity
  8
1
  6
Continuous
 62
     7
100
AcDbLine
 10
-192.2448036597444
 20
-254.2707398594571
 30
0.0
 11
-174.0448036597444
 21
-254.270739859457
 31
0.0
  0
LINE
  5
24E
330
74
100
AcDbEntity
  8
1
  6
Continuous
 62
     7
100
AcDbLine
 10
-192.2448036597444
 20
-254.2707398594571
 30
0.0
 11
-192.2448036597444
 21
-258.5207398594571
 31
0.0
  0
LINE
  5
24F
330
74
100
AcDbEntity
  8
1
  6
Continuous
 62
     7
100
AcDbLine
 10
-155.8448036597445
 20
-254.270739859457
 30
0.0
 11
-155.8448036597445
 21
-258.5207398594571
 31
0.0
  0
LINE
  5
250
330
74
100
AcDbEntity
  8
1
  6
Continuous
 62
     7
100
AcDbLine
 10
-174.0448036597444
 20
-254.270739859457
 30
0.0
 11
-174.0448036597444
 21
-258.520739859457
 31
0.0
  0
LINE
  5
251
330
74
100
AcDbEntity
  8
1
  6
Continuous
 62
     6
100
AcDbLine
 10
-174.0448036597444
 20
-258.520739859457
 30
0.0
 11
-192.2448036597444
 21
-258.5207398594571
 31
0.0
  0
LINE
  5
252
330
74
100
AcDbEntity
  8
1
  6
Continuous
 62
     7
100
AcDbLine
 10
-174.0448036597444
 20
-254.270739859457
 30
0.0
 11
-155.8448036597445
 21
-254.270739859457
 31
0.0
  0
LINE
  5
253
330
74
100
AcDbEntity
  8
1
  6
Continuous
 62
     6
100
AcDbLine
 10
-192.2448036597444
 20
-233.020739859457
 30
0.0
 11
-62.69999913299273
 21
-233.020739859457
 31
0.0
  0
ARC
  5
254
102
{ACAD_REACTORS
330
2BC
330
2BD
102
}
330
74
100
AcDbEntity
  8
0
  6
Continuous
 62
     2
100
AcDbCircle
 10
-176.8531556607844
 20
-249.7003350975354
 30
0.0
 40
0.7717997786797123
100
AcDbArc
 50
321.8795802028401
 51
38.12041979715329
  0
ARC
  5
255
102
{ACAD_REACTORS
330
2BC
330
2BD
102
}
330
74
100
AcDbEntity
  8
0
  6
Continuous
 62
     2
100
AcDbCircle
 10
-176.653415624438
 20
-249.8570662756554
 30
0.0
 40
0.5179085730137529
100
AcDbArc
 50
218.1204197971956
 51
321.8795802027985
  0
ARC
  5
256
102
{ACAD_REACTORS
330
2BC
330
2BD
102
}
330
74
100
AcDbEntity
  8
0
  6
Continuous
 62
     2
100
AcDbCircle
 10
-176.4536755880919
 20
-249.7003350975354
 30
0.0
 40
0.7717997786794633
100
AcDbArc
 50
141.8795802028363
 51
218.1204197971703
  0
ARC
  5
257
102
{ACAD_REACTORS
330
2BC
330
2BD
102
}
330
74
100
AcDbEntity
  8
0
  6
Continuous
 62
     2
100
AcDbCircle
 10
-176.653415624438
 20
-249.5436039194149
 30
0.0
 40
0.5179085730132998
100
AcDbArc
 50
38.12041979714704
 51
141.8795802028588
  0
ARC
  5
258
102
{ACAD_REACTORS
330
2B4
330
2B5
102
}
330
74
100
AcDbEntity
  8
0
  6
Continuous
 62
     2
100
AcDbCircle
 10
-179.7154297600019
 20
-251.1108014629436
 30
0.0
 40
2.227384008973517
100
AcDbArc
 50
58.06909105004049
 51
71.55192388186676
  0
ARC
  5
259
102
{ACAD_REACTORS
330
2B4
330
2B5
102
}
330
74
100
AcDbEntity
  8
0
  6
Continuous
 62
     2
100
AcDbCircle
 10
-179.4537020590431
 20
-249.4952636681964
 30
0.0
 40
0.5115800601948891
100
AcDbArc
 50
113.3722778882021
 51
151.4785267423044
  0
ARC
  5
25A
102
{ACAD_REACTORS
330
2B4
330
2B5
102
}
330
74
100
AcDbEntity
  8
0
  6
Continuous
 62
     2
100
AcDbCircle
 10
-179.0763448009628
 20
-249.7003350975354
 30
0.0
 40
0.9410597353332545
100
AcDbArc
 50
151.4785267422669
 51
208.5214732577057
  0
ARC
  5
25B
102
{ACAD_REACTORS
330
2B4
330
2B5
102
}
330
74
100
AcDbEntity
  8
0
  6
Continuous
 62
     2
100
AcDbCircle
 10
-179.8733026350948
 20
-246.387654152279
 30
0.0
 40
4.852596863498138
100
AcDbArc
 50
275.1581447696249
 51
285.9799912583529
  0
ARC
  5
25C
102
{ACAD_REACTORS
330
2B4
330
2B5
102
}
330
74
100
AcDbEntity
  8
0
  6
Continuous
 62
     2
100
AcDbCircle
 10
-179.5844465403589
 20
-249.5875447355006
 30
0.0
 40
1.639695123939415
100
AcDbArc
 50
195.0618917770893
 51
275.1581447696395
  0
ARC
  5
25D
102
{ACAD_REACTORS
330
2B4
330
2B5
102
}
330
74
100
AcDbEntity
  8
0
  6
Continuous
 62
     2
100
AcDbCircle
 10
-180.0035743838217
 20
-249.7003350975354
 30
0.0
 40
1.205656168390964
100
AcDbArc
 50
164.9381082228781
 51
195.0618917770945
  0
ARC
  5
25E
102
{ACAD_REACTORS
330
2B4
330
2B5
102
}
330
74
100
AcDbEntity
  8
0
  6
Continuous
 62
     2
100
AcDbCircle
 10
-179.5844465403589
 20
-249.8131254595703
 30
0.0
 40
1.639695123940507
100
AcDbArc
 50
84.84185523036236
 51
164.9381082228877
  0
ARC
  5
25F
102
{ACAD_REACTORS
330
2B8
330
2B9
102
}
330
74
100
AcDbEntity
  8
0
  6
Continuous
 62
     2
100
AcDbCircle
 10
-184.4144607945208
 20
-248.6665083031811
 30
0.0
 40
0.3157169230765071
100
AcDbArc
 50
115.3740086783541
 51
180.0
  0
ARC
  5
260
102
{ACAD_REACTORS
330
2B8
330
2B9
102
}
330
74
100
AcDbEntity
  8
0
  6
Continuous
 62
     2
100
AcDbCircle
 10
-184.4144607945208
 20
-246.4482251032449
 30
0.0
 40
0.315716923076792
100
AcDbArc
 50
180.0
 51
244.6259913216459
  0
ARC
  5
261
102
{ACAD_REACTORS
330
2B8
330
2B9
102
}
330
74
100
AcDbEntity
  8
0
  6
Continuous
 62
     2
100
AcDbCircle
 10
-184.4088446592108
 20
-247.5455247623072
 30
0.0
 40
2.018561131933266
100
AcDbArc
 50
269.8110329575866
 51
90.18896704241334
  0
ARC
  5
262
102
{ACAD_REACTORS
330
2B8
330
2B9
102
}
330
74
100
AcDbEntity
  8
0
  6
Continuous
 62
     2
100
AcDbCircle
 10
-184.4144607945208
 20
-249.2483597098762
 30
0.0
 40
0.315716923076792
100
AcDbArc
 50
180.0
 51
269.8110329574541
  0
ARC
  5
263
102
{ACAD_REACTORS
330
2B6
330
2B7
102
}
330
74
100
AcDbEntity
  8
0
  6
Continuous
 62
     2
100
AcDbCircle
 10
-163.3510005797902
 20
-249.4952636681964
 30
0.0
 40
0.5115800601944143
100
AcDbArc
 50
109.3371432194853
 51
151.4785267424225
  0
ARC
  5
264
102
{ACAD_REACTORS
330
2B6
330
2B7
102
}
330
74
100
AcDbEntity
  8
0
  6
Continuous
 62
     2
100
AcDbCircle
 10
-163.3510005797902
 20
-249.9054065268739
 30
0.0
 40
0.5115800601960215
100
AcDbArc
 50
208.5214732576866
 51
246.6277221118449
  0
ARC
  5
265
102
{ACAD_REACTORS
330
2B6
330
2B7
102
}
330
74
100
AcDbEntity
  8
0
  6
Continuous
 62
     2
100
AcDbCircle
 10
-163.9008729045676
 20
-249.7003350975354
 30
0.0
 40
1.205656168392995
100
AcDbArc
 50
164.9381082229041
 51
195.0618917770959
  0
ARC
  5
266
102
{ACAD_REACTORS
330
2B6
330
2B7
102
}
330
74
100
AcDbEntity
  8
0
  6
Continuous
 62
     2
100
AcDbCircle
 10
-163.481745061106
 20
-249.8131254595703
 30
0.0
 40
1.639695123940214
100
AcDbArc
 50
90.0
 51
164.9381082228957
  0
ARC
  5
267
102
{ACAD_REACTORS
330
2BA
330
2BB
102
}
330
74
100
AcDbEntity
  8
0
  6
Continuous
 62
     2
100
AcDbCircle
 10
-172.9087401538097
 20
-246.3411446213611
 30
0.0
 40
1.526904761905911
100
AcDbArc
 50
90.0
 51
270.0
  0
ARC
  5
268
102
{ACAD_REACTORS
330
2BE
330
2BF
102
}
330
74
100
AcDbEntity
  8
0
  6
Continuous
 62
     2
100
AcDbCircle
 10
-179.6514308990355
 20
-245.8302095295664
 30
0.0
 40
0.3528638246711182
100
AcDbArc
 50
270.0
 51
90.0
  0
ARC
  5
269
102
{ACAD_REACTORS
330
2B8
330
2B9
102
}
330
74
100
AcDbEntity
  8
0
  6
Continuous
 62
     2
100
AcDbCircle
 10
-186.9900094810525
 20
-245.84251233809
 30
0.0
 40
0.3157169230761951
100
AcDbArc
 50
90.0
 51
180.0
  0
ARC
  5
26A
102
{ACAD_REACTORS
330
2B8
330
2B9
102
}
330
74
100
AcDbEntity
  8
0
  6
Continuous
 62
     2
100
AcDbCircle
 10
-184.9915917724679
 20
-247.5573667032127
 30
0.0
 40
0.9118975235575889
100
AcDbArc
 50
115.194410648529
 51
244.8055893514878
  0
ARC
  5
26B
102
{ACAD_REACTORS
330
2B8
330
2B9
102
}
330
74
100
AcDbEntity
  8
0
  6
Continuous
 62
     2
100
AcDbCircle
 10
-185.5141762200429
 20
-248.6681964492755
 30
0.0
 40
0.3157169230766215
100
AcDbArc
 50
0.0
 51
64.80558935145781
  0
ARC
  5
26C
102
{ACAD_REACTORS
330
2B8
330
2B9
102
}
330
74
100
AcDbEntity
  8
0
  6
Continuous
 62
     2
100
AcDbCircle
 10
-187.583904157799
 20
-250.8029952440574
 30
0.0
 40
0.4242446153828041
100
AcDbArc
 50
180.0
 51
270.0
  0
ARC
  5
26D
102
{ACAD_REACTORS
330
2BA
330
2BB
102
}
330
74
100
AcDbEntity
  8
0
  6
Continuous
 62
     2
100
AcDbCircle
 10
-172.6924681436445
 20
-246.1844134432406
 30
0.0
 40
0.5179085730135266
100
AcDbArc
 50
38.12041979714334
 51
141.8795802028489
  0
ARC
  5
26E
102
{ACAD_REACTORS
330
2BA
330
2BB
102
}
330
74
100
AcDbEntity
  8
0
  6
Continuous
 62
     2
100
AcDbCircle
 10
-172.4927281072982
 20
-246.3411446213611
 30
0.0
 40
0.77179977867969
100
AcDbArc
 50
141.8795802028388
 51
218.1204197971546
  0
ARC
  5
26F
102
{ACAD_REACTORS
330
2BC
330
2BD
102
}
330
74
100
AcDbEntity
  8
0
  6
Continuous
 62
     2
100
AcDbCircle
 10
-176.653415624438
 20
-249.1617600872321
 30
0.0
 40
2.065479772208522
100
AcDbArc
 50
242.4518518243395
 51
297.5481481756871
  0
ARC
  5
270
102
{ACAD_REACTORS
330
2BC
330
2BD
102
}
330
74
100
AcDbEntity
  8
0
  6
Continuous
 62
     2
100
AcDbCircle
 10
-176.653415624438
 20
-250.2389101078382
 30
0.0
 40
2.065479772208568
100
AcDbArc
 50
62.45185182430637
 51
117.5481481756671
  0
ARC
  5
271
102
{ACAD_REACTORS
330
2BC
330
2BD
102
}
330
74
100
AcDbEntity
  8
0
  6
Continuous
 62
     2
100
AcDbCircle
 10
-176.9343555162713
 20
-249.7003350975354
 30
0.0
 40
1.458034083651503
100
AcDbArc
 50
117.5481481756634
 51
242.4518518243366
  0
ARC
  5
272
102
{ACAD_REACTORS
330
2BC
330
2BD
102
}
330
74
100
AcDbEntity
  8
0
  6
Continuous
 62
     2
100
AcDbCircle
 10
-176.3724757326047
 20
-249.7003350975354
 30
0.0
 40
1.458034083652003
100
AcDbArc
 50
297.548148175701
 51
62.45185182429896
  0
ARC
  5
273
102
{ACAD_REACTORS
330
2BA
330
2BB
102
}
330
74
100
AcDbEntity
  8
0
  6
Continuous
 62
     2
100
AcDbCircle
 10
-172.6924681436445
 20
-246.4978757994815
 30
0.0
 40
0.5179085730134372
100
AcDbArc
 50
218.1204197971511
 51
321.8795802028566
  0
ARC
  5
274
102
{ACAD_REACTORS
330
2BA
330
2BB
102
}
330
74
100
AcDbEntity
  8
0
  6
Continuous
 62
     2
100
AcDbCircle
 10
-172.8922081799907
 20
-246.3411446213611
 30
0.0
 40
0.7717997786796198
100
AcDbArc
 50
321.8795802028454
 51
38.12041979716123
  0
ARC
  5
275
102
{ACAD_REACTORS
330
2B8
330
2B9
102
}
330
74
100
AcDbEntity
  8
0
  6
Continuous
 62
     2
100
AcDbCircle
 10
-182.1105920670822
 20
-250.8029952440574
 30
0.0
 40
0.4242446153832873
100
AcDbArc
 50
270.0
 51
0.0
  0
ARC
  5
276
102
{ACAD_REACTORS
330
2B8
330
2B9
102
}
330
74
100
AcDbEntity
  8
0
  6
Continuous
 62
     2
100
AcDbCircle
 10
-182.1105920670822
 20
-245.2384844748572
 30
0.0
 40
0.4242446153838841
100
AcDbArc
 50
0.0
 51
90.0
  0
ARC
  5
277
102
{ACAD_REACTORS
330
2B8
330
2B9
102
}
330
74
100
AcDbEntity
  8
0
  6
Continuous
 62
     2
100
AcDbCircle
 10
-187.583904157799
 20
-245.2384844748572
 30
0.0
 40
0.4242446153837989
100
AcDbArc
 50
90.0
 51
180.0
  0
ARC
  5
278
102
{ACAD_REACTORS
330
2B8
330
2B9
102
}
330
74
100
AcDbEntity
  8
0
  6
Continuous
 62
     2
100
AcDbCircle
 10
-185.5141762200429
 20
-250.1989673808071
 30
0.0
 40
0.3157169230767067
100
AcDbArc
 50
270.0
 51
0.0
  0
ARC
  5
279
102
{ACAD_REACTORS
330
2B8
330
2B9
102
}
330
74
100
AcDbEntity
  8
0
  6
Continuous
 62
     2
100
AcDbCircle
 10
-185.5141762200429
 20
-246.4465369571505
 30
0.0
 40
0.3157169230761581
100
AcDbArc
 50
295.1944106485421
 51
0.0
  0
ARC
  5
27A
102
{ACAD_REACTORS
330
2B8
330
2B9
102
}
330
74
100
AcDbEntity
  8
0
  6
Continuous
 62
     2
100
AcDbCircle
 10
-185.5141762200429
 20
-245.84251233809
 30
0.0
 40
0.3157169230766215
100
AcDbArc
 50
0.0
 51
90.0
  0
ARC
  5
27B
102
{ACAD_REACTORS
330
2B8
330
2B9
102
}
330
74
100
AcDbEntity
  8
0
  6
Continuous
 62
     2
100
AcDbCircle
 10
-186.9900094810525
 20
-250.1989673808071
 30
0.0
 40
0.3157169230756836
100
AcDbArc
 50
180.0
 51
270.0
  0
ARC
  5
27C
102
{ACAD_REACTORS
330
2BE
330
2BF
102
}
330
74
100
AcDbEntity
  8
0
  6
Continuous
 62
     2
100
AcDbCircle
 10
-179.2099583727971
 20
-245.8696055007889
 30
0.0
 40
1.05536564133368
100
AcDbArc
 50
270.0
 51
90.0
  0
ARC
  5
27D
102
{ACAD_REACTORS
330
2B6
330
2B7
102
}
330
74
100
AcDbEntity
  8
0
  6
Continuous
 62
     2
100
AcDbCircle
 10
-163.481745061106
 20
-249.5875447355006
 30
0.0
 40
1.639695123940421
100
AcDbArc
 50
195.0618917771015
 51
275.1581447696772
  0
ARC
  5
27E
102
{ACAD_REACTORS
330
2B6
330
2B7
102
}
330
74
100
AcDbEntity
  8
0
  6
Continuous
 62
     2
100
AcDbCircle
 10
-163.7706011558418
 20
-246.387654152279
 30
0.0
 40
4.852596863498825
100
AcDbArc
 50
275.1581447696364
 51
285.9799912583383
  0
ARC
  5
27F
102
{ACAD_REACTORS
330
2B6
330
2B7
102
}
330
74
100
AcDbEntity
  8
0
  6
Continuous
 62
     2
100
AcDbCircle
 10
-163.612728280749
 20
-248.2898687321273
 30
0.0
 40
2.227384008972773
100
AcDbArc
 50
288.4480761181333
 51
301.9309089499387
  0
ARC
  5
280
102
{ACAD_REACTORS
330
2B6
330
2B7
102
}
330
74
100
AcDbEntity
  8
0
  6
Continuous
 62
     2
100
AcDbCircle
 10
-163.1945605470871
 20
-249.5434145081639
 30
0.0
 40
0.9059297849852801
100
AcDbArc
 50
246.6277221118183
 51
288.4480761180811
  0
ARC
  5
281
102
{ACAD_REACTORS
330
2B6
330
2B7
102
}
330
74
100
AcDbEntity
  8
0
  6
Continuous
 62
     2
100
AcDbCircle
 10
-162.9736433217088
 20
-249.7003350975354
 30
0.0
 40
0.9410597353348924
100
AcDbArc
 50
151.4785267423624
 51
208.5214732576695
  0
ARC
  5
282
102
{ACAD_REACTORS
330
2B6
330
2B7
102
}
330
74
100
AcDbEntity
  8
0
  6
Continuous
 62
     2
100
AcDbCircle
 10
-163.2043305816865
 20
-249.9132186485793
 30
0.0
 40
0.9545230068260935
100
AcDbArc
 50
90.0
 51
109.337143219432
  0
ARC
  5
283
102
{ACAD_REACTORS
330
2B8
330
2B9
102
}
330
74
100
AcDbEntity
  8
0
  6
Continuous
 62
     2
100
AcDbCircle
 10
-184.4144607945208
 20
-245.8426898147381
 30
0.0
 40
0.3157169230760711
100
AcDbArc
 50
90.18896704254594
 51
180.0
  0
ARC
  5
284
102
{ACAD_REACTORS
330
2B8
330
2B9
102
}
330
74
100
AcDbEntity
  8
0
  6
Continuous
 62
     2
100
AcDbCircle
 10
-184.9405034926087
 20
-247.5573667032127
 30
0.0
 40
0.9118481501444968
100
AcDbArc
 50
295.3740086781773
 51
64.62599132180586
  0
ARC
  5
285
102
{ACAD_REACTORS
330
2B4
330
2B5
102
}
330
74
100
AcDbEntity
  8
0
  6
Continuous
 62
     2
100
AcDbCircle
 10
-179.7154297600019
 20
-248.2898687321267
 30
0.0
 40
2.227384008972773
100
AcDbArc
 50
288.4480761181333
 51
301.9309089499599
  0
ARC
  5
286
102
{ACAD_REACTORS
330
2B4
330
2B5
102
}
330
74
100
AcDbEntity
  8
0
  6
Continuous
 62
     2
100
AcDbCircle
 10
-179.2972620263411
 20
-249.5434145081639
 30
0.0
 40
0.9059297849849305
100
AcDbArc
 50
246.6277221118694
 51
288.4480761181579
  0
ARC
  5
287
102
{ACAD_REACTORS
330
2B4
330
2B5
102
}
330
74
100
AcDbEntity
  8
0
  6
Continuous
 62
     2
100
AcDbCircle
 10
-179.4537020590431
 20
-249.9054065268739
 30
0.0
 40
0.5115800601948034
100
AcDbArc
 50
208.5214732576956
 51
246.6277221118245
  0
ARC
  5
288
102
{ACAD_REACTORS
330
2B4
330
2B5
102
}
330
74
100
AcDbEntity
  8
0
  6
Continuous
 62
     2
100
AcDbCircle
 10
-179.2972620263411
 20
-249.857255686907
 30
0.0
 40
0.9059297849853228
100
AcDbArc
 50
71.55192388185348
 51
113.3722778881306
  0
ARC
  5
289
102
{ACAD_REACTORS
330
2B4
330
2B5
102
}
330
74
100
AcDbEntity
  8
0
  6
Continuous
 62
     2
100
AcDbCircle
 10
-179.8733026350948
 20
-253.0130160427913
 30
0.0
 40
4.852596863498068
100
AcDbArc
 50
74.02000874164739
 51
84.84185523037506
  0
CIRCLE
  5
28A
102
{ACAD_REACTORS
330
2B8
330
2B9
102
}
330
74
100
AcDbEntity
  8
0
  6
Continuous
 62
     2
100
AcDbCircle
 10
-184.9643185072815
 20
-247.5573667032127
 30
0.0
 40
0.470978932778479
  0
CIRCLE
  5
28B
330
74
100
AcDbEntity
  8
1
  6
Continuous
 62
     2
100
AcDbCircle
 10
-179.5081487731818
 20
-237.3957398594571
 30
0.0
 40
1.249999999999915
  0
CIRCLE
  5
28C
330
74
100
AcDbEntity
  8
1
  6
Continuous
 62
     2
100
AcDbCircle
 10
-179.5081487731818
 20
-237.3957398594571
 30
0.0
 40
2.5
  0
TEXT
  5
28D
330
74
100
AcDbEntity
  8
1
 62
     7
100
AcDbText
 10
-136.8712559377306
 20
-240.2207398594571
 30
0.0
 40
2.5
  1
/
 41
0.9
  7
CONVERTER_11
100
AcDbText
  0
TEXT
  5
28F
330
74
100
AcDbEntity
  8
1
 62
     7
100
AcDbText
 10
-134.7148914406886
 20
-240.2207398594571
 30
0.0
 40
2.5
  1
00
 41
0.81
  7
CONVERTER_12
100
AcDbText
  0
TEXT
  5
290
330
74
100
AcDbEntity
  8
1
 62
     3
100
AcDbText
 10
-97.11840741467154
 20
-240.2207398594571
 30
0.0
 40
2.5
  1
08.07.2015
 41
0.81
  7
CONVERTER_12
100
AcDbText
  0
MTEXT
  5
291
330
74
100
AcDbEntity
  8
1
 62
     2
100
AcDbMText
 10
-97.11840741467154
 20
-234.0207398594571
 30
0.0
 40
1.8
 41
0.0
 71
     1
 72
     1
  1
date
  7
CONVERTER_11
 73
     1
 44
1.32052821128451
  0
MTEXT
  5
292
330
74
100
AcDbEntity
  8
1
 62
     2
100
AcDbMText
 10
-126.9448036597444
 20
-242.5207398594571
 30
0.0
 40
1.8
 41
0.0
 71
     1
 72
     1
  1
document-type
  7
CONVERTER_11
 73
     1
 44
1.20048019207683
  0
TEXT
  5
293
330
74
100
AcDbEntity
  8
1
 62
     3
100
AcDbText
 10
-126.9448036597444
 20
-248.7207398594571
 30
0.0
 40
2.5
  1
Customer drawing select
 41
0.81
  7
CONVERTER_12
100
AcDbText
  0
MTEXT
  5
295
330
74
100
AcDbEntity
  8
1
 62
     2
100
AcDbMText
 10
-154.7448036597444
 20
-234.020739859457
 30
0.0
 40
1.8
 41
0.0
 71
     1
 72
     1
  1
document-No. / RI
  7
CONVERTER_13
 73
     1
 44
1.32052821128451
  0
TEXT
  5
296
330
74
100
AcDbEntity
  8
1
 62
     7
100
AcDbText
 10
-154.7448036597444
 20
-240.2207398594571
 30
0.0
 40
2.5
  1
00882662
 41
0.81
  7
CONVERTER_12
100
AcDbText
  0
MTEXT
  5
298
330
74
100
AcDbEntity
  8
1
 62
     3
100
AcDbMText
 10
-67.15920327383212
 20
-240.2207398594569
 30
0.0
 40
2.5
 41
0.0
 71
     8
 72
     1
  1
2:1
  7
CONVERTER_14
 73
     1
 44
1.32052821128451
  0
MTEXT
  5
299
330
74
100
AcDbEntity
  8
1
 62
     2
100
AcDbMText
 10
-70.51840741467171
 20
-234.020739859457
 30
0.0
 40
1.8
 41
0.0
 71
     1
 72
     1
  1
scale
  7
CONVERTER_11
 73
     1
 44
1.20048019207683
  0
MTEXT
  5
29A
330
74
100
AcDbEntity
  8
1
 62
     2
100
AcDbMText
 10
-154.7448036597444
 20
-242.520739859457
 30
0.0
 40
1.8
 41
0.0
 71
     1
 72
     1
  1
ident.-No.
  7
CONVERTER_11
 73
     1
 44
1.20048019207683
  0
TEXT
  5
29B
330
74
100
AcDbEntity
  8
1
 62
     7
100
AcDbText
 10
-154.3448036597447
 20
-248.7207398594571
 30
0.0
 40
2.5
  1
0808037
 41
0.81
  7
CONVERTER_12
100
AcDbText
  0
MTEXT
  5
29C
330
74
100
AcDbEntity
  8
1
 62
     2
100
AcDbMText
 10
-226.6828183847919
 20
-245.7707398594571
 30
0.0
 40
2.0
 41
0.0
 71
     5
 72
     1
  1
General Information\P- Simplified representation\P- Document excluded from change process\P- Linear dimensions [mm]
  7
CONVERTER_11
 73
     1
 44
1.20048019207683
  0
MTEXT
  5
29D
330
74
100
AcDbEntity
  8
1
 62
     7
100
AcDbMText
 10
-60.19999913299543
 20
-183.5207398594551
 30
0.0
 40
3.5
 41
0.0
 71
     5
 72
     1
  1
C
  7
CONVERTER_11
 73
     1
 44
1.20048019207683
  0
MTEXT
  5
29E
330
74
100
AcDbEntity
  8
1
 62
     7
100
AcDbMText
 10
-60.19999913299543
 20
-81.020739859457
 30
0.0
 40
3.5
 41
0.0
 71
     5
 72
     1
  1
A
  7
CONVERTER_11
 73
     1
 44
1.20048019207683
  0
MTEXT
  5
29F
330
74
100
AcDbEntity
  8
1
 62
     7
100
AcDbMText
 10
-60.19999913299543
 20
-133.5207398594551
 30
0.0
 40
3.5
 41
0.0
 71
     5
 72
     1
  1
B
  7
CONVERTER_11
 73
     1
 44
1.20048019207683
  0
MTEXT
  5
2A0
330
74
100
AcDbEntity
  8
1
 62
     7
100
AcDbMText
 10
-60.19999913299543
 20
-236.020739859457
 30
0.0
 40
3.5
 41
0.0
 71
     5
 72
     1
  1
D
  7
CONVERTER_11
 73
     1
 44
1.20048019207683
  0
MTEXT
  5
2A1
330
74
100
AcDbEntity
  8
1
 62
     7
100
AcDbMText
 10
-330.449999132994
 20
-261.0207398594571
 30
0.0
 40
3.5
 41
0.0
 71
     5
 72
     1
  1
1
  7
CONVERTER_11
 73
     1
 44
1.20048019207683
  0
MTEXT
  5
2A2
330
74
100
AcDbEntity
  8
1
 62
     7
100
AcDbMText
 10
-281.1999991329944
 20
-261.0207398594571
 30
0.0
 40
3.5
 41
0.0
 71
     5
 72
     1
  1
2
  7
CONVERTER_11
 73
     1
 44
1.20048019207683
  0
MTEXT
  5
2A3
330
74
100
AcDbEntity
  8
1
 62
     7
100
AcDbMText
 10
-231.1999991329944
 20
-261.0207398594571
 30
0.0
 40
3.5
 41
0.0
 71
     5
 72
     1
  1
3
  7
CONVERTER_11
 73
     1
 44
1.20048019207683
  0
MTEXT
  5
2A4
330
74
100
AcDbEntity
  8
1
 62
     7
100
AcDbMText
 10
-181.1999991329945
 20
-261.0207398594571
 30
0.0
 40
3.5
 41
0.0
 71
     5
 72
     1
  1
4
  7
CONVERTER_11
 73
     1
 44
1.20048019207683
  0
MTEXT
  5
2A5
330
74
100
AcDbEntity
  8
1
 62
     7
100
AcDbMText
 10
-131.1999991329944
 20
-261.0207398594571
 30
0.0
 40
3.5
 41
0.0
 71
     5
 72
     1
  1
5
  7
CONVERTER_11
 73
     1
 44
1.20048019207683
  0
MTEXT
  5
2A6
330
74
100
AcDbEntity
  8
1
 62
     7
100
AcDbMText
 10
-81.94999913299523
 20
-261.0207398594571
 30
0.0
 40
3.5
 41
0.0
 71
     5
 72
     1
  1
6
  7
CONVERTER_11
 73
     1
 44
1.20048019207683
  0
MTEXT
  5
2A7
330
74
100
AcDbEntity
  8
1
 62
     7
100
AcDbMText
 10
-352.1999991329935
 20
-81.020739859457
 30
0.0
 40
3.5
 41
0.0
 71
     5
 72
     1
  1
A
  7
CONVERTER_11
 73
     1
 44
1.20048019207683
  0
MTEXT
  5
2A8
330
74
100
AcDbEntity
  8
1
 62
     7
100
AcDbMText
 10
-352.1999991329935
 20
-133.520739859457
 30
0.0
 40
3.5
 41
0.0
 71
     5
 72
     1
  1
B
  7
CONVERTER_11
 73
     1
 44
1.20048019207683
  0
MTEXT
  5
2A9
330
74
100
AcDbEntity
  8
1
 62
     7
100
AcDbMText
 10
-352.1999991329935
 20
-183.520739859457
 30
0.0
 40
3.5
 41
0.0
 71
     5
 72
     1
  1
C
  7
CONVERTER_11
 73
     1
 44
1.20048019207683
  0
MTEXT
  5
2AA
330
74
100
AcDbEntity
  8
1
 62
     7
100
AcDbMText
 10
-352.1999991329935
 20
-236.020739859457
 30
0.0
 40
3.5
 41
0.0
 71
     5
 72
     1
  1
D
  7
CONVERTER_11
 73
     1
 44
1.20048019207683
  0
MTEXT
  5
2AB
330
74
100
AcDbEntity
  8
1
 62
     3
100
AcDbMText
 10
-166.0448036597445
 20
-237.395739859457
 30
0.0
 40
2.5
 41
0.0
 71
     5
 72
     1
  1
DIN A4
  7
CONVERTER_11
 73
     1
 44
1.20048019207683
  0
MTEXT
  5
2AC
330
74
100
AcDbEntity
  8
1
 62
     2
100
AcDbMText
 10
-154.8448036597445
 20
-251.020739859457
 30
0.0
 40
1.8
 41
0.0
 71
     1
 72
     1
  1
description
  7
CONVERTER_11
 73
     1
 44
1.20048019207683
  0
MTEXT
  5
2AD
330
74
100
AcDbEntity
  8
1
 62
     7
100
AcDbMText
 10
-109.2724013963689
 20
-255.2707398594568
 30
0.0
 40
3.0
 41
0.0
 71
     5
 72
     1
  1
PATG 6/23
  7
CONVERTER_12
 73
     1
 44
1.20048019207683
  0
TEXT
  5
2AE
330
74
100
AcDbEntity
  8
1
 62
     2
100
AcDbText
 10
-167.8094948499309
 20
-257.2707398594571
 30
0.0
 40
1.8
  1
1
 41
0.9
  7
CONVERTER_11
100
AcDbText
  0
TEXT
  5
2AF
330
74
100
AcDbEntity
  8
1
 62
     2
100
AcDbText
 10
-182.5985386894024
 20
-257.319988513259
 30
0.0
 40
1.8
  1
1
 41
0.9
  7
CONVERTER_11
100
AcDbText
  0
TEXT
  5
2B0
330
74
100
AcDbEntity
  8
1
 62
     2
100
AcDbText
 10
-191.2448036597444
 20
-257.2797570744486
 30
0.0
 40
1.8
  1
page
 41
0.9
  7
CONVERTER_11
100
AcDbText
  0
TEXT
  5
2B1
330
74
100
AcDbEntity
  8
1
 62
     2
100
AcDbText
 10
-173.0448036597446
 20
-257.2797570744486
 30
0.0
 40
1.8
  1
of
 41
0.9
  7
CONVERTER_11
100
AcDbText
  0
MTEXT
  5
2B2
330
74
100
AcDbEntity
  8
1
 62
     3
100
AcDbMText
 10
-166.8418215081345
 20
-71.7294317041582
 30
0.0
 40
1.8
 41
0.0
 71
     7
 72
     1
  3
Transfer or duplication of this document as well as the utilisation or\Pcommunication of its content are not permitted unless express consen\Pis granted. Violations give rise to claims for damages. All rights reserved\Pin case of patent, utility mod
  1
el or design patent registrations.
  7
CONVERTER_11
 73
     1
 44
0.99639855942377
  0
MTEXT
  5
2B3
330
74
100
AcDbEntity
  8
1
 62
     3
100
AcDbMText
 10
-349.6949313469227
 20
-71.7294317041582
 30
0.0
 40
1.8
 41
0.0
 71
     7
 72
     1
  3
Weitergabe sowie Vervielf\U+00e4ltigung dieses Dokuments, Verwertung und \PMitteilung seines Inhalts sind verboten, soweit nicht ausdr\U+00fccklich gestattet. \PZuwiderhandlungen verpflichten zu Schadenersatz. Alle Rechte f\U+00fcr den Fall\Pder Pat
  1
ent-, Gebrauchsmuster- oder Designeintragung vorbehalten.
  7
CONVERTER_11
 73
     1
 44
0.99639855942377
  0
HATCH
  5
2B4
330
74
100
AcDbEntity
  8
1
  6
Continuous
 62
     2
100
AcDbHatch
 10
0.0
 20
0.0
 30
0.0
210
0.0
220
0.0
230
1.0
  2
_USER
 70
     0
 71
     1
 91
        1
 92
        1
 93
       14
 72
     2
 10
-180.0035743838217
 20
-249.7003350975354
 40
1.205656168390964
 50
164.9381082228781
 51
195.0618917770945
 73
     1
 72
     2
 10
-179.5844465403589
 20
-249.5875447355006
 40
1.639695123939415
 50
195.0618917770893
 51
275.1581447696395
 73
     1
 72
     2
 10
-179.8733026350948
 20
-246.387654152279
 40
4.852596863498138
 50
275.1581447696249
 51
285.9799912583529
 73
     1
 72
     1
 10
-178.537374717977
 20
-251.0527364580798
 11
-178.537374717977
 21
-250.1802194512766
 72
     2
 10
-179.7154297600019
 20
-248.2898687321267
 40
2.227384008972773
 50
58.06909105004009
 51
71.55192388186677
 73
     0
 72
     2
 10
-179.2972620263411
 20
-249.5434145081639
 40
0.9059297849849305
 50
71.55192388184209
 51
113.3722778881306
 73
     0
 72
     2
 10
-179.4537020590431
 20
-249.9054065268739
 40
0.5115800601948034
 50
113.3722778881755
 51
151.4785267423044
 73
     0
 72
     2
 10
-179.0763448009628
 20
-249.7003350975354
 40
0.9410597353332545
 50
151.4785267422943
 51
208.5214732577331
 73
     0
 72
     2
 10
-179.4537020590431
 20
-249.4952636681964
 40
0.5115800601948891
 50
208.5214732576956
 51
246.627722111798
 73
     0
 72
     2
 10
-179.2972620263411
 20
-249.857255686907
 40
0.9059297849853228
 50
246.6277221118694
 51
288.4480761181465
 73
     0
 72
     2
 10
-179.7154297600019
 20
-251.1108014629436
 40
2.227384008973517
 50
288.4480761181333
 51
301.9309089499595
 73
     0
 72
     1
 10
-178.537374717977
 20
-249.2204507437937
 11
-178.537374717977
 21
-248.3479337369904
 72
     2
 10
-179.8733026350948
 20
-253.0130160427913
 40
4.852596863498068
 50
74.02000874164739
 51
84.84185523037506
 73
     1
 72
     2
 10
-179.5844465403589
 20
-249.8131254595703
 40
1.639695123940507
 50
84.84185523036236
 51
164.9381082228877
 73
     1
 97
       14
330
289
330
1A2
330
258
330
288
330
259
330
25A
330
287
330
286
330
285
330
1A3
330
25B
330
25C
330
25D
330
25E
 75
     1
 76
     0
 52
45.0
 41
0.1
 77
     0
 78
     1
 53
45.0
 43
0.0
 44
0.0
 45
-0.0707106781186548
 46
0.0707106781186548
 79
     0
 98
        1
 10
0.0
 20
0.0
  0
HATCH
  5
2B5
330
74
100
AcDbEntity
  8
1
  6
Continuous
 62
     2
100
AcDbHatch
 10
0.0
 20
0.0
 30
0.0
210
0.0
220
0.0
230
1.0
  2
_USER
 70
     0
 71
     1
 91
        1
 92
        1
 93
       14
 72
     2
 10
-180.0035743838217
 20
-249.7003350975354
 40
1.205656168390964
 50
164.9381082228781
 51
195.0618917770945
 73
     1
 72
     2
 10
-179.5844465403589
 20
-249.5875447355006
 40
1.639695123939415
 50
195.0618917770893
 51
275.1581447696395
 73
     1
 72
     2
 10
-179.8733026350948
 20
-246.387654152279
 40
4.852596863498138
 50
275.1581447696249
 51
285.9799912583529
 73
     1
 72
     1
 10
-178.537374717977
 20
-251.0527364580798
 11
-178.537374717977
 21
-250.1802194512766
 72
     2
 10
-179.7154297600019
 20
-248.2898687321267
 40
2.227384008972773
 50
58.06909105004009
 51
71.55192388186677
 73
     0
 72
     2
 10
-179.2972620263411
 20
-249.5434145081639
 40
0.9059297849849305
 50
71.55192388184209
 51
113.3722778881306
 73
     0
 72
     2
 10
-179.4537020590431
 20
-249.9054065268739
 40
0.5115800601948034
 50
113.3722778881755
 51
151.4785267423044
 73
     0
 72
     2
 10
-179.0763448009628
 20
-249.7003350975354
 40
0.9410597353332545
 50
151.4785267422943
 51
208.5214732577331
 73
     0
 72
     2
 10
-179.4537020590431
 20
-249.4952636681964
 40
0.5115800601948891
 50
208.5214732576956
 51
246.627722111798
 73
     0
 72
     2
 10
-179.2972620263411
 20
-249.857255686907
 40
0.9059297849853228
 50
246.6277221118694
 51
288.4480761181465
 73
     0
 72
     2
 10
-179.7154297600019
 20
-251.1108014629436
 40
2.227384008973517
 50
288.4480761181333
 51
301.9309089499595
 73
     0
 72
     1
 10
-178.537374717977
 20
-249.2204507437937
 11
-178.537374717977
 21
-248.3479337369904
 72
     2
 10
-179.8733026350948
 20
-253.0130160427913
 40
4.852596863498068
 50
74.02000874164739
 51
84.84185523037506
 73
     1
 72
     2
 10
-179.5844465403589
 20
-249.8131254595703
 40
1.639695123940507
 50
84.84185523036236
 51
164.9381082228877
 73
     1
 97
       14
330
289
330
1A2
330
258
330
288
330
259
330
25A
330
287
330
286
330
285
330
1A3
330
25B
330
25C
330
25D
330
25E
 75
     1
 76
     0
 52
45.0
 41
0.1
 77
     0
 78
     1
 53
45.0
 43
0.0
 44
0.0
 45
-0.0707106781186548
 46
0.0707106781186548
 79
     0
 98
        1
 10
0.0
 20
0.0
  0
HATCH
  5
2B6
330
74
100
AcDbEntity
  8
1
  6
Continuous
 62
     2
100
AcDbHatch
 10
0.0
 20
0.0
 30
0.0
210
0.0
220
0.0
230
1.0
  2
_USER
 70
     0
 71
     1
 91
        1
 92
        1
 93
       18
 72
     2
 10
-163.481745061106
 20
-249.8131254595703
 40
1.639695123940214
 50
90.0
 51
164.9381082228957
 73
     1
 72
     2
 10
-163.9008729045676
 20
-249.7003350975354
 40
1.205656168392995
 50
164.9381082229041
 51
195.0618917770959
 73
     1
 72
     2
 10
-163.481745061106
 20
-249.5875447355006
 40
1.639695123940421
 50
195.0618917771015
 51
275.1581447696772
 73
     1
 72
     2
 10
-163.7706011558418
 20
-246.387654152279
 40
4.852596863498825
 50
275.1581447696364
 51
285.9799912583383
 73
     1
 72
     1
 10
-162.4346732387251
 20
-251.0527364580804
 11
-162.4346732387251
 21
-250.1802194512771
 72
     2
 10
-163.612728280749
 20
-248.2898687321273
 40
2.227384008972773
 50
58.06909105006127
 51
71.55192388186677
 73
     0
 72
     2
 10
-163.1945605470871
 20
-249.5434145081639
 40
0.9059297849852801
 50
71.55192388191882
 51
113.3722778881817
 73
     0
 72
     2
 10
-163.3510005797902
 20
-249.9054065268739
 40
0.5115800601960215
 50
113.3722778881551
 51
151.4785267423134
 73
     0
 72
     2
 10
-162.9736433217088
 20
-249.7003350975354
 40
0.9410597353348924
 50
151.4785267423305
 51
208.5214732576376
 73
     0
 72
     2
 10
-163.3510005797902
 20
-249.4952636681964
 40
0.5115800601944143
 50
208.5214732575775
 51
250.6628567805147
 73
     0
 72
     2
 10
-163.2043305816865
 20
-249.9132186485793
 40
0.9545230068260935
 50
250.662856780568
 51
270.0
 73
     0
 72
     1
 10
-163.2043305816865
 20
-248.9586956417532
 11
-162.1006912821184
 21
-248.9586956417532
 72
     1
 10
-162.1006912821184
 20
-248.9586956417532
 11
-162.1006912821184
 21
-251.2272398594407
 72
     1
 10
-162.1006912821184
 20
-251.2272398594407
 11
-160.9078985799507
 21
-251.2272398594407
 72
     1
 10
-160.9078985799507
 20
-251.2272398594407
 11
-160.9078985799507
 21
-248.9586956417532
 72
     1
 10
-160.9078985799507
 20
-248.9586956417532
 11
-160.0967995424773
 21
-248.9586956417532
 72
     1
 10
-160.0967995424773
 20
-248.9586956417532
 11
-160.0967995424773
 21
-248.1734303356296
 72
     1
 10
-160.0967995424773
 20
-248.1734303356296
 11
-163.481745061106
 21
-248.1734303356301
 97
       18
330
208
330
207
330
206
330
205
330
20A
330
1A4
330
282
330
263
330
281
330
264
330
280
330
27F
330
1A5
330
27E
330
27D
330
265
330
266
330
209
 75
     1
 76
     0
 52
45.0
 41
0.1
 77
     0
 78
     1
 53
45.0
 43
0.0
 44
0.0
 45
-0.0707106781186548
 46
0.0707106781186548
 79
     0
 98
        1
 10
0.0
 20
0.0
  0
HATCH
  5
2B7
330
74
100
AcDbEntity
  8
1
  6
Continuous
 62
     2
100
AcDbHatch
 10
0.0
 20
0.0
 30
0.0
210
0.0
220
0.0
230
1.0
  2
_USER
 70
     0
 71
     1
 91
        1
 92
        1
 93
       18
 72
     2
 10
-163.481745061106
 20
-249.8131254595703
 40
1.639695123940214
 50
90.0
 51
164.9381082228957
 73
     1
 72
     2
 10
-163.9008729045676
 20
-249.7003350975354
 40
1.205656168392995
 50
164.9381082229041
 51
195.0618917770959
 73
     1
 72
     2
 10
-163.481745061106
 20
-249.5875447355006
 40
1.639695123940421
 50
195.0618917771015
 51
275.1581447696772
 73
     1
 72
     2
 10
-163.7706011558418
 20
-246.387654152279
 40
4.852596863498825
 50
275.1581447696364
 51
285.9799912583383
 73
     1
 72
     1
 10
-162.4346732387251
 20
-251.0527364580804
 11
-162.4346732387251
 21
-250.1802194512771
 72
     2
 10
-163.612728280749
 20
-248.2898687321273
 40
2.227384008972773
 50
58.06909105006127
 51
71.55192388186677
 73
     0
 72
     2
 10
-163.1945605470871
 20
-249.5434145081639
 40
0.9059297849852801
 50
71.55192388191882
 51
113.3722778881817
 73
     0
 72
     2
 10
-163.3510005797902
 20
-249.9054065268739
 40
0.5115800601960215
 50
113.3722778881551
 51
151.4785267423134
 73
     0
 72
     2
 10
-162.9736433217088
 20
-249.7003350975354
 40
0.9410597353348924
 50
151.4785267423305
 51
208.5214732576376
 73
     0
 72
     2
 10
-163.3510005797902
 20
-249.4952636681964
 40
0.5115800601944143
 50
208.5214732575775
 51
250.6628567805147
 73
     0
 72
     2
 10
-163.2043305816865
 20
-249.9132186485793
 40
0.9545230068260935
 50
250.662856780568
 51
270.0
 73
     0
 72
     1
 10
-163.2043305816865
 20
-248.9586956417532
 11
-162.1006912821184
 21
-248.9586956417532
 72
     1
 10
-162.1006912821184
 20
-248.9586956417532
 11
-162.1006912821184
 21
-251.2272398594407
 72
     1
 10
-162.1006912821184
 20
-251.2272398594407
 11
-160.9078985799507
 21
-251.2272398594407
 72
     1
 10
-160.9078985799507
 20
-251.2272398594407
 11
-160.9078985799507
 21
-248.9586956417532
 72
     1
 10
-160.9078985799507
 20
-248.9586956417532
 11
-160.0967995424773
 21
-248.9586956417532
 72
     1
 10
-160.0967995424773
 20
-248.9586956417532
 11
-160.0967995424773
 21
-248.1734303356296
 72
     1
 10
-160.0967995424773
 20
-248.1734303356296
 11
-163.481745061106
 21
-248.1734303356301
 97
       18
330
208
330
207
330
206
330
205
330
20A
330
1A4
330
282
330
263
330
281
330
264
330
280
330
27F
330
1A5
330
27E
330
27D
330
265
330
266
330
209
 75
     1
 76
     0
 52
45.0
 41
0.1
 77
     0
 78
     1
 53
45.0
 43
0.0
 44
0.0
 45
-0.0707106781186548
 46
0.0707106781186548
 79
     0
 98
        1
 10
0.0
 20
0.0
  0
HATCH
  5
2B8
330
74
100
AcDbEntity
  8
1
  6
Continuous
 62
     2
100
AcDbHatch
 10
0.0
 20
0.0
 30
0.0
210
0.0
220
0.0
230
1.0
  2
_USER
 70
     0
 71
     1
 91
        4
 92
        1
 93
        8
 72
     2
 10
-187.583904157799
 20
-245.2384844748572
 40
0.4242446153837989
 50
90.0
 51
180.0
 73
     1
 72
     1
 10
-188.0081487731818
 20
-245.2384844748572
 11
-188.0081487731818
 21
-250.8029952440574
 72
     2
 10
-187.583904157799
 20
-250.8029952440574
 40
0.4242446153828041
 50
180.0
 51
270.0
 73
     1
 72
     1
 10
-187.583904157799
 20
-251.2272398594407
 11
-182.1105920670822
 21
-251.2272398594407
 72
     2
 10
-182.1105920670822
 20
-250.8029952440574
 40
0.4242446153832873
 50
270.0
 51
360.0
 73
     1
 72
     1
 10
-181.6863474516983
 20
-250.8029952440574
 11
-181.6863474516983
 21
-245.2384844748572
 72
     2
 10
-182.1105920670822
 20
-245.2384844748572
 40
0.4242446153838841
 50
0.0
 51
90.0
 73
     1
 72
     1
 10
-182.1105920670822
 20
-244.8142398594734
 11
-187.583904157799
 21
-244.8142398594734
 97
        8
330
276
330
1D3
330
275
330
1D4
330
26C
330
1D1
330
277
330
1D2
 92
       16
 93
        1
 72
     2
 10
-184.9643185072815
 20
-247.5573667032127
 40
0.470978932778479
 50
0.0
 51
360.0
 73
     1
 97
        1
330
28A
 92
       16
 93
        8
 72
     2
 10
-184.9405034926087
 20
-247.5573667032127
 40
0.9118481501444968
 50
295.3740086781773
 51
424.6259913218059
 73
     1
 72
     2
 10
-184.4144607945208
 20
-246.4482251032449
 40
0.315716923076792
 50
115.3740086783541
 51
180.0
 73
     0
 72
     1
 10
-184.7301777175976
 20
-246.4482251032449
 11
-184.7301777175976
 21
-245.8426898147381
 72
     2
 10
-184.4144607945208
 20
-245.8426898147381
 40
0.3157169230760711
 50
180.0
 51
269.8110329574541
 73
     0
 72
     2
 10
-184.4088446592108
 20
-247.5455247623072
 40
2.018561131933266
 50
269.8110329575866
 51
450.1889670424133
 73
     0
 72
     2
 10
-184.4144607945208
 20
-249.2483597098762
 40
0.315716923076792
 50
90.1889670425459
 51
180.0
 73
     0
 72
     1
 10
-184.7301777175976
 20
-249.2483597098762
 11
-184.7301777175976
 21
-248.6665083031811
 72
     2
 10
-184.4144607945208
 20
-248.6665083031811
 40
0.3157169230765071
 50
180.0
 51
244.6259913216459
 73
     0
 97
        8
330
284
330
260
330
20C
330
283
330
261
330
262
330
20B
330
25F
 92
       16
 93
       12
 72
     1
 10
-186.9900094810525
 20
-250.5146843038838
 11
-185.5141762200429
 21
-250.5146843038838
 72
     2
 10
-185.5141762200429
 20
-250.1989673808071
 40
0.3157169230767067
 50
270.0
 51
360.0
 73
     1
 72
     1
 10
-185.1984592969663
 20
-250.1989673808071
 11
-185.1984592969663
 21
-248.6681964492755
 72
     2
 10
-185.5141762200429
 20
-248.6681964492755
 40
0.3157169230766215
 50
0.0
 51
64.80558935145781
 73
     1
 72
     2
 10
-184.9915917724679
 20
-247.5573667032127
 40
0.9118975235575889
 50
115.1944106485122
 51
244.805589351471
 73
     0
 72
     2
 10
-185.5141762200429
 20
-246.4465369571505
 40
0.3157169230761581
 50
295.1944106485421
 51
360.0
 73
     1
 72
     1
 10
-185.1984592969663
 20
-246.4465369571505
 11
-185.1984592969663
 21
-245.84251233809
 72
     2
 10
-185.5141762200429
 20
-245.84251233809
 40
0.3157169230766215
 50
0.0
 51
90.0
 73
     1
 72
     1
 10
-185.5141762200429
 20
-245.5267954150138
 11
-186.9900094810525
 21
-245.5267954150138
 72
     2
 10
-186.9900094810525
 20
-245.84251233809
 40
0.3157169230761951
 50
90.0
 51
180.0
 73
     1
 72
     1
 10
-187.3057264041282
 20
-245.84251233809
 11
-187.3057264041282
 21
-250.1989673808071
 72
     2
 10
-186.9900094810525
 20
-250.1989673808071
 40
0.3157169230756836
 50
180.0
 51
270.0
 73
     1
 97
       12
330
1D8
330
269
330
1D7
330
27A
330
1D6
330
279
330
26A
330
26B
330
1D5
330
278
330
1D0
330
27B
 75
     1
 76
     0
 52
45.0
 41
0.1
 77
     0
 78
     1
 53
45.0
 43
0.0
 44
0.0
 45
-0.0707106781186548
 46
0.0707106781186548
 79
     0
 98
        1
 10
0.0
 20
0.0
  0
HATCH
  5
2B9
330
74
100
AcDbEntity
  8
1
  6
Continuous
 62
     2
100
AcDbHatch
 10
0.0
 20
0.0
 30
0.0
210
0.0
220
0.0
230
1.0
  2
_USER
 70
     0
 71
     1
 91
        4
 92
        1
 93
        8
 72
     2
 10
-187.583904157799
 20
-245.2384844748572
 40
0.4242446153837989
 50
90.0
 51
180.0
 73
     1
 72
     1
 10
-188.0081487731818
 20
-245.2384844748572
 11
-188.0081487731818
 21
-250.8029952440574
 72
     2
 10
-187.583904157799
 20
-250.8029952440574
 40
0.4242446153828041
 50
180.0
 51
270.0
 73
     1
 72
     1
 10
-187.583904157799
 20
-251.2272398594407
 11
-182.1105920670822
 21
-251.2272398594407
 72
     2
 10
-182.1105920670822
 20
-250.8029952440574
 40
0.4242446153832873
 50
270.0
 51
360.0
 73
     1
 72
     1
 10
-181.6863474516983
 20
-250.8029952440574
 11
-181.6863474516983
 21
-245.2384844748572
 72
     2
 10
-182.1105920670822
 20
-245.2384844748572
 40
0.4242446153838841
 50
0.0
 51
90.0
 73
     1
 72
     1
 10
-182.1105920670822
 20
-244.8142398594734
 11
-187.583904157799
 21
-244.8142398594734
 97
        8
330
276
330
1D3
330
275
330
1D4
330
26C
330
1D1
330
277
330
1D2
 92
       16
 93
        1
 72
     2
 10
-184.9643185072815
 20
-247.5573667032127
 40
0.470978932778479
 50
0.0
 51
360.0
 73
     1
 97
        1
330
28A
 92
       16
 93
        8
 72
     2
 10
-184.9405034926087
 20
-247.5573667032127
 40
0.9118481501444968
 50
295.3740086781773
 51
424.6259913218059
 73
     1
 72
     2
 10
-184.4144607945208
 20
-246.4482251032449
 40
0.315716923076792
 50
115.3740086783541
 51
180.0
 73
     0
 72
     1
 10
-184.7301777175976
 20
-246.4482251032449
 11
-184.7301777175976
 21
-245.8426898147381
 72
     2
 10
-184.4144607945208
 20
-245.8426898147381
 40
0.3157169230760711
 50
180.0
 51
269.8110329574541
 73
     0
 72
     2
 10
-184.4088446592108
 20
-247.5455247623072
 40
2.018561131933266
 50
269.8110329575866
 51
450.1889670424133
 73
     0
 72
     2
 10
-184.4144607945208
 20
-249.2483597098762
 40
0.315716923076792
 50
90.1889670425459
 51
180.0
 73
     0
 72
     1
 10
-184.7301777175976
 20
-249.2483597098762
 11
-184.7301777175976
 21
-248.6665083031811
 72
     2
 10
-184.4144607945208
 20
-248.6665083031811
 40
0.3157169230765071
 50
180.0
 51
244.6259913216459
 73
     0
 97
        8
330
284
330
260
330
20C
330
283
330
261
330
262
330
20B
330
25F
 92
       16
 93
       12
 72
     1
 10
-186.9900094810525
 20
-250.5146843038838
 11
-185.5141762200429
 21
-250.5146843038838
 72
     2
 10
-185.5141762200429
 20
-250.1989673808071
 40
0.3157169230767067
 50
270.0
 51
360.0
 73
     1
 72
     1
 10
-185.1984592969663
 20
-250.1989673808071
 11
-185.1984592969663
 21
-248.6681964492755
 72
     2
 10
-185.5141762200429
 20
-248.6681964492755
 40
0.3157169230766215
 50
0.0
 51
64.80558935145781
 73
     1
 72
     2
 10
-184.9915917724679
 20
-247.5573667032127
 40
0.9118975235575889
 50
115.1944106485122
 51
244.805589351471
 73
     0
 72
     2
 10
-185.5141762200429
 20
-246.4465369571505
 40
0.3157169230761581
 50
295.1944106485421
 51
360.0
 73
     1
 72
     1
 10
-185.1984592969663
 20
-246.4465369571505
 11
-185.1984592969663
 21
-245.84251233809
 72
     2
 10
-185.5141762200429
 20
-245.84251233809
 40
0.3157169230766215
 50
0.0
 51
90.0
 73
     1
 72
     1
 10
-185.5141762200429
 20
-245.5267954150138
 11
-186.9900094810525
 21
-245.5267954150138
 72
     2
 10
-186.9900094810525
 20
-245.84251233809
 40
0.3157169230761951
 50
90.0
 51
180.0
 73
     1
 72
     1
 10
-187.3057264041282
 20
-245.84251233809
 11
-187.3057264041282
 21
-250.1989673808071
 72
     2
 10
-186.9900094810525
 20
-250.1989673808071
 40
0.3157169230756836
 50
180.0
 51
270.0
 73
     1
 97
       12
330
1D8
330
269
330
1D7
330
27A
330
1D6
330
279
330
26A
330
26B
330
1D5
330
278
330
1D0
330
27B
 75
     1
 76
     0
 52
45.0
 41
0.1
 77
     0
 78
     1
 53
45.0
 43
0.0
 44
0.0
 45
-0.0707106781186548
 46
0.0707106781186548
 79
     0
 98
        1
 10
0.0
 20
0.0
  0
HATCH
  5
2BA
330
74
100
AcDbEntity
  8
1
  6
Continuous
 62
     2
100
AcDbHatch
 10
0.0
 20
0.0
 30
0.0
210
0.0
220
0.0
230
1.0
  2
_USER
 70
     0
 71
     1
 91
        2
 92
        1
 93
       12
 72
     2
 10
-172.9087401538097
 20
-246.3411446213611
 40
1.526904761905911
 50
90.0
 51
270.0
 73
     1
 72
     1
 10
-172.9087401538097
 20
-247.8680493832664
 11
-169.7584204300287
 21
-247.8680493832664
 72
     1
 10
-169.7584204300287
 20
-247.8680493832664
 11
-169.7584204300287
 21
-247.1700357778239
 72
     1
 10
-169.7584204300287
 20
-247.1700357778239
 11
-171.0943482564564
 21
-247.1700357778239
 72
     1
 10
-171.0943482564564
 20
-247.1700357778239
 11
-171.0943482564564
 21
-246.6901514240822
 72
     1
 10
-171.0943482564564
 20
-246.6901514240822
 11
-169.7584204300287
 21
-246.6901514240822
 72
     1
 10
-169.7584204300287
 20
-246.6901514240822
 11
-169.7584204300287
 21
-245.9921378186399
 72
     1
 10
-169.7584204300287
 20
-245.9921378186399
 11
-171.0943482564564
 21
-245.9921378186399
 72
     1
 10
-171.0943482564564
 20
-245.9921378186399
 11
-171.0943482564564
 21
-245.5122534648982
 72
     1
 10
-171.0943482564564
 20
-245.5122534648982
 11
-169.7584204300287
 21
-245.5122534648982
 72
     1
 10
-169.7584204300287
 20
-245.5122534648982
 11
-169.7584204300287
 21
-244.8142398594552
 72
     1
 10
-169.7584204300287
 20
-244.8142398594552
 11
-172.9087401538097
 21
-244.8142398594552
 97
       12
330
1C7
330
1C1
330
1E8
330
1E7
330
1E6
330
1E5
330
1C2
330
1C3
330
1C4
330
1C5
330
267
330
1C6
 92
       16
 93
        4
 72
     2
 10
-172.4927281072982
 20
-246.3411446213611
 40
0.77179977867969
 50
141.8795802028388
 51
218.1204197971546
 73
     1
 72
     2
 10
-172.6924681436445
 20
-246.4978757994815
 40
0.5179085730134372
 50
218.1204197971511
 51
321.8795802028566
 73
     1
 72
     2
 10
-172.8922081799907
 20
-246.3411446213611
 40
0.7717997786796198
 50
321.8795802028454
 51
398.1204197971612
 73
     1
 72
     2
 10
-172.6924681436445
 20
-246.1844134432406
 40
0.5179085730135266
 50
38.12041979714334
 51
141.8795802028489
 73
     1
 97
        4
330
274
330
273
330
26E
330
26D
 75
     1
 76
     0
 52
45.0
 41
0.1
 77
     0
 78
     1
 53
45.0
 43
0.0
 44
0.0
 45
-0.0707106781186548
 46
0.0707106781186548
 79
     0
 98
        1
 10
0.0
 20
0.0
  0
HATCH
  5
2BB
330
74
100
AcDbEntity
  8
1
  6
Continuous
 62
     2
100
AcDbHatch
 10
0.0
 20
0.0
 30
0.0
210
0.0
220
0.0
230
1.0
  2
_USER
 70
     0
 71
     1
 91
        2
 92
        1
 93
       12
 72
     2
 10
-172.9087401538097
 20
-246.3411446213611
 40
1.526904761905911
 50
90.0
 51
270.0
 73
     1
 72
     1
 10
-172.9087401538097
 20
-247.8680493832664
 11
-169.7584204300287
 21
-247.8680493832664
 72
     1
 10
-169.7584204300287
 20
-247.8680493832664
 11
-169.7584204300287
 21
-247.1700357778239
 72
     1
 10
-169.7584204300287
 20
-247.1700357778239
 11
-171.0943482564564
 21
-247.1700357778239
 72
     1
 10
-171.0943482564564
 20
-247.1700357778239
 11
-171.0943482564564
 21
-246.6901514240822
 72
     1
 10
-171.0943482564564
 20
-246.6901514240822
 11
-169.7584204300287
 21
-246.6901514240822
 72
     1
 10
-169.7584204300287
 20
-246.6901514240822
 11
-169.7584204300287
 21
-245.9921378186399
 72
     1
 10
-169.7584204300287
 20
-245.9921378186399
 11
-171.0943482564564
 21
-245.9921378186399
 72
     1
 10
-171.0943482564564
 20
-245.9921378186399
 11
-171.0943482564564
 21
-245.5122534648982
 72
     1
 10
-171.0943482564564
 20
-245.5122534648982
 11
-169.7584204300287
 21
-245.5122534648982
 72
     1
 10
-169.7584204300287
 20
-245.5122534648982
 11
-169.7584204300287
 21
-244.8142398594552
 72
     1
 10
-169.7584204300287
 20
-244.8142398594552
 11
-172.9087401538097
 21
-244.8142398594552
 97
       12
330
1C7
330
1C1
330
1E8
330
1E7
330
1E6
330
1E5
330
1C2
330
1C3
330
1C4
330
1C5
330
267
330
1C6
 92
       16
 93
        4
 72
     2
 10
-172.4927281072982
 20
-246.3411446213611
 40
0.77179977867969
 50
141.8795802028388
 51
218.1204197971546
 73
     1
 72
     2
 10
-172.6924681436445
 20
-246.4978757994815
 40
0.5179085730134372
 50
218.1204197971511
 51
321.8795802028566
 73
     1
 72
     2
 10
-172.8922081799907
 20
-246.3411446213611
 40
0.7717997786796198
 50
321.8795802028454
 51
398.1204197971612
 73
     1
 72
     2
 10
-172.6924681436445
 20
-246.1844134432406
 40
0.5179085730135266
 50
38.12041979714334
 51
141.8795802028489
 73
     1
 97
        4
330
274
330
273
330
26E
330
26D
 75
     1
 76
     0
 52
45.0
 41
0.1
 77
     0
 78
     1
 53
45.0
 43
0.0
 44
0.0
 45
-0.0707106781186548
 46
0.0707106781186548
 79
     0
 98
        1
 10
0.0
 20
0.0
  0
HATCH
  5
2BC
330
74
100
AcDbEntity
  8
1
  6
Continuous
 62
     2
100
AcDbHatch
 10
0.0
 20
0.0
 30
0.0
210
0.0
220
0.0
230
1.0
  2
_USER
 70
     0
 71
     1
 91
        2
 92
        1
 93
        4
 72
     2
 10
-176.9343555162713
 20
-249.7003350975354
 40
1.458034083651503
 50
117.5481481756634
 51
242.4518518243366
 73
     1
 72
     2
 10
-176.653415624438
 20
-249.1617600872321
 40
2.065479772208522
 50
242.4518518243395
 51
297.5481481756871
 73
     1
 72
     2
 10
-176.3724757326047
 20
-249.7003350975354
 40
1.458034083652003
 50
297.548148175701
 51
422.451851824299
 73
     1
 72
     2
 10
-176.653415624438
 20
-250.2389101078382
 40
2.065479772208568
 50
62.45185182430637
 51
117.5481481756671
 73
     1
 97
        4
330
272
330
26F
330
271
330
270
 92
       16
 93
        4
 72
     2
 10
-176.653415624438
 20
-249.5436039194149
 40
0.5179085730132998
 50
38.12041979714704
 51
141.8795802028588
 73
     1
 72
     2
 10
-176.4536755880919
 20
-249.7003350975354
 40
0.7717997786794633
 50
141.8795802028363
 51
218.1204197971703
 73
     1
 72
     2
 10
-176.653415624438
 20
-249.8570662756554
 40
0.5179085730137529
 50
218.1204197971956
 51
321.8795802027985
 73
     1
 72
     2
 10
-176.8531556607844
 20
-249.7003350975354
 40
0.7717997786797123
 50
321.8795802028401
 51
398.1204197971533
 73
     1
 97
        4
330
255
330
256
330
257
330
254
 75
     1
 76
     0
 52
45.0
 41
0.1
 77
     0
 78
     1
 53
45.0
 43
0.0
 44
0.0
 45
-0.0707106781186548
 46
0.0707106781186548
 79
     0
 98
        1
 10
0.0
 20
0.0
  0
HATCH
  5
2BD
330
74
100
AcDbEntity
  8
1
  6
Continuous
 62
     2
100
AcDbHatch
 10
0.0
 20
0.0
 30
0.0
210
0.0
220
0.0
230
1.0
  2
_USER
 70
     0
 71
     1
 91
        2
 92
        1
 93
        4
 72
     2
 10
-176.9343555162713
 20
-249.7003350975354
 40
1.458034083651503
 50
117.5481481756634
 51
242.4518518243366
 73
     1
 72
     2
 10
-176.653415624438
 20
-249.1617600872321
 40
2.065479772208522
 50
242.4518518243395
 51
297.5481481756871
 73
     1
 72
     2
 10
-176.3724757326047
 20
-249.7003350975354
 40
1.458034083652003
 50
297.548148175701
 51
422.451851824299
 73
     1
 72
     2
 10
-176.653415624438
 20
-250.2389101078382
 40
2.065479772208568
 50
62.45185182430637
 51
117.5481481756671
 73
     1
 97
        4
330
272
330
26F
330
271
330
270
 92
       16
 93
        4
 72
     2
 10
-176.653415624438
 20
-249.5436039194149
 40
0.5179085730132998
 50
38.12041979714704
 51
141.8795802028588
 73
     1
 72
     2
 10
-176.4536755880919
 20
-249.7003350975354
 40
0.7717997786794633
 50
141.8795802028363
 51
218.1204197971703
 73
     1
 72
     2
 10
-176.653415624438
 20
-249.8570662756554
 40
0.5179085730137529
 50
218.1204197971956
 51
321.8795802027985
 73
     1
 72
     2
 10
-176.8531556607844
 20
-249.7003350975354
 40
0.7717997786797123
 50
321.8795802028401
 51
398.1204197971533
 73
     1
 97
        4
330
255
330
256
330
257
330
254
 75
     1
 76
     0
 52
45.0
 41
0.1
 77
     0
 78
     1
 53
45.0
 43
0.0
 44
0.0
 45
-0.0707106781186548
 46
0.0707106781186548
 79
     0
 98
        1
 10
0.0
 20
0.0
  0
HATCH
  5
2BE
330
74
100
AcDbEntity
  8
1
  6
Continuous
 62
     2
100
AcDbHatch
 10
0.0
 20
0.0
 30
0.0
210
0.0
220
0.0
230
1.0
  2
_USER
 70
     0
 71
     1
 91
        2
 92
        1
 93
        6
 72
     1
 10
-181.2092303708315
 20
-244.8142398594552
 11
-181.2092303708315
 21
-247.8680493832664
 72
     1
 10
-181.2092303708315
 20
-247.8680493832664
 11
-179.9687259605774
 21
-247.8680493832664
 72
     1
 10
-179.9687259605774
 20
-247.8680493832664
 11
-179.9687259605774
 21
-246.9249711421226
 72
     1
 10
-179.9687259605774
 20
-246.9249711421226
 11
-179.2099583727971
 21
-246.9249711421226
 72
     2
 10
-179.2099583727971
 20
-245.8696055007889
 40
1.05536564133368
 50
270.0
 51
450.0
 73
     1
 72
     1
 10
-179.2099583727971
 20
-244.8142398594552
 11
-181.2092303708315
 21
-244.8142398594552
 97
        6
330
27C
330
1D9
330
1CF
330
1CE
330
1DB
330
1DA
 92
       16
 93
        4
 72
     1
 10
-179.6514308990355
 20
-245.4773457048953
 11
-179.9687259605774
 21
-245.4773457048953
 72
     1
 10
-179.9687259605774
 20
-245.4773457048953
 11
-179.9687259605774
 21
-246.1830733542375
 72
     1
 10
-179.9687259605774
 20
-246.1830733542375
 11
-179.6514308990355
 21
-246.1830733542375
 72
     2
 10
-179.6514308990355
 20
-245.8302095295664
 40
0.3528638246711182
 50
270.0
 51
450.0
 73
     1
 97
        4
330
1DC
330
1CD
330
1DD
330
268
 75
     1
 76
     0
 52
45.0
 41
0.1
 77
     0
 78
     1
 53
45.0
 43
0.0
 44
0.0
 45
-0.0707106781186548
 46
0.0707106781186548
 79
     0
 98
        1
 10
0.0
 20
0.0
  0
HATCH
  5
2BF
330
74
100
AcDbEntity
  8
1
  6
Continuous
 62
     2
100
AcDbHatch
 10
0.0
 20
0.0
 30
0.0
210
0.0
220
0.0
230
1.0
  2
_USER
 70
     0
 71
     1
 91
        2
 92
        1
 93
        6
 72
     1
 10
-181.2092303708315
 20
-244.8142398594552
 11
-181.2092303708315
 21
-247.8680493832664
 72
     1
 10
-181.2092303708315
 20
-247.8680493832664
 11
-179.9687259605774
 21
-247.8680493832664
 72
     1
 10
-179.9687259605774
 20
-247.8680493832664
 11
-179.9687259605774
 21
-246.9249711421226
 72
     1
 10
-179.9687259605774
 20
-246.9249711421226
 11
-179.2099583727971
 21
-246.9249711421226
 72
     2
 10
-179.2099583727971
 20
-245.8696055007889
 40
1.05536564133368
 50
270.0
 51
450.0
 73
     1
 72
     1
 10
-179.2099583727971
 20
-244.8142398594552
 11
-181.2092303708315
 21
-244.8142398594552
 97
        6
330
27C
330
1D9
330
1CF
330
1CE
330
1DB
330
1DA
 92
       16
 93
        4
 72
     1
 10
-179.6514308990355
 20
-245.4773457048953
 11
-179.9687259605774
 21
-245.4773457048953
 72
     1
 10
-179.9687259605774
 20
-245.4773457048953
 11
-179.9687259605774
 21
-246.1830733542375
 72
     1
 10
-179.9687259605774
 20
-246.1830733542375
 11
-179.6514308990355
 21
-246.1830733542375
 72
     2
 10
-179.6514308990355
 20
-245.8302095295664
 40
0.3528638246711182
 50
270.0
 51
450.0
 73
     1
 97
        4
330
1DC
330
1CD
330
1DD
330
268
 75
     1
 76
     0
 52
45.0
 41
0.1
 77
     0
 78
     1
 53
45.0
 43
0.0
 44
0.0
 45
-0.0707106781186548
 46
0.0707106781186548
 79
     0
 98
        1
 10
0.0
 20
0.0
  0
HATCH
  5
2C0
330
74
100
AcDbEntity
  8
1
  6
Continuous
 62
     2
100
AcDbHatch
 10
0.0
 20
0.0
 30
0.0
210
0.0
220
0.0
230
1.0
  2
_USER
 70
     0
 71
     1
 91
        1
 92
        1
 93
       12
 72
     1
 10
-161.5949471763983
 20
-244.8142398594552
 11
-160.1922229586511
 21
-244.8142398594552
 72
     1
 10
-160.1922229586511
 20
-244.8142398594552
 11
-161.4947525894176
 21
-246.2871903894914
 72
     1
 10
-161.4947525894176
 20
-246.2871903894914
 11
-160.0967995424773
 21
-247.8680493832664
 72
     1
 10
-160.0967995424773
 20
-247.8680493832664
 11
-161.4995237602256
 21
-247.8680493832664
 72
     1
 10
-161.4995237602256
 20
-247.8680493832664
 11
-162.1961146982911
 21
-247.0803175979727
 72
     1
 10
-162.1961146982911
 20
-247.0803175979727
 11
-162.8927056363568
 21
-247.8680493832664
 72
     1
 10
-162.8927056363568
 20
-247.8680493832664
 11
-164.295429854105
 21
-247.8680493832664
 72
     1
 10
-164.295429854105
 20
-247.8680493832664
 11
-162.8974768071647
 21
-246.2871903894914
 72
     1
 10
-162.8974768071647
 20
-246.2871903894914
 11
-164.2000064379322
 21
-244.8142398594552
 72
     1
 10
-164.2000064379322
 20
-244.8142398594552
 11
-162.7972822201829
 21
-244.8142398594552
 72
     1
 10
-162.7972822201829
 20
-244.8142398594552
 11
-162.1961146982911
 21
-245.4940631810107
 72
     1
 10
-162.1961146982911
 20
-245.4940631810107
 11
-161.5949471763983
 21
-244.8142398594552
 97
       12
330
1A8
330
201
330
200
330
1FF
330
1FE
330
1A9
330
1AA
330
1A6
330
1A7
330
204
330
203
330
202
 75
     1
 76
     0
 52
45.0
 41
0.1
 77
     0
 78
     1
 53
45.0
 43
0.0
 44
0.0
 45
-0.0707106781186548
 46
0.0707106781186548
 79
     0
 98
        1
 10
0.0
 20
0.0
  0
HATCH
  5
2C1
330
74
100
AcDbEntity
  8
1
  6
Continuous
 62
     2
100
AcDbHatch
 10
0.0
 20
0.0
 30
0.0
210
0.0
220
0.0
230
1.0
  2
_USER
 70
     0
 71
     1
 91
        1
 92
        1
 93
       12
 72
     1
 10
-161.5949471763983
 20
-244.8142398594552
 11
-160.1922229586511
 21
-244.8142398594552
 72
     1
 10
-160.1922229586511
 20
-244.8142398594552
 11
-161.4947525894176
 21
-246.2871903894914
 72
     1
 10
-161.4947525894176
 20
-246.2871903894914
 11
-160.0967995424773
 21
-247.8680493832664
 72
     1
 10
-160.0967995424773
 20
-247.8680493832664
 11
-161.4995237602256
 21
-247.8680493832664
 72
     1
 10
-161.4995237602256
 20
-247.8680493832664
 11
-162.1961146982911
 21
-247.0803175979727
 72
     1
 10
-162.1961146982911
 20
-247.0803175979727
 11
-162.8927056363568
 21
-247.8680493832664
 72
     1
 10
-162.8927056363568
 20
-247.8680493832664
 11
-164.295429854105
 21
-247.8680493832664
 72
     1
 10
-164.295429854105
 20
-247.8680493832664
 11
-162.8974768071647
 21
-246.2871903894914
 72
     1
 10
-162.8974768071647
 20
-246.2871903894914
 11
-164.2000064379322
 21
-244.8142398594552
 72
     1
 10
-164.2000064379322
 20
-244.8142398594552
 11
-162.7972822201829
 21
-244.8142398594552
 72
     1
 10
-162.7972822201829
 20
-244.8142398594552
 11
-162.1961146982911
 21
-245.4940631810107
 72
     1
 10
-162.1961146982911
 20
-245.4940631810107
 11
-161.5949471763983
 21
-244.8142398594552
 97
       12
330
1A8
330
201
330
200
330
1FF
330
1FE
330
1A9
330
1AA
330
1A6
330
1A7
330
204
330
203
330
202
 75
     1
 76
     0
 52
45.0
 41
0.1
 77
     0
 78
     1
 53
45.0
 43
0.0
 44
0.0
 45
-0.0707106781186548
 46
0.0707106781186548
 79
     0
 98
        1
 10
0.0
 20
0.0
  0
HATCH
  5
2C2
330
74
100
AcDbEntity
  8
1
  6
Continuous
 62
     2
100
AcDbHatch
 10
0.0
 20
0.0
 30
0.0
210
0.0
220
0.0
230
1.0
  2
_USER
 70
     0
 71
     1
 91
        1
 92
        1
 93
        4
 72
     1
 10
-164.4147091243219
 20
-244.8142398594552
 11
-164.4147091243219
 21
-247.8680493832664
 72
     1
 10
-164.4147091243219
 20
-247.8680493832664
 11
-165.6552135345748
 21
-247.8680493832664
 72
     1
 10
-165.6552135345748
 20
-247.8680493832664
 11
-165.6552135345748
 21
-244.8142398594552
 72
     1
 10
-165.6552135345748
 20
-244.8142398594552
 11
-164.4147091243219
 21
-244.8142398594552
 97
        4
330
1FC
330
1AB
330
1FB
330
1FD
 75
     1
 76
     0
 52
45.0
 41
0.1
 77
     0
 78
     1
 53
45.0
 43
0.0
 44
0.0
 45
-0.0707106781186548
 46
0.0707106781186548
 79
     0
 98
        1
 10
0.0
 20
0.0
  0
HATCH
  5
2C3
330
74
100
AcDbEntity
  8
1
  6
Continuous
 62
     2
100
AcDbHatch
 10
0.0
 20
0.0
 30
0.0
210
0.0
220
0.0
230
1.0
  2
_USER
 70
     0
 71
     1
 91
        1
 92
        1
 93
        4
 72
     1
 10
-164.4147091243219
 20
-244.8142398594552
 11
-164.4147091243219
 21
-247.8680493832664
 72
     1
 10
-164.4147091243219
 20
-247.8680493832664
 11
-165.6552135345748
 21
-247.8680493832664
 72
     1
 10
-165.6552135345748
 20
-247.8680493832664
 11
-165.6552135345748
 21
-244.8142398594552
 72
     1
 10
-165.6552135345748
 20
-244.8142398594552
 11
-164.4147091243219
 21
-244.8142398594552
 97
        4
330
1FC
330
1AB
330
1FB
330
1FD
 75
     1
 76
     0
 52
45.0
 41
0.1
 77
     0
 78
     1
 53
45.0
 43
0.0
 44
0.0
 45
-0.0707106781186548
 46
0.0707106781186548
 79
     0
 98
        1
 10
0.0
 20
0.0
  0
HATCH
  5
2C4
330
74
100
AcDbEntity
  8
1
  6
Continuous
 62
     2
100
AcDbHatch
 10
0.0
 20
0.0
 30
0.0
210
0.0
220
0.0
230
1.0
  2
_USER
 70
     0
 71
     1
 91
        2
 92
        1
 93
        8
 72
     1
 10
-164.8051531278539
 20
-251.2272398594407
 11
-166.0456575381078
 21
-251.2272398594407
 72
     1
 10
-166.0456575381078
 20
-251.2272398594407
 11
-166.2571375915836
 21
-250.6862793152228
 72
     1
 10
-166.2571375915836
 20
-250.6862793152228
 11
-167.3895791682574
 21
-250.6862793152228
 72
     1
 10
-167.3895791682574
 20
-250.6862793152228
 11
-167.6010592217332
 21
-251.2272398594407
 72
     1
 10
-167.6010592217332
 20
-251.2272398594407
 11
-168.8415636319862
 21
-251.2272398594407
 72
     1
 10
-168.8415636319862
 20
-251.2272398594407
 11
-167.4436105850469
 21
-248.1734303356296
 72
     1
 10
-167.4436105850469
 20
-248.1734303356296
 11
-166.2031061747942
 21
-248.1734303356296
 72
     1
 10
-166.2031061747942
 20
-248.1734303356296
 11
-164.8051531278539
 21
-251.2272398594407
 97
        8
330
1F7
330
1B1
330
1F6
330
1F9
330
1AE
330
1F8
330
1AF
330
1B0
 92
       16
 93
        3
 72
     1
 10
-167.1235236171124
 20
-250.0057160499162
 11
-166.5231931427299
 21
-250.0057160499162
 72
     1
 10
-166.5231931427299
 20
-250.0057160499162
 11
-166.82335837992
 21
-249.2379010839295
 72
     1
 10
-166.82335837992
 20
-249.2379010839295
 11
-167.1235236171124
 21
-250.0057160499162
 97
        3
330
1AD
330
1AC
330
1FA
 75
     1
 76
     0
 52
45.0
 41
0.1
 77
     0
 78
     1
 53
45.0
 43
0.0
 44
0.0
 45
-0.0707106781186548
 46
0.0707106781186548
 79
     0
 98
        1
 10
0.0
 20
0.0
  0
HATCH
  5
2C5
330
74
100
AcDbEntity
  8
1
  6
Continuous
 62
     2
100
AcDbHatch
 10
0.0
 20
0.0
 30
0.0
210
0.0
220
0.0
230
1.0
  2
_USER
 70
     0
 71
     1
 91
        2
 92
        1
 93
        8
 72
     1
 10
-164.8051531278539
 20
-251.2272398594407
 11
-166.0456575381078
 21
-251.2272398594407
 72
     1
 10
-166.0456575381078
 20
-251.2272398594407
 11
-166.2571375915836
 21
-250.6862793152228
 72
     1
 10
-166.2571375915836
 20
-250.6862793152228
 11
-167.3895791682574
 21
-250.6862793152228
 72
     1
 10
-167.3895791682574
 20
-250.6862793152228
 11
-167.6010592217332
 21
-251.2272398594407
 72
     1
 10
-167.6010592217332
 20
-251.2272398594407
 11
-168.8415636319862
 21
-251.2272398594407
 72
     1
 10
-168.8415636319862
 20
-251.2272398594407
 11
-167.4436105850469
 21
-248.1734303356296
 72
     1
 10
-167.4436105850469
 20
-248.1734303356296
 11
-166.2031061747942
 21
-248.1734303356296
 72
     1
 10
-166.2031061747942
 20
-248.1734303356296
 11
-164.8051531278539
 21
-251.2272398594407
 97
        8
330
1F7
330
1B1
330
1F6
330
1F9
330
1AE
330
1F8
330
1AF
330
1B0
 92
       16
 93
        3
 72
     1
 10
-167.1235236171124
 20
-250.0057160499162
 11
-166.5231931427299
 21
-250.0057160499162
 72
     1
 10
-166.5231931427299
 20
-250.0057160499162
 11
-166.82335837992
 21
-249.2379010839295
 72
     1
 10
-166.82335837992
 20
-249.2379010839295
 11
-167.1235236171124
 21
-250.0057160499162
 97
        3
330
1AD
330
1AC
330
1FA
 75
     1
 76
     0
 52
45.0
 41
0.1
 77
     0
 78
     1
 53
45.0
 43
0.0
 44
0.0
 45
-0.0707106781186548
 46
0.0707106781186548
 79
     0
 98
        1
 10
0.0
 20
0.0
  0
HATCH
  5
2C6
330
74
100
AcDbEntity
  8
1
  6
Continuous
 62
     2
100
AcDbHatch
 10
0.0
 20
0.0
 30
0.0
210
0.0
220
0.0
230
1.0
  2
_USER
 70
     0
 71
     1
 91
        1
 92
        1
 93
        8
 72
     1
 10
-170.9990757711684
 20
-248.1734303356296
 11
-170.9990757711684
 21
-248.9586956417532
 72
     1
 10
-170.9990757711684
 20
-248.9586956417532
 11
-170.1879767336938
 21
-248.9586956417532
 72
     1
 10
-170.1879767336938
 20
-248.9586956417532
 11
-170.1879767336938
 21
-251.2272398594407
 72
     1
 10
-170.1879767336938
 20
-251.2272398594407
 11
-168.9951840315273
 21
-251.2272398594407
 72
     1
 10
-168.9951840315273
 20
-251.2272398594407
 11
-168.9951840315273
 21
-248.9586956417532
 72
     1
 10
-168.9951840315273
 20
-248.9586956417532
 11
-168.1840849940548
 21
-248.9586956417532
 72
     1
 10
-168.1840849940548
 20
-248.9586956417532
 11
-168.1840849940548
 21
-248.1734303356296
 72
     1
 10
-168.1840849940548
 20
-248.1734303356296
 11
-170.9990757711684
 21
-248.1734303356296
 97
        8
330
1F3
330
1F2
330
1F1
330
1B2
330
1B3
330
1F5
330
1B4
330
1F4
 75
     1
 76
     0
 52
45.0
 41
0.1
 77
     0
 78
     1
 53
45.0
 43
0.0
 44
0.0
 45
-0.0707106781186548
 46
0.0707106781186548
 79
     0
 98
        1
 10
0.0
 20
0.0
  0
HATCH
  5
2C7
330
74
100
AcDbEntity
  8
1
  6
Continuous
 62
     2
100
AcDbHatch
 10
0.0
 20
0.0
 30
0.0
210
0.0
220
0.0
230
1.0
  2
_USER
 70
     0
 71
     1
 91
        1
 92
        1
 93
        8
 72
     1
 10
-170.9990757711684
 20
-248.1734303356296
 11
-170.9990757711684
 21
-248.9586956417532
 72
     1
 10
-170.9990757711684
 20
-248.9586956417532
 11
-170.1879767336938
 21
-248.9586956417532
 72
     1
 10
-170.1879767336938
 20
-248.9586956417532
 11
-170.1879767336938
 21
-251.2272398594407
 72
     1
 10
-170.1879767336938
 20
-251.2272398594407
 11
-168.9951840315273
 21
-251.2272398594407
 72
     1
 10
-168.9951840315273
 20
-251.2272398594407
 11
-168.9951840315273
 21
-248.9586956417532
 72
     1
 10
-168.9951840315273
 20
-248.9586956417532
 11
-168.1840849940548
 21
-248.9586956417532
 72
     1
 10
-168.1840849940548
 20
-248.9586956417532
 11
-168.1840849940548
 21
-248.1734303356296
 72
     1
 10
-168.1840849940548
 20
-248.1734303356296
 11
-170.9990757711684
 21
-248.1734303356296
 97
        8
330
1F3
330
1F2
330
1F1
330
1B2
330
1B3
330
1F5
330
1B4
330
1F4
 75
     1
 76
     0
 52
45.0
 41
0.1
 77
     0
 78
     1
 53
45.0
 43
0.0
 44
0.0
 45
-0.0707106781186548
 46
0.0707106781186548
 79
     0
 98
        1
 10
0.0
 20
0.0
  0
HATCH
  5
2C8
330
74
100
AcDbEntity
  8
1
  6
Continuous
 62
     2
100
AcDbHatch
 10
0.0
 20
0.0
 30
0.0
210
0.0
220
0.0
230
1.0
  2
_USER
 70
     0
 71
     1
 91
        1
 92
        1
 93
       10
 72
     1
 10
-168.3270691874293
 20
-244.8142398594552
 11
-169.5198618895958
 21
-244.8142398594552
 72
     1
 10
-169.5198618895958
 20
-244.8142398594552
 11
-169.5198618895958
 21
-247.8680493832664
 72
     1
 10
-169.5198618895958
 20
-247.8680493832664
 11
-168.3270691874293
 21
-247.8680493832664
 72
     1
 10
-168.3270691874293
 20
-247.8680493832664
 11
-168.3270691874293
 21
-246.5592738730617
 72
     1
 10
-168.3270691874293
 20
-246.5592738730617
 11
-167.0865647771753
 21
-247.8680493832664
 72
     1
 10
-167.0865647771753
 20
-247.8680493832664
 11
-165.8937720750087
 21
-247.8680493832664
 72
     1
 10
-165.8937720750087
 20
-247.8680493832664
 11
-165.8937720750087
 21
-244.8142398594552
 72
     1
 10
-165.8937720750087
 20
-244.8142398594552
 11
-167.0865647771753
 21
-244.8142398594552
 72
     1
 10
-167.0865647771753
 20
-244.8142398594552
 11
-167.0865647771753
 21
-246.1230153696604
 72
     1
 10
-167.0865647771753
 20
-246.1230153696604
 11
-168.3270691874293
 21
-244.8142398594552
 97
       10
330
1ED
330
1B7
330
1B8
330
1B9
330
1BA
330
1F0
330
1B5
330
1EF
330
1EE
330
1B6
 75
     1
 76
     0
 52
45.0
 41
0.1
 77
     0
 78
     1
 53
45.0
 43
0.0
 44
0.0
 45
-0.0707106781186548
 46
0.0707106781186548
 79
     0
 98
        1
 10
0.0
 20
0.0
  0
HATCH
  5
2C9
330
74
100
AcDbEntity
  8
1
  6
Continuous
 62
     2
100
AcDbHatch
 10
0.0
 20
0.0
 30
0.0
210
0.0
220
0.0
230
1.0
  2
_USER
 70
     0
 71
     1
 91
        1
 92
        1
 93
       10
 72
     1
 10
-168.3270691874293
 20
-244.8142398594552
 11
-169.5198618895958
 21
-244.8142398594552
 72
     1
 10
-169.5198618895958
 20
-244.8142398594552
 11
-169.5198618895958
 21
-247.8680493832664
 72
     1
 10
-169.5198618895958
 20
-247.8680493832664
 11
-168.3270691874293
 21
-247.8680493832664
 72
     1
 10
-168.3270691874293
 20
-247.8680493832664
 11
-168.3270691874293
 21
-246.5592738730617
 72
     1
 10
-168.3270691874293
 20
-246.5592738730617
 11
-167.0865647771753
 21
-247.8680493832664
 72
     1
 10
-167.0865647771753
 20
-247.8680493832664
 11
-165.8937720750087
 21
-247.8680493832664
 72
     1
 10
-165.8937720750087
 20
-247.8680493832664
 11
-165.8937720750087
 21
-244.8142398594552
 72
     1
 10
-165.8937720750087
 20
-244.8142398594552
 11
-167.0865647771753
 21
-244.8142398594552
 72
     1
 10
-167.0865647771753
 20
-244.8142398594552
 11
-167.0865647771753
 21
-246.1230153696604
 72
     1
 10
-167.0865647771753
 20
-246.1230153696604
 11
-168.3270691874293
 21
-244.8142398594552
 97
       10
330
1ED
330
1B7
330
1B8
330
1B9
330
1BA
330
1F0
330
1B5
330
1EF
330
1EE
330
1B6
 75
     1
 76
     0
 52
45.0
 41
0.1
 77
     0
 78
     1
 53
45.0
 43
0.0
 44
0.0
 45
-0.0707106781186548
 46
0.0707106781186548
 79
     0
 98
        1
 10
0.0
 20
0.0
  0
HATCH
  5
2CA
330
74
100
AcDbEntity
  8
1
  6
Continuous
 62
     2
100
AcDbHatch
 10
0.0
 20
0.0
 30
0.0
210
0.0
220
0.0
230
1.0
  2
_USER
 70
     0
 71
     1
 91
        1
 92
        1
 93
       10
 72
     1
 10
-173.5755080078479
 20
-248.1734303356296
 11
-174.7683007100155
 21
-248.1734303356296
 72
     1
 10
-174.7683007100155
 20
-248.1734303356296
 11
-174.7683007100155
 21
-251.2272398594407
 72
     1
 10
-174.7683007100155
 20
-251.2272398594407
 11
-173.5755080078479
 21
-251.2272398594407
 72
     1
 10
-173.5755080078479
 20
-251.2272398594407
 11
-173.5755080078479
 21
-249.9184643492361
 72
     1
 10
-173.5755080078479
 20
-249.9184643492361
 11
-172.335003597595
 21
-251.2272398594407
 72
     1
 10
-172.335003597595
 20
-251.2272398594407
 11
-171.1422108954286
 21
-251.2272398594407
 72
     1
 10
-171.1422108954286
 20
-251.2272398594407
 11
-171.1422108954286
 21
-248.1734303356296
 72
     1
 10
-171.1422108954286
 20
-248.1734303356296
 11
-172.335003597595
 21
-248.1734303356296
 72
     1
 10
-172.335003597595
 20
-248.1734303356296
 11
-172.335003597595
 21
-249.4822058458347
 72
     1
 10
-172.335003597595
 20
-249.4822058458347
 11
-173.5755080078479
 21
-248.1734303356296
 97
       10
330
1BC
330
1BD
330
1BE
330
1EA
330
1BF
330
1C0
330
1E9
330
1EC
330
1EB
330
1BB
 75
     1
 76
     0
 52
45.0
 41
0.1
 77
     0
 78
     1
 53
45.0
 43
0.0
 44
0.0
 45
-0.0707106781186548
 46
0.0707106781186548
 79
     0
 98
        1
 10
0.0
 20
0.0
  0
HATCH
  5
2CB
330
74
100
AcDbEntity
  8
1
  6
Continuous
 62
     2
100
AcDbHatch
 10
0.0
 20
0.0
 30
0.0
210
0.0
220
0.0
230
1.0
  2
_USER
 70
     0
 71
     1
 91
        1
 92
        1
 93
       10
 72
     1
 10
-173.5755080078479
 20
-248.1734303356296
 11
-174.7683007100155
 21
-248.1734303356296
 72
     1
 10
-174.7683007100155
 20
-248.1734303356296
 11
-174.7683007100155
 21
-251.2272398594407
 72
     1
 10
-174.7683007100155
 20
-251.2272398594407
 11
-173.5755080078479
 21
-251.2272398594407
 72
     1
 10
-173.5755080078479
 20
-251.2272398594407
 11
-173.5755080078479
 21
-249.9184643492361
 72
     1
 10
-173.5755080078479
 20
-249.9184643492361
 11
-172.335003597595
 21
-251.2272398594407
 72
     1
 10
-172.335003597595
 20
-251.2272398594407
 11
-171.1422108954286
 21
-251.2272398594407
 72
     1
 10
-171.1422108954286
 20
-251.2272398594407
 11
-171.1422108954286
 21
-248.1734303356296
 72
     1
 10
-171.1422108954286
 20
-248.1734303356296
 11
-172.335003597595
 21
-248.1734303356296
 72
     1
 10
-172.335003597595
 20
-248.1734303356296
 11
-172.335003597595
 21
-249.4822058458347
 72
     1
 10
-172.335003597595
 20
-249.4822058458347
 11
-173.5755080078479
 21
-248.1734303356296
 97
       10
330
1BC
330
1BD
330
1BE
330
1EA
330
1BF
330
1C0
330
1E9
330
1EC
330
1EB
330
1BB
 75
     1
 76
     0
 52
45.0
 41
0.1
 77
     0
 78
     1
 53
45.0
 43
0.0
 44
0.0
 45
-0.0707106781186548
 46
0.0707106781186548
 79
     0
 98
        1
 10
0.0
 20
0.0
  0
HATCH
  5
2CC
330
74
100
AcDbEntity
  8
1
  6
Continuous
 62
     2
100
AcDbHatch
 10
0.0
 20
0.0
 30
0.0
210
0.0
220
0.0
230
1.0
  2
_USER
 70
     0
 71
     1
 91
        1
 92
        1
 93
       12
 72
     1
 10
-174.5773029467833
 20
-244.8142398594552
 11
-174.5773029467833
 21
-247.8680493832664
 72
     1
 10
-174.5773029467833
 20
-247.8680493832664
 11
-175.7700956489497
 21
-247.8680493832664
 72
     1
 10
-175.7700956489497
 20
-247.8680493832664
 11
-175.7700956489497
 21
-246.7337772744226
 72
     1
 10
-175.7700956489497
 20
-246.7337772744226
 11
-176.8197532268572
 21
-246.7337772744226
 72
     1
 10
-176.8197532268572
 20
-246.7337772744226
 11
-176.8197532268572
 21
-247.8680493832664
 72
     1
 10
-176.8197532268572
 20
-247.8680493832664
 11
-178.0125459290238
 21
-247.8680493832664
 72
     1
 10
-178.0125459290238
 20
-247.8680493832664
 11
-178.0125459290238
 21
-244.8142398594552
 72
     1
 10
-178.0125459290238
 20
-244.8142398594552
 11
-176.8197532268572
 21
-244.8142398594552
 72
     1
 10
-176.8197532268572
 20
-244.8142398594552
 11
-176.8197532268572
 21
-245.8830731927898
 72
     1
 10
-176.8197532268572
 20
-245.8830731927898
 11
-175.7700956489497
 21
-245.8830731927898
 72
     1
 10
-175.7700956489497
 20
-245.8830731927898
 11
-175.7700956489497
 21
-244.8142398594552
 72
     1
 10
-175.7700956489497
 20
-244.8142398594552
 11
-174.5773029467833
 21
-244.8142398594552
 97
       12
330
1E4
330
1E3
330
1E2
330
1CA
330
1CB
330
1E1
330
1CC
330
1E0
330
1DF
330
1DE
330
1C8
330
1C9
 75
     1
 76
     0
 52
45.0
 41
0.1
 77
     0
 78
     1
 53
45.0
 43
0.0
 44
0.0
 45
-0.0707106781186548
 46
0.0707106781186548
 79
     0
 98
        1
 10
0.0
 20
0.0
  0
HATCH
  5
2CD
330
74
100
AcDbEntity
  8
1
  6
Continuous
 62
     2
100
AcDbHatch
 10
0.0
 20
0.0
 30
0.0
210
0.0
220
0.0
230
1.0
  2
_USER
 70
     0
 71
     1
 91
        1
 92
        1
 93
       12
 72
     1
 10
-174.5773029467833
 20
-244.8142398594552
 11
-174.5773029467833
 21
-247.8680493832664
 72
     1
 10
-174.5773029467833
 20
-247.8680493832664
 11
-175.7700956489497
 21
-247.8680493832664
 72
     1
 10
-175.7700956489497
 20
-247.8680493832664
 11
-175.7700956489497
 21
-246.7337772744226
 72
     1
 10
-175.7700956489497
 20
-246.7337772744226
 11
-176.8197532268572
 21
-246.7337772744226
 72
     1
 10
-176.8197532268572
 20
-246.7337772744226
 11
-176.8197532268572
 21
-247.8680493832664
 72
     1
 10
-176.8197532268572
 20
-247.8680493832664
 11
-178.0125459290238
 21
-247.8680493832664
 72
     1
 10
-178.0125459290238
 20
-247.8680493832664
 11
-178.0125459290238
 21
-244.8142398594552
 72
     1
 10
-178.0125459290238
 20
-244.8142398594552
 11
-176.8197532268572
 21
-244.8142398594552
 72
     1
 10
-176.8197532268572
 20
-244.8142398594552
 11
-176.8197532268572
 21
-245.8830731927898
 72
     1
 10
-176.8197532268572
 20
-245.8830731927898
 11
-175.7700956489497
 21
-245.8830731927898
 72
     1
 10
-175.7700956489497
 20
-245.8830731927898
 11
-175.7700956489497
 21
-244.8142398594552
 72
     1
 10
-175.7700956489497
 20
-244.8142398594552
 11
-174.5773029467833
 21
-244.8142398594552
 97
       12
330
1E4
330
1E3
330
1E2
330
1CA
330
1CB
330
1E1
330
1CC
330
1E0
330
1DF
330
1DE
330
1C8
330
1C9
 75
     1
 76
     0
 52
45.0
 41
0.1
 77
     0
 78
     1
 53
45.0
 43
0.0
 44
0.0
 45
-0.0707106781186548
 46
0.0707106781186548
 79
     0
 98
        1
 10
0.0
 20
0.0
  0
ENDBLK
  5
76
330
74
100
AcDbEntity
  8
0
100
AcDbBlockEnd
  0
BLOCK
  5
7A
330
77
100
AcDbEntity
  8
0
100
AcDbBlockBegin
  2
A4I_CS
 70
     0
 10
-62.69999913299442
 20
-263.5207398594571
 30
0.0
  3
A4I_CS
  1

  0
INSERT
  5
78
330
77
100
AcDbEntity
  8
1
100
AcDbBlockReference
  2
_punkt
 10
-62.69999913299442
 20
-258.520739859457
 30
0.0
  0
INSERT
  5
79
330
77
100
AcDbEntity
  8
1
100
AcDbBlockReference
  2
_rahmen
 10
-62.69999913299442
 20
-263.5207398594571
 30
0.0
  0
ENDBLK
  5
7B
330
77
100
AcDbEntity
  8
0
100
AcDbBlockEnd
  0
BLOCK
  5
F9
330
F2
100
AcDbEntity
  8
0
100
AcDbBlockBegin
  2
*D16
 70
     1
 10
0.0
 20
0.0
 30
0.0
  3
*D16
  1

  0
LINE
  5
F3
330
F2
100
AcDbEntity
  8
1
  6
Continuous
 62
     2
100
AcDbLine
 10
-133.6000011304411
 20
-79.80999916448954
 30
0.0
 11
-133.6000011304411
 21
-98.40999916448953
 31
0.0
  0
LINE
  5
F4
330
F2
100
AcDbEntity
  8
1
  6
Continuous
 62
     2
100
AcDbLine
 10
-128.6000011304411
 20
-79.80999916448954
 30
0.0
 11
-134.3500011304411
 21
-79.80999916448954
 31
0.0
  0
LINE
  5
F5
330
F2
100
AcDbEntity
  8
1
  6
Continuous
 62
     2
100
AcDbLine
 10
-128.6000011304411
 20
-98.40999916448953
 30
0.0
 11
-134.3500011304411
 21
-98.40999916448953
 31
0.0
  0
SOLID
  5
F6
330
F2
100
AcDbEntity
  8
1
 62
     2
100
AcDbTrace
 10
-133.3696092596632
 20
-81.55999916448954
 30
0.0
 11
-133.830393001219
 21
-81.55999916448954
 31
0.0
 12
-133.6000011304411
 22
-79.80999916448954
 32
0.0
 13
-133.6000011304411
 23
-79.80999916448954
 33
0.0
  0
SOLID
  5
F7
330
F2
100
AcDbEntity
  8
1
 62
     2
100
AcDbTrace
 10
-133.830393001219
 20
-96.65999916448953
 30
0.0
 11
-133.3696092596632
 21
-96.65999916448953
 31
0.0
 12
-133.6000011304411
 22
-98.40999916448953
 32
0.0
 13
-133.6000011304411
 23
-98.40999916448953
 33
0.0
  0
MTEXT
  5
F8
330
F2
100
AcDbEntity
  8
1
 62
     3
100
AcDbMText
 10
-134.5250011304411
 20
-91.25374916448952
 30
0.0
 40
1.75
 41
0.0
 71
     7
 72
     1
  1
18,6
  7
CONVERTER_11
 11
0.0
 21
1.0
 31
0.0
 73
     1
 44
0.60024009603842
  0
ENDBLK
  5
FA
330
F2
100
AcDbEntity
  8
0
100
AcDbBlockEnd
  0
BLOCK
  5
186
330
17F
100
AcDbEntity
  8
0
100
AcDbBlockBegin
  2
*D17
 70
     1
 10
0.0
 20
0.0
 30
0.0
  3
*D17
  1

  0
LINE
  5
180
330
17F
100
AcDbEntity
  8
1
  6
Continuous
 62
     2
100
AcDbLine
 10
-128.6000007390876
 20
-69.80999970837595
 30
0.0
 11
-105.6000007390876
 21
-69.80999970837595
 31
0.0
  0
LINE
  5
181
330
17F
100
AcDbEntity
  8
1
  6
Continuous
 62
     2
100
AcDbLine
 10
-128.6000007390876
 20
-64.80999970837595
 30
0.0
 11
-128.6000007390876
 21
-70.55999970837595
 31
0.0
  0
LINE
  5
182
330
17F
100
AcDbEntity
  8
1
  6
Continuous
 62
     2
100
AcDbLine
 10
-105.6000007390876
 20
-64.80999970837595
 30
0.0
 11
-105.6000007390876
 21
-70.55999970837595
 31
0.0
  0
SOLID
  5
183
330
17F
100
AcDbEntity
  8
1
 62
     2
100
AcDbTrace
 10
-126.8500007390876
 20
-69.57960783759802
 30
0.0
 11
-126.8500007390876
 21
-70.04039157915389
 31
0.0
 12
-128.6000007390876
 22
-69.80999970837595
 32
0.0
 13
-128.6000007390876
 23
-69.80999970837595
 33
0.0
  0
SOLID
  5
184
330
17F
100
AcDbEntity
  8
1
 62
     2
100
AcDbTrace
 10
-107.3500007390876
 20
-70.04039157915389
 30
0.0
 11
-107.3500007390876
 21
-69.57960783759802
 31
0.0
 12
-105.6000007390876
 22
-69.80999970837595
 32
0.0
 13
-105.6000007390876
 23
-69.80999970837595
 33
0.0
  0
MTEXT
  5
185
330
17F
100
AcDbEntity
  8
1
 62
     3
100
AcDbMText
 10
-118.4125007390876
 20
-69.05999970837595
 30
0.0
 40
1.75
 41
0.0
 71
     7
 72
     1
  1
23
  7
CONVERTER_11
 11
0.9999999999970619
 21
2.424068405545306E-6
 31
0.0
 73
     1
 44
0.60024009603842
  0
ENDBLK
  5
187
330
17F
100
AcDbEntity
  8
0
100
AcDbBlockEnd
  0
BLOCK
  5
191
330
18A
100
AcDbEntity
  8
0
100
AcDbBlockBegin
  2
*D18
 70
     1
 10
0.0
 20
0.0
 30
0.0
  3
*D18
  1

  0
LINE
  5
18B
330
18A
100
AcDbEntity
  8
1
  6
Continuous
 62
     2
100
AcDbLine
 10
-133.6000007390876
 20
-64.80999970837595
 30
0.0
 11
-133.6000007390876
 21
-44.18999970837596
 31
0.0
  0
LINE
  5
18C
330
18A
100
AcDbEntity
  8
1
  6
Continuous
 62
     2
100
AcDbLine
 10
-128.6000007390876
 20
-64.80999970837595
 30
0.0
 11
-134.3500007390876
 21
-64.80999970837595
 31
0.0
  0
LINE
  5
18D
330
18A
100
AcDbEntity
  8
1
  6
Continuous
 62
     2
100
AcDbLine
 10
-128.6000007390876
 20
-44.18999970837596
 30
0.0
 11
-134.3500007390876
 21
-44.18999970837596
 31
0.0
  0
SOLID
  5
18E
330
18A
100
AcDbEntity
  8
1
 62
     2
100
AcDbTrace
 10
-133.8303926098655
 20
-63.05999970837595
 30
0.0
 11
-133.3696088683097
 21
-63.05999970837595
 31
0.0
 12
-133.6000007390876
 22
-64.80999970837595
 32
0.0
 13
-133.6000007390876
 23
-64.80999970837595
 33
0.0
  0
SOLID
  5
18F
330
18A
100
AcDbEntity
  8
1
 62
     2
100
AcDbTrace
 10
-133.3696088683097
 20
-45.93999970837596
 30
0.0
 11
-133.8303926098655
 21
-45.93999970837596
 31
0.0
 12
-133.6000007390876
 22
-44.18999970837596
 32
0.0
 13
-133.6000007390876
 23
-44.18999970837596
 33
0.0
  0
MTEXT
  5
190
330
18A
100
AcDbEntity
  8
1
 62
     3
100
AcDbMText
 10
-134.5250007390876
 20
-56.90624970837596
 30
0.0
 40
1.75
 41
0.0
 71
     7
 72
     1
  1
20,6
  7
CONVERTER_11
 11
0.0
 21
1.0
 31
0.0
 73
     1
 44
0.60024009603842
  0
ENDBLK
  5
192
330
18A
100
AcDbEntity
  8
0
100
AcDbBlockEnd
  0
ENDSEC
  0
SECTION
  2
ENTITIES
  0
INSERT
  5
7C
330
1F
100
AcDbEntity
  8
0
100
AcDbBlockReference
  2
Allg1
 10
-111.9999999999921
 20
-187.000000000002
 30
0.0
 41
2.0
 42
2.0
 43
2.0
  0
INSERT
  5
7D
330
1F
100
AcDbEntity
  8
0
100
AcDbBlockReference
  2
Drfsicht1
 10
-234.2000022608922
 20
-178.2199990630149
 30
0.0
 41
2.0
 42
2.0
 43
2.0
  0
INSERT
  5
7E
330
1F
100
AcDbEntity
  8
0
100
AcDbBlockReference
  2
Rckans1
 10
-111.000000000025
 20
-109.0
 30
0.0
 41
2.0
 42
2.0
 43
2.0
  0
INSERT
  5
7F
330
1F
100
AcDbEntity
  8
0
100
AcDbBlockReference
  2
SA_Links1
 10
-172.5999988913537
 20
-109.0
 30
0.0
 41
2.0
 42
2.0
 43
2.0
  0
INSERT
  5
80
330
1F
100
AcDbEntity
  8
0
100
AcDbBlockReference
  2
SA_Rechts1
 10
-305.79999899999
 20
-109.0
 30
0.0
 41
2.0
 42
2.0
 43
2.0
  0
INSERT
  5
81
330
1F
100
AcDbEntity
  8
0
100
AcDbBlockReference
  2
Vordans1
 10
-234.2000014781852
 20
-109.0000000000001
 30
0.0
 41
2.0
 42
2.0
 43
2.0
  0
INSERT
  5
82
330
1F
100
AcDbEntity
  8
0
100
AcDbBlockReference
  2
A4I_CS
 10
-62.69999913299442
 20
-263.5207398594571
 30
0.0
  0
ENDSEC
  0
SECTION
  2
OBJECTS
  0
DICTIONARY
  5
C
330
0
100
AcDbDictionary
281
     1
  3
ACAD_GROUP
350
D
  3
ACAD_LAYOUT
350
1A
  3
ACAD_MATERIAL
350
3B
  3
ACAD_MLEADERSTYLE
350
2D0
  3
ACAD_MLINESTYLE
350
17
  3
ACAD_PLOTSETTINGS
350
19
  3
ACAD_PLOTSTYLENAME
350
E
  3
ACAD_VISUALSTYLE
350
2A
  3
AcDbVariableDictionary
350
2CE
  0
DICTIONARY
  5
D
102
{ACAD_REACTORS
330
C
102
}
330
C
100
AcDbDictionary
281
     1
  0
DICTIONARY
  5
1A
102
{ACAD_REACTORS
330
C
102
}
330
C
100
AcDbDictionary
281
     1
  3
Layout1
350
1E
  3
Layout2
350
26
  3
Model
350
22
  0
DICTIONARY
  5
3B
102
{ACAD_REACTORS
330
C
102
}
330
C
100
AcDbDictionary
281
     1
  3
ByBlock
350
3D
  3
ByLayer
350
3C
  3
Global
350
3E
  0
DICTIONARY
  5
2D0
102
{ACAD_REACTORS
330
C
102
}
330
C
100
AcDbDictionary
281
     1
  0
DICTIONARY
  5
17
102
{ACAD_REACTORS
330
C
102
}
330
C
100
AcDbDictionary
281
     1
  3
Standard
350
18
  0
DICTIONARY
  5
19
102
{ACAD_REACTORS
330
C
102
}
330
C
100
AcDbDictionary
281
     1
  0
ACDBDICTIONARYWDFLT
  5
E
102
{ACAD_REACTORS
330
C
102
}
330
C
100
AcDbDictionary
281
     1
  3
Normal
350
F
100
AcDbDictionaryWithDefault
340
F
  0
DICTIONARY
  5
2A
102
{ACAD_REACTORS
330
C
102
}
330
C
100
AcDbDictionary
281
     1
  3
2dWireframe
350
2F
  3
3D Hidden
350
31
  3
3dWireframe
350
30
  3
Basic
350
32
  3
Brighten
350
36
  3
ColorChange
350
3A
  3
Conceptual
350
34
  3
Dim
350
35
  3
Facepattern
350
39
  3
Flat
350
2B
  3
FlatWithEdges
350
2C
  3
Gouraud
350
2D
  3
GouraudWithEdges
350
2E
  3
Linepattern
350
38
  3
Realistic
350
33
  3
Thicken
350
37
  0
DICTIONARY
  5
2CE
102
{ACAD_REACTORS
330
C
102
}
330
C
100
AcDbDictionary
281
     1
  3
DIMASSOC
350
2D1
  3
HIDETEXT
350
2D2
  0
LAYOUT
  5
1E
102
{ACAD_REACTORS
330
1A
102
}
330
1A
100
AcDbPlotSettings
  1

  2
none_device
  4

  6

 40
0.0
 41
0.0
 42
0.0
 43
0.0
 44
0.0
 45
0.0
 46
0.0
 47
0.0
 48
0.0
 49
0.0
140
0.0
141
0.0
142
1.0
143
1.0
 70
   688
 72
     0
 73
     0
 74
     5
  7

 75
    16
147
1.0
148
0.0
149
0.0
100
AcDbLayout
  1
Layout1
 70
     1
 71
     1
 10
0.0
 20
0.0
 11
12.0
 21
9.0
 12
0.0
 22
0.0
 32
0.0
 14
1.00000000000000E+20
 24
1.00000000000000E+20
 34
1.00000000000000E+20
 15
-1.00000000000000E+20
 25
-1.00000000000000E+20
 35
-1.00000000000000E+20
146
0.0
 13
0.0
 23
0.0
 33
0.0
 16
1.0
 26
0.0
 36
0.0
 17
0.0
 27
1.0
 37
0.0
 76
     0
330
1B
  0
LAYOUT
  5
26
102
{ACAD_REACTORS
330
1A
102
}
330
1A
100
AcDbPlotSettings
  1

  2
none_device
  4

  6

 40
0.0
 41
0.0
 42
0.0
 43
0.0
 44
0.0
 45
0.0
 46
0.0
 47
0.0
 48
0.0
 49
0.0
140
0.0
141
0.0
142
1.0
143
1.0
 70
   688
 72
     0
 73
     0
 74
     5
  7

 75
    16
147
1.0
148
0.0
149
0.0
100
AcDbLayout
  1
Layout2
 70
     1
 71
     2
 10
0.0
 20
0.0
 11
0.0
 21
0.0
 12
0.0
 22
0.0
 32
0.0
 14
0.0
 24
0.0
 34
0.0
 15
0.0
 25
0.0
 35
0.0
146
0.0
 13
0.0
 23
0.0
 33
0.0
 16
1.0
 26
0.0
 36
0.0
 17
0.0
 27
1.0
 37
0.0
 76
     0
330
23
  0
LAYOUT
  5
22
102
{ACAD_REACTORS
330
1A
102
}
330
1A
100
AcDbPlotSettings
  1

  2
none_device
  4

  6

 40
0.0
 41
0.0
 42
0.0
 43
0.0
 44
0.0
 45
0.0
 46
0.0
 47
0.0
 48
0.0
 49
0.0
140
0.0
141
0.0
142
1.0
143
1.0
 70
  1712
 72
     0
 73
     0
 74
     0
  7

 75
     0
147
1.0
148
0.0
149
0.0
100
AcDbLayout
  1
Model
 70
     1
 71
     0
 10
0.0
 20
0.0
 11
12.0
 21
9.0
 12
0.0
 22
0.0
 32
0.0
 14
-354.6999991329935
 24
-263.5207398594571
 34
0.0
 15
-57.69999913299543
 25
-53.520739859457
 35
0.0
146
0.0
 13
0.0
 23
0.0
 33
0.0
 16
1.0
 26
0.0
 36
0.0
 17
0.0
 27
1.0
 37
0.0
 76
     0
330
1F
331
29
  0
MATERIAL
  5
3D
102
{ACAD_REACTORS
330
3B
102
}
102
{ACAD_XDICTIONARY
360
2F5
102
}
330
3B
100
AcDbMaterial
  1
ByBlock
  0
MATERIAL
  5
3C
102
{ACAD_REACTORS
330
3B
102
}
102
{ACAD_XDICTIONARY
360
2F3
102
}
330
3B
100
AcDbMaterial
  1
ByLayer
  0
MATERIAL
  5
3E
102
{ACAD_REACTORS
330
3B
102
}
102
{ACAD_XDICTIONARY
360
2F7
102
}
330
3B
100
AcDbMaterial
  1
Global
  0
MLINESTYLE
  5
18
102
{ACAD_REACTORS
330
17
102
}
330
17
100
AcDbMlineStyle
  2
Standard
 70
     0
  3

 62
   256
 51
90.0
 52
90.0
 71
     2
 49
0.5
 62
   256
  6
BYLAYER
 49
-0.5
 62
   256
  6
BYLAYER
  0
ACDBPLACEHOLDER
  5
F
102
{ACAD_REACTORS
330
E
102
}
330
E
  0
VISUALSTYLE
  5
2F
102
{ACAD_REACTORS
330
2A
102
}
102
{ACAD_XDICTIONARY
360
2DB
102
}
330
2A
100
AcDbVisualStyle
  2
2dWireframe
 70
     4
 71
     0
 72
     2
 73
     0
 90
        0
 40
-0.6
 41
-30.0
 62
     5
 63
     7
 74
     1
 91
        4
 64
     7
 65
   257
 75
     1
175
     1
 42
1.0
 92
        0
 66
   257
 43
1.0
 76
     1
 77
     6
 78
     2
 67
     7
 79
     5
170
     0
171
     0
290
     0
174
     0
 93
        1
 44
0.0
173
     0
291
     0
 45
0.0
1001
ACAD
1000
AcDbSavedByObjectVersion
1070
     0
  0
VISUALSTYLE
  5
31
102
{ACAD_REACTORS
330
2A
102
}
102
{ACAD_XDICTIONARY
360
2DF
102
}
330
2A
100
AcDbVisualStyle
  2
3D Hidden
 70
     6
 71
     1
 72
     2
 73
     2
 90
        0
 40
-0.6
 41
-30.0
 62
     5
 63
     7
 74
     2
 91
        2
 64
     7
 65
   257
 75
     2
175
     1
 42
40.0
 92
        0
 66
   257
 43
1.0
 76
     1
 77
     6
 78
     2
 67
     7
 79
     3
170
     0
171
     0
290
     0
174
     0
 93
        1
 44
0.0
173
     0
291
     0
 45
0.0
1001
ACAD
1000
AcDbSavedByObjectVersion
1070
     0
  0
VISUALSTYLE
  5
30
102
{ACAD_REACTORS
330
2A
102
}
102
{ACAD_XDICTIONARY
360
2DD
102
}
330
2A
100
AcDbVisualStyle
  2
3dWireframe
 70
     5
 71
     0
 72
     2
 73
     0
 90
        0
 40
-0.6
 41
-30.0
 62
     5
 63
     7
 74
     1
 91
        4
 64
     7
 65
   257
 75
     1
175
     1
 42
1.0
 92
        0
 66
   257
 43
1.0
 76
     1
 77
     6
 78
     2
 67
     7
 79
     5
170
     0
171
     0
290
     0
174
     0
 93
        1
 44
0.0
173
     0
291
     0
 45
0.0
1001
ACAD
1000
AcDbSavedByObjectVersion
1070
     0
  0
VISUALSTYLE
  5
32
102
{ACAD_REACTORS
330
2A
102
}
102
{ACAD_XDICTIONARY
360
2E1
102
}
330
2A
100
AcDbVisualStyle
  2
Basic
 70
     7
 71
     1
 72
     0
 73
     1
 90
        0
 40
-0.6
 41
-30.0
 62
     5
 63
     7
 74
     0
 91
        4
 64
     7
 65
   257
 75
     1
175
     1
 42
1.0
 92
        8
 66
     7
 43
1.0
 76
     1
 77
     6
 78
     2
 67
     7
 79
     5
170
     0
171
     0
290
     0
174
     0
 93
        1
 44
0.0
173
     0
291
     1
 45
0.0
1001
ACAD
1000
AcDbSavedByObjectVersion
1070
     0
  0
VISUALSTYLE
  5
36
102
{ACAD_REACTORS
330
2A
102
}
102
{ACAD_XDICTIONARY
360
2E9
102
}
330
2A
100
AcDbVisualStyle
  2
Brighten
 70
    12
 71
     2
 72
     2
 73
     0
 90
        0
 40
-0.6
 41
-30.0
 62
     5
 63
     7
 74
     1
 91
        4
 64
     7
 65
   257
 75
     1
175
     1
 42
1.0
 92
        8
 66
     7
 43
1.0
 76
     1
 77
     6
 78
     2
 67
     7
 79
     5
170
     0
171
     0
290
     0
174
     0
 93
        1
 44
50.0
173
     0
291
     1
 45
0.0
1001
ACAD
1000
AcDbSavedByObjectVersion
1070
     0
  0
VISUALSTYLE
  5
3A
102
{ACAD_REACTORS
330
2A
102
}
102
{ACAD_XDICTIONARY
360
2F1
102
}
330
2A
100
AcDbVisualStyle
  2
ColorChange
 70
    16
 71
     2
 72
     2
 73
     3
 90
        0
 40
-0.6
 41
-30.0
 62
     5
 63
     8
 74
     1
 91
        4
 64
     7
 65
   257
 75
     1
175
     1
 42
1.0
 92
        8
 66
     8
 43
1.0
 76
     1
 77
     6
 78
     2
 67
     7
 79
     5
170
     0
171
     0
290
     0
174
     0
 93
        1
 44
0.0
173
     0
291
     1
 45
0.0
1001
ACAD
1000
AcDbSavedByObjectVersion
1070
     0
  0
VISUALSTYLE
  5
34
102
{ACAD_REACTORS
330
2A
102
}
102
{ACAD_XDICTIONARY
360
2E5
102
}
330
2A
100
AcDbVisualStyle
  2
Conceptual
 70
     9
 71
     3
 72
     2
 73
     0
 90
        0
 40
-0.6
 41
-30.0
 62
     5
 63
     7
 74
     2
 91
        2
 64
     7
 65
   257
 75
     1
175
     1
 42
40.0
 92
        8
 66
     7
 43
1.0
 76
     1
 77
     6
 78
     2
 67
     7
 79
     3
170
     0
171
     0
290
     0
174
     0
 93
        1
 44
0.0
173
     0
291
     0
 45
0.0
1001
ACAD
1000
AcDbSavedByObjectVersion
1070
     0
  0
VISUALSTYLE
  5
35
102
{ACAD_REACTORS
330
2A
102
}
102
{ACAD_XDICTIONARY
360
2E7
102
}
330
2A
100
AcDbVisualStyle
  2
Dim
 70
    11
 71
     2
 72
     2
 73
     0
 90
        0
 40
-0.6
 41
-30.0
 62
     5
 63
     7
 74
     1
 91
        4
 64
     7
 65
   257
 75
     1
175
     1
 42
1.0
 92
        8
 66
     7
 43
1.0
 76
     1
 77
     6
 78
     2
 67
     7
 79
     5
170
     0
171
     0
290
     0
174
     0
 93
        1
 44
-50.0
173
     0
291
     1
 45
0.0
1001
ACAD
1000
AcDbSavedByObjectVersion
1070
     0
  0
VISUALSTYLE
  5
39
102
{ACAD_REACTORS
330
2A
102
}
102
{ACAD_XDICTIONARY
360
2EF
102
}
330
2A
100
AcDbVisualStyle
  2
Facepattern
 70
    15
 71
     2
 72
     2
 73
     0
 90
        0
 40
-0.6
 41
-30.0
 62
     5
 63
     7
 74
     1
 91
        4
 64
     7
 65
   257
 75
     1
175
     1
 42
1.0
 92
        8
 66
     7
 43
1.0
 76
     1
 77
     6
 78
     2
 67
     7
 79
     5
170
     0
171
     0
290
     0
174
     0
 93
        1
 44
0.0
173
     0
291
     1
 45
0.0
1001
ACAD
1000
AcDbSavedByObjectVersion
1070
     0
  0
VISUALSTYLE
  5
2B
102
{ACAD_REACTORS
330
2A
102
}
102
{ACAD_XDICTIONARY
360
2D3
102
}
330
2A
100
AcDbVisualStyle
  2
Flat
 70
     0
 71
     2
 72
     1
 73
     1
 90
        2
 40
-0.6
 41
30.0
 62
     5
 63
     7
 74
     0
 91
        4
 64
     7
 65
   257
 75
     1
175
     1
 42
1.0
 92
        8
 66
     7
 43
1.0
 76
     1
 77
     6
 78
     2
 67
     7
 79
     5
170
     0
171
     0
290
     0
174
     0
 93
       13
 44
0.0
173
     0
291
     1
 45
0.0
1001
ACAD
1000
AcDbSavedByObjectVersion
1070
     0
  0
VISUALSTYLE
  5
2C
102
{ACAD_REACTORS
330
2A
102
}
102
{ACAD_XDICTIONARY
360
2D5
102
}
330
2A
100
AcDbVisualStyle
  2
FlatWithEdges
 70
     1
 71
     2
 72
     1
 73
     1
 90
        2
 40
-0.6
 41
30.0
 62
     5
 63
     7
 74
     1
 91
        4
 64
     7
 65
   257
 75
     1
175
     1
 42
1.0
 92
        0
 66
   257
 43
1.0
 76
     1
 77
     6
 78
     2
 67
     7
 79
     5
170
     0
171
     0
290
     0
174
     0
 93
       13
 44
0.0
173
     0
291
     1
 45
0.0
1001
ACAD
1000
AcDbSavedByObjectVersion
1070
     0
  0
VISUALSTYLE
  5
2D
102
{ACAD_REACTORS
330
2A
102
}
102
{ACAD_XDICTIONARY
360
2D7
102
}
330
2A
100
AcDbVisualStyle
  2
Gouraud
 70
     2
 71
     2
 72
     2
 73
     1
 90
        2
 40
-0.6
 41
30.0
 62
     5
 63
     7
 74
     0
 91
        4
 64
     7
 65
   257
 75
     1
175
     1
 42
1.0
 92
        0
 66
     7
 43
1.0
 76
     1
 77
     6
 78
     2
 67
     7
 79
     5
170
     0
171
     0
290
     0
174
     0
 93
       13
 44
0.0
173
     0
291
     1
 45
0.0
1001
ACAD
1000
AcDbSavedByObjectVersion
1070
     0
  0
VISUALSTYLE
  5
2E
102
{ACAD_REACTORS
330
2A
102
}
102
{ACAD_XDICTIONARY
360
2D9
102
}
330
2A
100
AcDbVisualStyle
  2
GouraudWithEdges
 70
     3
 71
     2
 72
     2
 73
     1
 90
        2
 40
-0.6
 41
30.0
 62
     5
 63
     7
 74
     1
 91
        4
 64
     7
 65
   257
 75
     1
175
     1
 42
1.0
 92
        0
 66
   257
 43
1.0
 76
     1
 77
     6
 78
     2
 67
     7
 79
     5
170
     0
171
     0
290
     0
174
     0
 93
       13
 44
0.0
173
     0
291
     1
 45
0.0
1001
ACAD
1000
AcDbSavedByObjectVersion
1070
     0
  0
VISUALSTYLE
  5
38
102
{ACAD_REACTORS
330
2A
102
}
102
{ACAD_XDICTIONARY
360
2ED
102
}
330
2A
100
AcDbVisualStyle
  2
Linepattern
 70
    14
 71
     2
 72
     2
 73
     0
 90
        0
 40
-0.6
 41
-30.0
 62
     5
 63
     7
 74
     1
 91
        4
 64
     7
 65
   257
 75
     7
175
     7
 42
1.0
 92
        8
 66
     7
 43
1.0
 76
     1
 77
     6
 78
     2
 67
     7
 79
     5
170
     0
171
     0
290
     0
174
     0
 93
        1
 44
0.0
173
     0
291
     1
 45
0.0
1001
ACAD
1000
AcDbSavedByObjectVersion
1070
     0
  0
VISUALSTYLE
  5
33
102
{ACAD_REACTORS
330
2A
102
}
102
{ACAD_XDICTIONARY
360
2E3
102
}
330
2A
100
AcDbVisualStyle
  2
Realistic
 70
     8
 71
     2
 72
     2
 73
     0
 90
        0
 40
-0.6
 41
-30.0
 62
     5
 63
     7
 74
     1
 91
        0
 64
     7
 65
   257
 75
     1
175
     1
 42
1.0
 92
        8
 66
     8
 43
1.0
 76
     1
 77
     6
 78
     2
 67
     7
 79
     5
170
     0
171
     0
290
     0
174
     0
 93
       13
 44
0.0
173
     0
291
     0
 45
0.0
1001
ACAD
1000
AcDbSavedByObjectVersion
1070
     0
  0
VISUALSTYLE
  5
37
102
{ACAD_REACTORS
330
2A
102
}
102
{ACAD_XDICTIONARY
360
2EB
102
}
330
2A
100
AcDbVisualStyle
  2
Thicken
 70
    13
 71
     2
 72
     2
 73
     0
 90
        0
 40
-0.6
 41
-30.0
 62
     5
 63
     7
 74
     1
 91
        4
 64
     7
 65
   257
 75
     1
175
     1
 42
1.0
 92
       12
 66
     7
 43
1.0
 76
     1
 77
     6
 78
     2
 67
     7
 79
     5
170
     0
171
     0
290
     0
174
     0
 93
        1
 44
0.0
173
     0
291
     1
 45
0.0
1001
ACAD
1000
AcDbSavedByObjectVersion
1070
     0
  0
DICTIONARYVAR
  5
2D1
102
{ACAD_REACTORS
330
2CE
102
}
330
2CE
100
DictionaryVariables
280
     0
  1
2
  0
DICTIONARYVAR
  5
2D2
102
{ACAD_REACTORS
330
2CE
102
}
330
2CE
100
DictionaryVariables
280
     0
  1
1
  0
DICTIONARY
  5
2F5
330
3D
100
AcDbDictionary
280
     1
281
     1
  3
ACAD_XREC_ROUNDTRIP
360
2F6
  0
DICTIONARY
  5
2F3
330
3C
100
AcDbDictionary
280
     1
281
     1
  3
ACAD_XREC_ROUNDTRIP
360
2F4
  0
DICTIONARY
  5
2F7
330
3E
100
AcDbDictionary
280
     1
281
     1
  3
ACAD_XREC_ROUNDTRIP
360
2F8
  0
DICTIONARY
  5
2DB
330
2F
100
AcDbDictionary
280
     1
281
     1
  3
ACAD_XREC_ROUNDTRIP
360
2DC
  0
DICTIONARY
  5
2DF
330
31
100
AcDbDictionary
280
     1
281
     1
  3
ACAD_XREC_ROUNDTRIP
360
2E0
  0
DICTIONARY
  5
2DD
330
30
100
AcDbDictionary
280
     1
281
     1
  3
ACAD_XREC_ROUNDTRIP
360
2DE
  0
DICTIONARY
  5
2E1
330
32
100
AcDbDictionary
280
     1
281
     1
  3
ACAD_XREC_ROUNDTRIP
360
2E2
  0
DICTIONARY
  5
2E9
330
36
100
AcDbDictionary
280
     1
281
     1
  3
ACAD_XREC_ROUNDTRIP
360
2EA
  0
DICTIONARY
  5
2F1
330
3A
100
AcDbDictionary
280
     1
281
     1
  3
ACAD_XREC_ROUNDTRIP
360
2F2
  0
DICTIONARY
  5
2E5
330
34
100
AcDbDictionary
280
     1
281
     1
  3
ACAD_XREC_ROUNDTRIP
360
2E6
  0
DICTIONARY
  5
2E7
330
35
100
AcDbDictionary
280
     1
281
     1
  3
ACAD_XREC_ROUNDTRIP
360
2E8
  0
DICTIONARY
  5
2EF
330
39
100
AcDbDictionary
280
     1
281
     1
  3
ACAD_XREC_ROUNDTRIP
360
2F0
  0
DICTIONARY
  5
2D3
330
2B
100
AcDbDictionary
280
     1
281
     1
  3
ACAD_XREC_ROUNDTRIP
360
2D4
  0
DICTIONARY
  5
2D5
330
2C
100
AcDbDictionary
280
     1
281
     1
  3
ACAD_XREC_ROUNDTRIP
360
2D6
  0
DICTIONARY
  5
2D7
330
2D
100
AcDbDictionary
280
     1
281
     1
  3
ACAD_XREC_ROUNDTRIP
360
2D8
  0
DICTIONARY
  5
2D9
330
2E
100
AcDbDictionary
280
     1
281
     1
  3
ACAD_XREC_ROUNDTRIP
360
2DA
  0
DICTIONARY
  5
2ED
330
38
100
AcDbDictionary
280
     1
281
     1
  3
ACAD_XREC_ROUNDTRIP
360
2EE
  0
DICTIONARY
  5
2E3
330
33
100
AcDbDictionary
280
     1
281
     1
  3
ACAD_XREC_ROUNDTRIP
360
2E4
  0
DICTIONARY
  5
2EB
330
37
100
AcDbDictionary
280
     1
281
     1
  3
ACAD_XREC_ROUNDTRIP
360
2EC
  0
XRECORD
  5
2F6
102
{ACAD_REACTORS
330
2F5
102
}
330
2F5
100
AcDbXrecord
280
     1
102
MATERIAL
148
0.0
149
0.0
149
0.0
 93
        0
 94
      127
282
     0
 72
     1
 77
     1
171
     1
175
     1
179
     1
273
     0
  0
XRECORD
  5
2F4
102
{ACAD_REACTORS
330
2F3
102
}
330
2F3
100
AcDbXrecord
280
     1
102
MATERIAL
148
0.0
149
0.0
149
0.0
 93
        0
 94
      127
282
     0
 72
     1
 77
     1
171
     1
175
     1
179
     1
273
     0
  0
XRECORD
  5
2F8
102
{ACAD_REACTORS
330
2F7
102
}
330
2F7
100
AcDbXrecord
280
     1
102
MATERIAL
148
0.0
149
0.0
149
0.0
 93
        0
 94
      127
282
     0
 72
     1
 77
     1
171
     1
175
     1
179
     1
273
     0
  0
XRECORD
  5
2DC
102
{ACAD_REACTORS
330
2DB
102
}
330
2DB
100
AcDbXrecord
280
     1
102
RTVSPropertyOp0
 70
     1
102
RTVSPropertyOp1
 70
     1
102
RTVSPropertyOp2
 70
     1
102
RTVSPropertyOp3
 70
     1
102
RTVSPropertyOp4
 70
     1
102
RTVSPropertyOp5
 70
     1
102
RTVSPropertyOp6
 70
     1
102
RTVSPropertyOp7
 70
     1
102
RTVSPropertyOp8
 70
     1
102
RTVSPropertyOp9
 70
     1
102
RTVSPropertyOp10
 70
     1
102
RTVSPropertyOp11
 70
     1
102
RTVSPropertyOp12
 70
     1
102
RTVSPropertyOp13
 70
     1
102
RTVSPropertyOp14
 70
     1
102
RTVSPropertyOp15
 70
     1
102
RTVSPropertyOp16
 70
     1
102
RTVSPropertyOp17
 70
     1
102
RTVSPropertyOp18
 70
     1
102
RTVSPropertyOp19
 70
     1
102
RTVSPropertyOp20
 70
     1
102
RTVSPropertyOp21
 70
     1
102
RTVSPropertyOp22
 70
     1
102
RTVSPropertyOp23
 70
     1
102
RTVSPropertyOp24
 70
     1
102
RTVSPropertyOp25
 70
     1
102
RTVSPropertyOp26
 70
     1
102
RTVSPropertyOp27
 70
     1
102
RTVSPropertyOp28
 70
     1
102
RTVSPropertyOp29
 70
     1
102
RTVSPropertyOp30
 70
     1
102
RTVSPropertyOp31
 70
     1
102
RTVSPropertyOp32
 70
     1
  0
XRECORD
  5
2E0
102
{ACAD_REACTORS
330
2DF
102
}
330
2DF
100
AcDbXrecord
280
     1
102
RTVSPropertyOp0
 70
     1
102
RTVSPropertyOp1
 70
     1
102
RTVSPropertyOp2
 70
     1
102
RTVSPropertyOp3
 70
     1
102
RTVSPropertyOp4
 70
     1
102
RTVSPropertyOp5
 70
     1
102
RTVSPropertyOp6
 70
     1
102
RTVSPropertyOp7
 70
     1
102
RTVSPropertyOp8
 70
     1
102
RTVSPropertyOp9
 70
     1
102
RTVSPropertyOp10
 70
     1
102
RTVSPropertyOp11
 70
     1
102
RTVSPropertyOp12
 70
     1
102
RTVSPropertyOp13
 70
     1
102
RTVSPropertyOp14
 70
     1
102
RTVSPropertyOp15
 70
     1
102
RTVSPropertyOp16
 70
     1
102
RTVSPropertyOp17
 70
     1
102
RTVSPropertyOp18
 70
     1
102
RTVSPropertyOp19
 70
     1
102
RTVSPropertyOp20
 70
     1
102
RTVSPropertyOp21
 70
     1
102
RTVSPropertyOp22
 70
     1
102
RTVSPropertyOp23
 70
     1
102
RTVSPropertyOp24
 70
     1
102
RTVSPropertyOp25
 70
     1
102
RTVSPropertyOp26
 70
     1
102
RTVSPropertyOp27
 70
     1
102
RTVSPropertyOp28
 70
     1
102
RTVSPropertyOp29
 70
     1
102
RTVSPropertyOp30
 70
     1
102
RTVSPropertyOp31
 70
     1
102
RTVSPropertyOp32
 70
     1
  0
XRECORD
  5
2DE
102
{ACAD_REACTORS
330
2DD
102
}
330
2DD
100
AcDbXrecord
280
     1
102
RTVSPropertyOp0
 70
     1
102
RTVSPropertyOp1
 70
     1
102
RTVSPropertyOp2
 70
     1
102
RTVSPropertyOp3
 70
     1
102
RTVSPropertyOp4
 70
     1
102
RTVSPropertyOp5
 70
     1
102
RTVSPropertyOp6
 70
     1
102
RTVSPropertyOp7
 70
     1
102
RTVSPropertyOp8
 70
     1
102
RTVSPropertyOp9
 70
     1
102
RTVSPropertyOp10
 70
     1
102
RTVSPropertyOp11
 70
     1
102
RTVSPropertyOp12
 70
     1
102
RTVSPropertyOp13
 70
     1
102
RTVSPropertyOp14
 70
     1
102
RTVSPropertyOp15
 70
     1
102
RTVSPropertyOp16
 70
     1
102
RTVSPropertyOp17
 70
     1
102
RTVSPropertyOp18
 70
     1
102
RTVSPropertyOp19
 70
     1
102
RTVSPropertyOp20
 70
     1
102
RTVSPropertyOp21
 70
     1
102
RTVSPropertyOp22
 70
     1
102
RTVSPropertyOp23
 70
     1
102
RTVSPropertyOp24
 70
     1
102
RTVSPropertyOp25
 70
     1
102
RTVSPropertyOp26
 70
     1
102
RTVSPropertyOp27
 70
     1
102
RTVSPropertyOp28
 70
     1
102
RTVSPropertyOp29
 70
     1
102
RTVSPropertyOp30
 70
     1
102
RTVSPropertyOp31
 70
     1
102
RTVSPropertyOp32
 70
     1
  0
XRECORD
  5
2E2
102
{ACAD_REACTORS
330
2E1
102
}
330
2E1
100
AcDbXrecord
280
     1
102
RTVSPropertyOp0
 70
     1
102
RTVSPropertyOp1
 70
     1
102
RTVSPropertyOp2
 70
     1
102
RTVSPropertyOp3
 70
     1
102
RTVSPropertyOp4
 70
     1
102
RTVSPropertyOp5
 70
     1
102
RTVSPropertyOp6
 70
     1
102
RTVSPropertyOp7
 70
     1
102
RTVSPropertyOp8
 70
     1
102
RTVSPropertyOp9
 70
     1
102
RTVSPropertyOp10
 70
     1
102
RTVSPropertyOp11
 70
     1
102
RTVSPropertyOp12
 70
     1
102
RTVSPropertyOp13
 70
     1
102
RTVSPropertyOp14
 70
     1
102
RTVSPropertyOp15
 70
     1
102
RTVSPropertyOp16
 70
     1
102
RTVSPropertyOp17
 70
     1
102
RTVSPropertyOp18
 70
     1
102
RTVSPropertyOp19
 70
     1
102
RTVSPropertyOp20
 70
     1
102
RTVSPropertyOp21
 70
     1
102
RTVSPropertyOp22
 70
     1
102
RTVSPropertyOp23
 70
     1
102
RTVSPropertyOp24
 70
     1
102
RTVSPropertyOp25
 70
     1
102
RTVSPropertyOp26
 70
     1
102
RTVSPropertyOp27
 70
     1
102
RTVSPropertyOp28
 70
     1
102
RTVSPropertyOp29
 70
     1
102
RTVSPropertyOp30
 70
     1
102
RTVSPropertyOp31
 70
     1
102
RTVSPropertyOp32
 70
     1
  0
XRECORD
  5
2EA
102
{ACAD_REACTORS
330
2E9
102
}
330
2E9
100
AcDbXrecord
280
     1
102
RTVSPropertyOp0
 70
     1
102
RTVSPropertyOp1
 70
     1
102
RTVSPropertyOp2
 70
     1
102
RTVSPropertyOp3
 70
     1
102
RTVSPropertyOp4
 70
     1
102
RTVSPropertyOp5
 70
     1
102
RTVSPropertyOp6
 70
     1
102
RTVSPropertyOp7
 70
     1
102
RTVSPropertyOp8
 70
     1
102
RTVSPropertyOp9
 70
     1
102
RTVSPropertyOp10
 70
     1
102
RTVSPropertyOp11
 70
     1
102
RTVSPropertyOp12
 70
     1
102
RTVSPropertyOp13
 70
     1
102
RTVSPropertyOp14
 70
     1
102
RTVSPropertyOp15
 70
     1
102
RTVSPropertyOp16
 70
     1
102
RTVSPropertyOp17
 70
     1
102
RTVSPropertyOp18
 70
     1
102
RTVSPropertyOp19
 70
     1
102
RTVSPropertyOp20
 70
     1
102
RTVSPropertyOp21
 70
     1
102
RTVSPropertyOp22
 70
     1
102
RTVSPropertyOp23
 70
     1
102
RTVSPropertyOp24
 70
     1
102
RTVSPropertyOp25
 70
     1
102
RTVSPropertyOp26
 70
     1
102
RTVSPropertyOp27
 70
     1
102
RTVSPropertyOp28
 70
     1
102
RTVSPropertyOp29
 70
     1
102
RTVSPropertyOp30
 70
     1
102
RTVSPropertyOp31
 70
     1
102
RTVSPropertyOp32
 70
     1
  0
XRECORD
  5
2F2
102
{ACAD_REACTORS
330
2F1
102
}
330
2F1
100
AcDbXrecord
280
     1
102
RTVSPropertyOp0
 70
     1
102
RTVSPropertyOp1
 70
     1
102
RTVSPropertyOp2
 70
     1
102
RTVSPropertyOp3
 70
     1
102
RTVSPropertyOp4
 70
     1
102
RTVSPropertyOp5
 70
     1
102
RTVSPropertyOp6
 70
     1
102
RTVSPropertyOp7
 70
     1
102
RTVSPropertyOp8
 70
     1
102
RTVSPropertyOp9
 70
     1
102
RTVSPropertyOp10
 70
     1
102
RTVSPropertyOp11
 70
     1
102
RTVSPropertyOp12
 70
     1
102
RTVSPropertyOp13
 70
     1
102
RTVSPropertyOp14
 70
     1
102
RTVSPropertyOp15
 70
     1
102
RTVSPropertyOp16
 70
     1
102
RTVSPropertyOp17
 70
     1
102
RTVSPropertyOp18
 70
     1
102
RTVSPropertyOp19
 70
     1
102
RTVSPropertyOp20
 70
     1
102
RTVSPropertyOp21
 70
     1
102
RTVSPropertyOp22
 70
     1
102
RTVSPropertyOp23
 70
     1
102
RTVSPropertyOp24
 70
     1
102
RTVSPropertyOp25
 70
     1
102
RTVSPropertyOp26
 70
     1
102
RTVSPropertyOp27
 70
     1
102
RTVSPropertyOp28
 70
     1
102
RTVSPropertyOp29
 70
     1
102
RTVSPropertyOp30
 70
     1
102
RTVSPropertyOp31
 70
     1
102
RTVSPropertyOp32
 70
     1
  0
XRECORD
  5
2E6
102
{ACAD_REACTORS
330
2E5
102
}
330
2E5
100
AcDbXrecord
280
     1
102
RTVSPropertyOp0
 70
     1
102
RTVSPropertyOp1
 70
     1
102
RTVSPropertyOp2
 70
     1
102
RTVSPropertyOp3
 70
     1
102
RTVSPropertyOp4
 70
     1
102
RTVSPropertyOp5
 70
     1
102
RTVSPropertyOp6
 70
     1
102
RTVSPropertyOp7
 70
     1
102
RTVSPropertyOp8
 70
     1
102
RTVSPropertyOp9
 70
     1
102
RTVSPropertyOp10
 70
     1
102
RTVSPropertyOp11
 70
     1
102
RTVSPropertyOp12
 70
     1
102
RTVSPropertyOp13
 70
     1
102
RTVSPropertyOp14
 70
     1
102
RTVSPropertyOp15
 70
     1
102
RTVSPropertyOp16
 70
     1
102
RTVSPropertyOp17
 70
     1
102
RTVSPropertyOp18
 70
     1
102
RTVSPropertyOp19
 70
     1
102
RTVSPropertyOp20
 70
     1
102
RTVSPropertyOp21
 70
     1
102
RTVSPropertyOp22
 70
     1
102
RTVSPropertyOp23
 70
     1
102
RTVSPropertyOp24
 70
     1
102
RTVSPropertyOp25
 70
     1
102
RTVSPropertyOp26
 70
     1
102
RTVSPropertyOp27
 70
     1
102
RTVSPropertyOp28
 70
     1
102
RTVSPropertyOp29
 70
     1
102
RTVSPropertyOp30
 70
     1
102
RTVSPropertyOp31
 70
     1
102
RTVSPropertyOp32
 70
     1
  0
XRECORD
  5
2E8
102
{ACAD_REACTORS
330
2E7
102
}
330
2E7
100
AcDbXrecord
280
     1
102
RTVSPropertyOp0
 70
     1
102
RTVSPropertyOp1
 70
     1
102
RTVSPropertyOp2
 70
     1
102
RTVSPropertyOp3
 70
     1
102
RTVSPropertyOp4
 70
     1
102
RTVSPropertyOp5
 70
     1
102
RTVSPropertyOp6
 70
     1
102
RTVSPropertyOp7
 70
     1
102
RTVSPropertyOp8
 70
     1
102
RTVSPropertyOp9
 70
     1
102
RTVSPropertyOp10
 70
     1
102
RTVSPropertyOp11
 70
     1
102
RTVSPropertyOp12
 70
     1
102
RTVSPropertyOp13
 70
     1
102
RTVSPropertyOp14
 70
     1
102
RTVSPropertyOp15
 70
     1
102
RTVSPropertyOp16
 70
     1
102
RTVSPropertyOp17
 70
     1
102
RTVSPropertyOp18
 70
     1
102
RTVSPropertyOp19
 70
     1
102
RTVSPropertyOp20
 70
     1
102
RTVSPropertyOp21
 70
     1
102
RTVSPropertyOp22
 70
     1
102
RTVSPropertyOp23
 70
     1
102
RTVSPropertyOp24
 70
     1
102
RTVSPropertyOp25
 70
     1
102
RTVSPropertyOp26
 70
     1
102
RTVSPropertyOp27
 70
     1
102
RTVSPropertyOp28
 70
     1
102
RTVSPropertyOp29
 70
     1
102
RTVSPropertyOp30
 70
     1
102
RTVSPropertyOp31
 70
     1
102
RTVSPropertyOp32
 70
     1
  0
XRECORD
  5
2F0
102
{ACAD_REACTORS
330
2EF
102
}
330
2EF
100
AcDbXrecord
280
     1
102
RTVSPropertyOp0
 70
     1
102
RTVSPropertyOp1
 70
     1
102
RTVSPropertyOp2
 70
     1
102
RTVSPropertyOp3
 70
     1
102
RTVSPropertyOp4
 70
     1
102
RTVSPropertyOp5
 70
     1
102
RTVSPropertyOp6
 70
     1
102
RTVSPropertyOp7
 70
     1
102
RTVSPropertyOp8
 70
     1
102
RTVSPropertyOp9
 70
     1
102
RTVSPropertyOp10
 70
     1
102
RTVSPropertyOp11
 70
     1
102
RTVSPropertyOp12
 70
     1
102
RTVSPropertyOp13
 70
     1
102
RTVSPropertyOp14
 70
     1
102
RTVSPropertyOp15
 70
     1
102
RTVSPropertyOp16
 70
     1
102
RTVSPropertyOp17
 70
     1
102
RTVSPropertyOp18
 70
     1
102
RTVSPropertyOp19
 70
     1
102
RTVSPropertyOp20
 70
     1
102
RTVSPropertyOp21
 70
     1
102
RTVSPropertyOp22
 70
     1
102
RTVSPropertyOp23
 70
     1
102
RTVSPropertyOp24
 70
     1
102
RTVSPropertyOp25
 70
     1
102
RTVSPropertyOp26
 70
     1
102
RTVSPropertyOp27
 70
     1
102
RTVSPropertyOp28
 70
     1
102
RTVSPropertyOp29
 70
     1
102
RTVSPropertyOp30
 70
     1
102
RTVSPropertyOp31
 70
     1
102
RTVSPropertyOp32
 70
     1
  0
XRECORD
  5
2D4
102
{ACAD_REACTORS
330
2D3
102
}
330
2D3
100
AcDbXrecord
280
     1
102
RTVSPropertyOp0
 70
     1
102
RTVSPropertyOp1
 70
     1
102
RTVSPropertyOp2
 70
     1
102
RTVSPropertyOp3
 70
     1
102
RTVSPropertyOp4
 70
     1
102
RTVSPropertyOp5
 70
     1
102
RTVSPropertyOp6
 70
     1
102
RTVSPropertyOp7
 70
     1
102
RTVSPropertyOp8
 70
     1
102
RTVSPropertyOp9
 70
     1
102
RTVSPropertyOp10
 70
     1
102
RTVSPropertyOp11
 70
     1
102
RTVSPropertyOp12
 70
     1
102
RTVSPropertyOp13
 70
     1
102
RTVSPropertyOp14
 70
     1
102
RTVSPropertyOp15
 70
     1
102
RTVSPropertyOp16
 70
     1
102
RTVSPropertyOp17
 70
     1
102
RTVSPropertyOp18
 70
     1
102
RTVSPropertyOp19
 70
     1
102
RTVSPropertyOp20
 70
     1
102
RTVSPropertyOp21
 70
     1
102
RTVSPropertyOp22
 70
     1
102
RTVSPropertyOp23
 70
     1
102
RTVSPropertyOp24
 70
     1
102
RTVSPropertyOp25
 70
     1
102
RTVSPropertyOp26
 70
     1
102
RTVSPropertyOp27
 70
     1
102
RTVSPropertyOp28
 70
     1
102
RTVSPropertyOp29
 70
     1
102
RTVSPropertyOp30
 70
     1
102
RTVSPropertyOp31
 70
     1
102
RTVSPropertyOp32
 70
     1
  0
XRECORD
  5
2D6
102
{ACAD_REACTORS
330
2D5
102
}
330
2D5
100
AcDbXrecord
280
     1
102
RTVSPropertyOp0
 70
     1
102
RTVSPropertyOp1
 70
     1
102
RTVSPropertyOp2
 70
     1
102
RTVSPropertyOp3
 70
     1
102
RTVSPropertyOp4
 70
     1
102
RTVSPropertyOp5
 70
     1
102
RTVSPropertyOp6
 70
     1
102
RTVSPropertyOp7
 70
     1
102
RTVSPropertyOp8
 70
     1
102
RTVSPropertyOp9
 70
     1
102
RTVSPropertyOp10
 70
     1
102
RTVSPropertyOp11
 70
     1
102
RTVSPropertyOp12
 70
     1
102
RTVSPropertyOp13
 70
     1
102
RTVSPropertyOp14
 70
     1
102
RTVSPropertyOp15
 70
     1
102
RTVSPropertyOp16
 70
     1
102
RTVSPropertyOp17
 70
     1
102
RTVSPropertyOp18
 70
     1
102
RTVSPropertyOp19
 70
     1
102
RTVSPropertyOp20
 70
     1
102
RTVSPropertyOp21
 70
     1
102
RTVSPropertyOp22
 70
     1
102
RTVSPropertyOp23
 70
     1
102
RTVSPropertyOp24
 70
     1
102
RTVSPropertyOp25
 70
     1
102
RTVSPropertyOp26
 70
     1
102
RTVSPropertyOp27
 70
     1
102
RTVSPropertyOp28
 70
     1
102
RTVSPropertyOp29
 70
     1
102
RTVSPropertyOp30
 70
     1
102
RTVSPropertyOp31
 70
     1
102
RTVSPropertyOp32
 70
     1
  0
XRECORD
  5
2D8
102
{ACAD_REACTORS
330
2D7
102
}
330
2D7
100
AcDbXrecord
280
     1
102
RTVSPropertyOp0
 70
     1
102
RTVSPropertyOp1
 70
     1
102
RTVSPropertyOp2
 70
     1
102
RTVSPropertyOp3
 70
     1
102
RTVSPropertyOp4
 70
     1
102
RTVSPropertyOp5
 70
     1
102
RTVSPropertyOp6
 70
     1
102
RTVSPropertyOp7
 70
     1
102
RTVSPropertyOp8
 70
     1
102
RTVSPropertyOp9
 70
     1
102
RTVSPropertyOp10
 70
     1
102
RTVSPropertyOp11
 70
     1
102
RTVSPropertyOp12
 70
     1
102
RTVSPropertyOp13
 70
     1
102
RTVSPropertyOp14
 70
     1
102
RTVSPropertyOp15
 70
     1
102
RTVSPropertyOp16
 70
     1
102
RTVSPropertyOp17
 70
     1
102
RTVSPropertyOp18
 70
     1
102
RTVSPropertyOp19
 70
     1
102
RTVSPropertyOp20
 70
     1
102
RTVSPropertyOp21
 70
     1
102
RTVSPropertyOp22
 70
     1
102
RTVSPropertyOp23
 70
     1
102
RTVSPropertyOp24
 70
     1
102
RTVSPropertyOp25
 70
     1
102
RTVSPropertyOp26
 70
     1
102
RTVSPropertyOp27
 70
     1
102
RTVSPropertyOp28
 70
     1
102
RTVSPropertyOp29
 70
     1
102
RTVSPropertyOp30
 70
     1
102
RTVSPropertyOp31
 70
     1
102
RTVSPropertyOp32
 70
     1
  0
XRECORD
  5
2DA
102
{ACAD_REACTORS
330
2D9
102
}
330
2D9
100
AcDbXrecord
280
     1
102
RTVSPropertyOp0
 70
     1
102
RTVSPropertyOp1
 70
     1
102
RTVSPropertyOp2
 70
     1
102
RTVSPropertyOp3
 70
     1
102
RTVSPropertyOp4
 70
     1
102
RTVSPropertyOp5
 70
     1
102
RTVSPropertyOp6
 70
     1
102
RTVSPropertyOp7
 70
     1
102
RTVSPropertyOp8
 70
     1
102
RTVSPropertyOp9
 70
     1
102
RTVSPropertyOp10
 70
     1
102
RTVSPropertyOp11
 70
     1
102
RTVSPropertyOp12
 70
     1
102
RTVSPropertyOp13
 70
     1
102
RTVSPropertyOp14
 70
     1
102
RTVSPropertyOp15
 70
     1
102
RTVSPropertyOp16
 70
     1
102
RTVSPropertyOp17
 70
     1
102
RTVSPropertyOp18
 70
     1
102
RTVSPropertyOp19
 70
     1
102
RTVSPropertyOp20
 70
     1
102
RTVSPropertyOp21
 70
     1
102
RTVSPropertyOp22
 70
     1
102
RTVSPropertyOp23
 70
     1
102
RTVSPropertyOp24
 70
     1
102
RTVSPropertyOp25
 70
     1
102
RTVSPropertyOp26
 70
     1
102
RTVSPropertyOp27
 70
     1
102
RTVSPropertyOp28
 70
     1
102
RTVSPropertyOp29
 70
     1
102
RTVSPropertyOp30
 70
     1
102
RTVSPropertyOp31
 70
     1
102
RTVSPropertyOp32
 70
     1
  0
XRECORD
  5
2EE
102
{ACAD_REACTORS
330
2ED
102
}
330
2ED
100
AcDbXrecord
280
     1
102
RTVSPropertyOp0
 70
     1
102
RTVSPropertyOp1
 70
     1
102
RTVSPropertyOp2
 70
     1
102
RTVSPropertyOp3
 70
     1
102
RTVSPropertyOp4
 70
     1
102
RTVSPropertyOp5
 70
     1
102
RTVSPropertyOp6
 70
     1
102
RTVSPropertyOp7
 70
     1
102
RTVSPropertyOp8
 70
     1
102
RTVSPropertyOp9
 70
     1
102
RTVSPropertyOp10
 70
     1
102
RTVSPropertyOp11
 70
     1
102
RTVSPropertyOp12
 70
     1
102
RTVSPropertyOp13
 70
     1
102
RTVSPropertyOp14
 70
     1
102
RTVSPropertyOp15
 70
     1
102
RTVSPropertyOp16
 70
     1
102
RTVSPropertyOp17
 70
     1
102
RTVSPropertyOp18
 70
     1
102
RTVSPropertyOp19
 70
     1
102
RTVSPropertyOp20
 70
     1
102
RTVSPropertyOp21
 70
     1
102
RTVSPropertyOp22
 70
     1
102
RTVSPropertyOp23
 70
     1
102
RTVSPropertyOp24
 70
     1
102
RTVSPropertyOp25
 70
     1
102
RTVSPropertyOp26
 70
     1
102
RTVSPropertyOp27
 70
     1
102
RTVSPropertyOp28
 70
     1
102
RTVSPropertyOp29
 70
     1
102
RTVSPropertyOp30
 70
     1
102
RTVSPropertyOp31
 70
     1
102
RTVSPropertyOp32
 70
     1
  0
XRECORD
  5
2E4
102
{ACAD_REACTORS
330
2E3
102
}
330
2E3
100
AcDbXrecord
280
     1
102
RTVSPropertyOp0
 70
     1
102
RTVSPropertyOp1
 70
     1
102
RTVSPropertyOp2
 70
     1
102
RTVSPropertyOp3
 70
     1
102
RTVSPropertyOp4
 70
     1
102
RTVSPropertyOp5
 70
     1
102
RTVSPropertyOp6
 70
     1
102
RTVSPropertyOp7
 70
     1
102
RTVSPropertyOp8
 70
     1
102
RTVSPropertyOp9
 70
     1
102
RTVSPropertyOp10
 70
     1
102
RTVSPropertyOp11
 70
     1
102
RTVSPropertyOp12
 70
     1
102
RTVSPropertyOp13
 70
     1
102
RTVSPropertyOp14
 70
     1
102
RTVSPropertyOp15
 70
     1
102
RTVSPropertyOp16
 70
     1
102
RTVSPropertyOp17
 70
     1
102
RTVSPropertyOp18
 70
     1
102
RTVSPropertyOp19
 70
     1
102
RTVSPropertyOp20
 70
     1
102
RTVSPropertyOp21
 70
     1
102
RTVSPropertyOp22
 70
     1
102
RTVSPropertyOp23
 70
     1
102
RTVSPropertyOp24
 70
     1
102
RTVSPropertyOp25
 70
     1
102
RTVSPropertyOp26
 70
     1
102
RTVSPropertyOp27
 70
     1
102
RTVSPropertyOp28
 70
     1
102
RTVSPropertyOp29
 70
     1
102
RTVSPropertyOp30
 70
     1
102
RTVSPropertyOp31
 70
     1
102
RTVSPropertyOp32
 70
     1
  0
XRECORD
  5
2EC
102
{ACAD_REACTORS
330
2EB
102
}
330
2EB
100
AcDbXrecord
280
     1
102
RTVSPropertyOp0
 70
     1
102
RTVSPropertyOp1
 70
     1
102
RTVSPropertyOp2
 70
     1
102
RTVSPropertyOp3
 70
     1
102
RTVSPropertyOp4
 70
     1
102
RTVSPropertyOp5
 70
     1
102
RTVSPropertyOp6
 70
     1
102
RTVSPropertyOp7
 70
     1
102
RTVSPropertyOp8
 70
     1
102
RTVSPropertyOp9
 70
     1
102
RTVSPropertyOp10
 70
     1
102
RTVSPropertyOp11
 70
     1
102
RTVSPropertyOp12
 70
     1
102
RTVSPropertyOp13
 70
     1
102
RTVSPropertyOp14
 70
     1
102
RTVSPropertyOp15
 70
     1
102
RTVSPropertyOp16
 70
     1
102
RTVSPropertyOp17
 70
     1
102
RTVSPropertyOp18
 70
     1
102
RTVSPropertyOp19
 70
     1
102
RTVSPropertyOp20
 70
     1
102
RTVSPropertyOp21
 70
     1
102
RTVSPropertyOp22
 70
     1
102
RTVSPropertyOp23
 70
     1
102
RTVSPropertyOp24
 70
     1
102
RTVSPropertyOp25
 70
     1
102
RTVSPropertyOp26
 70
     1
102
RTVSPropertyOp27
 70
     1
102
RTVSPropertyOp28
 70
     1
102
RTVSPropertyOp29
 70
     1
102
RTVSPropertyOp30
 70
     1
102
RTVSPropertyOp31
 70
     1
102
RTVSPropertyOp32
 70
     1
  0
ENDSEC
  0
EOF
