  0
SECTION
  2
HEADER
  9
$ACADVER
  1
AC1015
  9
$ACADMAINTVER
 70
     6
  9
$DWGCODEPAGE
  3
ANSI_1252
  9
$INSBASE
 10
0.0
 20
0.0
 30
0.0
  9
$EXTMIN
 10
-386.5000003468896
 20
-264.9545407769839
 30
0.0
  9
$EXTMAX
 10
-89.50000034689157
 20
-54.95454077698381
 30
0.0
  9
$LIMMIN
 10
0.0
 20
0.0
  9
$LIMMAX
 10
12.0
 20
9.0
  9
$ORTHOMODE
 70
     0
  9
$REGENMODE
 70
     1
  9
$FILLMODE
 70
     1
  9
$QTEXTMODE
 70
     0
  9
$MIRRTEXT
 70
     1
  9
$LTSCALE
 40
1.0
  9
$ATTMODE
 70
     1
  9
$TEXTSIZE
 40
0.2
  9
$TRACEWID
 40
0.05
  9
$TEXTSTYLE
  7
Standard
  9
$CLAYER
  8
0
  9
$CELTYPE
  6
ByLayer
  9
$CECOLOR
 62
   256
  9
$CELTSCALE
 40
1.0
  9
$DISPSILH
 70
     0
  9
$DIMSCALE
 40
1.0
  9
$DIMASZ
 40
0.18
  9
$DIMEXO
 40
0.0625
  9
$DIMDLI
 40
0.38
  9
$DIMRND
 40
0.0
  9
$DIMDLE
 40
0.0
  9
$DIMEXE
 40
0.18
  9
$DIMTP
 40
0.0
  9
$DIMTM
 40
0.0
  9
$DIMTXT
 40
0.18
  9
$DIMCEN
 40
0.09
  9
$DIMTSZ
 40
0.0
  9
$DIMTOL
 70
     0
  9
$DIMLIM
 70
     0
  9
$DIMTIH
 70
     1
  9
$DIMTOH
 70
     1
  9
$DIMSE1
 70
     0
  9
$DIMSE2
 70
     0
  9
$DIMTAD
 70
     0
  9
$DIMZIN
 70
     0
  9
$DIMBLK
  1

  9
$DIMASO
 70
     1
  9
$DIMSHO
 70
     1
  9
$DIMPOST
  1

  9
$DIMAPOST
  1

  9
$DIMALT
 70
     0
  9
$DIMALTD
 70
     2
  9
$DIMALTF
 40
25.4
  9
$DIMLFAC
 40
1.0
  9
$DIMTOFL
 70
     0
  9
$DIMTVP
 40
0.0
  9
$DIMTIX
 70
     0
  9
$DIMSOXD
 70
     0
  9
$DIMSAH
 70
     0
  9
$DIMBLK1
  1

  9
$DIMBLK2
  1

  9
$DIMSTYLE
  2
Standard
  9
$DIMCLRD
 70
     0
  9
$DIMCLRE
 70
     0
  9
$DIMCLRT
 70
     0
  9
$DIMTFAC
 40
1.0
  9
$DIMGAP
 40
0.09
  9
$DIMJUST
 70
     0
  9
$DIMSD1
 70
     0
  9
$DIMSD2
 70
     0
  9
$DIMTOLJ
 70
     1
  9
$DIMTZIN
 70
     0
  9
$DIMALTZ
 70
     0
  9
$DIMALTTZ
 70
     0
  9
$DIMUPT
 70
     0
  9
$DIMDEC
 70
     4
  9
$DIMTDEC
 70
     4
  9
$DIMALTU
 70
     2
  9
$DIMALTTD
 70
     2
  9
$DIMTXSTY
  7
Standard
  9
$DIMAUNIT
 70
     0
  9
$DIMADEC
 70
     0
  9
$DIMALTRND
 40
0.0
  9
$DIMAZIN
 70
     0
  9
$DIMDSEP
 70
    46
  9
$DIMATFIT
 70
     3
  9
$DIMFRAC
 70
     0
  9
$DIMLDRBLK
  1

  9
$DIMLUNIT
 70
     2
  9
$DIMLWD
 70
    -2
  9
$DIMLWE
 70
    -2
  9
$DIMTMOVE
 70
     0
  9
$LUNITS
 70
     2
  9
$LUPREC
 70
     4
  9
$SKETCHINC
 40
0.1
  9
$FILLETRAD
 40
0.5
  9
$AUNITS
 70
     0
  9
$AUPREC
 70
     0
  9
$MENU
  1
.
  9
$ELEVATION
 40
0.0
  9
$PELEVATION
 40
0.0
  9
$THICKNESS
 40
0.0
  9
$LIMCHECK
 70
     0
  9
$CHAMFERA
 40
0.5
  9
$CHAMFERB
 40
0.5
  9
$CHAMFERC
 40
1.0
  9
$CHAMFERD
 40
0.0
  9
$SKPOLY
 70
     0
  9
$TDCREATE
 40
2457212.600865602
  9
$TDUCREATE
 40
2457212.517532269
  9
$TDUPDATE
 40
2457212.600866829
  9
$TDUUPDATE
 40
2457212.517533496
  9
$TDINDWG
 40
0.0000000116
  9
$TDUSRTIMER
 40
0.0000000116
  9
$USRTIMER
 70
     1
  9
$ANGBASE
 50
0.0
  9
$ANGDIR
 70
     0
  9
$PDMODE
 70
     0
  9
$PDSIZE
 40
0.0
  9
$PLINEWID
 40
0.0
  9
$SPLFRAME
 70
     0
  9
$SPLINETYPE
 70
     6
  9
$SPLINESEGS
 70
     8
  9
$HANDSEED
  5
2AD
  9
$SURFTAB1
 70
     6
  9
$SURFTAB2
 70
     6
  9
$SURFTYPE
 70
     6
  9
$SURFU
 70
     6
  9
$SURFV
 70
     6
  9
$UCSBASE
  2

  9
$UCSNAME
  2

  9
$UCSORG
 10
0.0
 20
0.0
 30
0.0
  9
$UCSXDIR
 10
1.0
 20
0.0
 30
0.0
  9
$UCSYDIR
 10
0.0
 20
1.0
 30
0.0
  9
$UCSORTHOREF
  2

  9
$UCSORTHOVIEW
 70
     0
  9
$UCSORGTOP
 10
0.0
 20
0.0
 30
0.0
  9
$UCSORGBOTTOM
 10
0.0
 20
0.0
 30
0.0
  9
$UCSORGLEFT
 10
0.0
 20
0.0
 30
0.0
  9
$UCSORGRIGHT
 10
0.0
 20
0.0
 30
0.0
  9
$UCSORGFRONT
 10
0.0
 20
0.0
 30
0.0
  9
$UCSORGBACK
 10
0.0
 20
0.0
 30
0.0
  9
$PUCSBASE
  2

  9
$PUCSNAME
  2

  9
$PUCSORG
 10
0.0
 20
0.0
 30
0.0
  9
$PUCSXDIR
 10
1.0
 20
0.0
 30
0.0
  9
$PUCSYDIR
 10
0.0
 20
1.0
 30
0.0
  9
$PUCSORTHOREF
  2

  9
$PUCSORTHOVIEW
 70
     0
  9
$PUCSORGTOP
 10
0.0
 20
0.0
 30
0.0
  9
$PUCSORGBOTTOM
 10
0.0
 20
0.0
 30
0.0
  9
$PUCSORGLEFT
 10
0.0
 20
0.0
 30
0.0
  9
$PUCSORGRIGHT
 10
0.0
 20
0.0
 30
0.0
  9
$PUCSORGFRONT
 10
0.0
 20
0.0
 30
0.0
  9
$PUCSORGBACK
 10
0.0
 20
0.0
 30
0.0
  9
$USERI1
 70
     0
  9
$USERI2
 70
     0
  9
$USERI3
 70
     0
  9
$USERI4
 70
     0
  9
$USERI5
 70
     0
  9
$USERR1
 40
18.1
  9
$USERR2
 40
0.0
  9
$USERR3
 40
0.0
  9
$USERR4
 40
0.0
  9
$USERR5
 40
0.0
  9
$WORLDVIEW
 70
     1
  9
$SHADEDGE
 70
     3
  9
$SHADEDIF
 70
    70
  9
$TILEMODE
 70
     1
  9
$MAXACTVP
 70
    64
  9
$PINSBASE
 10
0.0
 20
0.0
 30
0.0
  9
$PLIMCHECK
 70
     0
  9
$PEXTMIN
 10
1.00000000000000E+20
 20
1.00000000000000E+20
 30
1.00000000000000E+20
  9
$PEXTMAX
 10
-1.00000000000000E+20
 20
-1.00000000000000E+20
 30
-1.00000000000000E+20
  9
$PLIMMIN
 10
0.0
 20
0.0
  9
$PLIMMAX
 10
12.0
 20
9.0
  9
$UNITMODE
 70
     0
  9
$VISRETAIN
 70
     1
  9
$PLINEGEN
 70
     0
  9
$PSLTSCALE
 70
     1
  9
$TREEDEPTH
 70
  3020
  9
$CMLSTYLE
  2
Standard
  9
$CMLJUST
 70
     0
  9
$CMLSCALE
 40
1.0
  9
$PROXYGRAPHICS
 70
     1
  9
$MEASUREMENT
 70
     1
  9
$CELWEIGHT
370
    -1
  9
$ENDCAPS
280
     0
  9
$JOINSTYLE
280
     0
  9
$LWDISPLAY
290
     0
  9
$INSUNITS
 70
     4
  9
$HYPERLINKBASE
  1

  9
$STYLESHEET
  1

  9
$XEDIT
290
     1
  9
$CEPSNTYPE
380
     0
  9
$PSTYLEMODE
290
     1
  9
$FINGERPRINTGUID
  2
{C70FBEB8-AC16-4DD7-A60F-428AE2740FB9}
  9
$VERSIONGUID
  2
{FAEB1C32-E019-11D5-929B-00C0DF256EC4}
  9
$EXTNAMES
290
     1
  9
$PSVPSCALE
 40
0.0
  9
$OLESTARTUP
290
     0
  0
ENDSEC
  0
SECTION
  2
CLASSES
  0
CLASS
  1
ACDBDICTIONARYWDFLT
  2
AcDbDictionaryWithDefault
  3
ObjectDBX Classes
 90
        0
280
     0
281
     0
  0
CLASS
  1
VISUALSTYLE
  2
AcDbVisualStyle
  3
ObjectDBX Classes
 90
     4095
280
     0
281
     0
  0
CLASS
  1
MATERIAL
  2
AcDbMaterial
  3
ObjectDBX Classes
 90
     1153
280
     0
281
     0
  0
CLASS
  1
DICTIONARYVAR
  2
AcDbDictionaryVar
  3
ObjectDBX Classes
 90
        0
280
     0
281
     0
  0
CLASS
  1
ACDBPLACEHOLDER
  2
AcDbPlaceHolder
  3
ObjectDBX Classes
 90
        0
280
     0
281
     0
  0
CLASS
  1
LAYOUT
  2
AcDbLayout
  3
ObjectDBX Classes
 90
        0
280
     0
281
     0
  0
ENDSEC
  0
SECTION
  2
TABLES
  0
TABLE
  2
VPORT
  5
8
330
0
100
AcDbSymbolTable
 70
     1
  0
VPORT
  5
29
330
8
100
AcDbSymbolTableRecord
100
AcDbViewportTableRecord
  2
*Active
 70
     0
 10
0.0
 20
0.0
 11
1.0
 21
1.0
 12
-238.0000003468906
 22
-159.9545407769839
 13
0.0
 23
0.0
 14
0.5
 24
0.5
 15
0.5
 25
0.5
 16
0.0
 26
0.0
 36
1.0
 17
0.0
 27
0.0
 37
0.0
 40
231.0000000000001
 41
1.60267857142857
 42
50.0
 43
0.0
 44
0.0
 50
0.0
 51
0.0
 71
     0
 72
   100
 73
     1
 74
     3
 75
     0
 76
     0
 77
     0
 78
     0
281
     0
 65
     1
110
0.0
120
0.0
130
0.0
111
1.0
121
0.0
131
0.0
112
0.0
122
1.0
132
0.0
 79
     0
146
0.0
  0
ENDTAB
  0
TABLE
  2
LTYPE
  5
5
330
0
100
AcDbSymbolTable
 70
     8
  0
LTYPE
  5
14
330
5
100
AcDbSymbolTableRecord
100
AcDbLinetypeTableRecord
  2
ByBlock
 70
     0
  3

 72
    65
 73
     0
 40
0.0
  0
LTYPE
  5
15
330
5
100
AcDbSymbolTableRecord
100
AcDbLinetypeTableRecord
  2
ByLayer
 70
     0
  3

 72
    65
 73
     0
 40
0.0
  0
LTYPE
  5
16
330
5
100
AcDbSymbolTableRecord
100
AcDbLinetypeTableRecord
  2
Continuous
 70
     0
  3
Solid line
 72
    65
 73
     0
 40
0.0
  0
LTYPE
  5
3F
330
5
100
AcDbSymbolTableRecord
100
AcDbLinetypeTableRecord
  2
DASHED
 70
     0
  3
Dashed
 72
    65
 73
     2
 40
15.0
 49
7.0
 74
     0
 49
-8.0
 74
     0
  0
LTYPE
  5
40
330
5
100
AcDbSymbolTableRecord
100
AcDbLinetypeTableRecord
  2
DOTTED
 70
     0
  3
Dotted
 72
    65
 73
     2
 40
1.0
 49
0.0
 74
     0
 49
-1.0
 74
     0
  0
LTYPE
  5
41
330
5
100
AcDbSymbolTableRecord
100
AcDbLinetypeTableRecord
  2
DOT_CENTER
 70
     0
  3
Dot_Center
 72
    65
 73
     4
 40
14.0
 49
12.0
 74
     0
 49
-1.0
 74
     0
 49
0.0
 74
     0
 49
-1.0
 74
     0
  0
LTYPE
  5
42
330
5
100
AcDbSymbolTableRecord
100
AcDbLinetypeTableRecord
  2
LONG_DASHED
 70
     0
  3
Long_Dashed
 72
    65
 73
     2
 40
15.0
 49
10.0
 74
     0
 49
-5.0
 74
     0
  0
LTYPE
  5
43
330
5
100
AcDbSymbolTableRecord
100
AcDbLinetypeTableRecord
  2
DASH_CENTER
 70
     0
  3
Dash_Center
 72
    65
 73
     4
 40
14.0
 49
11.0
 74
     0
 49
-1.0
 74
     0
 49
1.0
 74
     0
 49
-1.0
 74
     0
  0
LTYPE
  5
44
330
5
100
AcDbSymbolTableRecord
100
AcDbLinetypeTableRecord
  2
PHANTOM
 70
     0
  3
Phantom
 72
    65
 73
     6
 40
13.0
 49
10.0
 74
     0
 49
-1.0
 74
     0
 49
0.0
 74
     0
 49
-1.0
 74
     0
 49
0.0
 74
     0
 49
-1.0
 74
     0
  0
LTYPE
  5
45
330
5
100
AcDbSymbolTableRecord
100
AcDbLinetypeTableRecord
  2
CENTER_DASH_DASH
 70
     0
  3
Center_Dash_Dash
 72
    65
 73
     6
 40
14.0
 49
9.0
 74
     0
 49
-1.0
 74
     0
 49
1.0
 74
     0
 49
-1.0
 74
     0
 49
1.0
 74
     0
 49
-1.0
 74
     0
  0
ENDTAB
  0
TABLE
  2
LAYER
  5
2
330
0
100
AcDbSymbolTable
 70
     2
  0
LAYER
  5
10
330
2
100
AcDbSymbolTableRecord
100
AcDbLayerTableRecord
  2
0
 70
     0
 62
     7
  6
Continuous
370
    -3
390
F
  0
LAYER
  5
46
330
2
100
AcDbSymbolTableRecord
100
AcDbLayerTableRecord
  2
1
 70
     0
 62
     7
  6
Continuous
370
    -3
390
F
  0
ENDTAB
  0
TABLE
  2
STYLE
  5
3
330
0
100
AcDbSymbolTable
 70
     5
  0
STYLE
  5
11
330
3
100
AcDbSymbolTableRecord
100
AcDbTextStyleTableRecord
  2
Standard
 70
     0
 40
0.0
 41
1.0
 50
0.0
 71
     0
 42
0.2
  3
txt
  4

  0
STYLE
  5
B5
330
3
100
AcDbSymbolTableRecord
100
AcDbTextStyleTableRecord
  2
CONVERTER_11
 70
     0
 40
0.0
 41
0.9
 50
0.0
 71
     0
 42
0.2
  3
txt.shx
  4

  0
STYLE
  5
242
330
3
100
AcDbSymbolTableRecord
100
AcDbTextStyleTableRecord
  2
CONVERTER_12
 70
     0
 40
0.0
 41
0.81
 50
0.0
 71
     0
 42
0.2
  3
txt.shx
  4

  0
STYLE
  5
248
330
3
100
AcDbSymbolTableRecord
100
AcDbTextStyleTableRecord
  2
CONVERTER_13
 70
     0
 40
0.0
 41
0.855
 50
0.0
 71
     0
 42
0.2
  3
txt.shx
  4

  0
STYLE
  5
24B
330
3
100
AcDbSymbolTableRecord
100
AcDbTextStyleTableRecord
  2
CONVERTER_14
 70
     0
 40
0.0
 41
0.72
 50
0.0
 71
     0
 42
0.2
  3
txt.shx
  4

  0
ENDTAB
  0
TABLE
  2
VIEW
  5
6
330
0
100
AcDbSymbolTable
 70
     0
  0
ENDTAB
  0
TABLE
  2
UCS
  5
7
330
0
100
AcDbSymbolTable
 70
     0
  0
ENDTAB
  0
TABLE
  2
APPID
  5
9
330
0
100
AcDbSymbolTable
 70
     1
  0
APPID
  5
12
330
9
100
AcDbSymbolTableRecord
100
AcDbRegAppTableRecord
  2
ACAD
 70
     0
  0
ENDTAB
  0
TABLE
  2
DIMSTYLE
  5
A
330
0
100
AcDbSymbolTable
 70
     4
100
AcDbDimStyleTable
  0
DIMSTYLE
105
27
330
A
100
AcDbSymbolTableRecord
100
AcDbDimStyleTableRecord
  2
Standard
 70
     0
178
     0
340
11
  0
DIMSTYLE
105
D7
102
{ACAD_REACTORS
330
D8
102
}
330
A
100
AcDbSymbolTableRecord
100
AcDbDimStyleTableRecord
  2
ME10_DIM_10
 70
     0
 41
1.75
 42
0.0
 44
0.75
 73
     0
 74
     0
 77
     1
 78
     8
140
1.75
147
0.75
172
     1
173
     1
174
     1
175
     1
176
     2
177
     2
271
     1
178
     3
271
     1
340
B5
  0
DIMSTYLE
105
13C
102
{ACAD_REACTORS
330
13D
102
}
330
A
100
AcDbSymbolTableRecord
100
AcDbDimStyleTableRecord
  2
ME10_DIM_11
 70
     0
 41
1.75
 42
0.0
 44
0.75
 73
     0
 74
     0
 77
     1
 78
     8
140
1.75
147
0.75
172
     1
173
     1
174
     1
175
     1
176
     2
177
     2
271
     1
178
     3
271
     1
340
B5
  0
DIMSTYLE
105
147
102
{ACAD_REACTORS
330
148
102
}
330
A
100
AcDbSymbolTableRecord
100
AcDbDimStyleTableRecord
  2
ME10_DIM_12
 70
     0
 41
1.75
 42
0.0
 44
0.75
 73
     0
 74
     0
 77
     1
 78
     8
140
1.75
147
0.75
172
     1
173
     1
174
     1
175
     1
176
     2
177
     2
271
     1
178
     3
271
     1
340
B5
  0
ENDTAB
  0
TABLE
  2
BLOCK_RECORD
  5
1
330
0
100
AcDbSymbolTable
 70
    19
  0
BLOCK_RECORD
  5
1F
330
1
100
AcDbSymbolTableRecord
100
AcDbBlockTableRecord
  2
*Model_Space
340
22
  0
BLOCK_RECORD
  5
1B
330
1
100
AcDbSymbolTableRecord
100
AcDbBlockTableRecord
  2
*Paper_Space
340
1E
  0
BLOCK_RECORD
  5
23
330
1
100
AcDbSymbolTableRecord
100
AcDbBlockTableRecord
  2
*Paper_Space0
340
26
  0
BLOCK_RECORD
  5
47
330
1
100
AcDbSymbolTableRecord
100
AcDbBlockTableRecord
  2
0808024_PATG_5_23-select__1
340
0
102
{BLKREFS
331
4B
102
}
  0
BLOCK_RECORD
  5
4A
330
1
100
AcDbSymbolTableRecord
100
AcDbBlockTableRecord
  2
Allg1
340
0
102
{BLKREFS
331
7C
102
}
  0
BLOCK_RECORD
  5
4E
330
1
100
AcDbSymbolTableRecord
100
AcDbBlockTableRecord
  2
0808024_PATG_5_23-select__2
340
0
102
{BLKREFS
331
52
102
}
  0
BLOCK_RECORD
  5
51
330
1
100
AcDbSymbolTableRecord
100
AcDbBlockTableRecord
  2
Drfsicht1
340
0
102
{BLKREFS
331
7D
102
}
  0
BLOCK_RECORD
  5
55
330
1
100
AcDbSymbolTableRecord
100
AcDbBlockTableRecord
  2
0808024_PATG_5_23-select__3
340
0
102
{BLKREFS
331
59
102
}
  0
BLOCK_RECORD
  5
58
330
1
100
AcDbSymbolTableRecord
100
AcDbBlockTableRecord
  2
Rckans1
340
0
102
{BLKREFS
331
7E
102
}
  0
BLOCK_RECORD
  5
5C
330
1
100
AcDbSymbolTableRecord
100
AcDbBlockTableRecord
  2
0808024_PATG_5_23-select__4
340
0
102
{BLKREFS
331
60
102
}
  0
BLOCK_RECORD
  5
5F
330
1
100
AcDbSymbolTableRecord
100
AcDbBlockTableRecord
  2
SA_Links1
340
0
102
{BLKREFS
331
7F
102
}
  0
BLOCK_RECORD
  5
63
330
1
100
AcDbSymbolTableRecord
100
AcDbBlockTableRecord
  2
0808024_PATG_5_23-select__5
340
0
102
{BLKREFS
331
67
102
}
  0
BLOCK_RECORD
  5
66
330
1
100
AcDbSymbolTableRecord
100
AcDbBlockTableRecord
  2
SA_Rechts1
340
0
102
{BLKREFS
331
80
102
}
  0
BLOCK_RECORD
  5
6A
330
1
100
AcDbSymbolTableRecord
100
AcDbBlockTableRecord
  2
0808024_PATG_5_23-select__6
340
0
102
{BLKREFS
331
6E
102
}
  0
BLOCK_RECORD
  5
6D
330
1
100
AcDbSymbolTableRecord
100
AcDbBlockTableRecord
  2
Vordans1
340
0
102
{BLKREFS
331
81
102
}
  0
BLOCK_RECORD
  5
71
330
1
100
AcDbSymbolTableRecord
100
AcDbBlockTableRecord
  2
_punkt
340
0
102
{BLKREFS
331
78
102
}
  0
BLOCK_RECORD
  5
74
330
1
100
AcDbSymbolTableRecord
100
AcDbBlockTableRecord
  2
_rahmen
340
0
102
{BLKREFS
331
79
102
}
  0
BLOCK_RECORD
  5
77
330
1
100
AcDbSymbolTableRecord
100
AcDbBlockTableRecord
  2
A4I_CS
340
0
102
{BLKREFS
331
82
102
}
  0
BLOCK_RECORD
  5
CE
330
1
100
AcDbSymbolTableRecord
100
AcDbBlockTableRecord
  2
*D16
340
0
  0
BLOCK_RECORD
  5
133
330
1
100
AcDbSymbolTableRecord
100
AcDbBlockTableRecord
  2
*D17
340
0
  0
BLOCK_RECORD
  5
13E
330
1
100
AcDbSymbolTableRecord
100
AcDbBlockTableRecord
  2
*D18
340
0
  0
ENDTAB
  0
ENDSEC
  0
SECTION
  2
BLOCKS
  0
BLOCK
  5
20
330
1F
100
AcDbEntity
  8
0
100
AcDbBlockBegin
  2
*Model_Space
 70
     0
 10
0.0
 20
0.0
 30
0.0
  3
*Model_Space
  1

  0
ENDBLK
  5
21
330
1F
100
AcDbEntity
  8
0
100
AcDbBlockEnd
  0
BLOCK
  5
1C
330
1B
100
AcDbEntity
 67
     1
  8
0
100
AcDbBlockBegin
  2
*Paper_Space
 70
     0
 10
0.0
 20
0.0
 30
0.0
  3
*Paper_Space
  1

  0
ENDBLK
  5
1D
330
1B
100
AcDbEntity
 67
     1
  8
0
100
AcDbBlockEnd
  0
BLOCK
  5
24
330
23
100
AcDbEntity
  8
0
100
AcDbBlockBegin
  2
*Paper_Space0
 70
     0
 10
0.0
 20
0.0
 30
0.0
  3
*Paper_Space0
  1

  0
ENDBLK
  5
25
330
23
100
AcDbEntity
  8
0
100
AcDbBlockEnd
  0
BLOCK
  5
48
330
47
100
AcDbEntity
  8
0
100
AcDbBlockBegin
  2
0808024_PATG_5_23-select__1
 70
     0
 10
-86.73624007806976
 20
-106.8943361552528
 30
0.0
  3
0808024_PATG_5_23-select__1
  1

  0
LINE
  5
83
330
47
100
AcDbEntity
  8
0
  6
Continuous
 62
     7
100
AcDbLine
 10
-66.38698752739023
 20
-105.2211867542155
 30
0.0
 11
-64.43710492702836
 21
-105.784069376319
 31
0.0
  0
LINE
  5
84
330
47
100
AcDbEntity
  8
0
  6
Continuous
 62
     2
100
AcDbLine
 10
-86.62509554710788
 20
-99.68086129127168
 30
0.0
 11
-66.70651126006578
 21
-105.4308612912717
 31
0.0
  0
LINE
  5
85
330
47
100
AcDbEntity
  8
0
  6
Continuous
 62
     2
100
AcDbLine
 10
-65.74232788408183
 20
-106.2371256767461
 30
0.0
 11
-65.65193708379385
 21
-106.2632192531853
 31
0.0
  0
LINE
  5
86
330
47
100
AcDbEntity
  8
0
  6
Continuous
 62
     7
100
AcDbLine
 10
-66.16475964643418
 20
-101.2028965845814
 30
0.0
 11
-64.7256269174667
 21
-101.6183384188159
 31
0.0
  0
LINE
  5
87
330
47
100
AcDbEntity
  8
0
  6
Continuous
 62
     7
100
AcDbLine
 10
-61.35578890392409
 20
-98.69997309244954
 30
0.0
 11
-64.7256269174667
 21
-101.6183384188159
 31
0.0
  0
LINE
  5
88
330
47
100
AcDbEntity
  8
0
  6
Continuous
 62
     7
100
AcDbLine
 10
-64.37686377494205
 20
-101.8359159197566
 30
0.0
 11
-61.70455204644874
 21
-99.52162607605025
 31
0.0
  0
LINE
  5
89
330
47
100
AcDbEntity
  8
0
  6
Continuous
 62
     7
100
AcDbLine
 10
-65.8640240243046
 20
-106.8283017195041
 30
0.0
 11
-85.78260831134668
 21
-101.0783017195041
 31
0.0
  0
LINE
  5
8A
330
47
100
AcDbEntity
  8
0
  6
Continuous
 62
     7
100
AcDbLine
 10
-64.86406640411862
 20
-97.68722061288493
 30
0.0
 11
-61.35578890392409
 21
-98.69997309244954
 31
0.0
  0
LINE
  5
8B
330
47
100
AcDbEntity
  8
0
  6
Continuous
 62
     7
100
AcDbLine
 10
-62.91354975936532
 20
-95.2858938454682
 30
0.0
 11
-63.16786606202547
 21
-95.50613822416841
 31
0.0
  0
LINE
  5
8C
330
47
100
AcDbEntity
  8
0
  6
Continuous
 62
     7
100
AcDbLine
 10
-64.03798588273084
 20
-95.87576929712732
 30
0.0
 11
-83.95657016977293
 21
-90.12576929712732
 31
0.0
  0
LINE
  5
8D
330
47
100
AcDbEntity
  8
0
  6
Continuous
 62
     2
100
AcDbLine
 10
-83.43965563690638
 20
-86.41134377088122
 30
0.0
 11
-63.52107134986429
 21
-92.16134377088123
 31
0.0
  0
LINE
  5
8E
330
47
100
AcDbEntity
  8
0
  6
Continuous
 62
     2
100
AcDbLine
 10
-82.4789287585686
 20
-85.57932988814221
 30
0.0
 11
-62.56034447152651
 21
-91.32932988814221
 31
0.0
  0
LINE
  5
8F
330
47
100
AcDbEntity
  8
0
  6
Continuous
 62
     7
100
AcDbLine
 10
-62.27532753504001
 20
-91.2806992215012
 30
0.0
 11
-82.1939118220821
 21
-85.53069922150118
 31
0.0
  0
LINE
  5
90
330
47
100
AcDbEntity
  8
0
  6
Continuous
 62
     7
100
AcDbLine
 10
-64.24898803885773
 20
-103.4536125950845
 30
0.0
 11
-61.96257996484319
 21
-104.1136417535893
 31
0.0
  0
LINE
  5
91
330
47
100
AcDbEntity
  8
0
  6
Continuous
 62
     7
100
AcDbLine
 10
-61.97818333095336
 20
-93.66671152325965
 30
0.0
 11
-60.84925722390709
 21
-93.99260441915882
 31
0.0
  0
LINE
  5
92
330
47
100
AcDbEntity
  8
0
  6
Continuous
 62
     2
100
AcDbLine
 10
-61.54957008748764
 20
-101.4170951339846
 30
0.0
 11
-60.42947873759695
 21
-101.7404376551728
 31
0.0
  0
LINE
  5
93
330
47
100
AcDbEntity
  8
0
  6
Continuous
 62
     2
100
AcDbLine
 10
-61.35861655419761
 20
-98.73364451858008
 30
0.0
 11
-59.66768770555676
 21
-99.22177363155174
 31
0.0
  0
LINE
  5
94
330
47
100
AcDbEntity
  8
0
  6
Continuous
 62
     2
100
AcDbLine
 10
-84.04903063690637
 20
-88.01078443849563
 30
0.0
 11
-64.13044634986427
 21
-93.76078443849565
 31
0.0
  0
SPLINE
  5
95
330
47
100
AcDbEntity
  8
0
  6
Continuous
 62
     7
100
AcDbSpline
210
0.0
220
0.0
230
1.0
 70
     8
 71
     3
 72
    11
 73
     7
 74
     5
 42
0.000000001
 43
0.0000000001
 44
0.00000001
 40
0.0
 40
0.0
 40
0.0
 40
0.0
 40
0.3363104720874389
 40
0.718925160266987
 40
1.175199429906448
 40
1.713340579759179
 40
1.713340579759179
 40
1.713340579759179
 40
1.713340579759179
 10
-85.78260831134668
 20
-101.0783017195041
 30
0.0
 10
-85.88647659702168
 20
-101.0319780996633
 30
0.0
 10
-86.10851405252671
 20
-100.9329528747226
 30
0.0
 10
-86.35031664858306
 20
-100.6081294443098
 30
0.0
 10
-86.53311303727665
 20
-100.185415754799
 30
0.0
 10
-86.59279685861985
 20
-99.85803029518856
 30
0.0
 10
-86.62509554710788
 20
-99.68086129127168
 30
0.0
 11
-85.78260831134668
 21
-101.0783017195041
 31
0.0
 11
-86.07799426145904
 21
-100.9175165324413
 31
0.0
 11
-86.32242033986722
 21
-100.6231529883082
 31
0.0
 11
-86.50701951531947
 21
-100.2058888554528
 31
0.0
 11
-86.62509554710788
 21
-99.68086129127168
 31
0.0
  0
SPLINE
  5
96
330
47
100
AcDbEntity
  8
0
  6
Continuous
 62
     7
100
AcDbSpline
210
0.0
220
0.0
230
1.0
 70
     8
 71
     3
 72
    11
 73
     7
 74
     5
 42
0.000000001
 43
0.0000000001
 44
0.00000001
 40
0.0
 40
0.0
 40
0.0
 40
0.0
 40
0.3363104720874139
 40
0.7189251602669802
 40
1.17519942990648
 40
1.713340579759152
 40
1.713340579759152
 40
1.713340579759152
 40
1.713340579759152
 10
-65.8640240243046
 20
-106.8283017195041
 30
0.0
 10
-65.96789230997959
 20
-106.7819780996633
 30
0.0
 10
-66.18992976548465
 20
-106.6829528747226
 30
0.0
 10
-66.43173236154097
 20
-106.3581294443098
 30
0.0
 10
-66.61452875023458
 20
-105.935415754799
 30
0.0
 10
-66.67421257157778
 20
-105.6080302951886
 30
0.0
 10
-66.70651126006578
 20
-105.4308612912717
 30
0.0
 11
-65.8640240243046
 21
-106.8283017195041
 31
0.0
 11
-66.15940997441693
 21
-106.6675165324413
 31
0.0
 11
-66.40383605282514
 21
-106.3731529883082
 31
0.0
 11
-66.58843522827739
 21
-105.9558888554527
 31
0.0
 11
-66.70651126006578
 21
-105.4308612912717
 31
0.0
  0
SPLINE
  5
97
330
47
100
AcDbEntity
  8
0
  6
Continuous
 62
     7
100
AcDbSpline
210
0.0
220
0.0
230
1.0
 70
     8
 71
     3
 72
     9
 73
     5
 74
     3
 42
0.000000001
 43
0.0000000001
 44
0.00000001
 40
0.0
 40
0.0
 40
0.0
 40
0.0
 40
0.02770993116233
 40
0.0553892705471618
 40
0.0553892705471618
 40
0.0553892705471618
 40
0.0553892705471618
 10
-65.81028651648909
 20
-106.841688645833
 30
0.0
 10
-65.8193094216348
 20
-106.8397039526084
 30
0.0
 10
-65.83734526597996
 20
-106.8357367378168
 30
0.0
 10
-65.85513438153937
 20
-106.8307791526902
 30
0.0
 10
-65.8640240243046
 20
-106.8283017195041
 30
0.0
 11
-65.81028651648909
 21
-106.841688645833
 31
0.0
 11
-65.83729347933642
 21
-106.8354866902546
 31
0.0
 11
-65.8640240243046
 21
-106.8283017195041
 31
0.0
  0
SPLINE
  5
98
330
47
100
AcDbEntity
  8
0
  6
Continuous
 62
     7
100
AcDbSpline
210
0.0
220
0.0
230
1.0
 70
     8
 71
     3
 72
     9
 73
     5
 74
     3
 42
0.000000001
 43
0.0000000001
 44
0.00000001
 40
0.0
 40
0.0
 40
0.0
 40
0.0
 40
0.6856396535992159
 40
1.275762625649783
 40
1.275762625649783
 40
1.275762625649783
 40
1.275762625649783
 10
-83.43965563690638
 20
-86.41134377088122
 30
0.0
 10
-83.28649885453618
 20
-86.24011566276086
 30
0.0
 10
-83.00152159707807
 20
-85.92151330424659
 30
0.0
 10
-82.64420901295196
 20
-85.68755211002323
 30
0.0
 10
-82.4789287585686
 20
-85.57932988814221
 30
0.0
 11
-83.43965563690638
 21
-86.41134377088122
 31
0.0
 11
-82.95929219773748
 21
-85.92210691403758
 31
0.0
 11
-82.4789287585686
 21
-85.57932988814221
 31
0.0
  0
SPLINE
  5
99
330
47
100
AcDbEntity
  8
0
  6
Continuous
 62
     7
100
AcDbSpline
210
0.0
220
0.0
230
1.0
 70
     8
 71
     3
 72
    13
 73
     9
 74
     7
 42
0.000000001
 43
0.0000000001
 44
0.00000001
 40
0.0
 40
0.0
 40
0.0
 40
0.0
 40
0.2951582768103121
 40
0.6015716477190587
 40
0.9088101282071734
 40
1.206388358705965
 40
1.484483947008645
 40
1.734728628649781
 40
1.734728628649781
 40
1.734728628649781
 40
1.734728628649781
 10
-84.04903063690637
 20
-88.01078443849563
 30
0.0
 10
-84.03756790507603
 20
-87.91299259472207
 30
0.0
 10
-84.01420532521418
 20
-87.7136798713004
 30
0.0
 10
-83.9431090427629
 20
-87.41855338376459
 30
0.0
 10
-83.84865790795395
 20
-87.12948396212317
 30
0.0
 10
-83.73085716965505
 20
-86.8595001103996
 30
0.0
 10
-83.59876761564317
 20
-86.61682344277045
 30
0.0
 10
-83.49079575904197
 20
-86.4773869081542
 30
0.0
 10
-83.43965563690638
 20
-86.41134377088122
 30
0.0
 11
-84.04903063690637
 21
-88.01078443849563
 31
0.0
 11
-84.0089374521528
 21
-87.71836189426288
 31
0.0
 11
-83.9392839760689
 21
-87.41997029451898
 31
0.0
 11
-83.8430102308786
 21
-87.12820523448475
 31
0.0
 11
-83.72418023099837
 21
-86.85538251585731
 31
0.0
 11
-83.58780986640515
 21
-86.6130185721721
 31
0.0
 11
-83.43965563690638
 21
-86.41134377088122
 31
0.0
  0
SPLINE
  5
9A
330
47
100
AcDbEntity
  8
0
  6
Continuous
 62
     7
100
AcDbSpline
210
0.0
220
0.0
230
1.0
 70
     8
 71
     3
 72
     9
 73
     5
 74
     3
 42
0.000000001
 43
0.0000000001
 44
0.00000001
 40
0.0
 40
0.0
 40
0.0
 40
0.0
 40
1.198515566133299
 40
2.281558450931982
 40
2.281558450931982
 40
2.281558450931982
 40
2.281558450931982
 10
-62.04342993865996
 20
-94.14843318029267
 30
0.0
 10
-61.99003202901374
 20
-93.75144611722072
 30
0.0
 10
-61.88838092696256
 20
-92.99572027115701
 30
0.0
 10
-61.93082262714888
 20
-92.23460107160155
 30
0.0
 10
-61.95096947152652
 20
-91.87330209489433
 30
0.0
 11
-62.04342993865996
 21
-94.14843318029267
 31
0.0
 11
-61.92299805821064
 21
-92.95598371555624
 31
0.0
 11
-61.95096947152652
 21
-91.87330209489433
 31
0.0
  0
SPLINE
  5
9B
330
47
100
AcDbEntity
  8
0
  6
Continuous
 62
     7
100
AcDbSpline
210
0.0
220
0.0
230
1.0
 70
     8
 71
     3
 72
    11
 73
     7
 74
     5
 42
0.000000001
 43
0.0000000001
 44
0.00000001
 40
0.0
 40
0.0
 40
0.0
 40
0.0
 40
0.1363278649639452
 40
0.2940351130275241
 40
0.4848124453210044
 40
0.7111677446243218
 40
0.7111677446243218
 40
0.7111677446243218
 40
0.7111677446243218
 10
-62.27532753504001
 20
-91.2806992215012
 30
0.0
 10
-62.2333894353301
 20
-91.30003991041681
 30
0.0
 10
-62.14293637303587
 20
-91.3417543713246
 30
0.0
 10
-62.04875488271267
 20
-91.48046721147489
 30
0.0
 10
-61.98039135249946
 20
-91.65993267541592
 30
0.0
 10
-61.96131899926991
 20
-91.79824660894172
 30
0.0
 10
-61.95096947152652
 20
-91.87330209489433
 30
0.0
 11
-62.27532753504001
 21
-91.2806992215012
 31
0.0
 11
-62.15667864933797
 21
-91.34783884960376
 31
0.0
 11
-62.06055608277294
 21
-91.47286696763979
 31
0.0
 11
-61.99100972387339
 21
-91.65051632954308
 31
0.0
 11
-61.95096947152652
 21
-91.87330209489433
 31
0.0
  0
SPLINE
  5
9C
330
47
100
AcDbEntity
  8
0
  6
Continuous
 62
     7
100
AcDbSpline
210
0.0
220
0.0
230
1.0
 70
     8
 71
     3
 72
     9
 73
     5
 74
     3
 42
0.000000001
 43
0.0000000001
 44
0.00000001
 40
0.0
 40
0.0
 40
0.0
 40
0.0
 40
0.1582851776505256
 40
0.295020999970724
 40
0.295020999970724
 40
0.295020999970724
 40
0.295020999970724
 10
-62.56034447152651
 20
-91.32932988814221
 30
0.0
 10
-62.51173431107262
 20
-91.30542818515111
 30
0.0
 10
-62.4211318990958
 20
-91.26087883792358
 30
0.0
 10
-62.3215032494487
 20
-91.2744221716316
 30
0.0
 10
-62.27532753504001
 20
-91.2806992215012
 30
0.0
 11
-62.56034447152651
 21
-91.32932988814221
 31
0.0
 11
-62.41191573398284
 21
-91.2743470911427
 31
0.0
 11
-62.27532753504001
 21
-91.2806992215012
 31
0.0
  0
SPLINE
  5
9D
330
47
100
AcDbEntity
  8
0
  6
Continuous
 62
     7
100
AcDbSpline
210
0.0
220
0.0
230
1.0
 70
     8
 71
     3
 72
     9
 73
     5
 74
     3
 42
0.000000001
 43
0.0000000001
 44
0.00000001
 40
0.0
 40
0.0
 40
0.0
 40
0.0
 40
0.685639653599216
 40
1.275762625649795
 40
1.275762625649795
 40
1.275762625649795
 40
1.275762625649795
 10
-63.52107134986429
 20
-92.16134377088123
 30
0.0
 10
-63.3679145674941
 20
-91.99011566276087
 30
0.0
 10
-63.08293731003599
 20
-91.67151330424659
 30
0.0
 10
-62.7256247259099
 20
-91.4375521100232
 30
0.0
 10
-62.56034447152651
 20
-91.32932988814221
 30
0.0
 11
-63.52107134986429
 21
-92.16134377088123
 31
0.0
 11
-63.0407079106954
 21
-91.67210691403758
 31
0.0
 11
-62.56034447152651
 21
-91.32932988814221
 31
0.0
  0
SPLINE
  5
9E
330
47
100
AcDbEntity
  8
0
  6
Continuous
 62
     7
100
AcDbSpline
210
0.0
220
0.0
230
1.0
 70
     8
 71
     3
 72
    13
 73
     9
 74
     7
 42
0.000000001
 43
0.0000000001
 44
0.00000001
 40
0.0
 40
0.0
 40
0.0
 40
0.0
 40
0.2951582768103141
 40
0.6015716477190575
 40
0.908810128207161
 40
1.206388358705982
 40
1.484483947008652
 40
1.734728628649772
 40
1.734728628649772
 40
1.734728628649772
 40
1.734728628649772
 10
-64.13044634986427
 20
-93.76078443849565
 30
0.0
 10
-64.11898361803395
 20
-93.6629925947221
 30
0.0
 10
-64.09562103817206
 20
-93.46367987130043
 30
0.0
 10
-64.02452475572079
 20
-93.16855338376457
 30
0.0
 10
-63.93007362091186
 20
-92.8794839621232
 30
0.0
 10
-63.81227288261296
 20
-92.60950011039961
 30
0.0
 10
-63.68018332860105
 20
-92.36682344277045
 30
0.0
 10
-63.57221147199986
 20
-92.2273869081542
 30
0.0
 10
-63.52107134986429
 20
-92.16134377088123
 30
0.0
 11
-64.13044634986427
 21
-93.76078443849565
 31
0.0
 11
-64.09035316511068
 21
-93.4683618942629
 31
0.0
 11
-64.0206996890268
 21
-93.16997029451899
 31
0.0
 11
-63.9244259438365
 21
-92.87820523448478
 31
0.0
 11
-63.80559594395626
 21
-92.60538251585731
 31
0.0
 11
-63.66922557936304
 21
-92.36301857217211
 31
0.0
 11
-63.52107134986429
 21
-92.16134377088123
 31
0.0
  0
SPLINE
  5
9F
330
47
100
AcDbEntity
  8
0
  6
Continuous
 62
     7
100
AcDbSpline
210
0.0
220
0.0
230
1.0
 70
     8
 71
     3
 72
    15
 73
    11
 74
     9
 42
0.000000001
 43
0.0000000001
 44
0.00000001
 40
0.0
 40
0.0
 40
0.0
 40
0.0
 40
1.114112616980656
 40
2.348695702045406
 40
3.670043607001213
 40
5.038466592388269
 40
6.411299784210483
 40
7.745607651446184
 40
9.000864667657046
 40
10.14187170351553
 40
10.14187170351553
 40
10.14187170351553
 40
10.14187170351553
 10
-86.62509554710788
 20
-99.68086129127168
 30
0.0
 10
-86.66195037491576
 20
-99.31085338149008
 30
0.0
 10
-86.73964517830868
 20
-98.53082811679386
 30
0.0
 10
-86.67158751683584
 20
-97.30522150399887
 30
0.0
 10
-86.48829238536088
 20
-96.00903925699367
 30
0.0
 10
-86.17765845023709
 20
-94.6890262960691
 30
0.0
 10
-85.75785373278283
 20
-93.39508595128908
 30
0.0
 10
-85.23934132134548
 20
-92.17924621386237
 30
0.0
 10
-84.65629915421007
 20
-91.07647724240637
 30
0.0
 10
-84.18227967501542
 20
-90.43243633460041
 30
0.0
 10
-83.95657016977293
 20
-90.12576929712732
 30
0.0
 11
-86.62509554710788
 21
-99.68086129127168
 31
0.0
 11
-86.7083775532867
 21
-98.5698657777653
 31
0.0
 11
-86.65640188300476
 21
-97.3363772595861
 31
0.0
 11
-86.47117701093414
 21
-96.02807605646352
 31
0.0
 11
-86.15986348543416
 21
-94.6955351168286
 31
0.0
 11
-85.73449461943063
 21
-93.39026414690912
 31
0.0
 11
-85.21151366985515
 21
-92.162718460925
 31
0.0
 11
-84.61113616568088
 21
-91.06034963723906
 31
0.0
 11
-83.95657016977293
 21
-90.12576929712732
 31
0.0
  0
SPLINE
  5
A0
330
47
100
AcDbEntity
  8
0
  6
Continuous
 62
     7
100
AcDbSpline
210
0.0
220
0.0
230
1.0
 70
     8
 71
     3
 72
     9
 73
     5
 74
     3
 42
0.000000001
 43
0.0000000001
 44
0.00000001
 40
0.0
 40
0.0
 40
0.0
 40
0.0
 40
0.9911988421478349
 40
2.122674167212774
 40
2.122674167212774
 40
2.122674167212774
 40
2.122674167212774
 10
-83.95657016977293
 20
-90.12576929712732
 30
0.0
 10
-84.00799391826455
 20
-89.7983654637719
 30
0.0
 10
-84.11811898915843
 20
-89.09722293662396
 30
0.0
 10
-84.07305282415416
 20
-88.3885416239388
 30
0.0
 10
-84.04903063690637
 20
-88.01078443849563
 30
0.0
 11
-83.95657016977293
 21
-90.12576929712732
 31
0.0
 11
-84.07700205022223
 21
-89.14191396818016
 31
0.0
 11
-84.04903063690637
 21
-88.01078443849563
 31
0.0
  0
SPLINE
  5
A1
330
47
100
AcDbEntity
  8
0
  6
Continuous
 62
     7
100
AcDbSpline
210
0.0
220
0.0
230
1.0
 70
     8
 71
     3
 72
    11
 73
     7
 74
     5
 42
0.000000001
 43
0.0000000001
 44
0.00000001
 40
0.0
 40
0.0
 40
0.0
 40
0.0
 40
0.4392490295930931
 40
0.9209928828368678
 40
1.474657288371394
 40
2.114263068135201
 40
2.114263068135201
 40
2.114263068135201
 40
2.114263068135201
 10
-61.01566728277466
 20
-94.56906577285714
 30
0.0
 10
-61.16147181277937
 20
-94.54398479396673
 30
0.0
 10
-61.46718662590331
 20
-94.49139641007523
 30
0.0
 10
-61.9536028737716
 20
-94.62267921339347
 30
0.0
 10
-62.44995426550874
 20
-94.88468092882238
 30
0.0
 10
-62.75177211717776
 20
-95.14588540391706
 30
0.0
 10
-62.91354975936532
 20
-95.2858938454682
 30
0.0
 11
-61.01566728277466
 21
-94.56906577285714
 31
0.0
 11
-61.45264301752552
 21
-94.52443484503577
 31
0.0
 11
-61.9223658416842
 21
-94.63138161964326
 31
0.0
 11
-62.41334005024641
 21
-94.88728903164778
 31
0.0
 11
-62.91354975936532
 21
-95.2858938454682
 31
0.0
  0
SPLINE
  5
A2
330
47
100
AcDbEntity
  8
0
  6
Continuous
 62
     7
100
AcDbSpline
210
0.0
220
0.0
230
1.0
 70
     8
 71
     3
 72
     9
 73
     5
 74
     3
 42
0.000000001
 43
0.0000000001
 44
0.00000001
 40
0.0
 40
0.0
 40
0.0
 40
0.0
 40
0.9911988421478367
 40
2.122674167212762
 40
2.122674167212762
 40
2.122674167212762
 40
2.122674167212762
 10
-64.03798588273084
 20
-95.87576929712732
 30
0.0
 10
-64.08940963122245
 20
-95.54836546377192
 30
0.0
 10
-64.19953470211635
 20
-94.84722293662395
 30
0.0
 10
-64.15446853711205
 20
-94.13854162393879
 30
0.0
 10
-64.13044634986427
 20
-93.76078443849565
 30
0.0
 11
-64.03798588273084
 21
-95.87576929712732
 31
0.0
 11
-64.15841776318015
 21
-94.89191396818016
 31
0.0
 11
-64.13044634986427
 21
-93.76078443849565
 31
0.0
  0
SPLINE
  5
A3
330
47
100
AcDbEntity
  8
0
  6
Continuous
 62
     7
100
AcDbSpline
210
0.0
220
0.0
230
1.0
 70
     8
 71
     3
 72
     9
 73
     5
 74
     3
 42
0.000000001
 43
0.0000000001
 44
0.00000001
 40
0.0
 40
0.0
 40
0.0
 40
0.0
 40
0.5747280329665947
 40
1.225458350745714
 40
1.225458350745714
 40
1.225458350745714
 40
1.225458350745714
 10
-60.84925722390709
 20
-93.99260441915882
 30
0.0
 10
-61.04234700103241
 20
-93.96296715109396
 30
0.0
 10
-61.45406083106184
 20
-93.89977338926128
 30
0.0
 10
-61.83901534507738
 20
-94.06218893420478
 30
0.0
 10
-62.04342993865996
 20
-94.14843318029267
 30
0.0
 11
-60.84925722390709
 21
-93.99260441915882
 31
0.0
 11
-61.42264079474031
 21
-93.95331581130358
 31
0.0
 11
-62.04342993865996
 21
-94.14843318029267
 31
0.0
  0
SPLINE
  5
A4
330
47
100
AcDbEntity
  8
0
  6
Continuous
 62
     7
100
AcDbSpline
210
0.0
220
0.0
230
1.0
 70
     8
 71
     3
 72
     9
 73
     5
 74
     3
 42
0.000000001
 43
0.0000000001
 44
0.00000001
 40
0.0
 40
0.0
 40
0.0
 40
0.0
 40
2.050658001773505
 40
4.153508036335802
 40
4.153508036335802
 40
4.153508036335802
 40
4.153508036335802
 10
-64.37686377494205
 20
-101.8359159197566
 30
0.0
 10
-64.32037779789654
 20
-102.5172093122774
 30
0.0
 10
-64.20596821888262
 20
-103.8971359413554
 30
0.0
 10
-64.14812226360421
 20
-105.2805933321817
 30
0.0
 10
-64.1188358565476
 20
-105.9810141328652
 30
0.0
 11
-64.37686377494205
 21
-101.8359159197566
 31
0.0
 11
-64.22119360950464
 21
-103.8806567445043
 31
0.0
 11
-64.1188358565476
 21
-105.9810141328652
 31
0.0
  0
SPLINE
  5
A5
330
47
100
AcDbEntity
  8
0
  6
Continuous
 62
     7
100
AcDbSpline
210
0.0
220
0.0
230
1.0
 70
     8
 71
     3
 72
     9
 73
     5
 74
     3
 42
0.000000001
 43
0.0000000001
 44
0.00000001
 40
0.0
 40
0.0
 40
0.0
 40
0.0
 40
0.023553441460314
 40
0.047080879909778
 40
0.047080879909778
 40
0.047080879909778
 40
0.047080879909778
 10
-65.65193708379385
 20
-106.2632192531853
 30
0.0
 10
-65.65960655315871
 20
-106.2615322639464
 30
0.0
 10
-65.67493702013593
 20
-106.2581601284609
 30
0.0
 10
-65.69005776909545
 20
-106.2539461840115
 30
0.0
 10
-65.69761396543703
 20
-106.2518403658058
 30
0.0
 11
-65.65193708379385
 21
-106.2632192531853
 31
0.0
 11
-65.67489300221408
 21
-106.2579475909437
 31
0.0
 11
-65.69761396543703
 21
-106.2518403658058
 31
0.0
  0
SPLINE
  5
A6
330
47
100
AcDbEntity
  8
0
  6
Continuous
 62
     7
100
AcDbSpline
210
0.0
220
0.0
230
1.0
 70
     8
 71
     3
 72
    11
 73
     7
 74
     5
 42
0.000000001
 43
0.0000000001
 44
0.00000001
 40
0.0
 40
0.0
 40
0.0
 40
0.0
 40
0.2858639007687736
 40
0.6110863848765697
 40
0.998919513575325
 40
1.456339491609667
 40
1.456339491609667
 40
1.456339491609667
 40
1.456339491609667
 10
-65.69761396543703
 20
-106.2518403658058
 30
0.0
 10
-65.78590200810464
 20
-106.2124652890107
 30
0.0
 10
-65.97463384377701
 20
-106.1282938460658
 30
0.0
 10
-66.1801660508825
 20
-105.852193931861
 30
0.0
 10
-66.33554298064874
 20
-105.4928872956119
 30
0.0
 10
-66.38627423057964
 20
-105.2146096553547
 30
0.0
 10
-66.41372811583403
 20
-105.0640160018082
 30
0.0
 11
-65.69761396543703
 21
-106.2518403658058
 31
0.0
 11
-65.94869202303252
 21
-106.1151729568024
 31
0.0
 11
-66.1564541896795
 21
-105.8649639442893
 31
0.0
 11
-66.31336348881389
 21
-105.5102894313622
 31
0.0
 11
-66.41372811583403
 21
-105.0640160018082
 31
0.0
  0
SPLINE
  5
A7
330
47
100
AcDbEntity
  8
0
  6
Continuous
 62
     7
100
AcDbSpline
210
0.0
220
0.0
230
1.0
 70
     8
 71
     3
 72
     9
 73
     5
 74
     3
 42
0.000000001
 43
0.0000000001
 44
0.00000001
 40
0.0
 40
0.0
 40
0.0
 40
0.0
 40
2.060789478568168
 40
4.176127394628681
 40
4.176127394628681
 40
4.176127394628681
 40
4.176127394628681
 10
-64.7256269174667
 20
-101.6183384188159
 30
0.0
 10
-64.66358188922031
 20
-102.3025451851718
 30
0.0
 10
-64.53784954064226
 20
-103.6890694533895
 30
0.0
 10
-64.47097761777184
 20
-105.0796813593927
 30
0.0
 10
-64.43710492702836
 20
-105.784069376319
 30
0.0
 11
-64.7256269174667
 21
-101.6183384188159
 31
0.0
 11
-64.5538250430129
 21
-103.6719541062058
 31
0.0
 11
-64.43710492702836
 21
-105.784069376319
 31
0.0
  0
SPLINE
  5
A8
330
47
100
AcDbEntity
  8
0
  6
Continuous
 62
     7
100
AcDbSpline
210
0.0
220
0.0
230
1.0
 70
     8
 71
     3
 72
    15
 73
    11
 74
     9
 42
0.000000001
 43
0.0000000001
 44
0.00000001
 40
0.0
 40
0.0
 40
0.0
 40
0.0
 40
1.114112616980684
 40
2.34869570204542
 40
3.670043607001241
 40
5.0384665923883
 40
6.411299784210496
 40
7.745607651446184
 40
9.000864667657059
 40
10.14187170351554
 40
10.14187170351554
 40
10.14187170351554
 40
10.14187170351554
 10
-66.70651126006578
 20
-105.4308612912717
 30
0.0
 10
-66.7433660878737
 20
-105.0608533814901
 30
0.0
 10
-66.82106089126657
 20
-104.2808281167939
 30
0.0
 10
-66.75300322979375
 20
-103.0552215039989
 30
0.0
 10
-66.56970809831881
 20
-101.7590392569937
 30
0.0
 10
-66.25907416319498
 20
-100.4390262960691
 30
0.0
 10
-65.83926944574074
 20
-99.14508595128908
 30
0.0
 10
-65.32075703430337
 20
-97.92924621386233
 30
0.0
 10
-64.73771486716797
 20
-96.8264772424064
 30
0.0
 10
-64.26369538797336
 20
-96.18243633460041
 30
0.0
 10
-64.03798588273084
 20
-95.87576929712732
 30
0.0
 11
-66.70651126006578
 21
-105.4308612912717
 31
0.0
 11
-66.7897932662446
 21
-104.3198657777653
 31
0.0
 11
-66.73781759596267
 21
-103.0863772595861
 31
0.0
 11
-66.55259272389205
 21
-101.7780760564635
 31
0.0
 11
-66.24127919839205
 21
-100.4455351168286
 31
0.0
 11
-65.81591033238854
 21
-99.14026414690912
 31
0.0
 11
-65.29292938281306
 21
-97.91271846092502
 31
0.0
 11
-64.69255187863878
 21
-96.81034963723906
 31
0.0
 11
-64.03798588273084
 21
-95.87576929712732
 31
0.0
  0
SPLINE
  5
A9
330
47
100
AcDbEntity
  8
0
  6
Continuous
 62
     7
100
AcDbSpline
210
0.0
220
0.0
230
1.0
 70
     8
 71
     3
 72
    15
 73
    11
 74
     9
 42
0.000000001
 43
0.0000000001
 44
0.00000001
 40
0.0
 40
0.0
 40
0.0
 40
0.0
 40
1.193290238765257
 40
2.528782460985568
 40
3.955924363423633
 40
5.415890429067464
 40
6.847103631602844
 40
8.190392796993466
 40
9.39446119188983
 40
10.4227148642292
 40
10.4227148642292
 40
10.4227148642292
 40
10.4227148642292
 10
-66.41372811583403
 20
-105.0640160018082
 30
0.0
 10
-66.45028915854716
 20
-104.6672958067067
 30
0.0
 10
-66.52776813061456
 20
-103.8265790728239
 30
0.0
 10
-66.41834104232166
 20
-102.5068144378642
 30
0.0
 10
-66.17096527105008
 20
-101.119891613593
 30
0.0
 10
-65.77410777452124
 20
-99.7336688073322
 30
0.0
 10
-65.25642780767444
 20
-98.41725405139118
 30
0.0
 10
-64.63625363981896
 20
-97.24409369661032
 30
0.0
 10
-63.96593196821034
 20
-96.24834497175686
 30
0.0
 10
-63.41954376568698
 20
-95.74020019978737
 30
0.0
 10
-63.16786606202547
 20
-95.50613822416841
 30
0.0
 11
-66.41372811583403
 21
-105.0640160018082
 31
0.0
 11
-66.49058263546196
 21
-103.8732032666043
 31
0.0
 11
-66.40091304455898
 21
-102.5407248143198
 31
0.0
 11
-66.14938438989566
 21
-101.1359232786727
 31
0.0
 11
-65.74908786181844
 21
-99.7319063261824
 31
0.0
 11
-65.22085408840536
 21
-98.40174080654148
 31
0.0
 11
-64.5921739215913
 21
-97.21464897302648
 31
0.0
 11
-63.89576379454216
 21
-96.2324098732042
 31
0.0
 11
-63.16786606202547
 21
-95.50613822416841
 31
0.0
  0
SPLINE
  5
AA
330
47
100
AcDbEntity
  8
0
  6
Continuous
 62
     7
100
AcDbSpline
210
0.0
220
0.0
230
1.0
 70
     8
 71
     3
 72
    11
 73
     7
 74
     5
 42
0.000000001
 43
0.0000000001
 44
0.00000001
 40
0.0
 40
0.0
 40
0.0
 40
0.0
 40
0.4045187433894812
 40
0.7583335390794446
 40
1.068930331155667
 40
1.35158430950713
 40
1.35158430950713
 40
1.35158430950713
 40
1.35158430950713
 10
-64.43710492702836
 20
-105.784069376319
 30
0.0
 10
-64.54038732268093
 20
-105.8713985098617
 30
0.0
 10
-64.73400630640646
 20
-106.0351105935433
 30
0.0
 10
-65.05017173584977
 20
-106.202963201615
 30
0.0
 10
-65.35911802912372
 20
-106.2942020869388
 30
0.0
 10
-65.55744453683573
 20
-106.2732174013159
 30
0.0
 10
-65.65193708379385
 20
-106.2632192531853
 30
0.0
 11
-64.43710492702836
 21
-105.784069376319
 31
0.0
 11
-64.75568176988133
 21
-106.0333567756085
 31
0.0
 11
-65.06868939155541
 21
-106.1983147708399
 31
0.0
 11
-65.36954897947224
 21
-106.2754761467905
 31
0.0
 11
-65.65193708379385
 21
-106.2632192531853
 31
0.0
  0
SPLINE
  5
AB
330
47
100
AcDbEntity
  8
0
  6
Continuous
 62
     7
100
AcDbSpline
210
0.0
220
0.0
230
1.0
 70
     8
 71
     3
 72
    11
 73
     7
 74
     5
 42
0.000000001
 43
0.0000000001
 44
0.00000001
 40
0.0
 40
0.0
 40
0.0
 40
0.0
 40
0.6128499832071026
 40
1.138224996519856
 40
1.58448157415294
 40
1.977452890951863
 40
1.977452890951863
 40
1.977452890951863
 40
1.977452890951863
 10
-64.1188358565476
 20
-105.9810141328652
 30
0.0
 10
-64.26018080111413
 20
-106.1294905204657
 30
0.0
 10
-64.52269586806274
 20
-106.405250550742
 30
0.0
 10
-64.96215083087
 20
-106.7014220648673
 30
0.0
 10
-65.39607646688518
 20
-106.8751716603948
 30
0.0
 10
-65.67818720400521
 20
-106.8523670086015
 30
0.0
 10
-65.81028651648909
 20
-106.841688645833
 30
0.0
 11
-64.1188358565476
 21
-105.9810141328652
 31
0.0
 11
-64.55828507765636
 21
-106.4081785970339
 31
0.0
 11
-64.99563844572
 21
-106.6992815672336
 31
0.0
 11
-65.41733173819152
 21
-106.8452942538383
 31
0.0
 11
-65.81028651648909
 21
-106.841688645833
 31
0.0
  0
SPLINE
  5
AC
330
47
100
AcDbEntity
  8
0
  6
Continuous
 62
     7
100
AcDbSpline
210
0.0
220
0.0
230
1.0
 70
     8
 71
     3
 72
     9
 73
     5
 74
     3
 42
0.000000001
 43
0.0000000001
 44
0.00000001
 40
0.0
 40
0.0
 40
0.0
 40
0.0
 40
0.1582851776505189
 40
0.2950209999707238
 40
0.2950209999707238
 40
0.2950209999707238
 40
0.2950209999707238
 10
-82.4789287585686
 20
-85.57932988814221
 30
0.0
 10
-82.4303185981147
 20
-85.55542818515113
 30
0.0
 10
-82.3397161861379
 20
-85.5108788379236
 30
0.0
 10
-82.24008753649079
 20
-85.52442217163157
 30
0.0
 10
-82.1939118220821
 20
-85.53069922150118
 30
0.0
 11
-82.4789287585686
 21
-85.57932988814221
 31
0.0
 11
-82.33050002102493
 21
-85.5243470911427
 31
0.0
 11
-82.1939118220821
 21
-85.53069922150118
 31
0.0
  0
SPLINE
  5
AD
330
47
100
AcDbEntity
  8
0
  6
Continuous
 62
     7
100
AcDbSpline
210
0.0
220
0.0
230
1.0
 70
     8
 71
     3
 72
    11
 73
     7
 74
     5
 42
0.000000001
 43
0.0000000001
 44
0.00000001
 40
0.0
 40
0.0
 40
0.0
 40
0.0
 40
0.4393174257783852
 40
0.929464224878845
 40
1.465749247859268
 40
2.04117287411921
 40
2.04117287411921
 40
2.04117287411921
 40
2.04117287411921
 10
-61.64431089436243
 20
-103.3654387964927
 30
0.0
 10
-61.53548041618626
 20
-103.2671561700128
 30
0.0
 10
-61.30522769814864
 20
-103.0592195284073
 30
0.0
 10
-60.9979911807685
 20
-102.6772642723896
 30
0.0
 10
-60.69688403123686
 20
-102.2356177205041
 30
0.0
 10
-60.52068161399293
 20
-101.9093267916247
 30
0.0
 10
-60.42947873759695
 20
-101.7404376551728
 30
0.0
 11
-61.64431089436243
 21
-103.3654387964927
 31
0.0
 11
-61.32573405150946
 21
-103.0629349178459
 31
0.0
 11
-61.01272642983538
 21
-102.6857478091816
 31
0.0
 11
-60.71186684191855
 21
-102.241805092916
 31
0.0
 11
-60.42947873759695
 21
-101.7404376551728
 31
0.0
  0
SPLINE
  5
AE
330
47
100
AcDbEntity
  8
0
  6
Continuous
 62
     7
100
AcDbSpline
210
0.0
220
0.0
230
1.0
 70
     8
 71
     3
 72
    11
 73
     7
 74
     5
 42
0.000000001
 43
0.0000000001
 44
0.00000001
 40
0.0
 40
0.0
 40
0.0
 40
0.0
 40
0.551960932787844
 40
1.191352192182071
 40
1.911995649798972
 40
2.701029815551615
 40
2.701029815551615
 40
2.701029815551615
 40
2.701029815551615
 10
-61.96257996484319
 20
-104.1136417535893
 30
0.0
 10
-61.81186712481322
 20
-104.0072177794042
 30
0.0
 10
-61.48656861819771
 20
-103.7775123162269
 30
0.0
 10
-61.0593727060397
 20
-103.2988618507235
 30
0.0
 10
-60.63819382859321
 20
-102.7182518511613
 30
0.0
 10
-60.39712441301371
 20
-102.2758562096682
 30
0.0
 10
-60.27112930490171
 20
-102.0446377850425
 30
0.0
 11
-61.96257996484319
 21
-104.1136417535893
 31
0.0
 11
-61.52313074373443
 21
-103.7796578394511
 31
0.0
 11
-61.0857773756708
 21
-103.3132425553032
 31
0.0
 11
-60.66408408319928
 21
-102.7288610341363
 31
0.0
 11
-60.27112930490171
 21
-102.0446377850425
 31
0.0
  0
SPLINE
  5
AF
330
47
100
AcDbEntity
  8
0
  6
Continuous
 62
     7
100
AcDbSpline
210
0.0
220
0.0
230
1.0
 70
     8
 71
     3
 72
    13
 73
     9
 74
     7
 42
0.000000001
 43
0.0000000001
 44
0.00000001
 40
0.0
 40
0.0
 40
0.0
 40
0.0
 40
1.169762972796723
 40
2.231649752529822
 40
3.160338529979966
 40
3.944534696108564
 40
4.595951748626912
 40
5.162369301515171
 40
5.162369301515171
 40
5.162369301515171
 40
5.162369301515171
 10
-59.66768770555676
 20
-99.22177363155174
 30
0.0
 10
-59.6329608169229
 20
-98.83298518908336
 30
0.0
 10
-59.56670957425747
 20
-98.0912625909827
 30
0.0
 10
-59.6161786910552
 20
-97.03623045719476
 30
0.0
 10
-59.78090013969101
 20
-96.12027912684123
 30
0.0
 10
-60.06818412949602
 20
-95.3857350149149
 30
0.0
 10
-60.46617050844905
 20
-94.81962287547165
 30
0.0
 10
-60.84122746404798
 20
-94.64860606259552
 30
0.0
 10
-61.01566728277466
 20
-94.56906577285714
 30
0.0
 11
-59.66768770555676
 21
-99.22177363155174
 31
0.0
 11
-59.59130758844192
 21
-98.05450696667981
 31
0.0
 11
-59.6430245917347
 21
-96.99388031951838
 31
0.0
 11
-59.82076873976975
 21
-96.08235968743062
 31
0.0
 11
-60.11742287632207
 21
-95.35643961629467
 31
0.0
 11
-60.52111016895299
 21
-94.84518551515828
 31
0.0
 11
-61.01566728277466
 21
-94.56906577285714
 31
0.0
  0
SPLINE
  5
B0
330
47
100
AcDbEntity
  8
0
  6
Continuous
 62
     7
100
AcDbSpline
210
0.0
220
0.0
230
1.0
 70
     8
 71
     3
 72
    13
 73
     9
 74
     7
 42
0.000000001
 43
0.0000000001
 44
0.00000001
 40
0.0
 40
0.0
 40
0.0
 40
0.0
 40
1.279428250562151
 40
2.440866915900794
 40
3.456620266212671
 40
4.314334822882405
 40
5.026822224783057
 40
5.646341423809075
 40
5.646341423809075
 40
5.646341423809075
 40
5.646341423809075
 10
-59.37490456132501
 20
-99.08150363960603
 30
0.0
 10
-59.33692202690947
 20
-98.65626628096673
 30
0.0
 10
-59.26445973012314
 20
-97.84500718959671
 30
0.0
 10
-59.31856657685278
 20
-96.69106579363303
 30
0.0
 10
-59.49873066107368
 20
-95.68924402593979
 30
0.0
 10
-59.81294752494843
 20
-94.88583640359855
 30
0.0
 10
-60.24824512563054
 20
-94.266651249193
 30
0.0
 10
-60.65846367200404
 20
-94.07960161113807
 30
0.0
 10
-60.84925722390709
 20
-93.99260441915882
 30
0.0
 11
-59.37490456132501
 21
-99.08150363960603
 31
0.0
 11
-59.29136380823067
 21
-97.80480572490235
 31
0.0
 11
-59.34792928058213
 21
-96.64474532956956
 31
0.0
 11
-59.54233694249547
 21
-95.6477696382236
 31
0.0
 11
-59.86680240434957
 21
-94.85379456041863
 31
0.0
 11
-60.30833538066464
 21
-94.29461038730071
 31
0.0
 11
-60.84925722390709
 21
-93.99260441915882
 31
0.0
  0
SPLINE
  5
B1
330
47
100
AcDbEntity
  8
0
  6
Continuous
 62
     7
100
AcDbSpline
210
0.0
220
0.0
230
1.0
 70
     8
 71
     3
 72
     9
 73
     5
 74
     3
 42
0.000000001
 43
0.0000000001
 44
0.00000001
 40
0.0
 40
0.0
 40
0.0
 40
0.0
 40
2.357453716077015
 40
4.674675661806191
 40
4.674675661806191
 40
4.674675661806191
 40
4.674675661806191
 10
-61.35578890392409
 20
-98.69997309244954
 30
0.0
 10
-61.41751551759697
 20
-99.48342617404771
 30
0.0
 10
-61.53991531260183
 20
-101.036962106017
 30
0.0
 10
-61.60971260640099
 20
-102.5937459610506
 30
0.0
 10
-61.64431089436243
 20
-103.3654387964927
 30
0.0
 11
-61.35578890392409
 21
-98.69997309244954
 31
0.0
 11
-61.52759077837787
 21
-101.0511583552289
 31
0.0
 11
-61.64431089436243
 21
-103.3654387964927
 31
0.0
  0
SPLINE
  5
B2
330
47
100
AcDbEntity
  8
0
  6
Continuous
 62
     7
100
AcDbSpline
210
0.0
220
0.0
230
1.0
 70
     8
 71
     3
 72
     9
 73
     5
 74
     3
 42
0.000000001
 43
0.0000000001
 44
0.00000001
 40
0.0
 40
0.0
 40
0.0
 40
0.0
 40
2.3195989307687
 40
4.599543973755251
 40
4.599543973755251
 40
4.599543973755251
 40
4.599543973755251
 10
-61.70455204644874
 20
-99.52162607605025
 30
0.0
 10
-61.76077347077395
 20
-100.2928395975832
 30
0.0
 10
-61.87225518587481
 20
-101.8220826323353
 30
0.0
 10
-61.93264525806087
 20
-103.3541916187326
 30
0.0
 10
-61.96257996484319
 20
-104.1136417535893
 30
0.0
 11
-61.70455204644874
 21
-99.52162607605025
 31
0.0
 11
-61.86022221188616
 21
-101.8359955365583
 31
0.0
 11
-61.96257996484319
 21
-104.1136417535893
 31
0.0
  0
SPLINE
  5
B3
330
47
100
AcDbEntity
  8
0
  6
Continuous
 62
     7
100
AcDbSpline
210
0.0
220
0.0
230
1.0
 70
     8
 71
     3
 72
    11
 73
     7
 74
     5
 42
0.000000001
 43
0.0000000001
 44
0.00000001
 40
0.0
 40
0.0
 40
0.0
 40
0.0
 40
0.645647738221006
 40
1.315729995101023
 40
1.98899145728827
 40
2.643977983533737
 40
2.643977983533737
 40
2.643977983533737
 40
2.643977983533737
 10
-60.42947873759695
 20
-101.7404376551728
 30
0.0
 10
-60.33652542543757
 20
-101.5461419908301
 30
0.0
 10
-60.14710099972591
 20
-101.1501975425545
 30
0.0
 10
-59.93261241154558
 20
-100.5216447455237
 30
0.0
 10
-59.76226327032171
 20
-99.87656047292572
 30
0.0
 10
-59.69892239334218
 20
-99.43802468867624
 30
0.0
 10
-59.66768770555676
 20
-99.22177363155174
 30
0.0
 11
-60.42947873759695
 21
-101.7404376551728
 31
0.0
 11
-60.16206620864681
 21
-101.1527714729203
 31
0.0
 11
-59.94050661716769
 21
-100.5203779406276
 31
0.0
 11
-59.77352259937867
 21
-99.86815302886927
 31
0.0
 11
-59.66768770555676
 21
-99.22177363155174
 31
0.0
  0
SPLINE
  5
B4
330
47
100
AcDbEntity
  8
0
  6
Continuous
 62
     7
100
AcDbSpline
210
0.0
220
0.0
230
1.0
 70
     8
 71
     3
 72
    11
 73
     7
 74
     5
 42
0.000000001
 43
0.0000000001
 44
0.00000001
 40
0.0
 40
0.0
 40
0.0
 40
0.0
 40
0.7595855744503859
 40
1.547917641536134
 40
2.339989950155352
 40
3.110562334036077
 40
3.110562334036077
 40
3.110562334036077
 40
3.110562334036077
 10
-60.27112930490171
 20
-102.0446377850425
 30
0.0
 10
-60.16177246705669
 20
-101.8160546504999
 30
0.0
 10
-59.93892019903877
 20
-101.3502376535484
 30
0.0
 10
-59.6865806847642
 20
-100.6107637740642
 30
0.0
 10
-59.48616992902039
 20
-99.85184110058916
 30
0.0
 10
-59.41165125284026
 20
-99.33591664800842
 30
0.0
 10
-59.37490456132501
 20
-99.08150363960603
 30
0.0
 11
-60.27112930490171
 21
-102.0446377850425
 31
0.0
 11
-59.95652632966627
 21
-101.353265805922
 31
0.0
 11
-59.69586798674965
 21
-100.6092734149894
 31
0.0
 11
-59.49941620111551
 21
-99.84194998939141
 31
0.0
 11
-59.37490456132501
 21
-99.08150363960603
 31
0.0
  0
ENDBLK
  5
49
330
47
100
AcDbEntity
  8
0
100
AcDbBlockEnd
  0
BLOCK
  5
4C
330
4A
100
AcDbEntity
  8
0
100
AcDbBlockBegin
  2
Allg1
 70
     0
 10
-72.99999999999604
 20
-95.50000000000102
 30
0.0
  3
Allg1
  1

  0
INSERT
  5
4B
330
4A
100
AcDbEntity
  8
0
100
AcDbBlockReference
  2
0808024_PATG_5_23-select__1
 10
-86.73624007806976
 20
-106.8943361552528
 30
0.0
  0
MTEXT
  5
B6
330
4A
100
AcDbEntity
  8
1
 62
     6
100
AcDbMText
 10
-72.99999999999602
 20
-111.6943752196297
 30
0.0
 40
2.5
 41
0.0
 71
     2
 72
     1
  1
 
  7
CONVERTER_11
 73
     1
 44
1.32052821128451
  0
ENDBLK
  5
4D
330
4A
100
AcDbEntity
  8
0
100
AcDbBlockEnd
  0
BLOCK
  5
4F
330
4E
100
AcDbEntity
  8
0
100
AcDbBlockBegin
  2
0808024_PATG_5_23-select__2
 70
     0
 10
-148.0000001788089
 20
-94.73277402322714
 30
0.0
  3
0808024_PATG_5_23-select__2
  1

  0
LINE
  5
B7
330
4E
100
AcDbEntity
  8
0
  6
Continuous
 62
     7
100
AcDbLine
 10
-148.0000001788089
 20
-79.73277402322714
 30
0.0
 11
-125.0000001788089
 21
-79.73277402322714
 31
0.0
  0
LINE
  5
B8
330
4E
100
AcDbEntity
  8
0
  6
Continuous
 62
     7
100
AcDbLine
 10
-125.0000001788089
 20
-79.73277402322714
 30
0.0
 11
-125.0000001788089
 21
-84.98277402322714
 31
0.0
  0
LINE
  5
B9
330
4E
100
AcDbEntity
  8
0
  6
Continuous
 62
     7
100
AcDbLine
 10
-125.0000001788089
 20
-84.98277402322714
 30
0.0
 11
-125.0000001788089
 21
-85.05329714488937
 31
0.0
  0
LINE
  5
BA
330
4E
100
AcDbEntity
  8
0
  6
Continuous
 62
     7
100
AcDbLine
 10
-125.0000001788089
 20
-85.05329714488937
 30
0.0
 11
-125.0000001788089
 21
-86.27204714488937
 31
0.0
  0
LINE
  5
BB
330
4E
100
AcDbEntity
  8
0
  6
Continuous
 62
     7
100
AcDbLine
 10
-125.0000001788089
 20
-94.73277402322714
 30
0.0
 11
-125.0000001788089
 21
-89.48277402322714
 31
0.0
  0
LINE
  5
BC
330
4E
100
AcDbEntity
  8
0
  6
Continuous
 62
     7
100
AcDbLine
 10
-125.0000001788089
 20
-89.48277402322714
 30
0.0
 11
-125.0000001788089
 21
-89.4122509015649
 31
0.0
  0
LINE
  5
BD
330
4E
100
AcDbEntity
  8
0
  6
Continuous
 62
     7
100
AcDbLine
 10
-148.0000001788089
 20
-89.4122509015649
 30
0.0
 11
-148.0000001788089
 21
-88.1935009015649
 31
0.0
  0
LINE
  5
BE
330
4E
100
AcDbEntity
  8
0
  6
Continuous
 62
     7
100
AcDbLine
 10
-125.0000001788089
 20
-89.4122509015649
 30
0.0
 11
-125.0000001788089
 21
-88.1935009015649
 31
0.0
  0
LINE
  5
BF
330
4E
100
AcDbEntity
  8
0
  6
Continuous
 62
     2
100
AcDbLine
 10
-148.0000001788089
 20
-89.4122509015649
 30
0.0
 11
-125.0000001788089
 21
-89.4122509015649
 31
0.0
  0
LINE
  5
C0
330
4E
100
AcDbEntity
  8
0
  6
Continuous
 62
     7
100
AcDbLine
 10
-125.0000001788089
 20
-89.48277402322714
 30
0.0
 11
-148.0000001788089
 21
-89.48277402322714
 31
0.0
  0
LINE
  5
C1
330
4E
100
AcDbEntity
  8
0
  6
Continuous
 62
     2
100
AcDbLine
 10
-148.0000001788089
 20
-88.1935009015649
 30
0.0
 11
-125.0000001788089
 21
-88.1935009015649
 31
0.0
  0
LINE
  5
C2
330
4E
100
AcDbEntity
  8
0
  6
Continuous
 62
     7
100
AcDbLine
 10
-148.0000001788089
 20
-79.73277402322714
 30
0.0
 11
-148.0000001788089
 21
-84.98277402322714
 31
0.0
  0
LINE
  5
C3
330
4E
100
AcDbEntity
  8
0
  6
Continuous
 62
     7
100
AcDbLine
 10
-148.0000001788089
 20
-85.05329714488937
 30
0.0
 11
-148.0000001788089
 21
-86.27204714488937
 31
0.0
  0
LINE
  5
C4
330
4E
100
AcDbEntity
  8
0
  6
Continuous
 62
     7
100
AcDbLine
 10
-148.0000001788089
 20
-84.98277402322714
 30
0.0
 11
-148.0000001788089
 21
-85.05329714488937
 31
0.0
  0
LINE
  5
C5
330
4E
100
AcDbEntity
  8
0
  6
Continuous
 62
     7
100
AcDbLine
 10
-148.0000001788089
 20
-88.1935009015649
 30
0.0
 11
-148.0000001788089
 21
-86.27204714488937
 31
0.0
  0
LINE
  5
C6
330
4E
100
AcDbEntity
  8
0
  6
Continuous
 62
     7
100
AcDbLine
 10
-125.0000001788089
 20
-88.1935009015649
 30
0.0
 11
-125.0000001788089
 21
-86.27204714488937
 31
0.0
  0
LINE
  5
C7
330
4E
100
AcDbEntity
  8
0
  6
Continuous
 62
     2
100
AcDbLine
 10
-148.0000001788089
 20
-86.27204714488937
 30
0.0
 11
-125.0000001788089
 21
-86.27204714488937
 31
0.0
  0
LINE
  5
C8
330
4E
100
AcDbEntity
  8
0
  6
Continuous
 62
     2
100
AcDbLine
 10
-148.0000001788089
 20
-85.05329714488937
 30
0.0
 11
-125.0000001788089
 21
-85.05329714488937
 31
0.0
  0
LINE
  5
C9
330
4E
100
AcDbEntity
  8
0
  6
Continuous
 62
     7
100
AcDbLine
 10
-148.0000001788089
 20
-84.98277402322714
 30
0.0
 11
-125.0000001788089
 21
-84.98277402322714
 31
0.0
  0
LINE
  5
CA
330
4E
100
AcDbEntity
  8
0
  6
Continuous
 62
     7
100
AcDbLine
 10
-125.0000001788089
 20
-94.73277402322714
 30
0.0
 11
-148.0000001788089
 21
-94.73277402322714
 31
0.0
  0
LINE
  5
CB
330
4E
100
AcDbEntity
  8
0
  6
Continuous
 62
     7
100
AcDbLine
 10
-148.0000001788089
 20
-94.73277402322714
 30
0.0
 11
-148.0000001788089
 21
-89.48277402322714
 31
0.0
  0
LINE
  5
CC
330
4E
100
AcDbEntity
  8
0
  6
Continuous
 62
     7
100
AcDbLine
 10
-148.0000001788089
 20
-89.48277402322714
 30
0.0
 11
-148.0000001788089
 21
-89.4122509015649
 31
0.0
  0
ENDBLK
  5
50
330
4E
100
AcDbEntity
  8
0
100
AcDbBlockEnd
  0
BLOCK
  5
53
330
51
100
AcDbEntity
  8
0
100
AcDbBlockBegin
  2
Drfsicht1
 70
     0
 10
-136.5000001788139
 20
-87.23277391477768
 30
0.0
  3
Drfsicht1
  1

  0
INSERT
  5
52
330
51
100
AcDbEntity
  8
0
100
AcDbBlockReference
  2
0808024_PATG_5_23-select__2
 10
-148.0000001788089
 20
-94.73277402322714
 30
0.0
  0
MTEXT
  5
CD
330
51
100
AcDbEntity
  8
1
 62
     6
100
AcDbMText
 10
-136.5000001788139
 20
-97.23277385517304
 30
0.0
 40
2.5
 41
0.0
 71
     2
 72
     1
  1
 
  7
CONVERTER_11
 73
     1
 44
1.32052821128451
  0
DIMENSION
  5
D8
330
51
100
AcDbEntity
  8
1
100
AcDbDimension
  2
*D16
 10
-153.0000001788089
 20
-79.73277402322714
 30
0.0
 11
-154.6250001788089
 21
-87.23277402322714
 31
0.0
 70
    32
  1
<>
 71
     5
 42
-1.0
 53
90.0
  3
ME10_DIM_10
100
AcDbAlignedDimension
 13
-148.0000001788089
 23
-94.73277402322714
 33
0.0
 14
-148.0000001788089
 24
-79.73277402322714
 34
0.0
 50
90.0
100
AcDbRotatedDimension
  0
ENDBLK
  5
54
330
51
100
AcDbEntity
  8
0
100
AcDbBlockEnd
  0
BLOCK
  5
56
330
55
100
AcDbEntity
  8
0
100
AcDbBlockBegin
  2
0808024_PATG_5_23-select__3
 70
     0
 10
-83.0000000000175
 20
-64.76016555735406
 30
0.0
  3
0808024_PATG_5_23-select__3
  1

  0
LINE
  5
D9
330
55
100
AcDbEntity
  8
0
  6
Continuous
 62
     7
100
AcDbLine
 10
-60.00000000001749
 20
-64.00691127761166
 30
0.0
 11
-60.00000000001749
 21
-61.4816034281629
 31
0.0
  0
LINE
  5
DA
330
55
100
AcDbEntity
  8
0
  6
Continuous
 62
     2
100
AcDbLine
 10
-60.00000000001749
 20
-64.00691127761166
 30
0.0
 11
-83.0000000000175
 21
-64.00691127761166
 31
0.0
  0
LINE
  5
DB
330
55
100
AcDbEntity
  8
0
  6
Continuous
 62
     7
100
AcDbLine
 10
-83.0000000000175
 20
-64.00691127761166
 30
0.0
 11
-83.0000000000175
 21
-61.4816034281629
 31
0.0
  0
LINE
  5
DC
330
55
100
AcDbEntity
  8
0
  6
Continuous
 62
     7
100
AcDbLine
 10
-60.00000000001749
 20
-61.4816034281629
 30
0.0
 11
-60.00000000001749
 21
-53.11685893559604
 31
0.0
  0
LINE
  5
DD
330
55
100
AcDbEntity
  8
0
  6
Continuous
 62
     7
100
AcDbLine
 10
-60.00000000001749
 20
-64.76016555735406
 30
0.0
 11
-60.00000000001749
 21
-64.00691127761166
 31
0.0
  0
LINE
  5
DE
330
55
100
AcDbEntity
  8
0
  6
Continuous
 62
     7
100
AcDbLine
 10
-60.00000000001749
 20
-64.76016555735406
 30
0.0
 11
-83.0000000000175
 21
-64.76016555735406
 31
0.0
  0
LINE
  5
DF
330
55
100
AcDbEntity
  8
0
  6
Continuous
 62
     7
100
AcDbLine
 10
-83.0000000000175
 20
-64.76016555735406
 30
0.0
 11
-83.0000000000175
 21
-64.00691127761166
 31
0.0
  0
LINE
  5
E0
330
55
100
AcDbEntity
  8
0
  6
Continuous
 62
     7
100
AcDbLine
 10
-83.0000000000175
 20
-53.11685893559604
 30
0.0
 11
-83.0000000000175
 21
-50.58222431353664
 31
0.0
  0
LINE
  5
E1
330
55
100
AcDbEntity
  8
0
  6
Continuous
 62
     7
100
AcDbLine
 10
-83.0000000000175
 20
-61.4816034281629
 30
0.0
 11
-83.0000000000175
 21
-53.11685893559604
 31
0.0
  0
LINE
  5
E2
330
55
100
AcDbEntity
  8
0
  6
Continuous
 62
     7
100
AcDbLine
 10
-60.00000000001749
 20
-49.26016555735406
 30
0.0
 11
-60.00000000001749
 21
-49.34472431353662
 31
0.0
  0
LINE
  5
E3
330
55
100
AcDbEntity
  8
0
  6
Continuous
 62
     7
100
AcDbLine
 10
-83.0000000000175
 20
-49.26016555735406
 30
0.0
 11
-83.0000000000175
 21
-49.34472431353662
 31
0.0
  0
LINE
  5
E4
330
55
100
AcDbEntity
  8
0
  6
Continuous
 62
     7
100
AcDbLine
 10
-60.00000000001749
 20
-53.11685893559604
 30
0.0
 11
-60.00000000001749
 21
-50.58222431353664
 31
0.0
  0
LINE
  5
E5
330
55
100
AcDbEntity
  8
0
  6
Continuous
 62
     7
100
AcDbLine
 10
-60.00000000001749
 20
-49.34472431353662
 30
0.0
 11
-60.00000000001749
 21
-50.58222431353664
 31
0.0
  0
LINE
  5
E6
330
55
100
AcDbEntity
  8
0
  6
Continuous
 62
     2
100
AcDbLine
 10
-60.00000000001749
 20
-50.58222431353664
 30
0.0
 11
-83.0000000000175
 21
-50.58222431353664
 31
0.0
  0
LINE
  5
E7
330
55
100
AcDbEntity
  8
0
  6
Continuous
 62
     7
100
AcDbLine
 10
-83.0000000000175
 20
-49.34472431353662
 30
0.0
 11
-83.0000000000175
 21
-50.58222431353664
 31
0.0
  0
LINE
  5
E8
330
55
100
AcDbEntity
  8
0
  6
Continuous
 62
     7
100
AcDbLine
 10
-83.0000000000175
 20
-53.11685893559604
 30
0.0
 11
-60.00000000001749
 21
-53.11685893559604
 31
0.0
  0
LINE
  5
E9
330
55
100
AcDbEntity
  8
0
  6
Continuous
 62
     2
100
AcDbLine
 10
-60.00000000001749
 20
-49.34472431353662
 30
0.0
 11
-83.0000000000175
 21
-49.34472431353662
 31
0.0
  0
LINE
  5
EA
330
55
100
AcDbEntity
  8
0
  6
Continuous
 62
     7
100
AcDbLine
 10
-83.0000000000175
 20
-49.26016555735406
 30
0.0
 11
-60.00000000001749
 21
-49.26016555735406
 31
0.0
  0
LINE
  5
EB
330
55
100
AcDbEntity
  8
0
  6
Continuous
 62
     2
100
AcDbLine
 10
-60.00000000001749
 20
-61.4816034281629
 30
0.0
 11
-83.0000000000175
 21
-61.4816034281629
 31
0.0
  0
ENDBLK
  5
57
330
55
100
AcDbEntity
  8
0
100
AcDbBlockEnd
  0
BLOCK
  5
5A
330
58
100
AcDbEntity
  8
0
100
AcDbBlockBegin
  2
Rckans1
 70
     0
 10
-71.5000000000125
 20
-56.99999999999987
 30
0.0
  3
Rckans1
  1

  0
INSERT
  5
59
330
58
100
AcDbEntity
  8
0
100
AcDbBlockReference
  2
0808024_PATG_5_23-select__3
 10
-83.0000000000175
 20
-64.76016555735406
 30
0.0
  0
MTEXT
  5
EC
330
58
100
AcDbEntity
  8
1
 62
     6
100
AcDbMText
 10
-71.5000000000125
 20
-67.23277544975281
 30
0.0
 40
2.5
 41
0.0
 71
     2
 72
     1
  1
 
  7
CONVERTER_11
 73
     1
 44
1.32052821128451
  0
ENDBLK
  5
5B
330
58
100
AcDbEntity
  8
0
100
AcDbBlockEnd
  0
BLOCK
  5
5D
330
5C
100
AcDbEntity
  8
0
100
AcDbBlockBegin
  2
0808024_PATG_5_23-select__4
 70
     0
 10
-111.4999999809577
 20
-64.7601655573542
 30
0.0
  3
0808024_PATG_5_23-select__4
  1

  0
LINE
  5
ED
330
5C
100
AcDbEntity
  8
0
  6
Continuous
 62
     7
100
AcDbLine
 10
-104.2543162836178
 20
-53.56016555735419
 30
0.0
 11
-103.7456836782976
 21
-53.56016555735419
 31
0.0
  0
LINE
  5
EE
330
5C
100
AcDbEntity
  8
0
  6
Continuous
 62
     7
100
AcDbLine
 10
-107.3698379945003
 20
-59.06016555735421
 30
0.0
 11
-100.6301619674151
 21
-59.06016555735422
 31
0.0
  0
LINE
  5
EF
330
5C
100
AcDbEntity
  8
0
  6
Continuous
 62
     7
100
AcDbLine
 10
-101.3276882524644
 20
-59.66016555735421
 30
0.0
 11
-106.672311709451
 21
-59.66016555735422
 31
0.0
  0
ARC
  5
F0
330
5C
100
AcDbEntity
  8
0
  6
Continuous
 62
     7
100
AcDbCircle
 10
-100.7499999809577
 20
-51.46016555735419
 30
0.0
 40
5.500000000000051
100
AcDbArc
 50
170.8148299342667
 51
197.5307122979055
  0
ARC
  5
F1
330
5C
100
AcDbEntity
  8
0
  6
Continuous
 62
     7
100
AcDbCircle
 10
-107.2499999809577
 20
-51.46016555735419
 30
0.0
 40
5.500000000000018
100
AcDbArc
 50
342.4692877020944
 51
9.18517006573354
  0
ARC
  5
F2
330
5C
100
AcDbEntity
  8
0
  6
Continuous
 62
     7
100
AcDbCircle
 10
-41.9505638170277
 20
-68.28322149934287
 30
0.0
 40
59.40000000000001
100
AcDbArc
 50
171.0675267830961
 51
176.0185381440991
  0
ARC
  5
F3
330
5C
100
AcDbEntity
  8
0
  6
Continuous
 62
     7
100
AcDbCircle
 10
-41.9505638170277
 20
-68.28322149934287
 30
0.0
 40
59.99999999999999
100
AcDbArc
 50
171.7369747592732
 51
176.5805820137683
  0
ARC
  5
F4
330
5C
100
AcDbEntity
  8
0
  6
Continuous
 62
     7
100
AcDbCircle
 10
-100.5721685386403
 20
-60.60951470140573
 30
0.0
 40
3.400000000000036
100
AcDbArc
 50
301.8590508798007
 51
347.4071072804784
  0
ARC
  5
F5
330
5C
100
AcDbEntity
  8
0
  6
Continuous
 62
     7
100
AcDbCircle
 10
-100.5721685386403
 20
-60.60951470140573
 30
0.0
 40
4.000000000000032
100
AcDbArc
 50
301.8590508798007
 51
347.4071072804784
  0
ARC
  5
F6
330
5C
100
AcDbEntity
  8
0
  6
Continuous
 62
     7
100
AcDbCircle
 10
-103.4999999809577
 20
-59.95544815633771
 30
0.0
 40
6.399999999999992
100
AcDbArc
 50
347.4071072804776
 51
92.20001540225051
  0
ARC
  5
F7
330
5C
100
AcDbEntity
  8
0
  6
Continuous
 62
     7
100
AcDbCircle
 10
-103.4999999809577
 20
-59.95544815633771
 30
0.0
 40
6.999999999999992
100
AcDbArc
 50
347.4071072804777
 51
77.67199081276654
  0
ARC
  5
F8
330
5C
100
AcDbEntity
  8
0
  6
Continuous
 62
     7
100
AcDbCircle
 10
-166.0494361448878
 20
-68.28322149934247
 30
0.0
 40
60.0000000000001
100
AcDbArc
 50
3.41941798623128
 51
8.26302524072638
  0
ARC
  5
F9
330
5C
100
AcDbEntity
  8
0
  6
Continuous
 62
     7
100
AcDbCircle
 10
-107.4278314232752
 20
-60.60951470140573
 30
0.0
 40
3.999999999999997
100
AcDbArc
 50
192.5928927195222
 51
238.1409491202001
  0
ARC
  5
FA
330
5C
100
AcDbEntity
  8
0
  6
Continuous
 62
     7
100
AcDbCircle
 10
-166.0494361448878
 20
-68.28322149934247
 30
0.0
 40
59.39999999999997
100
AcDbArc
 50
3.98146185590056
 51
8.93247321690354
  0
ARC
  5
FB
330
5C
100
AcDbEntity
  8
0
  6
Continuous
 62
     7
100
AcDbCircle
 10
-107.4278314232752
 20
-60.60951470140573
 30
0.0
 40
3.399999999999998
100
AcDbArc
 50
192.5928927195223
 51
238.1409491202005
  0
ARC
  5
FC
330
5C
100
AcDbEntity
  8
0
  6
Continuous
 62
     7
100
AcDbCircle
 10
-104.4999999809577
 20
-59.95544815633771
 30
0.0
 40
7.000000000000004
100
AcDbArc
 50
102.3280091872336
 51
192.5928927195225
  0
ARC
  5
FD
330
5C
100
AcDbEntity
  8
0
  6
Continuous
 62
     7
100
AcDbCircle
 10
-101.0999999809577
 20
-59.7601655573542
 30
0.0
 40
4.400000000000007
100
AcDbArc
 50
268.6038505962743
 51
301.8590508797997
  0
ARC
  5
FE
330
5C
100
AcDbEntity
  8
0
  6
Continuous
 62
     7
100
AcDbCircle
 10
-101.0999999809577
 20
-59.7601655573542
 30
0.0
 40
5.000000000000012
100
AcDbArc
 50
261.4455740908539
 51
301.8590508797998
  0
ARC
  5
FF
330
5C
100
AcDbEntity
  8
0
  6
Continuous
 62
     7
100
AcDbCircle
 10
-106.8999999809577
 20
-59.7601655573542
 30
0.0
 40
5.00000000000001
100
AcDbArc
 50
238.1409491202
 51
278.5544259091461
  0
ARC
  5
100
330
5C
100
AcDbEntity
  8
0
  6
Continuous
 62
     7
100
AcDbCircle
 10
-103.3012895239848
 20
-50.82166283457788
 30
0.0
 40
1.499999999999962
100
AcDbArc
 50
9.18517006573347
 51
79.9401021992222
  0
ARC
  5
101
330
5C
100
AcDbEntity
  8
0
  6
Continuous
 62
     7
100
AcDbCircle
 10
-103.9999999809577
 20
-54.7601655573542
 30
0.0
 40
5.500000000000004
100
AcDbArc
 50
79.94010219922397
 51
100.0598978007762
  0
ARC
  5
102
330
5C
100
AcDbEntity
  8
0
  6
Continuous
 62
     7
100
AcDbCircle
 10
-104.6987104379306
 20
-50.82166283457788
 30
0.0
 40
1.500000000000008
100
AcDbArc
 50
100.059897800778
 51
170.8148299342672
  0
ARC
  5
103
330
5C
100
AcDbEntity
  8
0
  6
Continuous
 62
     7
100
AcDbCircle
 10
-106.8999999809577
 20
-59.7601655573542
 30
0.0
 40
4.400000000000007
100
AcDbArc
 50
238.1409491202002
 51
271.3961494037245
  0
ARC
  5
104
330
5C
100
AcDbEntity
  8
0
  6
Continuous
 62
     7
100
AcDbCircle
 10
-104.4999999809577
 20
-59.95544815633771
 30
0.0
 40
6.400000000000001
100
AcDbArc
 50
87.7999845977495
 51
192.5928927195226
  0
ENDBLK
  5
5E
330
5C
100
AcDbEntity
  8
0
100
AcDbBlockEnd
  0
BLOCK
  5
61
330
5F
100
AcDbEntity
  8
0
100
AcDbBlockBegin
  2
SA_Links1
 70
     0
 10
-104.0000000894072
 20
-57.0
 30
0.0
  3
SA_Links1
  1

  0
INSERT
  5
60
330
5F
100
AcDbEntity
  8
0
100
AcDbBlockReference
  2
0808024_PATG_5_23-select__4
 10
-111.4999999809577
 20
-64.7601655573542
 30
0.0
  0
MTEXT
  5
105
330
5F
100
AcDbEntity
  8
1
 62
     6
100
AcDbMText
 10
-104.000000089407
 20
-67.23277544975281
 30
0.0
 40
2.5
 41
0.0
 71
     2
 72
     1
  1
 
  7
CONVERTER_11
 73
     1
 44
1.32052821128451
  0
ENDBLK
  5
62
330
5F
100
AcDbEntity
  8
0
100
AcDbBlockEnd
  0
BLOCK
  5
64
330
63
100
AcDbEntity
  8
0
100
AcDbBlockBegin
  2
0808024_PATG_5_23-select__5
 70
     0
 10
-181.5000003468732
 20
-64.76016555735406
 30
0.0
  3
0808024_PATG_5_23-select__5
  1

  0
LINE
  5
106
330
63
100
AcDbEntity
  8
0
  6
Continuous
 62
     7
100
AcDbLine
 10
-173.7456840442131
 20
-53.56016555735405
 30
0.0
 11
-174.2543166495333
 21
-53.56016555735405
 31
0.0
  0
LINE
  5
107
330
63
100
AcDbEntity
  8
0
  6
Continuous
 62
     7
100
AcDbLine
 10
-170.6301623333306
 20
-59.06016555735408
 30
0.0
 11
-177.3698383604158
 21
-59.06016555735408
 31
0.0
  0
LINE
  5
108
330
63
100
AcDbEntity
  8
0
  6
Continuous
 62
     7
100
AcDbLine
 10
-176.6723120753665
 20
-59.66016555735408
 30
0.0
 11
-171.3276886183799
 21
-59.66016555735408
 31
0.0
  0
ARC
  5
109
330
63
100
AcDbEntity
  8
0
  6
Continuous
 62
     7
100
AcDbCircle
 10
-177.2500003468732
 20
-51.46016555735405
 30
0.0
 40
5.50000000000002
100
AcDbArc
 50
342.4692877020944
 51
9.1851700657333
  0
ARC
  5
10A
330
63
100
AcDbEntity
  8
0
  6
Continuous
 62
     7
100
AcDbCircle
 10
-170.5721689045557
 20
-60.60951470140559
 30
0.0
 40
3.399999999999984
100
AcDbArc
 50
301.8590508797993
 51
347.4071072804775
  0
ARC
  5
10B
330
63
100
AcDbEntity
  8
0
  6
Continuous
 62
     7
100
AcDbCircle
 10
-170.5721689045557
 20
-60.60951470140559
 30
0.0
 40
3.99999999999998
100
AcDbArc
 50
301.8590508797996
 51
347.4071072804776
  0
ARC
  5
10C
330
63
100
AcDbEntity
  8
0
  6
Continuous
 62
     7
100
AcDbCircle
 10
-111.9505641829432
 20
-68.28322149934273
 30
0.0
 40
59.39999999999999
100
AcDbArc
 50
171.0675267830961
 51
176.0185381440991
  0
ARC
  5
10D
330
63
100
AcDbEntity
  8
0
  6
Continuous
 62
     7
100
AcDbCircle
 10
-111.9505641829432
 20
-68.28322149934273
 30
0.0
 40
60.00000000000001
100
AcDbArc
 50
171.7369747592732
 51
176.5805820137683
  0
ARC
  5
10E
330
63
100
AcDbEntity
  8
0
  6
Continuous
 62
     7
100
AcDbCircle
 10
-173.5000003468732
 20
-59.95544815633758
 30
0.0
 40
7.00000000000004
100
AcDbArc
 50
347.4071072804775
 51
77.67199081276654
  0
ARC
  5
10F
330
63
100
AcDbEntity
  8
0
  6
Continuous
 62
     7
100
AcDbCircle
 10
-173.3012898899003
 20
-50.82166283457774
 30
0.0
 40
1.50000000000003
100
AcDbArc
 50
9.1851700657325
 51
79.94010219922303
  0
ARC
  5
110
330
63
100
AcDbEntity
  8
0
  6
Continuous
 62
     7
100
AcDbCircle
 10
-171.1000003468732
 20
-59.76016555735406
 30
0.0
 40
4.400000000000005
100
AcDbArc
 50
268.6038505962754
 51
301.8590508797997
  0
ARC
  5
111
330
63
100
AcDbEntity
  8
0
  6
Continuous
 62
     7
100
AcDbCircle
 10
-171.1000003468732
 20
-59.76016555735406
 30
0.0
 40
5.000000000000012
100
AcDbArc
 50
261.4455740908539
 51
301.8590508797998
  0
ARC
  5
112
330
63
100
AcDbEntity
  8
0
  6
Continuous
 62
     7
100
AcDbCircle
 10
-174.6987108038461
 20
-50.82166283457774
 30
0.0
 40
1.500000000000029
100
AcDbArc
 50
100.0598978007778
 51
170.8148299342677
  0
ARC
  5
113
330
63
100
AcDbEntity
  8
0
  6
Continuous
 62
     7
100
AcDbCircle
 10
-170.7500003468732
 20
-51.46016555735405
 30
0.0
 40
5.500000000000035
100
AcDbArc
 50
170.8148299342667
 51
197.5307122979055
  0
ARC
  5
114
330
63
100
AcDbEntity
  8
0
  6
Continuous
 62
     7
100
AcDbCircle
 10
-177.4278317891907
 20
-60.60951470140559
 30
0.0
 40
3.999999999999994
100
AcDbArc
 50
192.592892719522
 51
238.1409491202001
  0
ARC
  5
115
330
63
100
AcDbEntity
  8
0
  6
Continuous
 62
     7
100
AcDbCircle
 10
-177.4278317891907
 20
-60.60951470140559
 30
0.0
 40
3.399999999999995
100
AcDbArc
 50
192.592892719522
 51
238.1409491202002
  0
ARC
  5
116
330
63
100
AcDbEntity
  8
0
  6
Continuous
 62
     7
100
AcDbCircle
 10
-236.0494365108032
 20
-68.28322149934273
 30
0.0
 40
59.39999999999999
100
AcDbArc
 50
3.9814618559009
 51
8.93247321690392
  0
ARC
  5
117
330
63
100
AcDbEntity
  8
0
  6
Continuous
 62
     7
100
AcDbCircle
 10
-174.5000003468732
 20
-59.95544815633758
 30
0.0
 40
6.400000000000015
100
AcDbArc
 50
87.7999845977495
 51
192.5928927195224
  0
ARC
  5
118
330
63
100
AcDbEntity
  8
0
  6
Continuous
 62
     7
100
AcDbCircle
 10
-174.5000003468732
 20
-59.95544815633758
 30
0.0
 40
7.000000000000016
100
AcDbArc
 50
102.3280091872334
 51
192.5928927195223
  0
ARC
  5
119
330
63
100
AcDbEntity
  8
0
  6
Continuous
 62
     7
100
AcDbCircle
 10
-176.9000003468732
 20
-59.76016555735406
 30
0.0
 40
4.400000000000007
100
AcDbArc
 50
238.1409491202002
 51
271.3961494037261
  0
ARC
  5
11A
330
63
100
AcDbEntity
  8
0
  6
Continuous
 62
     7
100
AcDbCircle
 10
-176.9000003468732
 20
-59.76016555735406
 30
0.0
 40
5.000000000000002
100
AcDbArc
 50
238.1409491202001
 51
278.5544259091461
  0
ARC
  5
11B
330
63
100
AcDbEntity
  8
0
  6
Continuous
 62
     7
100
AcDbCircle
 10
-236.0494365108032
 20
-68.28322149934273
 30
0.0
 40
59.99999999999999
100
AcDbArc
 50
3.41941798623166
 51
8.26302524072677
  0
ARC
  5
11C
330
63
100
AcDbEntity
  8
0
  6
Continuous
 62
     7
100
AcDbCircle
 10
-174.0000003468732
 20
-54.76016555735406
 30
0.0
 40
5.49999999999997
100
AcDbArc
 50
79.94010219922392
 51
100.0598978007761
  0
ARC
  5
11D
330
63
100
AcDbEntity
  8
0
  6
Continuous
 62
     7
100
AcDbCircle
 10
-173.5000003468732
 20
-59.95544815633758
 30
0.0
 40
6.40000000000004
100
AcDbArc
 50
347.4071072804775
 51
92.2000154022505
  0
ENDBLK
  5
65
330
63
100
AcDbEntity
  8
0
100
AcDbBlockEnd
  0
BLOCK
  5
68
330
66
100
AcDbEntity
  8
0
100
AcDbBlockBegin
  2
SA_Rechts1
 70
     0
 10
-174.0000002384237
 20
-56.99999999999987
 30
0.0
  3
SA_Rechts1
  1

  0
INSERT
  5
67
330
66
100
AcDbEntity
  8
0
100
AcDbBlockReference
  2
0808024_PATG_5_23-select__5
 10
-181.5000003468732
 20
-64.76016555735406
 30
0.0
  0
MTEXT
  5
11E
330
66
100
AcDbEntity
  8
1
 62
     6
100
AcDbMText
 10
-174.0000002384236
 20
-67.23277544975281
 30
0.0
 40
2.5
 41
0.0
 71
     2
 72
     1
  1
 
  7
CONVERTER_11
 73
     1
 44
1.32052821128451
  0
ENDBLK
  5
69
330
66
100
AcDbEntity
  8
0
100
AcDbBlockEnd
  0
BLOCK
  5
6B
330
6A
100
AcDbEntity
  8
0
100
AcDbBlockBegin
  2
0808024_PATG_5_23-select__6
 70
     0
 10
-147.999999999995
 20
-64.76016555735406
 30
0.0
  3
0808024_PATG_5_23-select__6
  1

  0
LINE
  5
11F
330
6A
100
AcDbEntity
  8
0
  6
Continuous
 62
     2
100
AcDbLine
 10
-147.999999999995
 20
-61.48160342816287
 30
0.0
 11
-124.999999999995
 21
-61.48160342816287
 31
0.0
  0
LINE
  5
120
330
6A
100
AcDbEntity
  8
0
  6
Continuous
 62
     7
100
AcDbLine
 10
-124.999999999995
 20
-53.11685893559603
 30
0.0
 11
-124.999999999995
 21
-50.58222431353664
 31
0.0
  0
LINE
  5
121
330
6A
100
AcDbEntity
  8
0
  6
Continuous
 62
     7
100
AcDbLine
 10
-124.999999999995
 20
-50.58222431353664
 30
0.0
 11
-124.999999999995
 21
-49.34472431353659
 31
0.0
  0
LINE
  5
122
330
6A
100
AcDbEntity
  8
0
  6
Continuous
 62
     7
100
AcDbLine
 10
-124.999999999995
 20
-49.34472431353659
 30
0.0
 11
-124.999999999995
 21
-49.26016555735406
 31
0.0
  0
LINE
  5
123
330
6A
100
AcDbEntity
  8
0
  6
Continuous
 62
     7
100
AcDbLine
 10
-147.999999999995
 20
-53.11685893559604
 30
0.0
 11
-147.999999999995
 21
-50.58222431353664
 31
0.0
  0
LINE
  5
124
330
6A
100
AcDbEntity
  8
0
  6
Continuous
 62
     7
100
AcDbLine
 10
-124.999999999995
 20
-53.11685893559603
 30
0.0
 11
-147.999999999995
 21
-53.11685893559604
 31
0.0
  0
LINE
  5
125
330
6A
100
AcDbEntity
  8
0
  6
Continuous
 62
     7
100
AcDbLine
 10
-124.999999999995
 20
-61.48160342816287
 30
0.0
 11
-124.999999999995
 21
-53.11685893559603
 31
0.0
  0
LINE
  5
126
330
6A
100
AcDbEntity
  8
0
  6
Continuous
 62
     7
100
AcDbLine
 10
-147.999999999995
 20
-61.48160342816287
 30
0.0
 11
-147.999999999995
 21
-53.11685893559604
 31
0.0
  0
LINE
  5
127
330
6A
100
AcDbEntity
  8
0
  6
Continuous
 62
     7
100
AcDbLine
 10
-147.999999999995
 20
-64.00691127761166
 30
0.0
 11
-147.999999999995
 21
-64.76016555735406
 31
0.0
  0
LINE
  5
128
330
6A
100
AcDbEntity
  8
0
  6
Continuous
 62
     7
100
AcDbLine
 10
-124.999999999995
 20
-64.00691127761166
 30
0.0
 11
-124.999999999995
 21
-64.76016555735406
 31
0.0
  0
LINE
  5
129
330
6A
100
AcDbEntity
  8
0
  6
Continuous
 62
     2
100
AcDbLine
 10
-147.999999999995
 20
-64.00691127761166
 30
0.0
 11
-124.999999999995
 21
-64.00691127761166
 31
0.0
  0
LINE
  5
12A
330
6A
100
AcDbEntity
  8
0
  6
Continuous
 62
     7
100
AcDbLine
 10
-147.999999999995
 20
-64.76016555735406
 30
0.0
 11
-124.999999999995
 21
-64.76016555735406
 31
0.0
  0
LINE
  5
12B
330
6A
100
AcDbEntity
  8
0
  6
Continuous
 62
     7
100
AcDbLine
 10
-147.999999999995
 20
-49.34472431353659
 30
0.0
 11
-147.999999999995
 21
-49.26016555735406
 31
0.0
  0
LINE
  5
12C
330
6A
100
AcDbEntity
  8
0
  6
Continuous
 62
     7
100
AcDbLine
 10
-147.999999999995
 20
-50.58222431353664
 30
0.0
 11
-147.999999999995
 21
-49.34472431353659
 31
0.0
  0
LINE
  5
12D
330
6A
100
AcDbEntity
  8
0
  6
Continuous
 62
     2
100
AcDbLine
 10
-147.999999999995
 20
-50.58222431353664
 30
0.0
 11
-124.999999999995
 21
-50.58222431353664
 31
0.0
  0
LINE
  5
12E
330
6A
100
AcDbEntity
  8
0
  6
Continuous
 62
     2
100
AcDbLine
 10
-147.999999999995
 20
-49.34472431353659
 30
0.0
 11
-124.999999999995
 21
-49.34472431353659
 31
0.0
  0
LINE
  5
12F
330
6A
100
AcDbEntity
  8
0
  6
Continuous
 62
     7
100
AcDbLine
 10
-124.999999999995
 20
-49.26016555735406
 30
0.0
 11
-147.999999999995
 21
-49.26016555735406
 31
0.0
  0
LINE
  5
130
330
6A
100
AcDbEntity
  8
0
  6
Continuous
 62
     7
100
AcDbLine
 10
-147.999999999995
 20
-61.48160342816287
 30
0.0
 11
-147.999999999995
 21
-64.00691127761166
 31
0.0
  0
LINE
  5
131
330
6A
100
AcDbEntity
  8
0
  6
Continuous
 62
     7
100
AcDbLine
 10
-124.999999999995
 20
-61.48160342816287
 30
0.0
 11
-124.999999999995
 21
-64.00691127761166
 31
0.0
  0
ENDBLK
  5
6C
330
6A
100
AcDbEntity
  8
0
100
AcDbBlockEnd
  0
BLOCK
  5
6F
330
6D
100
AcDbEntity
  8
0
100
AcDbBlockBegin
  2
Vordans1
 70
     0
 10
-136.5
 20
-56.99999999999987
 30
0.0
  3
Vordans1
  1

  0
INSERT
  5
6E
330
6D
100
AcDbEntity
  8
0
100
AcDbBlockReference
  2
0808024_PATG_5_23-select__6
 10
-147.999999999995
 20
-64.76016555735406
 30
0.0
  0
MTEXT
  5
132
330
6D
100
AcDbEntity
  8
1
 62
     6
100
AcDbMText
 10
-136.5
 20
-67.23277544975281
 30
0.0
 40
2.5
 41
0.0
 71
     2
 72
     1
  1
 
  7
CONVERTER_11
 73
     1
 44
1.32052821128451
  0
DIMENSION
  5
13D
330
6D
100
AcDbEntity
  8
1
100
AcDbDimension
  2
*D17
 10
-147.999999999995
 20
-69.76016555735406
 30
0.0
 11
-136.499999999995
 21
-68.13516555735406
 31
0.0
 70
    33
  1
<>
 71
     5
 42
-1.0
 53
0.00013888888889
  3
ME10_DIM_11
100
AcDbAlignedDimension
 13
-124.999999999995
 23
-64.76016555735406
 33
0.0
 14
-147.999999999995
 24
-64.76016555735406
 34
0.0
  0
DIMENSION
  5
148
330
6D
100
AcDbEntity
  8
1
100
AcDbDimension
  2
*D18
 10
-152.999999999995
 20
-64.76016555735406
 30
0.0
 11
-154.712499999995
 21
-57.003386257751
 31
0.0
 70
    32
  1
<>
 71
     5
 42
-1.0
 53
90.0
  3
ME10_DIM_12
100
AcDbAlignedDimension
 13
-147.999999999995
 23
-49.26016555735406
 33
0.0
 14
-147.999999999995
 24
-64.76016555735406
 34
0.0
 50
90.0
100
AcDbRotatedDimension
  0
ENDBLK
  5
70
330
6D
100
AcDbEntity
  8
0
100
AcDbBlockEnd
  0
BLOCK
  5
72
330
71
100
AcDbEntity
  8
0
100
AcDbBlockBegin
  2
_punkt
 70
     0
 10
-94.50000034689056
 20
-259.9545407769838
 30
0.0
  3
_punkt
  1

  0
LINE
  5
149
330
71
100
AcDbEntity
  8
1
  6
Continuous
 62
     2
100
AcDbLine
 10
-94.50000034689056
 20
-259.9545407769838
 30
0.0
 11
-94.50000034689056
 21
-264.9545407769839
 31
0.0
  0
LINE
  5
14A
330
71
100
AcDbEntity
  8
1
  6
Continuous
 62
     2
100
AcDbLine
 10
-94.50000034689056
 20
-259.9545407769838
 30
0.0
 11
-89.50000034689157
 21
-259.9545407769838
 31
0.0
  0
ENDBLK
  5
73
330
71
100
AcDbEntity
  8
0
100
AcDbBlockEnd
  0
BLOCK
  5
75
330
74
100
AcDbEntity
  8
0
100
AcDbBlockBegin
  2
_rahmen
 70
     0
 10
-94.50000034689056
 20
-264.9545407769839
 30
0.0
  3
_rahmen
  1

  0
LINE
  5
14B
330
74
100
AcDbEntity
  8
1
  6
DOT_CENTER
 62
     2
100
AcDbLine
 10
-220.058149987078
 20
-238.8295407769839
 30
0.0
 11
-214.558149987078
 21
-238.8295407769839
 31
0.0
  0
LINE
  5
14C
330
74
100
AcDbEntity
  8
1
  6
PHANTOM
 62
     2
100
AcDbLine
 10
-211.308149987078
 20
-236.0795407769839
 30
0.0
 11
-211.308149987078
 21
-241.5795407769839
 31
0.0
  0
LINE
  5
14D
330
74
100
AcDbEntity
  8
1
  6
PHANTOM
 62
     2
100
AcDbLine
 10
-208.558149987078
 20
-238.8295407769839
 30
0.0
 11
-214.058149987078
 21
-238.8295407769839
 31
0.0
  0
LINE
  5
14E
330
74
100
AcDbEntity
  8
1
  6
Continuous
 62
     7
100
AcDbLine
 10
-159.7448048736406
 20
-251.4545407769839
 30
0.0
 11
-159.7448048736406
 21
-242.9545407769838
 31
0.0
  0
LINE
  5
14F
330
74
100
AcDbEntity
  8
1
  6
Continuous
 62
     6
100
AcDbLine
 10
-187.6448048736407
 20
-242.9545407769838
 30
0.0
 11
-94.50000034688887
 21
-242.9545407769838
 31
0.0
  0
LINE
  5
150
330
74
100
AcDbEntity
  8
1
  6
Continuous
 62
     7
100
AcDbLine
 10
-224.0448048736406
 20
-242.9545407769838
 30
0.0
 11
-224.0448048736406
 21
-234.4545407769838
 31
0.0
  0
LINE
  5
151
330
74
100
AcDbEntity
  8
1
  6
Continuous
 62
     7
100
AcDbLine
 10
-187.6448048736407
 20
-242.9545407769838
 30
0.0
 11
-187.6448048736407
 21
-234.4545407769838
 31
0.0
  0
LINE
  5
152
330
74
100
AcDbEntity
  8
1
  6
Continuous
 62
     7
100
AcDbLine
 10
-129.9184086285677
 20
-234.4545407769838
 30
0.0
 11
-129.9184086285677
 21
-242.9545407769838
 31
0.0
  0
LINE
  5
153
330
74
100
AcDbEntity
  8
1
  6
Continuous
 62
     7
100
AcDbLine
 10
-103.4184086285681
 20
-234.4545407769838
 30
0.0
 11
-103.4184086285681
 21
-242.9545407769838
 31
0.0
  0
LINE
  5
154
330
74
100
AcDbEntity
  8
1
  6
Continuous
 62
     6
100
AcDbLine
 10
-293.0448048736405
 20
-259.9545407769838
 30
0.0
 11
-338.0000003468905
 21
-259.9545407769838
 31
0.0
  0
LINE
  5
155
330
74
100
AcDbEntity
  8
1
  6
Continuous
 62
     7
100
AcDbLine
 10
-94.50000034688927
 20
-251.4545407769838
 30
0.0
 11
-187.6448048736407
 21
-251.4545407769838
 31
0.0
  0
LINE
  5
156
102
{ACAD_REACTORS
330
268
330
269
102
}
330
74
100
AcDbEntity
  8
0
  6
Continuous
 62
     2
100
AcDbLine
 10
-210.3373759318732
 20
-250.6542516613205
 30
0.0
 11
-210.3373759318732
 21
-249.7817346545172
 31
0.0
  0
LINE
  5
157
102
{ACAD_REACTORS
330
268
330
269
102
}
330
74
100
AcDbEntity
  8
0
  6
Continuous
 62
     2
100
AcDbLine
 10
-210.3373759318732
 20
-251.6140203688034
 30
0.0
 11
-210.3373759318732
 21
-252.4865373756066
 31
0.0
  0
LINE
  5
158
102
{ACAD_REACTORS
330
26A
330
26B
102
}
330
74
100
AcDbEntity
  8
0
  6
Continuous
 62
     2
100
AcDbLine
 10
-195.0043317955827
 20
-250.39249655928
 30
0.0
 11
-193.9006924960146
 21
-250.39249655928
 31
0.0
  0
LINE
  5
159
102
{ACAD_REACTORS
330
26A
330
26B
102
}
330
74
100
AcDbEntity
  8
0
  6
Continuous
 62
     2
100
AcDbLine
 10
-194.2346744526213
 20
-251.6140203688039
 30
0.0
 11
-194.2346744526213
 21
-252.4865373756072
 31
0.0
  0
LINE
  5
15A
102
{ACAD_REACTORS
330
274
330
275
102
}
330
74
100
AcDbEntity
  8
0
  6
Continuous
 62
     2
100
AcDbLine
 10
-196.0954310680012
 20
-249.3018503007932
 30
0.0
 11
-194.6974780210609
 21
-247.7209913070182
 31
0.0
  0
LINE
  5
15B
102
{ACAD_REACTORS
330
274
330
275
102
}
330
74
100
AcDbEntity
  8
0
  6
Continuous
 62
     2
100
AcDbLine
 10
-196.0000076518284
 20
-246.248040776982
 30
0.0
 11
-194.6974780210609
 21
-247.7209913070182
 31
0.0
  0
LINE
  5
15C
102
{ACAD_REACTORS
330
274
330
275
102
}
330
74
100
AcDbEntity
  8
0
  6
Continuous
 62
     2
100
AcDbLine
 10
-193.3949483902945
 20
-246.248040776982
 30
0.0
 11
-191.9922241725473
 21
-246.248040776982
 31
0.0
  0
LINE
  5
15D
102
{ACAD_REACTORS
330
274
330
275
102
}
330
74
100
AcDbEntity
  8
0
  6
Continuous
 62
     2
100
AcDbLine
 10
-194.692706850253
 20
-249.3018503007932
 30
0.0
 11
-193.9961159121873
 21
-248.5141185154995
 31
0.0
  0
LINE
  5
15E
102
{ACAD_REACTORS
330
274
330
275
102
}
330
74
100
AcDbEntity
  8
0
  6
Continuous
 62
     2
100
AcDbLine
 10
-194.692706850253
 20
-249.3018503007932
 30
0.0
 11
-196.0954310680012
 21
-249.3018503007932
 31
0.0
  0
LINE
  5
15F
102
{ACAD_REACTORS
330
276
330
277
102
}
330
74
100
AcDbEntity
  8
0
  6
Continuous
 62
     2
100
AcDbLine
 10
-196.2147103382181
 20
-249.3018503007932
 30
0.0
 11
-197.455214748471
 21
-249.3018503007932
 31
0.0
  0
LINE
  5
160
102
{ACAD_REACTORS
330
278
330
279
102
}
330
74
100
AcDbEntity
  8
0
  6
Continuous
 62
     2
100
AcDbLine
 10
-198.3231943566261
 20
-251.439516967443
 30
0.0
 11
-198.6233595938162
 21
-250.6717020014563
 31
0.0
  0
LINE
  5
161
102
{ACAD_REACTORS
330
278
330
279
102
}
330
74
100
AcDbEntity
  8
0
  6
Continuous
 62
     2
100
AcDbLine
 10
-198.9235248310086
 20
-251.439516967443
 30
0.0
 11
-198.3231943566261
 21
-251.439516967443
 31
0.0
  0
LINE
  5
162
102
{ACAD_REACTORS
330
278
330
279
102
}
330
74
100
AcDbEntity
  8
0
  6
Continuous
 62
     2
100
AcDbLine
 10
-200.6415648458824
 20
-252.6610407769675
 30
0.0
 11
-199.4010604356294
 21
-252.6610407769675
 31
0.0
  0
LINE
  5
163
102
{ACAD_REACTORS
330
278
330
279
102
}
330
74
100
AcDbEntity
  8
0
  6
Continuous
 62
     2
100
AcDbLine
 10
-199.2436117989431
 20
-249.6072312531564
 30
0.0
 11
-198.0031073886904
 21
-249.6072312531564
 31
0.0
  0
LINE
  5
164
102
{ACAD_REACTORS
330
278
330
279
102
}
330
74
100
AcDbEntity
  8
0
  6
Continuous
 62
     2
100
AcDbLine
 10
-198.0031073886904
 20
-249.6072312531564
 30
0.0
 11
-196.6051543417501
 21
-252.6610407769675
 31
0.0
  0
LINE
  5
165
102
{ACAD_REACTORS
330
278
330
279
102
}
330
74
100
AcDbEntity
  8
0
  6
Continuous
 62
     2
100
AcDbLine
 10
-197.845658752004
 20
-252.6610407769675
 30
0.0
 11
-198.0571388054798
 21
-252.1200802327496
 31
0.0
  0
LINE
  5
166
102
{ACAD_REACTORS
330
27A
330
27B
102
}
330
74
100
AcDbEntity
  8
0
  6
Continuous
 62
     2
100
AcDbLine
 10
-201.98797794759
 20
-252.6610407769675
 30
0.0
 11
-200.7951852454235
 21
-252.6610407769675
 31
0.0
  0
LINE
  5
167
102
{ACAD_REACTORS
330
27A
330
27B
102
}
330
74
100
AcDbEntity
  8
0
  6
Continuous
 62
     2
100
AcDbLine
 10
-201.98797794759
 20
-250.39249655928
 30
0.0
 11
-201.98797794759
 21
-252.6610407769675
 31
0.0
  0
LINE
  5
168
102
{ACAD_REACTORS
330
27A
330
27B
102
}
330
74
100
AcDbEntity
  8
0
  6
Continuous
 62
     2
100
AcDbLine
 10
-202.7990769850646
 20
-249.6072312531564
 30
0.0
 11
-202.7990769850646
 21
-250.39249655928
 31
0.0
  0
LINE
  5
169
102
{ACAD_REACTORS
330
27C
330
27D
102
}
330
74
100
AcDbEntity
  8
0
  6
Continuous
 62
     2
100
AcDbLine
 10
-201.319863103492
 20
-249.3018503007932
 30
0.0
 11
-200.1270704013255
 21
-249.3018503007932
 31
0.0
  0
LINE
  5
16A
102
{ACAD_REACTORS
330
27C
330
27D
102
}
330
74
100
AcDbEntity
  8
0
  6
Continuous
 62
     2
100
AcDbLine
 10
-198.8865659910715
 20
-247.5568162871872
 30
0.0
 11
-200.1270704013255
 21
-246.248040776982
 31
0.0
  0
LINE
  5
16B
102
{ACAD_REACTORS
330
27C
330
27D
102
}
330
74
100
AcDbEntity
  8
0
  6
Continuous
 62
     2
100
AcDbLine
 10
-197.6937732889049
 20
-246.248040776982
 30
0.0
 11
-198.8865659910715
 21
-246.248040776982
 31
0.0
  0
LINE
  5
16C
102
{ACAD_REACTORS
330
27C
330
27D
102
}
330
74
100
AcDbEntity
  8
0
  6
Continuous
 62
     2
100
AcDbLine
 10
-197.6937732889049
 20
-249.3018503007932
 30
0.0
 11
-197.6937732889049
 21
-246.248040776982
 31
0.0
  0
LINE
  5
16D
102
{ACAD_REACTORS
330
27C
330
27D
102
}
330
74
100
AcDbEntity
  8
0
  6
Continuous
 62
     2
100
AcDbLine
 10
-198.8865659910715
 20
-249.3018503007932
 30
0.0
 11
-197.6937732889049
 21
-249.3018503007932
 31
0.0
  0
LINE
  5
16E
102
{ACAD_REACTORS
330
27C
330
27D
102
}
330
74
100
AcDbEntity
  8
0
  6
Continuous
 62
     2
100
AcDbLine
 10
-200.1270704013255
 20
-247.9930747905885
 30
0.0
 11
-198.8865659910715
 21
-249.3018503007932
 31
0.0
  0
LINE
  5
16F
102
{ACAD_REACTORS
330
27E
330
27F
102
}
330
74
100
AcDbEntity
  8
0
  6
Continuous
 62
     2
100
AcDbLine
 10
-204.1350048114912
 20
-250.9160067633615
 30
0.0
 11
-205.3755092217441
 21
-249.6072312531564
 31
0.0
  0
LINE
  5
170
102
{ACAD_REACTORS
330
27E
330
27F
102
}
330
74
100
AcDbEntity
  8
0
  6
Continuous
 62
     2
100
AcDbLine
 10
-204.1350048114912
 20
-249.6072312531564
 30
0.0
 11
-204.1350048114912
 21
-250.9160067633615
 31
0.0
  0
LINE
  5
171
102
{ACAD_REACTORS
330
27E
330
27F
102
}
330
74
100
AcDbEntity
  8
0
  6
Continuous
 62
     2
100
AcDbLine
 10
-202.9422121093248
 20
-249.6072312531564
 30
0.0
 11
-204.1350048114912
 21
-249.6072312531564
 31
0.0
  0
LINE
  5
172
102
{ACAD_REACTORS
330
27E
330
27F
102
}
330
74
100
AcDbEntity
  8
0
  6
Continuous
 62
     2
100
AcDbLine
 10
-202.9422121093248
 20
-252.6610407769675
 30
0.0
 11
-202.9422121093248
 21
-249.6072312531564
 31
0.0
  0
LINE
  5
173
102
{ACAD_REACTORS
330
27E
330
27F
102
}
330
74
100
AcDbEntity
  8
0
  6
Continuous
 62
     2
100
AcDbLine
 10
-205.3755092217441
 20
-251.3522652667629
 30
0.0
 11
-204.1350048114912
 21
-252.6610407769675
 31
0.0
  0
LINE
  5
174
102
{ACAD_REACTORS
330
27E
330
27F
102
}
330
74
100
AcDbEntity
  8
0
  6
Continuous
 62
     2
100
AcDbLine
 10
-205.3755092217441
 20
-252.6610407769675
 30
0.0
 11
-205.3755092217441
 21
-251.3522652667629
 31
0.0
  0
LINE
  5
175
102
{ACAD_REACTORS
330
26E
330
26F
102
}
330
74
100
AcDbEntity
  8
0
  6
Continuous
 62
     2
100
AcDbLine
 10
-202.8943494703526
 20
-246.946054382425
 30
0.0
 11
-201.5584216439249
 21
-246.946054382425
 31
0.0
  0
LINE
  5
176
102
{ACAD_REACTORS
330
26E
330
26F
102
}
330
74
100
AcDbEntity
  8
0
  6
Continuous
 62
     2
100
AcDbLine
 10
-202.8943494703526
 20
-248.6038366953507
 30
0.0
 11
-202.8943494703526
 21
-248.123952341609
 31
0.0
  0
LINE
  5
177
102
{ACAD_REACTORS
330
26E
330
26F
102
}
330
74
100
AcDbEntity
  8
0
  6
Continuous
 62
     2
100
AcDbLine
 10
-201.5584216439249
 20
-248.6038366953507
 30
0.0
 11
-202.8943494703526
 21
-248.6038366953507
 31
0.0
  0
LINE
  5
178
102
{ACAD_REACTORS
330
26E
330
26F
102
}
330
74
100
AcDbEntity
  8
0
  6
Continuous
 62
     2
100
AcDbLine
 10
-201.5584216439249
 20
-249.3018503007932
 30
0.0
 11
-201.5584216439249
 21
-248.6038366953507
 31
0.0
  0
LINE
  5
179
102
{ACAD_REACTORS
330
26E
330
26F
102
}
330
74
100
AcDbEntity
  8
0
  6
Continuous
 62
     2
100
AcDbLine
 10
-204.7087413677059
 20
-249.3018503007932
 30
0.0
 11
-201.5584216439249
 21
-249.3018503007932
 31
0.0
  0
LINE
  5
17A
102
{ACAD_REACTORS
330
26E
330
26F
102
}
330
74
100
AcDbEntity
  8
0
  6
Continuous
 62
     2
100
AcDbLine
 10
-204.7087413677059
 20
-246.248040776982
 30
0.0
 11
-201.5584216439249
 21
-246.248040776982
 31
0.0
  0
LINE
  5
17B
102
{ACAD_REACTORS
330
26E
330
26F
102
}
330
74
100
AcDbEntity
  8
0
  6
Continuous
 62
     2
100
AcDbLine
 10
-201.5584216439249
 20
-246.946054382425
 30
0.0
 11
-201.5584216439249
 21
-246.248040776982
 31
0.0
  0
LINE
  5
17C
102
{ACAD_REACTORS
330
280
330
281
102
}
330
74
100
AcDbEntity
  8
0
  6
Continuous
 62
     2
100
AcDbLine
 10
-207.5700968628459
 20
-247.3168741103166
 30
0.0
 11
-207.5700968628459
 21
-246.248040776982
 31
0.0
  0
LINE
  5
17D
102
{ACAD_REACTORS
330
280
330
281
102
}
330
74
100
AcDbEntity
  8
0
  6
Continuous
 62
     2
100
AcDbLine
 10
-207.5700968628459
 20
-246.248040776982
 30
0.0
 11
-206.3773041606795
 21
-246.248040776982
 31
0.0
  0
LINE
  5
17E
102
{ACAD_REACTORS
330
280
330
281
102
}
330
74
100
AcDbEntity
  8
0
  6
Continuous
 62
     2
100
AcDbLine
 10
-207.5700968628459
 20
-248.1675781919494
 30
0.0
 11
-208.6197544407534
 21
-248.1675781919494
 31
0.0
  0
LINE
  5
17F
102
{ACAD_REACTORS
330
280
330
281
102
}
330
74
100
AcDbEntity
  8
0
  6
Continuous
 62
     2
100
AcDbLine
 10
-208.6197544407534
 20
-248.1675781919494
 30
0.0
 11
-208.6197544407534
 21
-249.3018503007932
 31
0.0
  0
LINE
  5
180
102
{ACAD_REACTORS
330
280
330
281
102
}
330
74
100
AcDbEntity
  8
0
  6
Continuous
 62
     2
100
AcDbLine
 10
-209.81254714292
 20
-246.248040776982
 30
0.0
 11
-209.81254714292
 21
-249.3018503007932
 31
0.0
  0
LINE
  5
181
102
{ACAD_REACTORS
330
272
330
273
102
}
330
74
100
AcDbEntity
  8
0
  6
Continuous
 62
     2
100
AcDbLine
 10
-211.7687271744736
 20
-247.6168742717643
 30
0.0
 11
-211.7687271744736
 21
-246.9111466224221
 31
0.0
  0
LINE
  5
182
102
{ACAD_REACTORS
330
272
330
273
102
}
330
74
100
AcDbEntity
  8
0
  6
Continuous
 62
     2
100
AcDbLine
 10
-213.0092315847277
 20
-249.3018503007932
 30
0.0
 11
-211.7687271744736
 21
-249.3018503007932
 31
0.0
  0
LINE
  5
183
102
{ACAD_REACTORS
330
272
330
273
102
}
330
74
100
AcDbEntity
  8
0
  6
Continuous
 62
     2
100
AcDbLine
 10
-211.7687271744736
 20
-249.3018503007932
 30
0.0
 11
-211.7687271744736
 21
-248.3587720596494
 31
0.0
  0
LINE
  5
184
102
{ACAD_REACTORS
330
26C
330
26D
102
}
330
74
100
AcDbEntity
  8
0
  6
Continuous
 62
     2
100
AcDbLine
 10
-217.3141774339391
 20
-251.9484852214106
 30
0.0
 11
-218.7900106949487
 21
-251.9484852214106
 31
0.0
  0
LINE
  5
185
102
{ACAD_REACTORS
330
26C
330
26D
102
}
330
74
100
AcDbEntity
  8
0
  6
Continuous
 62
     2
100
AcDbLine
 10
-219.808149987078
 20
-246.672285392384
 30
0.0
 11
-219.808149987078
 21
-252.2367961615842
 31
0.0
  0
LINE
  5
186
102
{ACAD_REACTORS
330
26C
330
26D
102
}
330
74
100
AcDbEntity
  8
0
  6
Continuous
 62
     2
100
AcDbLine
 10
-219.3839053716952
 20
-246.2480407770002
 30
0.0
 11
-213.9105932809784
 21
-246.2480407770002
 31
0.0
  0
LINE
  5
187
102
{ACAD_REACTORS
330
26C
330
26D
102
}
330
74
100
AcDbEntity
  8
0
  6
Continuous
 62
     2
100
AcDbLine
 10
-213.4863486655945
 20
-246.672285392384
 30
0.0
 11
-213.4863486655945
 21
-252.2367961615842
 31
0.0
  0
LINE
  5
188
102
{ACAD_REACTORS
330
26C
330
26D
102
}
330
74
100
AcDbEntity
  8
0
  6
Continuous
 62
     2
100
AcDbLine
 10
-213.9105932809784
 20
-252.6610407769675
 30
0.0
 11
-219.3839053716952
 21
-252.6610407769675
 31
0.0
  0
LINE
  5
189
102
{ACAD_REACTORS
330
26C
330
26D
102
}
330
74
100
AcDbEntity
  8
0
  6
Continuous
 62
     2
100
AcDbLine
 10
-216.9984605108625
 20
-251.6327682983339
 30
0.0
 11
-216.9984605108625
 21
-250.1019973668023
 31
0.0
  0
LINE
  5
18A
102
{ACAD_REACTORS
330
26C
330
26D
102
}
330
74
100
AcDbEntity
  8
0
  6
Continuous
 62
     2
100
AcDbLine
 10
-216.9984605108625
 20
-247.8803378746773
 30
0.0
 11
-216.9984605108625
 21
-247.2763132556168
 31
0.0
  0
LINE
  5
18B
102
{ACAD_REACTORS
330
26C
330
26D
102
}
330
74
100
AcDbEntity
  8
0
  6
Continuous
 62
     2
100
AcDbLine
 10
-218.7900106949487
 20
-246.9605963325406
 30
0.0
 11
-217.3141774339391
 21
-246.9605963325406
 31
0.0
  0
LINE
  5
18C
102
{ACAD_REACTORS
330
26C
330
26D
102
}
330
74
100
AcDbEntity
  8
0
  6
Continuous
 62
     2
100
AcDbLine
 10
-219.1057276180244
 20
-247.2763132556168
 30
0.0
 11
-219.1057276180244
 21
-251.6327682983339
 31
0.0
  0
LINE
  5
18D
102
{ACAD_REACTORS
330
272
330
273
102
}
330
74
100
AcDbEntity
  8
0
  6
Continuous
 62
     2
100
AcDbLine
 10
-211.7687271744736
 20
-248.3587720596494
 30
0.0
 11
-211.0099595866933
 21
-248.3587720596494
 31
0.0
  0
LINE
  5
18E
102
{ACAD_REACTORS
330
272
330
273
102
}
330
74
100
AcDbEntity
  8
0
  6
Continuous
 62
     2
100
AcDbLine
 10
-213.0092315847277
 20
-246.248040776982
 30
0.0
 11
-211.0099595866933
 21
-246.248040776982
 31
0.0
  0
LINE
  5
18F
102
{ACAD_REACTORS
330
272
330
273
102
}
330
74
100
AcDbEntity
  8
0
  6
Continuous
 62
     2
100
AcDbLine
 10
-213.0092315847277
 20
-246.248040776982
 30
0.0
 11
-213.0092315847277
 21
-249.3018503007932
 31
0.0
  0
LINE
  5
190
102
{ACAD_REACTORS
330
272
330
273
102
}
330
74
100
AcDbEntity
  8
0
  6
Continuous
 62
     2
100
AcDbLine
 10
-211.7687271744736
 20
-247.6168742717643
 30
0.0
 11
-211.4514321129317
 21
-247.6168742717643
 31
0.0
  0
LINE
  5
191
102
{ACAD_REACTORS
330
272
330
273
102
}
330
74
100
AcDbEntity
  8
0
  6
Continuous
 62
     2
100
AcDbLine
 10
-211.7687271744736
 20
-246.9111466224221
 30
0.0
 11
-211.4514321129317
 21
-246.9111466224221
 31
0.0
  0
LINE
  5
192
102
{ACAD_REACTORS
330
280
330
281
102
}
330
74
100
AcDbEntity
  8
0
  6
Continuous
 62
     2
100
AcDbLine
 10
-208.6197544407534
 20
-247.3168741103166
 30
0.0
 11
-207.5700968628459
 21
-247.3168741103166
 31
0.0
  0
LINE
  5
193
102
{ACAD_REACTORS
330
280
330
281
102
}
330
74
100
AcDbEntity
  8
0
  6
Continuous
 62
     2
100
AcDbLine
 10
-208.6197544407534
 20
-246.248040776982
 30
0.0
 11
-208.6197544407534
 21
-247.3168741103166
 31
0.0
  0
LINE
  5
194
102
{ACAD_REACTORS
330
280
330
281
102
}
330
74
100
AcDbEntity
  8
0
  6
Continuous
 62
     2
100
AcDbLine
 10
-209.81254714292
 20
-246.248040776982
 30
0.0
 11
-208.6197544407534
 21
-246.248040776982
 31
0.0
  0
LINE
  5
195
102
{ACAD_REACTORS
330
280
330
281
102
}
330
74
100
AcDbEntity
  8
0
  6
Continuous
 62
     2
100
AcDbLine
 10
-208.6197544407534
 20
-249.3018503007932
 30
0.0
 11
-209.81254714292
 21
-249.3018503007932
 31
0.0
  0
LINE
  5
196
102
{ACAD_REACTORS
330
280
330
281
102
}
330
74
100
AcDbEntity
  8
0
  6
Continuous
 62
     2
100
AcDbLine
 10
-207.5700968628459
 20
-249.3018503007932
 30
0.0
 11
-207.5700968628459
 21
-248.1675781919494
 31
0.0
  0
LINE
  5
197
102
{ACAD_REACTORS
330
280
330
281
102
}
330
74
100
AcDbEntity
  8
0
  6
Continuous
 62
     2
100
AcDbLine
 10
-206.3773041606795
 20
-249.3018503007932
 30
0.0
 11
-207.5700968628459
 21
-249.3018503007932
 31
0.0
  0
LINE
  5
198
102
{ACAD_REACTORS
330
280
330
281
102
}
330
74
100
AcDbEntity
  8
0
  6
Continuous
 62
     2
100
AcDbLine
 10
-206.3773041606795
 20
-246.248040776982
 30
0.0
 11
-206.3773041606795
 21
-249.3018503007932
 31
0.0
  0
LINE
  5
199
102
{ACAD_REACTORS
330
26E
330
26F
102
}
330
74
100
AcDbEntity
  8
0
  6
Continuous
 62
     2
100
AcDbLine
 10
-202.8943494703526
 20
-248.123952341609
 30
0.0
 11
-201.5584216439249
 21
-248.123952341609
 31
0.0
  0
LINE
  5
19A
102
{ACAD_REACTORS
330
26E
330
26F
102
}
330
74
100
AcDbEntity
  8
0
  6
Continuous
 62
     2
100
AcDbLine
 10
-201.5584216439249
 20
-248.123952341609
 30
0.0
 11
-201.5584216439249
 21
-247.4259387361667
 31
0.0
  0
LINE
  5
19B
102
{ACAD_REACTORS
330
26E
330
26F
102
}
330
74
100
AcDbEntity
  8
0
  6
Continuous
 62
     2
100
AcDbLine
 10
-201.5584216439249
 20
-247.4259387361667
 30
0.0
 11
-202.8943494703526
 21
-247.4259387361667
 31
0.0
  0
LINE
  5
19C
102
{ACAD_REACTORS
330
26E
330
26F
102
}
330
74
100
AcDbEntity
  8
0
  6
Continuous
 62
     2
100
AcDbLine
 10
-202.8943494703526
 20
-247.4259387361667
 30
0.0
 11
-202.8943494703526
 21
-246.946054382425
 31
0.0
  0
LINE
  5
19D
102
{ACAD_REACTORS
330
27E
330
27F
102
}
330
74
100
AcDbEntity
  8
0
  6
Continuous
 62
     2
100
AcDbLine
 10
-206.5683019239117
 20
-252.6610407769675
 30
0.0
 11
-205.3755092217441
 21
-252.6610407769675
 31
0.0
  0
LINE
  5
19E
102
{ACAD_REACTORS
330
27E
330
27F
102
}
330
74
100
AcDbEntity
  8
0
  6
Continuous
 62
     2
100
AcDbLine
 10
-204.1350048114912
 20
-252.6610407769675
 30
0.0
 11
-202.9422121093248
 21
-252.6610407769675
 31
0.0
  0
LINE
  5
19F
102
{ACAD_REACTORS
330
27E
330
27F
102
}
330
74
100
AcDbEntity
  8
0
  6
Continuous
 62
     2
100
AcDbLine
 10
-205.3755092217441
 20
-249.6072312531564
 30
0.0
 11
-206.5683019239117
 21
-249.6072312531564
 31
0.0
  0
LINE
  5
1A0
102
{ACAD_REACTORS
330
27E
330
27F
102
}
330
74
100
AcDbEntity
  8
0
  6
Continuous
 62
     2
100
AcDbLine
 10
-206.5683019239117
 20
-249.6072312531564
 30
0.0
 11
-206.5683019239117
 21
-252.6610407769675
 31
0.0
  0
LINE
  5
1A1
102
{ACAD_REACTORS
330
27C
330
27D
102
}
330
74
100
AcDbEntity
  8
0
  6
Continuous
 62
     2
100
AcDbLine
 10
-198.8865659910715
 20
-246.248040776982
 30
0.0
 11
-198.8865659910715
 21
-247.5568162871872
 31
0.0
  0
LINE
  5
1A2
102
{ACAD_REACTORS
330
27C
330
27D
102
}
330
74
100
AcDbEntity
  8
0
  6
Continuous
 62
     2
100
AcDbLine
 10
-200.1270704013255
 20
-246.248040776982
 30
0.0
 11
-201.319863103492
 21
-246.248040776982
 31
0.0
  0
LINE
  5
1A3
102
{ACAD_REACTORS
330
27C
330
27D
102
}
330
74
100
AcDbEntity
  8
0
  6
Continuous
 62
     2
100
AcDbLine
 10
-201.319863103492
 20
-246.248040776982
 30
0.0
 11
-201.319863103492
 21
-249.3018503007932
 31
0.0
  0
LINE
  5
1A4
102
{ACAD_REACTORS
330
27C
330
27D
102
}
330
74
100
AcDbEntity
  8
0
  6
Continuous
 62
     2
100
AcDbLine
 10
-200.1270704013255
 20
-249.3018503007932
 30
0.0
 11
-200.1270704013255
 21
-247.9930747905885
 31
0.0
  0
LINE
  5
1A5
102
{ACAD_REACTORS
330
27A
330
27B
102
}
330
74
100
AcDbEntity
  8
0
  6
Continuous
 62
     2
100
AcDbLine
 10
-200.7951852454235
 20
-252.6610407769675
 30
0.0
 11
-200.7951852454235
 21
-250.39249655928
 31
0.0
  0
LINE
  5
1A6
102
{ACAD_REACTORS
330
27A
330
27B
102
}
330
74
100
AcDbEntity
  8
0
  6
Continuous
 62
     2
100
AcDbLine
 10
-200.7951852454235
 20
-250.39249655928
 30
0.0
 11
-199.984086207951
 21
-250.39249655928
 31
0.0
  0
LINE
  5
1A7
102
{ACAD_REACTORS
330
27A
330
27B
102
}
330
74
100
AcDbEntity
  8
0
  6
Continuous
 62
     2
100
AcDbLine
 10
-199.984086207951
 20
-250.39249655928
 30
0.0
 11
-199.984086207951
 21
-249.6072312531564
 31
0.0
  0
LINE
  5
1A8
102
{ACAD_REACTORS
330
27A
330
27B
102
}
330
74
100
AcDbEntity
  8
0
  6
Continuous
 62
     2
100
AcDbLine
 10
-199.984086207951
 20
-249.6072312531564
 30
0.0
 11
-202.7990769850646
 21
-249.6072312531564
 31
0.0
  0
LINE
  5
1A9
102
{ACAD_REACTORS
330
27A
330
27B
102
}
330
74
100
AcDbEntity
  8
0
  6
Continuous
 62
     2
100
AcDbLine
 10
-202.7990769850646
 20
-250.39249655928
 30
0.0
 11
-201.98797794759
 21
-250.39249655928
 31
0.0
  0
LINE
  5
1AA
102
{ACAD_REACTORS
330
278
330
279
102
}
330
74
100
AcDbEntity
  8
0
  6
Continuous
 62
     2
100
AcDbLine
 10
-199.1895803821536
 20
-252.1200802327496
 30
0.0
 11
-198.0571388054798
 21
-252.1200802327496
 31
0.0
  0
LINE
  5
1AB
102
{ACAD_REACTORS
330
278
330
279
102
}
330
74
100
AcDbEntity
  8
0
  6
Continuous
 62
     2
100
AcDbLine
 10
-196.6051543417501
 20
-252.6610407769675
 30
0.0
 11
-197.845658752004
 21
-252.6610407769675
 31
0.0
  0
LINE
  5
1AC
102
{ACAD_REACTORS
330
278
330
279
102
}
330
74
100
AcDbEntity
  8
0
  6
Continuous
 62
     2
100
AcDbLine
 10
-199.2436117989431
 20
-249.6072312531564
 30
0.0
 11
-200.6415648458824
 21
-252.6610407769675
 31
0.0
  0
LINE
  5
1AD
102
{ACAD_REACTORS
330
278
330
279
102
}
330
74
100
AcDbEntity
  8
0
  6
Continuous
 62
     2
100
AcDbLine
 10
-199.4010604356294
 20
-252.6610407769675
 30
0.0
 11
-199.1895803821536
 21
-252.1200802327496
 31
0.0
  0
LINE
  5
1AE
102
{ACAD_REACTORS
330
278
330
279
102
}
330
74
100
AcDbEntity
  8
0
  6
Continuous
 62
     2
100
AcDbLine
 10
-198.9235248310086
 20
-251.439516967443
 30
0.0
 11
-198.6233595938162
 21
-250.6717020014563
 31
0.0
  0
LINE
  5
1AF
102
{ACAD_REACTORS
330
276
330
277
102
}
330
74
100
AcDbEntity
  8
0
  6
Continuous
 62
     2
100
AcDbLine
 10
-197.455214748471
 20
-249.3018503007932
 30
0.0
 11
-197.455214748471
 21
-246.248040776982
 31
0.0
  0
LINE
  5
1B0
102
{ACAD_REACTORS
330
276
330
277
102
}
330
74
100
AcDbEntity
  8
0
  6
Continuous
 62
     2
100
AcDbLine
 10
-196.2147103382181
 20
-246.248040776982
 30
0.0
 11
-196.2147103382181
 21
-249.3018503007932
 31
0.0
  0
LINE
  5
1B1
102
{ACAD_REACTORS
330
276
330
277
102
}
330
74
100
AcDbEntity
  8
0
  6
Continuous
 62
     2
100
AcDbLine
 10
-197.455214748471
 20
-246.248040776982
 30
0.0
 11
-196.2147103382181
 21
-246.248040776982
 31
0.0
  0
LINE
  5
1B2
102
{ACAD_REACTORS
330
274
330
275
102
}
330
74
100
AcDbEntity
  8
0
  6
Continuous
 62
     2
100
AcDbLine
 10
-193.9961159121873
 20
-248.5141185154995
 30
0.0
 11
-193.2995249741218
 21
-249.3018503007932
 31
0.0
  0
LINE
  5
1B3
102
{ACAD_REACTORS
330
274
330
275
102
}
330
74
100
AcDbEntity
  8
0
  6
Continuous
 62
     2
100
AcDbLine
 10
-193.2995249741218
 20
-249.3018503007932
 30
0.0
 11
-191.8968007563735
 21
-249.3018503007932
 31
0.0
  0
LINE
  5
1B4
102
{ACAD_REACTORS
330
274
330
275
102
}
330
74
100
AcDbEntity
  8
0
  6
Continuous
 62
     2
100
AcDbLine
 10
-193.2947538033138
 20
-247.7209913070182
 30
0.0
 11
-191.8968007563735
 21
-249.3018503007932
 31
0.0
  0
LINE
  5
1B5
102
{ACAD_REACTORS
330
274
330
275
102
}
330
74
100
AcDbEntity
  8
0
  6
Continuous
 62
     2
100
AcDbLine
 10
-193.2947538033138
 20
-247.7209913070182
 30
0.0
 11
-191.9922241725473
 21
-246.248040776982
 31
0.0
  0
LINE
  5
1B6
102
{ACAD_REACTORS
330
274
330
275
102
}
330
74
100
AcDbEntity
  8
0
  6
Continuous
 62
     2
100
AcDbLine
 10
-193.9961159121873
 20
-246.9278640985375
 30
0.0
 11
-193.3949483902945
 21
-246.248040776982
 31
0.0
  0
LINE
  5
1B7
102
{ACAD_REACTORS
330
274
330
275
102
}
330
74
100
AcDbEntity
  8
0
  6
Continuous
 62
     2
100
AcDbLine
 10
-194.5972834340791
 20
-246.248040776982
 30
0.0
 11
-193.9961159121873
 21
-246.9278640985375
 31
0.0
  0
LINE
  5
1B8
102
{ACAD_REACTORS
330
274
330
275
102
}
330
74
100
AcDbEntity
  8
0
  6
Continuous
 62
     2
100
AcDbLine
 10
-194.5972834340791
 20
-246.248040776982
 30
0.0
 11
-196.0000076518284
 21
-246.248040776982
 31
0.0
  0
LINE
  5
1B9
102
{ACAD_REACTORS
330
26A
330
26B
102
}
330
74
100
AcDbEntity
  8
0
  6
Continuous
 62
     2
100
AcDbLine
 10
-193.9006924960146
 20
-252.6610407769675
 30
0.0
 11
-192.7078997938469
 21
-252.6610407769675
 31
0.0
  0
LINE
  5
1BA
102
{ACAD_REACTORS
330
26A
330
26B
102
}
330
74
100
AcDbEntity
  8
0
  6
Continuous
 62
     2
100
AcDbLine
 10
-192.7078997938469
 20
-252.6610407769675
 30
0.0
 11
-192.7078997938469
 21
-250.39249655928
 31
0.0
  0
LINE
  5
1BB
102
{ACAD_REACTORS
330
26A
330
26B
102
}
330
74
100
AcDbEntity
  8
0
  6
Continuous
 62
     2
100
AcDbLine
 10
-192.7078997938469
 20
-250.39249655928
 30
0.0
 11
-191.8968007563735
 21
-250.39249655928
 31
0.0
  0
LINE
  5
1BC
102
{ACAD_REACTORS
330
26A
330
26B
102
}
330
74
100
AcDbEntity
  8
0
  6
Continuous
 62
     2
100
AcDbLine
 10
-191.8968007563735
 20
-250.39249655928
 30
0.0
 11
-191.8968007563735
 21
-249.6072312531564
 31
0.0
  0
LINE
  5
1BD
102
{ACAD_REACTORS
330
26A
330
26B
102
}
330
74
100
AcDbEntity
  8
0
  6
Continuous
 62
     2
100
AcDbLine
 10
-195.2817462750022
 20
-249.6072312531569
 30
0.0
 11
-191.8968007563735
 21
-249.6072312531564
 31
0.0
  0
LINE
  5
1BE
102
{ACAD_REACTORS
330
26A
330
26B
102
}
330
74
100
AcDbEntity
  8
0
  6
Continuous
 62
     2
100
AcDbLine
 10
-193.9006924960146
 20
-250.39249655928
 30
0.0
 11
-193.9006924960146
 21
-252.6610407769675
 31
0.0
  0
LINE
  5
1BF
102
{ACAD_REACTORS
330
26C
330
26D
102
}
330
74
100
AcDbEntity
  8
0
  6
Continuous
 62
     2
100
AcDbLine
 10
-216.5301789314938
 20
-250.682160627403
 30
0.0
 11
-216.5301789314938
 21
-250.1003092207079
 31
0.0
  0
LINE
  5
1C0
102
{ACAD_REACTORS
330
26C
330
26D
102
}
330
74
100
AcDbEntity
  8
0
  6
Continuous
 62
     2
100
AcDbLine
 10
-216.5301789314938
 20
-247.8820260207717
 30
0.0
 11
-216.5301789314938
 21
-247.2764907322649
 31
0.0
  0
LINE
  5
1C1
330
74
100
AcDbEntity
  8
1
  6
Continuous
 62
     6
100
AcDbLine
 10
-238.0000003468905
 20
-259.9545407769838
 30
0.0
 11
-224.0448048736406
 21
-259.9545407769839
 31
0.0
  0
LINE
  5
1C2
330
74
100
AcDbEntity
  8
1
  6
Continuous
 62
     6
100
AcDbLine
 10
-288.0000003468908
 20
-259.9545407769838
 30
0.0
 11
-293.0448048736405
 21
-259.9545407769838
 31
0.0
  0
LINE
  5
1C3
330
74
100
AcDbEntity
  8
1
  6
Continuous
 62
     6
100
AcDbLine
 10
-138.0000003468906
 20
-259.9545407769838
 30
0.0
 11
-94.50000034689056
 21
-259.9545407769838
 31
0.0
  0
LINE
  5
1C4
330
74
100
AcDbEntity
  8
1
  6
Continuous
 62
     6
100
AcDbLine
 10
-188.0000003468906
 20
-259.9545407769838
 30
0.0
 11
-205.8448048736406
 21
-259.9545407769838
 31
0.0
  0
LINE
  5
1C5
330
74
100
AcDbEntity
  8
1
  6
Continuous
 62
     2
100
AcDbLine
 10
-94.50000034689056
 20
-259.9545407769838
 30
0.0
 11
-89.50000034689157
 21
-259.9545407769838
 31
0.0
  0
LINE
  5
1C6
330
74
100
AcDbEntity
  8
1
  6
Continuous
 62
     2
100
AcDbLine
 10
-94.50000034689056
 20
-259.9545407769838
 30
0.0
 11
-94.50000034689056
 21
-264.9545407769839
 31
0.0
  0
LINE
  5
1C7
330
74
100
AcDbEntity
  8
1
  6
Continuous
 62
     6
100
AcDbLine
 10
-224.0448048736406
 20
-242.9545407769838
 30
0.0
 11
-187.6448048736407
 21
-242.9545407769838
 31
0.0
  0
LINE
  5
1C8
330
74
100
AcDbEntity
  8
1
  6
Continuous
 62
     2
100
AcDbLine
 10
-89.50000034689157
 20
-264.9545407769839
 30
0.0
 11
-89.50000034689157
 21
-259.9545407769838
 31
0.0
  0
LINE
  5
1C9
330
74
100
AcDbEntity
  8
1
  6
Continuous
 62
     2
100
AcDbLine
 10
-89.50000034689157
 20
-264.9545407769839
 30
0.0
 11
-94.50000034689056
 21
-264.9545407769839
 31
0.0
  0
LINE
  5
1CA
330
74
100
AcDbEntity
  8
1
  6
Continuous
 62
     2
100
AcDbLine
 10
-94.50000034689056
 20
-264.9545407769839
 30
0.0
 11
-138.0000003468906
 21
-264.9545407769839
 31
0.0
  0
LINE
  5
1CB
330
74
100
AcDbEntity
  8
1
  6
Continuous
 62
     6
100
AcDbLine
 10
-94.50000034688887
 20
-242.9545407769838
 30
0.0
 11
-94.50000034688966
 21
-209.9545407769837
 31
0.0
  0
LINE
  5
1CC
330
74
100
AcDbEntity
  8
1
  6
Continuous
 62
     2
100
AcDbLine
 10
-89.50000034689157
 20
-54.95454077698381
 30
0.0
 11
-238.0000003468905
 21
-54.95454077698381
 31
0.0
  0
LINE
  5
1CD
330
74
100
AcDbEntity
  8
1
  6
Continuous
 62
     6
100
AcDbLine
 10
-94.50000034689157
 20
-74.9545407769838
 30
0.0
 11
-381.5000003468896
 21
-74.9545407769838
 31
0.0
  0
LINE
  5
1CE
330
74
100
AcDbEntity
  8
1
  6
Continuous
 62
     2
100
AcDbLine
 10
-94.50000034688966
 20
-209.9545407769837
 30
0.0
 11
-89.50000034689157
 21
-209.9545407769837
 31
0.0
  0
LINE
  5
1CF
330
74
100
AcDbEntity
  8
1
  6
Continuous
 62
     6
100
AcDbLine
 10
-94.50000034688966
 20
-209.9545407769837
 30
0.0
 11
-94.50000034689016
 21
-159.9545407769839
 31
0.0
  0
LINE
  5
1D0
330
74
100
AcDbEntity
  8
1
  6
Continuous
 62
     2
100
AcDbLine
 10
-89.50000034689157
 20
-209.9545407769837
 30
0.0
 11
-89.50000034689157
 21
-159.9545407769839
 31
0.0
  0
LINE
  5
1D1
330
74
100
AcDbEntity
  8
1
  6
Continuous
 62
     2
100
AcDbLine
 10
-94.50000034689016
 20
-159.9545407769839
 30
0.0
 11
-89.50000034689157
 21
-159.9545407769839
 31
0.0
  0
LINE
  5
1D2
330
74
100
AcDbEntity
  8
1
  6
Continuous
 62
     6
100
AcDbLine
 10
-94.50000034689016
 20
-159.9545407769839
 30
0.0
 11
-94.50000034689137
 21
-109.9545407769838
 31
0.0
  0
LINE
  5
1D3
330
74
100
AcDbEntity
  8
1
  6
Continuous
 62
     2
100
AcDbLine
 10
-89.50000034689157
 20
-159.9545407769839
 30
0.0
 11
-89.50000034689157
 21
-109.9545407769838
 31
0.0
  0
LINE
  5
1D4
330
74
100
AcDbEntity
  8
1
  6
Continuous
 62
     2
100
AcDbLine
 10
-94.50000034689137
 20
-109.9545407769838
 30
0.0
 11
-89.50000034689157
 21
-109.9545407769838
 31
0.0
  0
LINE
  5
1D5
330
74
100
AcDbEntity
  8
1
  6
Continuous
 62
     6
100
AcDbLine
 10
-94.50000034689137
 20
-109.9545407769838
 30
0.0
 11
-94.50000034689157
 21
-74.9545407769838
 31
0.0
  0
LINE
  5
1D6
330
74
100
AcDbEntity
  8
1
  6
Continuous
 62
     2
100
AcDbLine
 10
-89.50000034689157
 20
-109.9545407769838
 30
0.0
 11
-89.50000034689157
 21
-54.95454077698381
 31
0.0
  0
LINE
  5
1D7
330
74
100
AcDbEntity
  8
1
  6
Continuous
 62
     2
100
AcDbLine
 10
-89.50000034689157
 20
-259.9545407769838
 30
0.0
 11
-89.50000034689157
 21
-209.9545407769837
 31
0.0
  0
LINE
  5
1D8
330
74
100
AcDbEntity
  8
1
  6
Continuous
 62
     2
100
AcDbLine
 10
-238.0000003468905
 20
-54.95454077698381
 30
0.0
 11
-386.5000003468896
 21
-54.95454077698381
 31
0.0
  0
LINE
  5
1D9
330
74
100
AcDbEntity
  8
1
  6
Continuous
 62
     2
100
AcDbLine
 10
-238.0000003468905
 20
-54.95454077698381
 30
0.0
 11
-238.0000003468905
 21
-64.16323262168513
 31
0.0
  0
LINE
  5
1DA
330
74
100
AcDbEntity
  8
1
  6
Continuous
 62
     2
100
AcDbLine
 10
-386.5000003468896
 20
-264.9545407769839
 30
0.0
 11
-381.5000003468887
 21
-264.9545407769839
 31
0.0
  0
LINE
  5
1DB
330
74
100
AcDbEntity
  8
1
  6
Continuous
 62
     2
100
AcDbLine
 10
-386.5000003468896
 20
-54.95454077698381
 30
0.0
 11
-386.5000003468896
 21
-109.9545407769838
 31
0.0
  0
LINE
  5
1DC
330
74
100
AcDbEntity
  8
1
  6
Continuous
 62
     6
100
AcDbLine
 10
-381.5000003468896
 20
-74.9545407769838
 30
0.0
 11
-381.5000003468896
 21
-109.9545407769838
 31
0.0
  0
LINE
  5
1DD
330
74
100
AcDbEntity
  8
1
  6
Continuous
 62
     2
100
AcDbLine
 10
-386.5000003468896
 20
-109.9545407769838
 30
0.0
 11
-381.5000003468896
 21
-109.9545407769838
 31
0.0
  0
LINE
  5
1DE
330
74
100
AcDbEntity
  8
1
  6
Continuous
 62
     2
100
AcDbLine
 10
-386.5000003468896
 20
-109.9545407769838
 30
0.0
 11
-386.5000003468896
 21
-159.9545407769839
 31
0.0
  0
LINE
  5
1DF
330
74
100
AcDbEntity
  8
1
  6
Continuous
 62
     6
100
AcDbLine
 10
-381.5000003468896
 20
-109.9545407769838
 30
0.0
 11
-381.5000003468891
 21
-159.9545407769839
 31
0.0
  0
LINE
  5
1E0
330
74
100
AcDbEntity
  8
1
  6
Continuous
 62
     2
100
AcDbLine
 10
-386.5000003468896
 20
-159.9545407769839
 30
0.0
 11
-381.5000003468891
 21
-159.9545407769839
 31
0.0
  0
LINE
  5
1E1
330
74
100
AcDbEntity
  8
1
  6
Continuous
 62
     2
100
AcDbLine
 10
-386.5000003468896
 20
-159.9545407769839
 30
0.0
 11
-386.5000003468896
 21
-209.9545407769837
 31
0.0
  0
LINE
  5
1E2
330
74
100
AcDbEntity
  8
1
  6
Continuous
 62
     6
100
AcDbLine
 10
-381.5000003468891
 20
-159.9545407769839
 30
0.0
 11
-381.5000003468888
 21
-209.9545407769837
 31
0.0
  0
LINE
  5
1E3
330
74
100
AcDbEntity
  8
1
  6
Continuous
 62
     2
100
AcDbLine
 10
-386.5000003468896
 20
-209.9545407769837
 30
0.0
 11
-381.5000003468888
 21
-209.9545407769837
 31
0.0
  0
LINE
  5
1E4
330
74
100
AcDbEntity
  8
1
  6
Continuous
 62
     2
100
AcDbLine
 10
-386.5000003468896
 20
-209.9545407769837
 30
0.0
 11
-386.5000003468896
 21
-259.9545407769838
 31
0.0
  0
LINE
  5
1E5
330
74
100
AcDbEntity
  8
1
  6
Continuous
 62
     6
100
AcDbLine
 10
-381.5000003468888
 20
-209.9545407769837
 30
0.0
 11
-381.5000003468887
 21
-259.9545407769838
 31
0.0
  0
LINE
  5
1E6
330
74
100
AcDbEntity
  8
1
  6
Continuous
 62
     2
100
AcDbLine
 10
-338.0000003468905
 20
-264.9545407769839
 30
0.0
 11
-338.0000003468905
 21
-259.9545407769838
 31
0.0
  0
LINE
  5
1E7
330
74
100
AcDbEntity
  8
1
  6
Continuous
 62
     2
100
AcDbLine
 10
-338.0000003468905
 20
-264.9545407769839
 30
0.0
 11
-288.0000003468908
 21
-264.9545407769839
 31
0.0
  0
LINE
  5
1E8
330
74
100
AcDbEntity
  8
1
  6
Continuous
 62
     2
100
AcDbLine
 10
-288.0000003468908
 20
-264.9545407769839
 30
0.0
 11
-288.0000003468908
 21
-259.9545407769838
 31
0.0
  0
LINE
  5
1E9
330
74
100
AcDbEntity
  8
1
  6
Continuous
 62
     2
100
AcDbLine
 10
-288.0000003468908
 20
-264.9545407769839
 30
0.0
 11
-238.0000003468905
 21
-264.9545407769839
 31
0.0
  0
LINE
  5
1EA
330
74
100
AcDbEntity
  8
1
  6
Continuous
 62
     2
100
AcDbLine
 10
-238.0000003468905
 20
-264.9545407769839
 30
0.0
 11
-238.0000003468905
 21
-259.9545407769838
 31
0.0
  0
LINE
  5
1EB
330
74
100
AcDbEntity
  8
1
  6
Continuous
 62
     2
100
AcDbLine
 10
-238.0000003468905
 20
-264.9545407769839
 30
0.0
 11
-188.0000003468906
 21
-264.9545407769839
 31
0.0
  0
LINE
  5
1EC
330
74
100
AcDbEntity
  8
1
  6
Continuous
 62
     2
100
AcDbLine
 10
-188.0000003468906
 20
-264.9545407769839
 30
0.0
 11
-188.0000003468906
 21
-259.9545407769838
 31
0.0
  0
LINE
  5
1ED
330
74
100
AcDbEntity
  8
1
  6
Continuous
 62
     2
100
AcDbLine
 10
-138.0000003468906
 20
-264.9545407769839
 30
0.0
 11
-138.0000003468906
 21
-259.9545407769838
 31
0.0
  0
LINE
  5
1EE
330
74
100
AcDbEntity
  8
1
  6
Continuous
 62
     2
100
AcDbLine
 10
-138.0000003468906
 20
-264.9545407769839
 30
0.0
 11
-188.0000003468906
 21
-264.9545407769839
 31
0.0
  0
LINE
  5
1EF
330
74
100
AcDbEntity
  8
1
  6
Continuous
 62
     2
100
AcDbLine
 10
-381.5000003468887
 20
-259.9545407769838
 30
0.0
 11
-381.5000003468887
 21
-264.9545407769839
 31
0.0
  0
LINE
  5
1F0
330
74
100
AcDbEntity
  8
1
  6
Continuous
 62
     2
100
AcDbLine
 10
-381.5000003468887
 20
-264.9545407769839
 30
0.0
 11
-338.0000003468905
 21
-264.9545407769839
 31
0.0
  0
LINE
  5
1F1
330
74
100
AcDbEntity
  8
1
  6
Continuous
 62
     2
100
AcDbLine
 10
-381.5000003468887
 20
-259.9545407769838
 30
0.0
 11
-386.5000003468896
 21
-259.9545407769838
 31
0.0
  0
LINE
  5
1F2
330
74
100
AcDbEntity
  8
1
  6
Continuous
 62
     2
100
AcDbLine
 10
-386.5000003468896
 20
-259.9545407769838
 30
0.0
 11
-386.5000003468896
 21
-264.9545407769839
 31
0.0
  0
LINE
  5
1F3
330
74
100
AcDbEntity
  8
1
  6
Continuous
 62
     6
100
AcDbLine
 10
-94.50000034689056
 20
-259.9545407769838
 30
0.0
 11
-94.50000034688927
 21
-251.4545407769838
 31
0.0
  0
LINE
  5
1F4
330
74
100
AcDbEntity
  8
1
  6
Continuous
 62
     6
100
AcDbLine
 10
-187.6448048736407
 20
-259.9545407769839
 30
0.0
 11
-138.0000003468906
 21
-259.9545407769838
 31
0.0
  0
LINE
  5
1F5
330
74
100
AcDbEntity
  8
1
  6
Continuous
 62
     6
100
AcDbLine
 10
-340.3000003468908
 20
-259.9545407769839
 30
0.0
 11
-338.0000003468905
 21
-259.9545407769838
 31
0.0
  0
LINE
  5
1F6
330
74
100
AcDbEntity
  8
1
  6
Continuous
 62
     6
100
AcDbLine
 10
-238.0000003468905
 20
-259.9545407769838
 30
0.0
 11
-288.0000003468908
 21
-259.9545407769838
 31
0.0
  0
LINE
  5
1F7
330
74
100
AcDbEntity
  8
1
  6
Continuous
 62
     7
100
AcDbLine
 10
-224.0448048736406
 20
-242.9545407769838
 30
0.0
 11
-224.0448048736406
 21
-255.7045407769839
 31
0.0
  0
LINE
  5
1F8
330
74
100
AcDbEntity
  8
1
  6
Continuous
 62
     7
100
AcDbLine
 10
-187.6448048736407
 20
-242.9545407769838
 30
0.0
 11
-187.6448048736407
 21
-255.7045407769838
 31
0.0
  0
LINE
  5
1F9
330
74
100
AcDbEntity
  8
1
  6
Continuous
 62
     6
100
AcDbLine
 10
-340.3000003468908
 20
-259.9545407769839
 30
0.0
 11
-346.5000003468888
 21
-259.9545407769838
 31
0.0
  0
LINE
  5
1FA
330
74
100
AcDbEntity
  8
1
  6
Continuous
 62
     6
100
AcDbLine
 10
-187.6448048736407
 20
-259.9545407769839
 30
0.0
 11
-188.0000003468906
 21
-259.9545407769838
 31
0.0
  0
LINE
  5
1FB
330
74
100
AcDbEntity
  8
1
  6
Continuous
 62
     6
100
AcDbLine
 10
-94.50000034688887
 20
-242.9545407769838
 30
0.0
 11
-94.50000034688927
 21
-251.4545407769838
 31
0.0
  0
LINE
  5
1FC
330
74
100
AcDbEntity
  8
1
  6
Continuous
 62
     6
100
AcDbLine
 10
-346.5000003468888
 20
-259.9545407769838
 30
0.0
 11
-381.5000003468887
 21
-259.9545407769838
 31
0.0
  0
LINE
  5
1FD
330
74
100
AcDbEntity
  8
1
  6
Continuous
 62
     2
100
AcDbLine
 10
-219.808149987078
 20
-237.5795407769839
 30
0.0
 11
-214.808149987078
 21
-236.3295407769839
 31
0.0
  0
LINE
  5
1FE
330
74
100
AcDbEntity
  8
1
  6
Continuous
 62
     2
100
AcDbLine
 10
-219.808149987078
 20
-240.0795407769839
 30
0.0
 11
-219.808149987078
 21
-237.5795407769839
 31
0.0
  0
LINE
  5
1FF
330
74
100
AcDbEntity
  8
1
  6
Continuous
 62
     2
100
AcDbLine
 10
-214.808149987078
 20
-241.3295407769839
 30
0.0
 11
-219.808149987078
 21
-240.0795407769839
 31
0.0
  0
LINE
  5
200
330
74
100
AcDbEntity
  8
1
  6
Continuous
 62
     2
100
AcDbLine
 10
-214.808149987078
 20
-236.3295407769839
 30
0.0
 11
-214.808149987078
 21
-241.3295407769839
 31
0.0
  0
LINE
  5
201
330
74
100
AcDbEntity
  8
1
  6
Continuous
 62
     7
100
AcDbLine
 10
-224.0448048736406
 20
-255.7045407769839
 30
0.0
 11
-205.8448048736406
 21
-255.7045407769838
 31
0.0
  0
LINE
  5
202
330
74
100
AcDbEntity
  8
1
  6
Continuous
 62
     7
100
AcDbLine
 10
-224.0448048736406
 20
-255.7045407769839
 30
0.0
 11
-224.0448048736406
 21
-259.9545407769839
 31
0.0
  0
LINE
  5
203
330
74
100
AcDbEntity
  8
1
  6
Continuous
 62
     7
100
AcDbLine
 10
-187.6448048736407
 20
-255.7045407769838
 30
0.0
 11
-187.6448048736407
 21
-259.9545407769839
 31
0.0
  0
LINE
  5
204
330
74
100
AcDbEntity
  8
1
  6
Continuous
 62
     7
100
AcDbLine
 10
-205.8448048736406
 20
-255.7045407769838
 30
0.0
 11
-205.8448048736406
 21
-259.9545407769838
 31
0.0
  0
LINE
  5
205
330
74
100
AcDbEntity
  8
1
  6
Continuous
 62
     6
100
AcDbLine
 10
-205.8448048736406
 20
-259.9545407769838
 30
0.0
 11
-224.0448048736406
 21
-259.9545407769839
 31
0.0
  0
LINE
  5
206
330
74
100
AcDbEntity
  8
1
  6
Continuous
 62
     7
100
AcDbLine
 10
-205.8448048736406
 20
-255.7045407769838
 30
0.0
 11
-187.6448048736407
 21
-255.7045407769838
 31
0.0
  0
LINE
  5
207
330
74
100
AcDbEntity
  8
1
  6
Continuous
 62
     6
100
AcDbLine
 10
-224.0448048736406
 20
-234.4545407769838
 30
0.0
 11
-94.50000034688887
 21
-234.4545407769838
 31
0.0
  0
ARC
  5
208
102
{ACAD_REACTORS
330
270
330
271
102
}
330
74
100
AcDbEntity
  8
0
  6
Continuous
 62
     2
100
AcDbCircle
 10
-208.6531568746806
 20
-251.1341360150622
 30
0.0
 40
0.7717997786796724
100
AcDbArc
 50
321.8795802028404
 51
38.12041979715625
  0
ARC
  5
209
102
{ACAD_REACTORS
330
270
330
271
102
}
330
74
100
AcDbEntity
  8
0
  6
Continuous
 62
     2
100
AcDbCircle
 10
-208.4534168383342
 20
-251.2908671931822
 30
0.0
 40
0.5179085730137577
100
AcDbArc
 50
218.1204197971912
 51
321.879580202799
  0
ARC
  5
20A
102
{ACAD_REACTORS
330
270
330
271
102
}
330
74
100
AcDbEntity
  8
0
  6
Continuous
 62
     2
100
AcDbCircle
 10
-208.2536768019881
 20
-251.1341360150622
 30
0.0
 40
0.7717997786795031
100
AcDbArc
 50
141.879580202836
 51
218.1204197971674
  0
ARC
  5
20B
102
{ACAD_REACTORS
330
270
330
271
102
}
330
74
100
AcDbEntity
  8
0
  6
Continuous
 62
     2
100
AcDbCircle
 10
-208.4534168383342
 20
-250.9774048369417
 30
0.0
 40
0.517908573013295
100
AcDbArc
 50
38.12041979715146
 51
141.8795802028583
  0
ARC
  5
20C
102
{ACAD_REACTORS
330
268
330
269
102
}
330
74
100
AcDbEntity
  8
0
  6
Continuous
 62
     2
100
AcDbCircle
 10
-211.5154309738981
 20
-252.5446023804704
 30
0.0
 40
2.227384008973492
100
AcDbArc
 50
58.0690910500401
 51
71.55192388186676
  0
ARC
  5
20D
102
{ACAD_REACTORS
330
268
330
269
102
}
330
74
100
AcDbEntity
  8
0
  6
Continuous
 62
     2
100
AcDbCircle
 10
-211.2537032729393
 20
-250.9290645857232
 30
0.0
 40
0.5115800601948891
100
AcDbArc
 50
113.3722778882021
 51
151.4785267423044
  0
ARC
  5
20E
102
{ACAD_REACTORS
330
268
330
269
102
}
330
74
100
AcDbEntity
  8
0
  6
Continuous
 62
     2
100
AcDbCircle
 10
-210.876346014859
 20
-251.1341360150622
 30
0.0
 40
0.9410597353332545
100
AcDbArc
 50
151.4785267422669
 51
208.5214732577057
  0
ARC
  5
20F
102
{ACAD_REACTORS
330
268
330
269
102
}
330
74
100
AcDbEntity
  8
0
  6
Continuous
 62
     2
100
AcDbCircle
 10
-211.673303848991
 20
-247.8214550698058
 30
0.0
 40
4.852596863498138
100
AcDbArc
 50
275.1581447696249
 51
285.979991258353
  0
ARC
  5
210
102
{ACAD_REACTORS
330
268
330
269
102
}
330
74
100
AcDbEntity
  8
0
  6
Continuous
 62
     2
100
AcDbCircle
 10
-211.3844477542551
 20
-251.0213456530274
 30
0.0
 40
1.639695123939415
100
AcDbArc
 50
195.0618917770893
 51
275.1581447696395
  0
ARC
  5
211
102
{ACAD_REACTORS
330
268
330
269
102
}
330
74
100
AcDbEntity
  8
0
  6
Continuous
 62
     2
100
AcDbCircle
 10
-211.8035755977179
 20
-251.1341360150622
 30
0.0
 40
1.205656168390971
100
AcDbArc
 50
164.9381082228768
 51
195.0618917770945
  0
ARC
  5
212
102
{ACAD_REACTORS
330
268
330
269
102
}
330
74
100
AcDbEntity
  8
0
  6
Continuous
 62
     2
100
AcDbCircle
 10
-211.3844477542551
 20
-251.2469263770971
 30
0.0
 40
1.639695123940507
100
AcDbArc
 50
84.84185523036236
 51
164.9381082228867
  0
ARC
  5
213
102
{ACAD_REACTORS
330
26C
330
26D
102
}
330
74
100
AcDbEntity
  8
0
  6
Continuous
 62
     2
100
AcDbCircle
 10
-216.214462008417
 20
-250.1003092207079
 30
0.0
 40
0.3157169230765328
100
AcDbArc
 50
115.3740086783519
 51
180.0
  0
ARC
  5
214
102
{ACAD_REACTORS
330
26C
330
26D
102
}
330
74
100
AcDbEntity
  8
0
  6
Continuous
 62
     2
100
AcDbCircle
 10
-216.214462008417
 20
-247.8820260207717
 30
0.0
 40
0.315716923076792
100
AcDbArc
 50
180.0
 51
244.6259913216482
  0
ARC
  5
215
102
{ACAD_REACTORS
330
26C
330
26D
102
}
330
74
100
AcDbEntity
  8
0
  6
Continuous
 62
     2
100
AcDbCircle
 10
-216.208845873107
 20
-248.979325679834
 30
0.0
 40
2.018561131933237
100
AcDbArc
 50
269.8110329575866
 51
90.18896704241334
  0
ARC
  5
216
102
{ACAD_REACTORS
330
26C
330
26D
102
}
330
74
100
AcDbEntity
  8
0
  6
Continuous
 62
     2
100
AcDbCircle
 10
-216.214462008417
 20
-250.682160627403
 30
0.0
 40
0.315716923076792
100
AcDbArc
 50
180.0
 51
269.8110329574541
  0
ARC
  5
217
102
{ACAD_REACTORS
330
26A
330
26B
102
}
330
74
100
AcDbEntity
  8
0
  6
Continuous
 62
     2
100
AcDbCircle
 10
-195.1510017936864
 20
-250.9290645857232
 30
0.0
 40
0.5115800601944411
100
AcDbArc
 50
109.3371432194842
 51
151.4785267424225
  0
ARC
  5
218
102
{ACAD_REACTORS
330
26A
330
26B
102
}
330
74
100
AcDbEntity
  8
0
  6
Continuous
 62
     2
100
AcDbCircle
 10
-195.1510017936864
 20
-251.3392074444007
 30
0.0
 40
0.5115800601960215
100
AcDbArc
 50
208.5214732576866
 51
246.6277221118449
  0
ARC
  5
219
102
{ACAD_REACTORS
330
26A
330
26B
102
}
330
74
100
AcDbEntity
  8
0
  6
Continuous
 62
     2
100
AcDbCircle
 10
-195.7008741184638
 20
-251.1341360150622
 30
0.0
 40
1.205656168393002
100
AcDbArc
 50
164.9381082229028
 51
195.0618917770959
  0
ARC
  5
21A
102
{ACAD_REACTORS
330
26A
330
26B
102
}
330
74
100
AcDbEntity
  8
0
  6
Continuous
 62
     2
100
AcDbCircle
 10
-195.2817462750022
 20
-251.2469263770971
 30
0.0
 40
1.639695123940214
100
AcDbArc
 50
90.0
 51
164.9381082228947
  0
ARC
  5
21B
102
{ACAD_REACTORS
330
26E
330
26F
102
}
330
74
100
AcDbEntity
  8
0
  6
Continuous
 62
     2
100
AcDbCircle
 10
-204.7087413677059
 20
-247.7749455388879
 30
0.0
 40
1.526904761905882
100
AcDbArc
 50
90.0
 51
270.0
  0
ARC
  5
21C
102
{ACAD_REACTORS
330
272
330
273
102
}
330
74
100
AcDbEntity
  8
0
  6
Continuous
 62
     2
100
AcDbCircle
 10
-211.4514321129317
 20
-247.2640104470932
 30
0.0
 40
0.3528638246710898
100
AcDbArc
 50
270.0
 51
90.0
  0
ARC
  5
21D
102
{ACAD_REACTORS
330
26C
330
26D
102
}
330
74
100
AcDbEntity
  8
0
  6
Continuous
 62
     2
100
AcDbCircle
 10
-218.7900106949487
 20
-247.2763132556168
 30
0.0
 40
0.3157169230761951
100
AcDbArc
 50
90.0
 51
180.0
  0
ARC
  5
21E
102
{ACAD_REACTORS
330
26C
330
26D
102
}
330
74
100
AcDbEntity
  8
0
  6
Continuous
 62
     2
100
AcDbCircle
 10
-216.7915929863641
 20
-248.9911676207395
 30
0.0
 40
0.9118975235576268
100
AcDbArc
 50
115.1944106485298
 51
244.8055893514854
  0
ARC
  5
21F
102
{ACAD_REACTORS
330
26C
330
26D
102
}
330
74
100
AcDbEntity
  8
0
  6
Continuous
 62
     2
100
AcDbCircle
 10
-217.3141774339391
 20
-250.1019973668023
 30
0.0
 40
0.3157169230766215
100
AcDbArc
 50
0.0
 51
64.80558935146249
  0
ARC
  5
220
102
{ACAD_REACTORS
330
26C
330
26D
102
}
330
74
100
AcDbEntity
  8
0
  6
Continuous
 62
     2
100
AcDbCircle
 10
-219.3839053716952
 20
-252.2367961615842
 30
0.0
 40
0.4242446153828041
100
AcDbArc
 50
180.0
 51
270.0
  0
ARC
  5
221
102
{ACAD_REACTORS
330
26E
330
26F
102
}
330
74
100
AcDbEntity
  8
0
  6
Continuous
 62
     2
100
AcDbCircle
 10
-204.4924693575407
 20
-247.6182143607674
 30
0.0
 40
0.5179085730135266
100
AcDbArc
 50
38.12041979714334
 51
141.8795802028489
  0
ARC
  5
222
102
{ACAD_REACTORS
330
26E
330
26F
102
}
330
74
100
AcDbEntity
  8
0
  6
Continuous
 62
     2
100
AcDbCircle
 10
-204.2927293211944
 20
-247.7749455388879
 30
0.0
 40
0.7717997786796724
100
AcDbArc
 50
141.8795802028404
 51
218.1204197971562
  0
ARC
  5
223
102
{ACAD_REACTORS
330
270
330
271
102
}
330
74
100
AcDbEntity
  8
0
  6
Continuous
 62
     2
100
AcDbCircle
 10
-208.4534168383342
 20
-250.5955610047589
 30
0.0
 40
2.065479772208522
100
AcDbArc
 50
242.4518518243395
 51
297.5481481756871
  0
ARC
  5
224
102
{ACAD_REACTORS
330
270
330
271
102
}
330
74
100
AcDbEntity
  8
0
  6
Continuous
 62
     2
100
AcDbCircle
 10
-208.4534168383342
 20
-251.672711025365
 30
0.0
 40
2.065479772208568
100
AcDbArc
 50
62.45185182430637
 51
117.5481481756671
  0
ARC
  5
225
102
{ACAD_REACTORS
330
270
330
271
102
}
330
74
100
AcDbEntity
  8
0
  6
Continuous
 62
     2
100
AcDbCircle
 10
-208.7343567301675
 20
-251.1341360150622
 30
0.0
 40
1.458034083651503
100
AcDbArc
 50
117.5481481756634
 51
242.4518518243366
  0
ARC
  5
226
102
{ACAD_REACTORS
330
270
330
271
102
}
330
74
100
AcDbEntity
  8
0
  6
Continuous
 62
     2
100
AcDbCircle
 10
-208.1724769465009
 20
-251.1341360150622
 30
0.0
 40
1.458034083652003
100
AcDbArc
 50
297.548148175701
 51
62.45185182429896
  0
ARC
  5
227
102
{ACAD_REACTORS
330
26E
330
26F
102
}
330
74
100
AcDbEntity
  8
0
  6
Continuous
 62
     2
100
AcDbCircle
 10
-204.4924693575407
 20
-247.9316767170083
 30
0.0
 40
0.5179085730134546
100
AcDbArc
 50
218.1204197971536
 51
321.8795802028542
  0
ARC
  5
228
102
{ACAD_REACTORS
330
26E
330
26F
102
}
330
74
100
AcDbEntity
  8
0
  6
Continuous
 62
     2
100
AcDbCircle
 10
-204.6922093938869
 20
-247.7749455388879
 30
0.0
 40
0.7717997786796597
100
AcDbArc
 50
321.879580202845
 51
38.12041979715826
  0
ARC
  5
229
102
{ACAD_REACTORS
330
26C
330
26D
102
}
330
74
100
AcDbEntity
  8
0
  6
Continuous
 62
     2
100
AcDbCircle
 10
-213.9105932809784
 20
-252.2367961615842
 30
0.0
 40
0.4242446153832873
100
AcDbArc
 50
270.0
 51
0.0
  0
ARC
  5
22A
102
{ACAD_REACTORS
330
26C
330
26D
102
}
330
74
100
AcDbEntity
  8
0
  6
Continuous
 62
     2
100
AcDbCircle
 10
-213.9105932809784
 20
-246.672285392384
 30
0.0
 40
0.4242446153838841
100
AcDbArc
 50
0.0
 51
90.0
  0
ARC
  5
22B
102
{ACAD_REACTORS
330
26C
330
26D
102
}
330
74
100
AcDbEntity
  8
0
  6
Continuous
 62
     2
100
AcDbCircle
 10
-219.3839053716952
 20
-246.672285392384
 30
0.0
 40
0.4242446153837989
100
AcDbArc
 50
90.0
 51
180.0
  0
ARC
  5
22C
102
{ACAD_REACTORS
330
26C
330
26D
102
}
330
74
100
AcDbEntity
  8
0
  6
Continuous
 62
     2
100
AcDbCircle
 10
-217.3141774339391
 20
-251.6327682983339
 30
0.0
 40
0.3157169230767067
100
AcDbArc
 50
270.0
 51
0.0
  0
ARC
  5
22D
102
{ACAD_REACTORS
330
26C
330
26D
102
}
330
74
100
AcDbEntity
  8
0
  6
Continuous
 62
     2
100
AcDbCircle
 10
-217.3141774339391
 20
-247.8803378746773
 30
0.0
 40
0.3157169230761203
100
AcDbArc
 50
295.1944106485397
 51
0.0
  0
ARC
  5
22E
102
{ACAD_REACTORS
330
26C
330
26D
102
}
330
74
100
AcDbEntity
  8
0
  6
Continuous
 62
     2
100
AcDbCircle
 10
-217.3141774339391
 20
-247.2763132556168
 30
0.0
 40
0.3157169230766215
100
AcDbArc
 50
0.0
 51
90.0
  0
ARC
  5
22F
102
{ACAD_REACTORS
330
26C
330
26D
102
}
330
74
100
AcDbEntity
  8
0
  6
Continuous
 62
     2
100
AcDbCircle
 10
-218.7900106949487
 20
-251.6327682983339
 30
0.0
 40
0.3157169230756836
100
AcDbArc
 50
180.0
 51
270.0
  0
ARC
  5
230
102
{ACAD_REACTORS
330
272
330
273
102
}
330
74
100
AcDbEntity
  8
0
  6
Continuous
 62
     2
100
AcDbCircle
 10
-211.0099595866933
 20
-247.3034064183157
 30
0.0
 40
1.055365641333708
100
AcDbArc
 50
270.0
 51
90.0
  0
ARC
  5
231
102
{ACAD_REACTORS
330
26A
330
26B
102
}
330
74
100
AcDbEntity
  8
0
  6
Continuous
 62
     2
100
AcDbCircle
 10
-195.2817462750022
 20
-251.0213456530274
 30
0.0
 40
1.639695123940421
100
AcDbArc
 50
195.0618917771015
 51
275.1581447696762
  0
ARC
  5
232
102
{ACAD_REACTORS
330
26A
330
26B
102
}
330
74
100
AcDbEntity
  8
0
  6
Continuous
 62
     2
100
AcDbCircle
 10
-195.570602369738
 20
-247.8214550698058
 30
0.0
 40
4.852596863498822
100
AcDbArc
 50
275.158144769636
 51
285.9799912583383
  0
ARC
  5
233
102
{ACAD_REACTORS
330
26A
330
26B
102
}
330
74
100
AcDbEntity
  8
0
  6
Continuous
 62
     2
100
AcDbCircle
 10
-195.4127294946452
 20
-249.7236696496541
 30
0.0
 40
2.227384008972746
100
AcDbArc
 50
288.4480761181335
 51
301.9309089499391
  0
ARC
  5
234
102
{ACAD_REACTORS
330
26A
330
26B
102
}
330
74
100
AcDbEntity
  8
0
  6
Continuous
 62
     2
100
AcDbCircle
 10
-194.9945617609833
 20
-250.9772154256907
 30
0.0
 40
0.9059297849852801
100
AcDbArc
 50
246.6277221118183
 51
288.4480761180817
  0
ARC
  5
235
102
{ACAD_REACTORS
330
26A
330
26B
102
}
330
74
100
AcDbEntity
  8
0
  6
Continuous
 62
     2
100
AcDbCircle
 10
-194.773644535605
 20
-251.1341360150622
 30
0.0
 40
0.9410597353348924
100
AcDbArc
 50
151.4785267423624
 51
208.5214732576695
  0
ARC
  5
236
102
{ACAD_REACTORS
330
26A
330
26B
102
}
330
74
100
AcDbEntity
  8
0
  6
Continuous
 62
     2
100
AcDbCircle
 10
-195.0043317955827
 20
-251.3470195661061
 30
0.0
 40
0.9545230068260935
100
AcDbArc
 50
90.0
 51
109.3371432194314
  0
ARC
  5
237
102
{ACAD_REACTORS
330
26C
330
26D
102
}
330
74
100
AcDbEntity
  8
0
  6
Continuous
 62
     2
100
AcDbCircle
 10
-216.214462008417
 20
-247.2764907322649
 30
0.0
 40
0.3157169230760711
100
AcDbArc
 50
90.18896704254594
 51
180.0
  0
ARC
  5
238
102
{ACAD_REACTORS
330
26C
330
26D
102
}
330
74
100
AcDbEntity
  8
0
  6
Continuous
 62
     2
100
AcDbCircle
 10
-216.7405047065049
 20
-248.9911676207395
 30
0.0
 40
0.9118481501444712
100
AcDbArc
 50
295.3740086781781
 51
64.62599132180586
  0
ARC
  5
239
102
{ACAD_REACTORS
330
268
330
269
102
}
330
74
100
AcDbEntity
  8
0
  6
Continuous
 62
     2
100
AcDbCircle
 10
-211.5154309738981
 20
-249.7236696496535
 30
0.0
 40
2.227384008972773
100
AcDbArc
 50
288.4480761181333
 51
301.9309089499595
  0
ARC
  5
23A
102
{ACAD_REACTORS
330
268
330
269
102
}
330
74
100
AcDbEntity
  8
0
  6
Continuous
 62
     2
100
AcDbCircle
 10
-211.0972632402373
 20
-250.9772154256907
 30
0.0
 40
0.9059297849849192
100
AcDbArc
 50
246.627722111871
 51
288.4480761181601
  0
ARC
  5
23B
102
{ACAD_REACTORS
330
268
330
269
102
}
330
74
100
AcDbEntity
  8
0
  6
Continuous
 62
     2
100
AcDbCircle
 10
-211.2537032729393
 20
-251.3392074444007
 30
0.0
 40
0.5115800601948034
100
AcDbArc
 50
208.5214732576956
 51
246.6277221118245
  0
ARC
  5
23C
102
{ACAD_REACTORS
330
268
330
269
102
}
330
74
100
AcDbEntity
  8
0
  6
Continuous
 62
     2
100
AcDbCircle
 10
-211.0972632402373
 20
-251.2910566044338
 30
0.0
 40
0.9059297849853588
100
AcDbArc
 50
71.55192388185235
 51
113.372277888129
  0
ARC
  5
23D
102
{ACAD_REACTORS
330
268
330
269
102
}
330
74
100
AcDbEntity
  8
0
  6
Continuous
 62
     2
100
AcDbCircle
 10
-211.673303848991
 20
-254.4468169603181
 30
0.0
 40
4.852596863498068
100
AcDbArc
 50
74.02000874164739
 51
84.84185523037506
  0
CIRCLE
  5
23E
102
{ACAD_REACTORS
330
26C
330
26D
102
}
330
74
100
AcDbEntity
  8
0
  6
Continuous
 62
     2
100
AcDbCircle
 10
-216.7643197211777
 20
-248.9911676207395
 30
0.0
 40
0.4709789327785074
  0
CIRCLE
  5
23F
330
74
100
AcDbEntity
  8
1
  6
Continuous
 62
     2
100
AcDbCircle
 10
-211.308149987078
 20
-238.8295407769839
 30
0.0
 40
1.249999999999886
  0
CIRCLE
  5
240
330
74
100
AcDbEntity
  8
1
  6
Continuous
 62
     2
100
AcDbCircle
 10
-211.308149987078
 20
-238.8295407769839
 30
0.0
 40
2.5
  0
TEXT
  5
241
330
74
100
AcDbEntity
  8
1
 62
     7
100
AcDbText
 10
-168.6712571516268
 20
-241.6545407769839
 30
0.0
 40
2.5
  1
/
 41
0.9
  7
CONVERTER_11
100
AcDbText
  0
TEXT
  5
243
330
74
100
AcDbEntity
  8
1
 62
     7
100
AcDbText
 10
-166.5148926545848
 20
-241.6545407769839
 30
0.0
 40
2.5
  1
00
 41
0.81
  7
CONVERTER_12
100
AcDbText
  0
TEXT
  5
244
330
74
100
AcDbEntity
  8
1
 62
     3
100
AcDbText
 10
-128.9184086285677
 20
-241.6545407769839
 30
0.0
 40
2.5
  1
08.07.2015
 41
0.81
  7
CONVERTER_12
100
AcDbText
  0
MTEXT
  5
245
330
74
100
AcDbEntity
  8
1
 62
     2
100
AcDbMText
 10
-128.9184086285677
 20
-235.4545407769839
 30
0.0
 40
1.8
 41
0.0
 71
     1
 72
     1
  1
date
  7
CONVERTER_11
 73
     1
 44
1.32052821128451
  0
MTEXT
  5
246
330
74
100
AcDbEntity
  8
1
 62
     2
100
AcDbMText
 10
-158.7448048736406
 20
-243.9545407769839
 30
0.0
 40
1.8
 41
0.0
 71
     1
 72
     1
  1
document-type
  7
CONVERTER_11
 73
     1
 44
1.20048019207683
  0
TEXT
  5
247
330
74
100
AcDbEntity
  8
1
 62
     3
100
AcDbText
 10
-158.7448048736406
 20
-250.1545407769839
 30
0.0
 40
2.5
  1
Customer drawing select
 41
0.81
  7
CONVERTER_12
100
AcDbText
  0
MTEXT
  5
249
330
74
100
AcDbEntity
  8
1
 62
     2
100
AcDbMText
 10
-186.5448048736406
 20
-235.4545407769838
 30
0.0
 40
1.8
 41
0.0
 71
     1
 72
     1
  1
document-No. / RI
  7
CONVERTER_13
 73
     1
 44
1.32052821128451
  0
TEXT
  5
24A
330
74
100
AcDbEntity
  8
1
 62
     7
100
AcDbText
 10
-186.5448048736406
 20
-241.6545407769839
 30
0.0
 40
2.5
  1
00882623
 41
0.81
  7
CONVERTER_12
100
AcDbText
  0
MTEXT
  5
24C
330
74
100
AcDbEntity
  8
1
 62
     3
100
AcDbMText
 10
-98.95920448772826
 20
-241.6545407769837
 30
0.0
 40
2.5
 41
0.0
 71
     8
 72
     1
  1
2:1
  7
CONVERTER_14
 73
     1
 44
1.32052821128451
  0
MTEXT
  5
24D
330
74
100
AcDbEntity
  8
1
 62
     2
100
AcDbMText
 10
-102.3184086285679
 20
-235.4545407769838
 30
0.0
 40
1.8
 41
0.0
 71
     1
 72
     1
  1
scale
  7
CONVERTER_11
 73
     1
 44
1.20048019207683
  0
MTEXT
  5
24E
330
74
100
AcDbEntity
  8
1
 62
     2
100
AcDbMText
 10
-186.5448048736406
 20
-243.9545407769838
 30
0.0
 40
1.8
 41
0.0
 71
     1
 72
     1
  1
ident.-No.
  7
CONVERTER_11
 73
     1
 44
1.20048019207683
  0
TEXT
  5
24F
330
74
100
AcDbEntity
  8
1
 62
     7
100
AcDbText
 10
-186.1448048736409
 20
-250.1545407769839
 30
0.0
 40
2.5
  1
0808024
 41
0.81
  7
CONVERTER_12
100
AcDbText
  0
MTEXT
  5
250
330
74
100
AcDbEntity
  8
1
 62
     2
100
AcDbMText
 10
-258.4828195986881
 20
-247.2045407769839
 30
0.0
 40
2.0
 41
0.0
 71
     5
 72
     1
  1
General Information\P- Simplified representation\P- Document excluded from change process\P- Linear dimensions [mm]
  7
CONVERTER_11
 73
     1
 44
1.20048019207683
  0
MTEXT
  5
251
330
74
100
AcDbEntity
  8
1
 62
     7
100
AcDbMText
 10
-92.00000034689157
 20
-184.9545407769819
 30
0.0
 40
3.5
 41
0.0
 71
     5
 72
     1
  1
C
  7
CONVERTER_11
 73
     1
 44
1.20048019207683
  0
MTEXT
  5
252
330
74
100
AcDbEntity
  8
1
 62
     7
100
AcDbMText
 10
-92.00000034689157
 20
-82.4545407769838
 30
0.0
 40
3.5
 41
0.0
 71
     5
 72
     1
  1
A
  7
CONVERTER_11
 73
     1
 44
1.20048019207683
  0
MTEXT
  5
253
330
74
100
AcDbEntity
  8
1
 62
     7
100
AcDbMText
 10
-92.00000034689157
 20
-134.9545407769819
 30
0.0
 40
3.5
 41
0.0
 71
     5
 72
     1
  1
B
  7
CONVERTER_11
 73
     1
 44
1.20048019207683
  0
MTEXT
  5
254
330
74
100
AcDbEntity
  8
1
 62
     7
100
AcDbMText
 10
-92.00000034689157
 20
-237.4545407769838
 30
0.0
 40
3.5
 41
0.0
 71
     5
 72
     1
  1
D
  7
CONVERTER_11
 73
     1
 44
1.20048019207683
  0
MTEXT
  5
255
330
74
100
AcDbEntity
  8
1
 62
     7
100
AcDbMText
 10
-362.2500003468902
 20
-262.4545407769839
 30
0.0
 40
3.5
 41
0.0
 71
     5
 72
     1
  1
1
  7
CONVERTER_11
 73
     1
 44
1.20048019207683
  0
MTEXT
  5
256
330
74
100
AcDbEntity
  8
1
 62
     7
100
AcDbMText
 10
-313.0000003468905
 20
-262.4545407769839
 30
0.0
 40
3.5
 41
0.0
 71
     5
 72
     1
  1
2
  7
CONVERTER_11
 73
     1
 44
1.20048019207683
  0
MTEXT
  5
257
330
74
100
AcDbEntity
  8
1
 62
     7
100
AcDbMText
 10
-263.0000003468905
 20
-262.4545407769839
 30
0.0
 40
3.5
 41
0.0
 71
     5
 72
     1
  1
3
  7
CONVERTER_11
 73
     1
 44
1.20048019207683
  0
MTEXT
  5
258
330
74
100
AcDbEntity
  8
1
 62
     7
100
AcDbMText
 10
-213.0000003468907
 20
-262.4545407769839
 30
0.0
 40
3.5
 41
0.0
 71
     5
 72
     1
  1
4
  7
CONVERTER_11
 73
     1
 44
1.20048019207683
  0
MTEXT
  5
259
330
74
100
AcDbEntity
  8
1
 62
     7
100
AcDbMText
 10
-163.0000003468906
 20
-262.4545407769839
 30
0.0
 40
3.5
 41
0.0
 71
     5
 72
     1
  1
5
  7
CONVERTER_11
 73
     1
 44
1.20048019207683
  0
MTEXT
  5
25A
330
74
100
AcDbEntity
  8
1
 62
     7
100
AcDbMText
 10
-113.7500003468914
 20
-262.4545407769839
 30
0.0
 40
3.5
 41
0.0
 71
     5
 72
     1
  1
6
  7
CONVERTER_11
 73
     1
 44
1.20048019207683
  0
MTEXT
  5
25B
330
74
100
AcDbEntity
  8
1
 62
     7
100
AcDbMText
 10
-384.0000003468896
 20
-82.4545407769838
 30
0.0
 40
3.5
 41
0.0
 71
     5
 72
     1
  1
A
  7
CONVERTER_11
 73
     1
 44
1.20048019207683
  0
MTEXT
  5
25C
330
74
100
AcDbEntity
  8
1
 62
     7
100
AcDbMText
 10
-384.0000003468896
 20
-134.9545407769838
 30
0.0
 40
3.5
 41
0.0
 71
     5
 72
     1
  1
B
  7
CONVERTER_11
 73
     1
 44
1.20048019207683
  0
MTEXT
  5
25D
330
74
100
AcDbEntity
  8
1
 62
     7
100
AcDbMText
 10
-384.0000003468896
 20
-184.9545407769838
 30
0.0
 40
3.5
 41
0.0
 71
     5
 72
     1
  1
C
  7
CONVERTER_11
 73
     1
 44
1.20048019207683
  0
MTEXT
  5
25E
330
74
100
AcDbEntity
  8
1
 62
     7
100
AcDbMText
 10
-384.0000003468896
 20
-237.4545407769838
 30
0.0
 40
3.5
 41
0.0
 71
     5
 72
     1
  1
D
  7
CONVERTER_11
 73
     1
 44
1.20048019207683
  0
MTEXT
  5
25F
330
74
100
AcDbEntity
  8
1
 62
     3
100
AcDbMText
 10
-197.8448048736407
 20
-238.8295407769838
 30
0.0
 40
2.5
 41
0.0
 71
     5
 72
     1
  1
DIN A4
  7
CONVERTER_11
 73
     1
 44
1.20048019207683
  0
MTEXT
  5
260
330
74
100
AcDbEntity
  8
1
 62
     2
100
AcDbMText
 10
-186.6448048736407
 20
-252.4545407769838
 30
0.0
 40
1.8
 41
0.0
 71
     1
 72
     1
  1
description
  7
CONVERTER_11
 73
     1
 44
1.20048019207683
  0
MTEXT
  5
261
330
74
100
AcDbEntity
  8
1
 62
     7
100
AcDbMText
 10
-141.0724026102651
 20
-256.7045407769836
 30
0.0
 40
3.0
 41
0.0
 71
     5
 72
     1
  1
PATG 5/23
  7
CONVERTER_12
 73
     1
 44
1.20048019207683
  0
TEXT
  5
262
330
74
100
AcDbEntity
  8
1
 62
     2
100
AcDbText
 10
-199.6094960638271
 20
-258.7045407769839
 30
0.0
 40
1.8
  1
1
 41
0.9
  7
CONVERTER_11
100
AcDbText
  0
TEXT
  5
263
330
74
100
AcDbEntity
  8
1
 62
     2
100
AcDbText
 10
-214.3985399032986
 20
-258.7537894307858
 30
0.0
 40
1.8
  1
1
 41
0.9
  7
CONVERTER_11
100
AcDbText
  0
TEXT
  5
264
330
74
100
AcDbEntity
  8
1
 62
     2
100
AcDbText
 10
-223.0448048736406
 20
-258.7135579919755
 30
0.0
 40
1.8
  1
page
 41
0.9
  7
CONVERTER_11
100
AcDbText
  0
TEXT
  5
265
330
74
100
AcDbEntity
  8
1
 62
     2
100
AcDbText
 10
-204.8448048736408
 20
-258.7135579919755
 30
0.0
 40
1.8
  1
of
 41
0.9
  7
CONVERTER_11
100
AcDbText
  0
MTEXT
  5
266
330
74
100
AcDbEntity
  8
1
 62
     3
100
AcDbMText
 10
-198.6418227220307
 20
-73.16323262168501
 30
0.0
 40
1.8
 41
0.0
 71
     7
 72
     1
  3
Transfer or duplication of this document as well as the utilisation or\Pcommunication of its content are not permitted unless express consen\Pis granted. Violations give rise to claims for damages. All rights reserved\Pin case of patent, utility mod
  1
el or design patent registrations.
  7
CONVERTER_11
 73
     1
 44
0.99639855942377
  0
MTEXT
  5
267
330
74
100
AcDbEntity
  8
1
 62
     3
100
AcDbMText
 10
-381.4949325608188
 20
-73.16323262168501
 30
0.0
 40
1.8
 41
0.0
 71
     7
 72
     1
  3
Weitergabe sowie Vervielf\U+00e4ltigung dieses Dokuments, Verwertung und \PMitteilung seines Inhalts sind verboten, soweit nicht ausdr\U+00fccklich gestattet. \PZuwiderhandlungen verpflichten zu Schadenersatz. Alle Rechte f\U+00fcr den Fall\Pder Pat
  1
ent-, Gebrauchsmuster- oder Designeintragung vorbehalten.
  7
CONVERTER_11
 73
     1
 44
0.99639855942377
  0
HATCH
  5
268
330
74
100
AcDbEntity
  8
1
  6
Continuous
 62
     2
100
AcDbHatch
 10
0.0
 20
0.0
 30
0.0
210
0.0
220
0.0
230
1.0
  2
_USER
 70
     0
 71
     1
 91
        1
 92
        1
 93
       14
 72
     2
 10
-211.8035755977179
 20
-251.1341360150622
 40
1.205656168390971
 50
164.9381082228768
 51
195.0618917770945
 73
     1
 72
     2
 10
-211.3844477542551
 20
-251.0213456530274
 40
1.639695123939415
 50
195.0618917770893
 51
275.1581447696395
 73
     1
 72
     2
 10
-211.673303848991
 20
-247.8214550698058
 40
4.852596863498138
 50
275.1581447696249
 51
285.979991258353
 73
     1
 72
     1
 10
-210.3373759318732
 20
-252.4865373756066
 11
-210.3373759318732
 21
-251.6140203688034
 72
     2
 10
-211.5154309738981
 20
-249.7236696496535
 40
2.227384008972773
 50
58.06909105004051
 51
71.55192388186677
 73
     0
 72
     2
 10
-211.0972632402373
 20
-250.9772154256907
 40
0.9059297849849192
 50
71.55192388183985
 51
113.372277888129
 73
     0
 72
     2
 10
-211.2537032729393
 20
-251.3392074444007
 40
0.5115800601948034
 50
113.3722778881755
 51
151.4785267423044
 73
     0
 72
     2
 10
-210.876346014859
 20
-251.1341360150622
 40
0.9410597353332545
 50
151.4785267422943
 51
208.5214732577331
 73
     0
 72
     2
 10
-211.2537032729393
 20
-250.9290645857232
 40
0.5115800601948891
 50
208.5214732576956
 51
246.627722111798
 73
     0
 72
     2
 10
-211.0972632402373
 20
-251.2910566044338
 40
0.9059297849853588
 50
246.627722111871
 51
288.4480761181476
 73
     0
 72
     2
 10
-211.5154309738981
 20
-252.5446023804704
 40
2.227384008973492
 50
288.4480761181333
 51
301.9309089499599
 73
     0
 72
     1
 10
-210.3373759318732
 20
-250.6542516613205
 11
-210.3373759318732
 21
-249.7817346545172
 72
     2
 10
-211.673303848991
 20
-254.4468169603181
 40
4.852596863498068
 50
74.02000874164739
 51
84.84185523037506
 73
     1
 72
     2
 10
-211.3844477542551
 20
-251.2469263770971
 40
1.639695123940507
 50
84.84185523036236
 51
164.9381082228867
 73
     1
 97
       14
330
23D
330
156
330
20C
330
23C
330
20D
330
20E
330
23B
330
23A
330
239
330
157
330
20F
330
210
330
211
330
212
 75
     1
 76
     0
 52
45.0
 41
0.1
 77
     0
 78
     1
 53
45.0
 43
0.0
 44
0.0
 45
-0.0707106781186548
 46
0.0707106781186548
 79
     0
 98
        1
 10
0.0
 20
0.0
  0
HATCH
  5
269
330
74
100
AcDbEntity
  8
1
  6
Continuous
 62
     2
100
AcDbHatch
 10
0.0
 20
0.0
 30
0.0
210
0.0
220
0.0
230
1.0
  2
_USER
 70
     0
 71
     1
 91
        1
 92
        1
 93
       14
 72
     2
 10
-211.8035755977179
 20
-251.1341360150622
 40
1.205656168390971
 50
164.9381082228768
 51
195.0618917770945
 73
     1
 72
     2
 10
-211.3844477542551
 20
-251.0213456530274
 40
1.639695123939415
 50
195.0618917770893
 51
275.1581447696395
 73
     1
 72
     2
 10
-211.673303848991
 20
-247.8214550698058
 40
4.852596863498138
 50
275.1581447696249
 51
285.979991258353
 73
     1
 72
     1
 10
-210.3373759318732
 20
-252.4865373756066
 11
-210.3373759318732
 21
-251.6140203688034
 72
     2
 10
-211.5154309738981
 20
-249.7236696496535
 40
2.227384008972773
 50
58.06909105004051
 51
71.55192388186677
 73
     0
 72
     2
 10
-211.0972632402373
 20
-250.9772154256907
 40
0.9059297849849192
 50
71.55192388183985
 51
113.372277888129
 73
     0
 72
     2
 10
-211.2537032729393
 20
-251.3392074444007
 40
0.5115800601948034
 50
113.3722778881755
 51
151.4785267423044
 73
     0
 72
     2
 10
-210.876346014859
 20
-251.1341360150622
 40
0.9410597353332545
 50
151.4785267422943
 51
208.5214732577331
 73
     0
 72
     2
 10
-211.2537032729393
 20
-250.9290645857232
 40
0.5115800601948891
 50
208.5214732576956
 51
246.627722111798
 73
     0
 72
     2
 10
-211.0972632402373
 20
-251.2910566044338
 40
0.9059297849853588
 50
246.627722111871
 51
288.4480761181476
 73
     0
 72
     2
 10
-211.5154309738981
 20
-252.5446023804704
 40
2.227384008973492
 50
288.4480761181333
 51
301.9309089499599
 73
     0
 72
     1
 10
-210.3373759318732
 20
-250.6542516613205
 11
-210.3373759318732
 21
-249.7817346545172
 72
     2
 10
-211.673303848991
 20
-254.4468169603181
 40
4.852596863498068
 50
74.02000874164739
 51
84.84185523037506
 73
     1
 72
     2
 10
-211.3844477542551
 20
-251.2469263770971
 40
1.639695123940507
 50
84.84185523036236
 51
164.9381082228867
 73
     1
 97
       14
330
23D
330
156
330
20C
330
23C
330
20D
330
20E
330
23B
330
23A
330
239
330
157
330
20F
330
210
330
211
330
212
 75
     1
 76
     0
 52
45.0
 41
0.1
 77
     0
 78
     1
 53
45.0
 43
0.0
 44
0.0
 45
-0.0707106781186548
 46
0.0707106781186548
 79
     0
 98
        1
 10
0.0
 20
0.0
  0
HATCH
  5
26A
330
74
100
AcDbEntity
  8
1
  6
Continuous
 62
     2
100
AcDbHatch
 10
0.0
 20
0.0
 30
0.0
210
0.0
220
0.0
230
1.0
  2
_USER
 70
     0
 71
     1
 91
        1
 92
        1
 93
       18
 72
     2
 10
-195.2817462750022
 20
-251.2469263770971
 40
1.639695123940214
 50
90.0
 51
164.9381082228947
 73
     1
 72
     2
 10
-195.7008741184638
 20
-251.1341360150622
 40
1.205656168393002
 50
164.9381082229028
 51
195.0618917770959
 73
     1
 72
     2
 10
-195.2817462750022
 20
-251.0213456530274
 40
1.639695123940421
 50
195.0618917771015
 51
275.1581447696762
 73
     1
 72
     2
 10
-195.570602369738
 20
-247.8214550698058
 40
4.852596863498822
 50
275.158144769636
 51
285.9799912583383
 73
     1
 72
     1
 10
-194.2346744526213
 20
-252.4865373756072
 11
-194.2346744526213
 21
-251.6140203688039
 72
     2
 10
-195.4127294946452
 20
-249.7236696496541
 40
2.227384008972746
 50
58.0690910500609
 51
71.55192388186651
 73
     0
 72
     2
 10
-194.9945617609833
 20
-250.9772154256907
 40
0.9059297849852801
 50
71.55192388191827
 51
113.3722778881817
 73
     0
 72
     2
 10
-195.1510017936864
 20
-251.3392074444007
 40
0.5115800601960215
 50
113.3722778881551
 51
151.4785267423134
 73
     0
 72
     2
 10
-194.773644535605
 20
-251.1341360150622
 40
0.9410597353348924
 50
151.4785267423305
 51
208.5214732576376
 73
     0
 72
     2
 10
-195.1510017936864
 20
-250.9290645857232
 40
0.5115800601944411
 50
208.5214732575775
 51
250.6628567805158
 73
     0
 72
     2
 10
-195.0043317955827
 20
-251.3470195661061
 40
0.9545230068260935
 50
250.6628567805685
 51
270.0
 73
     0
 72
     1
 10
-195.0043317955827
 20
-250.39249655928
 11
-193.9006924960146
 21
-250.39249655928
 72
     1
 10
-193.9006924960146
 20
-250.39249655928
 11
-193.9006924960146
 21
-252.6610407769675
 72
     1
 10
-193.9006924960146
 20
-252.6610407769675
 11
-192.7078997938469
 21
-252.6610407769675
 72
     1
 10
-192.7078997938469
 20
-252.6610407769675
 11
-192.7078997938469
 21
-250.39249655928
 72
     1
 10
-192.7078997938469
 20
-250.39249655928
 11
-191.8968007563735
 21
-250.39249655928
 72
     1
 10
-191.8968007563735
 20
-250.39249655928
 11
-191.8968007563735
 21
-249.6072312531564
 72
     1
 10
-191.8968007563735
 20
-249.6072312531564
 11
-195.2817462750022
 21
-249.6072312531569
 97
       18
330
1BC
330
1BB
330
1BA
330
1B9
330
1BE
330
158
330
236
330
217
330
235
330
218
330
234
330
233
330
159
330
232
330
231
330
219
330
21A
330
1BD
 75
     1
 76
     0
 52
45.0
 41
0.1
 77
     0
 78
     1
 53
45.0
 43
0.0
 44
0.0
 45
-0.0707106781186548
 46
0.0707106781186548
 79
     0
 98
        1
 10
0.0
 20
0.0
  0
HATCH
  5
26B
330
74
100
AcDbEntity
  8
1
  6
Continuous
 62
     2
100
AcDbHatch
 10
0.0
 20
0.0
 30
0.0
210
0.0
220
0.0
230
1.0
  2
_USER
 70
     0
 71
     1
 91
        1
 92
        1
 93
       18
 72
     2
 10
-195.2817462750022
 20
-251.2469263770971
 40
1.639695123940214
 50
90.0
 51
164.9381082228947
 73
     1
 72
     2
 10
-195.7008741184638
 20
-251.1341360150622
 40
1.205656168393002
 50
164.9381082229028
 51
195.0618917770959
 73
     1
 72
     2
 10
-195.2817462750022
 20
-251.0213456530274
 40
1.639695123940421
 50
195.0618917771015
 51
275.1581447696762
 73
     1
 72
     2
 10
-195.570602369738
 20
-247.8214550698058
 40
4.852596863498822
 50
275.158144769636
 51
285.9799912583383
 73
     1
 72
     1
 10
-194.2346744526213
 20
-252.4865373756072
 11
-194.2346744526213
 21
-251.6140203688039
 72
     2
 10
-195.4127294946452
 20
-249.7236696496541
 40
2.227384008972746
 50
58.0690910500609
 51
71.55192388186651
 73
     0
 72
     2
 10
-194.9945617609833
 20
-250.9772154256907
 40
0.9059297849852801
 50
71.55192388191827
 51
113.3722778881817
 73
     0
 72
     2
 10
-195.1510017936864
 20
-251.3392074444007
 40
0.5115800601960215
 50
113.3722778881551
 51
151.4785267423134
 73
     0
 72
     2
 10
-194.773644535605
 20
-251.1341360150622
 40
0.9410597353348924
 50
151.4785267423305
 51
208.5214732576376
 73
     0
 72
     2
 10
-195.1510017936864
 20
-250.9290645857232
 40
0.5115800601944411
 50
208.5214732575775
 51
250.6628567805158
 73
     0
 72
     2
 10
-195.0043317955827
 20
-251.3470195661061
 40
0.9545230068260935
 50
250.6628567805685
 51
270.0
 73
     0
 72
     1
 10
-195.0043317955827
 20
-250.39249655928
 11
-193.9006924960146
 21
-250.39249655928
 72
     1
 10
-193.9006924960146
 20
-250.39249655928
 11
-193.9006924960146
 21
-252.6610407769675
 72
     1
 10
-193.9006924960146
 20
-252.6610407769675
 11
-192.7078997938469
 21
-252.6610407769675
 72
     1
 10
-192.7078997938469
 20
-252.6610407769675
 11
-192.7078997938469
 21
-250.39249655928
 72
     1
 10
-192.7078997938469
 20
-250.39249655928
 11
-191.8968007563735
 21
-250.39249655928
 72
     1
 10
-191.8968007563735
 20
-250.39249655928
 11
-191.8968007563735
 21
-249.6072312531564
 72
     1
 10
-191.8968007563735
 20
-249.6072312531564
 11
-195.2817462750022
 21
-249.6072312531569
 97
       18
330
1BC
330
1BB
330
1BA
330
1B9
330
1BE
330
158
330
236
330
217
330
235
330
218
330
234
330
233
330
159
330
232
330
231
330
219
330
21A
330
1BD
 75
     1
 76
     0
 52
45.0
 41
0.1
 77
     0
 78
     1
 53
45.0
 43
0.0
 44
0.0
 45
-0.0707106781186548
 46
0.0707106781186548
 79
     0
 98
        1
 10
0.0
 20
0.0
  0
HATCH
  5
26C
330
74
100
AcDbEntity
  8
1
  6
Continuous
 62
     2
100
AcDbHatch
 10
0.0
 20
0.0
 30
0.0
210
0.0
220
0.0
230
1.0
  2
_USER
 70
     0
 71
     1
 91
        4
 92
        1
 93
        8
 72
     2
 10
-219.3839053716952
 20
-246.672285392384
 40
0.4242446153837989
 50
90.0
 51
180.0
 73
     1
 72
     1
 10
-219.808149987078
 20
-246.672285392384
 11
-219.808149987078
 21
-252.2367961615842
 72
     2
 10
-219.3839053716952
 20
-252.2367961615842
 40
0.4242446153828041
 50
180.0
 51
270.0
 73
     1
 72
     1
 10
-219.3839053716952
 20
-252.6610407769675
 11
-213.9105932809784
 21
-252.6610407769675
 72
     2
 10
-213.9105932809784
 20
-252.2367961615842
 40
0.4242446153832873
 50
270.0
 51
360.0
 73
     1
 72
     1
 10
-213.4863486655945
 20
-252.2367961615842
 11
-213.4863486655945
 21
-246.672285392384
 72
     2
 10
-213.9105932809784
 20
-246.672285392384
 40
0.4242446153838841
 50
0.0
 51
90.0
 73
     1
 72
     1
 10
-213.9105932809784
 20
-246.2480407770002
 11
-219.3839053716952
 21
-246.2480407770002
 97
        8
330
22A
330
187
330
229
330
188
330
220
330
185
330
22B
330
186
 92
       16
 93
        1
 72
     2
 10
-216.7643197211777
 20
-248.9911676207395
 40
0.4709789327785074
 50
0.0
 51
360.0
 73
     1
 97
        1
330
23E
 92
       16
 93
        8
 72
     2
 10
-216.7405047065049
 20
-248.9911676207395
 40
0.9118481501444712
 50
295.3740086781781
 51
424.6259913218058
 73
     1
 72
     2
 10
-216.214462008417
 20
-247.8820260207717
 40
0.315716923076792
 50
115.3740086783518
 51
180.0
 73
     0
 72
     1
 10
-216.5301789314938
 20
-247.8820260207717
 11
-216.5301789314938
 21
-247.2764907322649
 72
     2
 10
-216.214462008417
 20
-247.2764907322649
 40
0.3157169230760711
 50
180.0
 51
269.8110329574541
 73
     0
 72
     2
 10
-216.208845873107
 20
-248.979325679834
 40
2.018561131933237
 50
269.8110329575866
 51
450.1889670424133
 73
     0
 72
     2
 10
-216.214462008417
 20
-250.682160627403
 40
0.315716923076792
 50
90.1889670425459
 51
180.0
 73
     0
 72
     1
 10
-216.5301789314938
 20
-250.682160627403
 11
-216.5301789314938
 21
-250.1003092207079
 72
     2
 10
-216.214462008417
 20
-250.1003092207079
 40
0.3157169230765328
 50
180.0
 51
244.6259913216482
 73
     0
 97
        8
330
238
330
214
330
1C0
330
237
330
215
330
216
330
1BF
330
213
 92
       16
 93
       12
 72
     1
 10
-218.7900106949487
 20
-251.9484852214106
 11
-217.3141774339391
 21
-251.9484852214106
 72
     2
 10
-217.3141774339391
 20
-251.6327682983339
 40
0.3157169230767067
 50
270.0
 51
360.0
 73
     1
 72
     1
 10
-216.9984605108625
 20
-251.6327682983339
 11
-216.9984605108625
 21
-250.1019973668023
 72
     2
 10
-217.3141774339391
 20
-250.1019973668023
 40
0.3157169230766215
 50
0.0
 51
64.80558935146249
 73
     1
 72
     2
 10
-216.7915929863641
 20
-248.9911676207395
 40
0.9118975235576268
 50
115.1944106485146
 51
244.8055893514702
 73
     0
 72
     2
 10
-217.3141774339391
 20
-247.8803378746773
 40
0.3157169230761203
 50
295.1944106485397
 51
360.0
 73
     1
 72
     1
 10
-216.9984605108625
 20
-247.8803378746773
 11
-216.9984605108625
 21
-247.2763132556168
 72
     2
 10
-217.3141774339391
 20
-247.2763132556168
 40
0.3157169230766215
 50
0.0
 51
90.0
 73
     1
 72
     1
 10
-217.3141774339391
 20
-246.9605963325406
 11
-218.7900106949487
 21
-246.9605963325406
 72
     2
 10
-218.7900106949487
 20
-247.2763132556168
 40
0.3157169230761951
 50
90.0
 51
180.0
 73
     1
 72
     1
 10
-219.1057276180244
 20
-247.2763132556168
 11
-219.1057276180244
 21
-251.6327682983339
 72
     2
 10
-218.7900106949487
 20
-251.6327682983339
 40
0.3157169230756836
 50
180.0
 51
270.0
 73
     1
 97
       12
330
18C
330
21D
330
18B
330
22E
330
18A
330
22D
330
21E
330
21F
330
189
330
22C
330
184
330
22F
 75
     1
 76
     0
 52
45.0
 41
0.1
 77
     0
 78
     1
 53
45.0
 43
0.0
 44
0.0
 45
-0.0707106781186548
 46
0.0707106781186548
 79
     0
 98
        1
 10
0.0
 20
0.0
  0
HATCH
  5
26D
330
74
100
AcDbEntity
  8
1
  6
Continuous
 62
     2
100
AcDbHatch
 10
0.0
 20
0.0
 30
0.0
210
0.0
220
0.0
230
1.0
  2
_USER
 70
     0
 71
     1
 91
        4
 92
        1
 93
        8
 72
     2
 10
-219.3839053716952
 20
-246.672285392384
 40
0.4242446153837989
 50
90.0
 51
180.0
 73
     1
 72
     1
 10
-219.808149987078
 20
-246.672285392384
 11
-219.808149987078
 21
-252.2367961615842
 72
     2
 10
-219.3839053716952
 20
-252.2367961615842
 40
0.4242446153828041
 50
180.0
 51
270.0
 73
     1
 72
     1
 10
-219.3839053716952
 20
-252.6610407769675
 11
-213.9105932809784
 21
-252.6610407769675
 72
     2
 10
-213.9105932809784
 20
-252.2367961615842
 40
0.4242446153832873
 50
270.0
 51
360.0
 73
     1
 72
     1
 10
-213.4863486655945
 20
-252.2367961615842
 11
-213.4863486655945
 21
-246.672285392384
 72
     2
 10
-213.9105932809784
 20
-246.672285392384
 40
0.4242446153838841
 50
0.0
 51
90.0
 73
     1
 72
     1
 10
-213.9105932809784
 20
-246.2480407770002
 11
-219.3839053716952
 21
-246.2480407770002
 97
        8
330
22A
330
187
330
229
330
188
330
220
330
185
330
22B
330
186
 92
       16
 93
        1
 72
     2
 10
-216.7643197211777
 20
-248.9911676207395
 40
0.4709789327785074
 50
0.0
 51
360.0
 73
     1
 97
        1
330
23E
 92
       16
 93
        8
 72
     2
 10
-216.7405047065049
 20
-248.9911676207395
 40
0.9118481501444712
 50
295.3740086781781
 51
424.6259913218058
 73
     1
 72
     2
 10
-216.214462008417
 20
-247.8820260207717
 40
0.315716923076792
 50
115.3740086783518
 51
180.0
 73
     0
 72
     1
 10
-216.5301789314938
 20
-247.8820260207717
 11
-216.5301789314938
 21
-247.2764907322649
 72
     2
 10
-216.214462008417
 20
-247.2764907322649
 40
0.3157169230760711
 50
180.0
 51
269.8110329574541
 73
     0
 72
     2
 10
-216.208845873107
 20
-248.979325679834
 40
2.018561131933237
 50
269.8110329575866
 51
450.1889670424133
 73
     0
 72
     2
 10
-216.214462008417
 20
-250.682160627403
 40
0.315716923076792
 50
90.1889670425459
 51
180.0
 73
     0
 72
     1
 10
-216.5301789314938
 20
-250.682160627403
 11
-216.5301789314938
 21
-250.1003092207079
 72
     2
 10
-216.214462008417
 20
-250.1003092207079
 40
0.3157169230765328
 50
180.0
 51
244.6259913216482
 73
     0
 97
        8
330
238
330
214
330
1C0
330
237
330
215
330
216
330
1BF
330
213
 92
       16
 93
       12
 72
     1
 10
-218.7900106949487
 20
-251.9484852214106
 11
-217.3141774339391
 21
-251.9484852214106
 72
     2
 10
-217.3141774339391
 20
-251.6327682983339
 40
0.3157169230767067
 50
270.0
 51
360.0
 73
     1
 72
     1
 10
-216.9984605108625
 20
-251.6327682983339
 11
-216.9984605108625
 21
-250.1019973668023
 72
     2
 10
-217.3141774339391
 20
-250.1019973668023
 40
0.3157169230766215
 50
0.0
 51
64.80558935146249
 73
     1
 72
     2
 10
-216.7915929863641
 20
-248.9911676207395
 40
0.9118975235576268
 50
115.1944106485146
 51
244.8055893514702
 73
     0
 72
     2
 10
-217.3141774339391
 20
-247.8803378746773
 40
0.3157169230761203
 50
295.1944106485397
 51
360.0
 73
     1
 72
     1
 10
-216.9984605108625
 20
-247.8803378746773
 11
-216.9984605108625
 21
-247.2763132556168
 72
     2
 10
-217.3141774339391
 20
-247.2763132556168
 40
0.3157169230766215
 50
0.0
 51
90.0
 73
     1
 72
     1
 10
-217.3141774339391
 20
-246.9605963325406
 11
-218.7900106949487
 21
-246.9605963325406
 72
     2
 10
-218.7900106949487
 20
-247.2763132556168
 40
0.3157169230761951
 50
90.0
 51
180.0
 73
     1
 72
     1
 10
-219.1057276180244
 20
-247.2763132556168
 11
-219.1057276180244
 21
-251.6327682983339
 72
     2
 10
-218.7900106949487
 20
-251.6327682983339
 40
0.3157169230756836
 50
180.0
 51
270.0
 73
     1
 97
       12
330
18C
330
21D
330
18B
330
22E
330
18A
330
22D
330
21E
330
21F
330
189
330
22C
330
184
330
22F
 75
     1
 76
     0
 52
45.0
 41
0.1
 77
     0
 78
     1
 53
45.0
 43
0.0
 44
0.0
 45
-0.0707106781186548
 46
0.0707106781186548
 79
     0
 98
        1
 10
0.0
 20
0.0
  0
HATCH
  5
26E
330
74
100
AcDbEntity
  8
1
  6
Continuous
 62
     2
100
AcDbHatch
 10
0.0
 20
0.0
 30
0.0
210
0.0
220
0.0
230
1.0
  2
_USER
 70
     0
 71
     1
 91
        2
 92
        1
 93
       12
 72
     2
 10
-204.7087413677059
 20
-247.7749455388879
 40
1.526904761905882
 50
90.0
 51
270.0
 73
     1
 72
     1
 10
-204.7087413677059
 20
-249.3018503007932
 11
-201.5584216439249
 21
-249.3018503007932
 72
     1
 10
-201.5584216439249
 20
-249.3018503007932
 11
-201.5584216439249
 21
-248.6038366953507
 72
     1
 10
-201.5584216439249
 20
-248.6038366953507
 11
-202.8943494703526
 21
-248.6038366953507
 72
     1
 10
-202.8943494703526
 20
-248.6038366953507
 11
-202.8943494703526
 21
-248.123952341609
 72
     1
 10
-202.8943494703526
 20
-248.123952341609
 11
-201.5584216439249
 21
-248.123952341609
 72
     1
 10
-201.5584216439249
 20
-248.123952341609
 11
-201.5584216439249
 21
-247.4259387361667
 72
     1
 10
-201.5584216439249
 20
-247.4259387361667
 11
-202.8943494703526
 21
-247.4259387361667
 72
     1
 10
-202.8943494703526
 20
-247.4259387361667
 11
-202.8943494703526
 21
-246.946054382425
 72
     1
 10
-202.8943494703526
 20
-246.946054382425
 11
-201.5584216439249
 21
-246.946054382425
 72
     1
 10
-201.5584216439249
 20
-246.946054382425
 11
-201.5584216439249
 21
-246.248040776982
 72
     1
 10
-201.5584216439249
 20
-246.248040776982
 11
-204.7087413677059
 21
-246.248040776982
 97
       12
330
17B
330
175
330
19C
330
19B
330
19A
330
199
330
176
330
177
330
178
330
179
330
21B
330
17A
 92
       16
 93
        4
 72
     2
 10
-204.2927293211944
 20
-247.7749455388879
 40
0.7717997786796724
 50
141.8795802028404
 51
218.1204197971562
 73
     1
 72
     2
 10
-204.4924693575407
 20
-247.9316767170083
 40
0.5179085730134546
 50
218.1204197971536
 51
321.8795802028542
 73
     1
 72
     2
 10
-204.6922093938869
 20
-247.7749455388879
 40
0.7717997786796597
 50
321.879580202845
 51
398.1204197971583
 73
     1
 72
     2
 10
-204.4924693575407
 20
-247.6182143607674
 40
0.5179085730135266
 50
38.12041979714334
 51
141.8795802028489
 73
     1
 97
        4
330
228
330
227
330
222
330
221
 75
     1
 76
     0
 52
45.0
 41
0.1
 77
     0
 78
     1
 53
45.0
 43
0.0
 44
0.0
 45
-0.0707106781186548
 46
0.0707106781186548
 79
     0
 98
        1
 10
0.0
 20
0.0
  0
HATCH
  5
26F
330
74
100
AcDbEntity
  8
1
  6
Continuous
 62
     2
100
AcDbHatch
 10
0.0
 20
0.0
 30
0.0
210
0.0
220
0.0
230
1.0
  2
_USER
 70
     0
 71
     1
 91
        2
 92
        1
 93
       12
 72
     2
 10
-204.7087413677059
 20
-247.7749455388879
 40
1.526904761905882
 50
90.0
 51
270.0
 73
     1
 72
     1
 10
-204.7087413677059
 20
-249.3018503007932
 11
-201.5584216439249
 21
-249.3018503007932
 72
     1
 10
-201.5584216439249
 20
-249.3018503007932
 11
-201.5584216439249
 21
-248.6038366953507
 72
     1
 10
-201.5584216439249
 20
-248.6038366953507
 11
-202.8943494703526
 21
-248.6038366953507
 72
     1
 10
-202.8943494703526
 20
-248.6038366953507
 11
-202.8943494703526
 21
-248.123952341609
 72
     1
 10
-202.8943494703526
 20
-248.123952341609
 11
-201.5584216439249
 21
-248.123952341609
 72
     1
 10
-201.5584216439249
 20
-248.123952341609
 11
-201.5584216439249
 21
-247.4259387361667
 72
     1
 10
-201.5584216439249
 20
-247.4259387361667
 11
-202.8943494703526
 21
-247.4259387361667
 72
     1
 10
-202.8943494703526
 20
-247.4259387361667
 11
-202.8943494703526
 21
-246.946054382425
 72
     1
 10
-202.8943494703526
 20
-246.946054382425
 11
-201.5584216439249
 21
-246.946054382425
 72
     1
 10
-201.5584216439249
 20
-246.946054382425
 11
-201.5584216439249
 21
-246.248040776982
 72
     1
 10
-201.5584216439249
 20
-246.248040776982
 11
-204.7087413677059
 21
-246.248040776982
 97
       12
330
17B
330
175
330
19C
330
19B
330
19A
330
199
330
176
330
177
330
178
330
179
330
21B
330
17A
 92
       16
 93
        4
 72
     2
 10
-204.2927293211944
 20
-247.7749455388879
 40
0.7717997786796724
 50
141.8795802028404
 51
218.1204197971562
 73
     1
 72
     2
 10
-204.4924693575407
 20
-247.9316767170083
 40
0.5179085730134546
 50
218.1204197971536
 51
321.8795802028542
 73
     1
 72
     2
 10
-204.6922093938869
 20
-247.7749455388879
 40
0.7717997786796597
 50
321.879580202845
 51
398.1204197971583
 73
     1
 72
     2
 10
-204.4924693575407
 20
-247.6182143607674
 40
0.5179085730135266
 50
38.12041979714334
 51
141.8795802028489
 73
     1
 97
        4
330
228
330
227
330
222
330
221
 75
     1
 76
     0
 52
45.0
 41
0.1
 77
     0
 78
     1
 53
45.0
 43
0.0
 44
0.0
 45
-0.0707106781186548
 46
0.0707106781186548
 79
     0
 98
        1
 10
0.0
 20
0.0
  0
HATCH
  5
270
330
74
100
AcDbEntity
  8
1
  6
Continuous
 62
     2
100
AcDbHatch
 10
0.0
 20
0.0
 30
0.0
210
0.0
220
0.0
230
1.0
  2
_USER
 70
     0
 71
     1
 91
        2
 92
        1
 93
        4
 72
     2
 10
-208.7343567301675
 20
-251.1341360150622
 40
1.458034083651503
 50
117.5481481756634
 51
242.4518518243366
 73
     1
 72
     2
 10
-208.4534168383342
 20
-250.5955610047589
 40
2.065479772208522
 50
242.4518518243395
 51
297.5481481756871
 73
     1
 72
     2
 10
-208.1724769465009
 20
-251.1341360150622
 40
1.458034083652003
 50
297.548148175701
 51
422.451851824299
 73
     1
 72
     2
 10
-208.4534168383342
 20
-251.672711025365
 40
2.065479772208568
 50
62.45185182430637
 51
117.5481481756671
 73
     1
 97
        4
330
226
330
223
330
225
330
224
 92
       16
 93
        4
 72
     2
 10
-208.4534168383342
 20
-250.9774048369417
 40
0.517908573013295
 50
38.12041979715146
 51
141.8795802028583
 73
     1
 72
     2
 10
-208.2536768019881
 20
-251.1341360150622
 40
0.7717997786795031
 50
141.879580202836
 51
218.1204197971674
 73
     1
 72
     2
 10
-208.4534168383342
 20
-251.2908671931822
 40
0.5179085730137577
 50
218.1204197971912
 51
321.879580202799
 73
     1
 72
     2
 10
-208.6531568746806
 20
-251.1341360150622
 40
0.7717997786796724
 50
321.8795802028404
 51
398.1204197971563
 73
     1
 97
        4
330
209
330
20A
330
20B
330
208
 75
     1
 76
     0
 52
45.0
 41
0.1
 77
     0
 78
     1
 53
45.0
 43
0.0
 44
0.0
 45
-0.0707106781186548
 46
0.0707106781186548
 79
     0
 98
        1
 10
0.0
 20
0.0
  0
HATCH
  5
271
330
74
100
AcDbEntity
  8
1
  6
Continuous
 62
     2
100
AcDbHatch
 10
0.0
 20
0.0
 30
0.0
210
0.0
220
0.0
230
1.0
  2
_USER
 70
     0
 71
     1
 91
        2
 92
        1
 93
        4
 72
     2
 10
-208.7343567301675
 20
-251.1341360150622
 40
1.458034083651503
 50
117.5481481756634
 51
242.4518518243366
 73
     1
 72
     2
 10
-208.4534168383342
 20
-250.5955610047589
 40
2.065479772208522
 50
242.4518518243395
 51
297.5481481756871
 73
     1
 72
     2
 10
-208.1724769465009
 20
-251.1341360150622
 40
1.458034083652003
 50
297.548148175701
 51
422.451851824299
 73
     1
 72
     2
 10
-208.4534168383342
 20
-251.672711025365
 40
2.065479772208568
 50
62.45185182430637
 51
117.5481481756671
 73
     1
 97
        4
330
226
330
223
330
225
330
224
 92
       16
 93
        4
 72
     2
 10
-208.4534168383342
 20
-250.9774048369417
 40
0.517908573013295
 50
38.12041979715146
 51
141.8795802028583
 73
     1
 72
     2
 10
-208.2536768019881
 20
-251.1341360150622
 40
0.7717997786795031
 50
141.879580202836
 51
218.1204197971674
 73
     1
 72
     2
 10
-208.4534168383342
 20
-251.2908671931822
 40
0.5179085730137577
 50
218.1204197971912
 51
321.879580202799
 73
     1
 72
     2
 10
-208.6531568746806
 20
-251.1341360150622
 40
0.7717997786796724
 50
321.8795802028404
 51
398.1204197971563
 73
     1
 97
        4
330
209
330
20A
330
20B
330
208
 75
     1
 76
     0
 52
45.0
 41
0.1
 77
     0
 78
     1
 53
45.0
 43
0.0
 44
0.0
 45
-0.0707106781186548
 46
0.0707106781186548
 79
     0
 98
        1
 10
0.0
 20
0.0
  0
HATCH
  5
272
330
74
100
AcDbEntity
  8
1
  6
Continuous
 62
     2
100
AcDbHatch
 10
0.0
 20
0.0
 30
0.0
210
0.0
220
0.0
230
1.0
  2
_USER
 70
     0
 71
     1
 91
        2
 92
        1
 93
        6
 72
     1
 10
-213.0092315847277
 20
-246.248040776982
 11
-213.0092315847277
 21
-249.3018503007932
 72
     1
 10
-213.0092315847277
 20
-249.3018503007932
 11
-211.7687271744736
 21
-249.3018503007932
 72
     1
 10
-211.7687271744736
 20
-249.3018503007932
 11
-211.7687271744736
 21
-248.3587720596494
 72
     1
 10
-211.7687271744736
 20
-248.3587720596494
 11
-211.0099595866933
 21
-248.3587720596494
 72
     2
 10
-211.0099595866933
 20
-247.3034064183157
 40
1.055365641333708
 50
270.0
 51
450.0
 73
     1
 72
     1
 10
-211.0099595866933
 20
-246.248040776982
 11
-213.0092315847277
 21
-246.248040776982
 97
        6
330
230
330
18D
330
183
330
182
330
18F
330
18E
 92
       16
 93
        4
 72
     1
 10
-211.4514321129317
 20
-246.9111466224221
 11
-211.7687271744736
 21
-246.9111466224221
 72
     1
 10
-211.7687271744736
 20
-246.9111466224221
 11
-211.7687271744736
 21
-247.6168742717643
 72
     1
 10
-211.7687271744736
 20
-247.6168742717643
 11
-211.4514321129317
 21
-247.6168742717643
 72
     2
 10
-211.4514321129317
 20
-247.2640104470932
 40
0.3528638246710898
 50
270.0
 51
450.0
 73
     1
 97
        4
330
190
330
181
330
191
330
21C
 75
     1
 76
     0
 52
45.0
 41
0.1
 77
     0
 78
     1
 53
45.0
 43
0.0
 44
0.0
 45
-0.0707106781186548
 46
0.0707106781186548
 79
     0
 98
        1
 10
0.0
 20
0.0
  0
HATCH
  5
273
330
74
100
AcDbEntity
  8
1
  6
Continuous
 62
     2
100
AcDbHatch
 10
0.0
 20
0.0
 30
0.0
210
0.0
220
0.0
230
1.0
  2
_USER
 70
     0
 71
     1
 91
        2
 92
        1
 93
        6
 72
     1
 10
-213.0092315847277
 20
-246.248040776982
 11
-213.0092315847277
 21
-249.3018503007932
 72
     1
 10
-213.0092315847277
 20
-249.3018503007932
 11
-211.7687271744736
 21
-249.3018503007932
 72
     1
 10
-211.7687271744736
 20
-249.3018503007932
 11
-211.7687271744736
 21
-248.3587720596494
 72
     1
 10
-211.7687271744736
 20
-248.3587720596494
 11
-211.0099595866933
 21
-248.3587720596494
 72
     2
 10
-211.0099595866933
 20
-247.3034064183157
 40
1.055365641333708
 50
270.0
 51
450.0
 73
     1
 72
     1
 10
-211.0099595866933
 20
-246.248040776982
 11
-213.0092315847277
 21
-246.248040776982
 97
        6
330
230
330
18D
330
183
330
182
330
18F
330
18E
 92
       16
 93
        4
 72
     1
 10
-211.4514321129317
 20
-246.9111466224221
 11
-211.7687271744736
 21
-246.9111466224221
 72
     1
 10
-211.7687271744736
 20
-246.9111466224221
 11
-211.7687271744736
 21
-247.6168742717643
 72
     1
 10
-211.7687271744736
 20
-247.6168742717643
 11
-211.4514321129317
 21
-247.6168742717643
 72
     2
 10
-211.4514321129317
 20
-247.2640104470932
 40
0.3528638246710898
 50
270.0
 51
450.0
 73
     1
 97
        4
330
190
330
181
330
191
330
21C
 75
     1
 76
     0
 52
45.0
 41
0.1
 77
     0
 78
     1
 53
45.0
 43
0.0
 44
0.0
 45
-0.0707106781186548
 46
0.0707106781186548
 79
     0
 98
        1
 10
0.0
 20
0.0
  0
HATCH
  5
274
330
74
100
AcDbEntity
  8
1
  6
Continuous
 62
     2
100
AcDbHatch
 10
0.0
 20
0.0
 30
0.0
210
0.0
220
0.0
230
1.0
  2
_USER
 70
     0
 71
     1
 91
        1
 92
        1
 93
       12
 72
     1
 10
-193.3949483902945
 20
-246.248040776982
 11
-191.9922241725473
 21
-246.248040776982
 72
     1
 10
-191.9922241725473
 20
-246.248040776982
 11
-193.2947538033138
 21
-247.7209913070182
 72
     1
 10
-193.2947538033138
 20
-247.7209913070182
 11
-191.8968007563735
 21
-249.3018503007932
 72
     1
 10
-191.8968007563735
 20
-249.3018503007932
 11
-193.2995249741218
 21
-249.3018503007932
 72
     1
 10
-193.2995249741218
 20
-249.3018503007932
 11
-193.9961159121873
 21
-248.5141185154995
 72
     1
 10
-193.9961159121873
 20
-248.5141185154995
 11
-194.692706850253
 21
-249.3018503007932
 72
     1
 10
-194.692706850253
 20
-249.3018503007932
 11
-196.0954310680012
 21
-249.3018503007932
 72
     1
 10
-196.0954310680012
 20
-249.3018503007932
 11
-194.6974780210609
 21
-247.7209913070182
 72
     1
 10
-194.6974780210609
 20
-247.7209913070182
 11
-196.0000076518284
 21
-246.248040776982
 72
     1
 10
-196.0000076518284
 20
-246.248040776982
 11
-194.5972834340791
 21
-246.248040776982
 72
     1
 10
-194.5972834340791
 20
-246.248040776982
 11
-193.9961159121873
 21
-246.9278640985375
 72
     1
 10
-193.9961159121873
 20
-246.9278640985375
 11
-193.3949483902945
 21
-246.248040776982
 97
       12
330
15C
330
1B5
330
1B4
330
1B3
330
1B2
330
15D
330
15E
330
15A
330
15B
330
1B8
330
1B7
330
1B6
 75
     1
 76
     0
 52
45.0
 41
0.1
 77
     0
 78
     1
 53
45.0
 43
0.0
 44
0.0
 45
-0.0707106781186548
 46
0.0707106781186548
 79
     0
 98
        1
 10
0.0
 20
0.0
  0
HATCH
  5
275
330
74
100
AcDbEntity
  8
1
  6
Continuous
 62
     2
100
AcDbHatch
 10
0.0
 20
0.0
 30
0.0
210
0.0
220
0.0
230
1.0
  2
_USER
 70
     0
 71
     1
 91
        1
 92
        1
 93
       12
 72
     1
 10
-193.3949483902945
 20
-246.248040776982
 11
-191.9922241725473
 21
-246.248040776982
 72
     1
 10
-191.9922241725473
 20
-246.248040776982
 11
-193.2947538033138
 21
-247.7209913070182
 72
     1
 10
-193.2947538033138
 20
-247.7209913070182
 11
-191.8968007563735
 21
-249.3018503007932
 72
     1
 10
-191.8968007563735
 20
-249.3018503007932
 11
-193.2995249741218
 21
-249.3018503007932
 72
     1
 10
-193.2995249741218
 20
-249.3018503007932
 11
-193.9961159121873
 21
-248.5141185154995
 72
     1
 10
-193.9961159121873
 20
-248.5141185154995
 11
-194.692706850253
 21
-249.3018503007932
 72
     1
 10
-194.692706850253
 20
-249.3018503007932
 11
-196.0954310680012
 21
-249.3018503007932
 72
     1
 10
-196.0954310680012
 20
-249.3018503007932
 11
-194.6974780210609
 21
-247.7209913070182
 72
     1
 10
-194.6974780210609
 20
-247.7209913070182
 11
-196.0000076518284
 21
-246.248040776982
 72
     1
 10
-196.0000076518284
 20
-246.248040776982
 11
-194.5972834340791
 21
-246.248040776982
 72
     1
 10
-194.5972834340791
 20
-246.248040776982
 11
-193.9961159121873
 21
-246.9278640985375
 72
     1
 10
-193.9961159121873
 20
-246.9278640985375
 11
-193.3949483902945
 21
-246.248040776982
 97
       12
330
15C
330
1B5
330
1B4
330
1B3
330
1B2
330
15D
330
15E
330
15A
330
15B
330
1B8
330
1B7
330
1B6
 75
     1
 76
     0
 52
45.0
 41
0.1
 77
     0
 78
     1
 53
45.0
 43
0.0
 44
0.0
 45
-0.0707106781186548
 46
0.0707106781186548
 79
     0
 98
        1
 10
0.0
 20
0.0
  0
HATCH
  5
276
330
74
100
AcDbEntity
  8
1
  6
Continuous
 62
     2
100
AcDbHatch
 10
0.0
 20
0.0
 30
0.0
210
0.0
220
0.0
230
1.0
  2
_USER
 70
     0
 71
     1
 91
        1
 92
        1
 93
        4
 72
     1
 10
-196.2147103382181
 20
-246.248040776982
 11
-196.2147103382181
 21
-249.3018503007932
 72
     1
 10
-196.2147103382181
 20
-249.3018503007932
 11
-197.455214748471
 21
-249.3018503007932
 72
     1
 10
-197.455214748471
 20
-249.3018503007932
 11
-197.455214748471
 21
-246.248040776982
 72
     1
 10
-197.455214748471
 20
-246.248040776982
 11
-196.2147103382181
 21
-246.248040776982
 97
        4
330
1B0
330
15F
330
1AF
330
1B1
 75
     1
 76
     0
 52
45.0
 41
0.1
 77
     0
 78
     1
 53
45.0
 43
0.0
 44
0.0
 45
-0.0707106781186548
 46
0.0707106781186548
 79
     0
 98
        1
 10
0.0
 20
0.0
  0
HATCH
  5
277
330
74
100
AcDbEntity
  8
1
  6
Continuous
 62
     2
100
AcDbHatch
 10
0.0
 20
0.0
 30
0.0
210
0.0
220
0.0
230
1.0
  2
_USER
 70
     0
 71
     1
 91
        1
 92
        1
 93
        4
 72
     1
 10
-196.2147103382181
 20
-246.248040776982
 11
-196.2147103382181
 21
-249.3018503007932
 72
     1
 10
-196.2147103382181
 20
-249.3018503007932
 11
-197.455214748471
 21
-249.3018503007932
 72
     1
 10
-197.455214748471
 20
-249.3018503007932
 11
-197.455214748471
 21
-246.248040776982
 72
     1
 10
-197.455214748471
 20
-246.248040776982
 11
-196.2147103382181
 21
-246.248040776982
 97
        4
330
1B0
330
15F
330
1AF
330
1B1
 75
     1
 76
     0
 52
45.0
 41
0.1
 77
     0
 78
     1
 53
45.0
 43
0.0
 44
0.0
 45
-0.0707106781186548
 46
0.0707106781186548
 79
     0
 98
        1
 10
0.0
 20
0.0
  0
HATCH
  5
278
330
74
100
AcDbEntity
  8
1
  6
Continuous
 62
     2
100
AcDbHatch
 10
0.0
 20
0.0
 30
0.0
210
0.0
220
0.0
230
1.0
  2
_USER
 70
     0
 71
     1
 91
        2
 92
        1
 93
        8
 72
     1
 10
-196.6051543417501
 20
-252.6610407769675
 11
-197.845658752004
 21
-252.6610407769675
 72
     1
 10
-197.845658752004
 20
-252.6610407769675
 11
-198.0571388054798
 21
-252.1200802327496
 72
     1
 10
-198.0571388054798
 20
-252.1200802327496
 11
-199.1895803821536
 21
-252.1200802327496
 72
     1
 10
-199.1895803821536
 20
-252.1200802327496
 11
-199.4010604356294
 21
-252.6610407769675
 72
     1
 10
-199.4010604356294
 20
-252.6610407769675
 11
-200.6415648458824
 21
-252.6610407769675
 72
     1
 10
-200.6415648458824
 20
-252.6610407769675
 11
-199.2436117989431
 21
-249.6072312531564
 72
     1
 10
-199.2436117989431
 20
-249.6072312531564
 11
-198.0031073886904
 21
-249.6072312531564
 72
     1
 10
-198.0031073886904
 20
-249.6072312531564
 11
-196.6051543417501
 21
-252.6610407769675
 97
        8
330
1AB
330
165
330
1AA
330
1AD
330
162
330
1AC
330
163
330
164
 92
       16
 93
        3
 72
     1
 10
-198.9235248310086
 20
-251.439516967443
 11
-198.3231943566261
 21
-251.439516967443
 72
     1
 10
-198.3231943566261
 20
-251.439516967443
 11
-198.6233595938162
 21
-250.6717020014563
 72
     1
 10
-198.6233595938162
 20
-250.6717020014563
 11
-198.9235248310086
 21
-251.439516967443
 97
        3
330
161
330
160
330
1AE
 75
     1
 76
     0
 52
45.0
 41
0.1
 77
     0
 78
     1
 53
45.0
 43
0.0
 44
0.0
 45
-0.0707106781186548
 46
0.0707106781186548
 79
     0
 98
        1
 10
0.0
 20
0.0
  0
HATCH
  5
279
330
74
100
AcDbEntity
  8
1
  6
Continuous
 62
     2
100
AcDbHatch
 10
0.0
 20
0.0
 30
0.0
210
0.0
220
0.0
230
1.0
  2
_USER
 70
     0
 71
     1
 91
        2
 92
        1
 93
        8
 72
     1
 10
-196.6051543417501
 20
-252.6610407769675
 11
-197.845658752004
 21
-252.6610407769675
 72
     1
 10
-197.845658752004
 20
-252.6610407769675
 11
-198.0571388054798
 21
-252.1200802327496
 72
     1
 10
-198.0571388054798
 20
-252.1200802327496
 11
-199.1895803821536
 21
-252.1200802327496
 72
     1
 10
-199.1895803821536
 20
-252.1200802327496
 11
-199.4010604356294
 21
-252.6610407769675
 72
     1
 10
-199.4010604356294
 20
-252.6610407769675
 11
-200.6415648458824
 21
-252.6610407769675
 72
     1
 10
-200.6415648458824
 20
-252.6610407769675
 11
-199.2436117989431
 21
-249.6072312531564
 72
     1
 10
-199.2436117989431
 20
-249.6072312531564
 11
-198.0031073886904
 21
-249.6072312531564
 72
     1
 10
-198.0031073886904
 20
-249.6072312531564
 11
-196.6051543417501
 21
-252.6610407769675
 97
        8
330
1AB
330
165
330
1AA
330
1AD
330
162
330
1AC
330
163
330
164
 92
       16
 93
        3
 72
     1
 10
-198.9235248310086
 20
-251.439516967443
 11
-198.3231943566261
 21
-251.439516967443
 72
     1
 10
-198.3231943566261
 20
-251.439516967443
 11
-198.6233595938162
 21
-250.6717020014563
 72
     1
 10
-198.6233595938162
 20
-250.6717020014563
 11
-198.9235248310086
 21
-251.439516967443
 97
        3
330
161
330
160
330
1AE
 75
     1
 76
     0
 52
45.0
 41
0.1
 77
     0
 78
     1
 53
45.0
 43
0.0
 44
0.0
 45
-0.0707106781186548
 46
0.0707106781186548
 79
     0
 98
        1
 10
0.0
 20
0.0
  0
HATCH
  5
27A
330
74
100
AcDbEntity
  8
1
  6
Continuous
 62
     2
100
AcDbHatch
 10
0.0
 20
0.0
 30
0.0
210
0.0
220
0.0
230
1.0
  2
_USER
 70
     0
 71
     1
 91
        1
 92
        1
 93
        8
 72
     1
 10
-202.7990769850646
 20
-249.6072312531564
 11
-202.7990769850646
 21
-250.39249655928
 72
     1
 10
-202.7990769850646
 20
-250.39249655928
 11
-201.98797794759
 21
-250.39249655928
 72
     1
 10
-201.98797794759
 20
-250.39249655928
 11
-201.98797794759
 21
-252.6610407769675
 72
     1
 10
-201.98797794759
 20
-252.6610407769675
 11
-200.7951852454235
 21
-252.6610407769675
 72
     1
 10
-200.7951852454235
 20
-252.6610407769675
 11
-200.7951852454235
 21
-250.39249655928
 72
     1
 10
-200.7951852454235
 20
-250.39249655928
 11
-199.984086207951
 21
-250.39249655928
 72
     1
 10
-199.984086207951
 20
-250.39249655928
 11
-199.984086207951
 21
-249.6072312531564
 72
     1
 10
-199.984086207951
 20
-249.6072312531564
 11
-202.7990769850646
 21
-249.6072312531564
 97
        8
330
1A7
330
1A6
330
1A5
330
166
330
167
330
1A9
330
168
330
1A8
 75
     1
 76
     0
 52
45.0
 41
0.1
 77
     0
 78
     1
 53
45.0
 43
0.0
 44
0.0
 45
-0.0707106781186548
 46
0.0707106781186548
 79
     0
 98
        1
 10
0.0
 20
0.0
  0
HATCH
  5
27B
330
74
100
AcDbEntity
  8
1
  6
Continuous
 62
     2
100
AcDbHatch
 10
0.0
 20
0.0
 30
0.0
210
0.0
220
0.0
230
1.0
  2
_USER
 70
     0
 71
     1
 91
        1
 92
        1
 93
        8
 72
     1
 10
-202.7990769850646
 20
-249.6072312531564
 11
-202.7990769850646
 21
-250.39249655928
 72
     1
 10
-202.7990769850646
 20
-250.39249655928
 11
-201.98797794759
 21
-250.39249655928
 72
     1
 10
-201.98797794759
 20
-250.39249655928
 11
-201.98797794759
 21
-252.6610407769675
 72
     1
 10
-201.98797794759
 20
-252.6610407769675
 11
-200.7951852454235
 21
-252.6610407769675
 72
     1
 10
-200.7951852454235
 20
-252.6610407769675
 11
-200.7951852454235
 21
-250.39249655928
 72
     1
 10
-200.7951852454235
 20
-250.39249655928
 11
-199.984086207951
 21
-250.39249655928
 72
     1
 10
-199.984086207951
 20
-250.39249655928
 11
-199.984086207951
 21
-249.6072312531564
 72
     1
 10
-199.984086207951
 20
-249.6072312531564
 11
-202.7990769850646
 21
-249.6072312531564
 97
        8
330
1A7
330
1A6
330
1A5
330
166
330
167
330
1A9
330
168
330
1A8
 75
     1
 76
     0
 52
45.0
 41
0.1
 77
     0
 78
     1
 53
45.0
 43
0.0
 44
0.0
 45
-0.0707106781186548
 46
0.0707106781186548
 79
     0
 98
        1
 10
0.0
 20
0.0
  0
HATCH
  5
27C
330
74
100
AcDbEntity
  8
1
  6
Continuous
 62
     2
100
AcDbHatch
 10
0.0
 20
0.0
 30
0.0
210
0.0
220
0.0
230
1.0
  2
_USER
 70
     0
 71
     1
 91
        1
 92
        1
 93
       10
 72
     1
 10
-200.1270704013255
 20
-246.248040776982
 11
-201.319863103492
 21
-246.248040776982
 72
     1
 10
-201.319863103492
 20
-246.248040776982
 11
-201.319863103492
 21
-249.3018503007932
 72
     1
 10
-201.319863103492
 20
-249.3018503007932
 11
-200.1270704013255
 21
-249.3018503007932
 72
     1
 10
-200.1270704013255
 20
-249.3018503007932
 11
-200.1270704013255
 21
-247.9930747905885
 72
     1
 10
-200.1270704013255
 20
-247.9930747905885
 11
-198.8865659910715
 21
-249.3018503007932
 72
     1
 10
-198.8865659910715
 20
-249.3018503007932
 11
-197.6937732889049
 21
-249.3018503007932
 72
     1
 10
-197.6937732889049
 20
-249.3018503007932
 11
-197.6937732889049
 21
-246.248040776982
 72
     1
 10
-197.6937732889049
 20
-246.248040776982
 11
-198.8865659910715
 21
-246.248040776982
 72
     1
 10
-198.8865659910715
 20
-246.248040776982
 11
-198.8865659910715
 21
-247.5568162871872
 72
     1
 10
-198.8865659910715
 20
-247.5568162871872
 11
-200.1270704013255
 21
-246.248040776982
 97
       10
330
1A1
330
16B
330
16C
330
16D
330
16E
330
1A4
330
169
330
1A3
330
1A2
330
16A
 75
     1
 76
     0
 52
45.0
 41
0.1
 77
     0
 78
     1
 53
45.0
 43
0.0
 44
0.0
 45
-0.0707106781186548
 46
0.0707106781186548
 79
     0
 98
        1
 10
0.0
 20
0.0
  0
HATCH
  5
27D
330
74
100
AcDbEntity
  8
1
  6
Continuous
 62
     2
100
AcDbHatch
 10
0.0
 20
0.0
 30
0.0
210
0.0
220
0.0
230
1.0
  2
_USER
 70
     0
 71
     1
 91
        1
 92
        1
 93
       10
 72
     1
 10
-200.1270704013255
 20
-246.248040776982
 11
-201.319863103492
 21
-246.248040776982
 72
     1
 10
-201.319863103492
 20
-246.248040776982
 11
-201.319863103492
 21
-249.3018503007932
 72
     1
 10
-201.319863103492
 20
-249.3018503007932
 11
-200.1270704013255
 21
-249.3018503007932
 72
     1
 10
-200.1270704013255
 20
-249.3018503007932
 11
-200.1270704013255
 21
-247.9930747905885
 72
     1
 10
-200.1270704013255
 20
-247.9930747905885
 11
-198.8865659910715
 21
-249.3018503007932
 72
     1
 10
-198.8865659910715
 20
-249.3018503007932
 11
-197.6937732889049
 21
-249.3018503007932
 72
     1
 10
-197.6937732889049
 20
-249.3018503007932
 11
-197.6937732889049
 21
-246.248040776982
 72
     1
 10
-197.6937732889049
 20
-246.248040776982
 11
-198.8865659910715
 21
-246.248040776982
 72
     1
 10
-198.8865659910715
 20
-246.248040776982
 11
-198.8865659910715
 21
-247.5568162871872
 72
     1
 10
-198.8865659910715
 20
-247.5568162871872
 11
-200.1270704013255
 21
-246.248040776982
 97
       10
330
1A1
330
16B
330
16C
330
16D
330
16E
330
1A4
330
169
330
1A3
330
1A2
330
16A
 75
     1
 76
     0
 52
45.0
 41
0.1
 77
     0
 78
     1
 53
45.0
 43
0.0
 44
0.0
 45
-0.0707106781186548
 46
0.0707106781186548
 79
     0
 98
        1
 10
0.0
 20
0.0
  0
HATCH
  5
27E
330
74
100
AcDbEntity
  8
1
  6
Continuous
 62
     2
100
AcDbHatch
 10
0.0
 20
0.0
 30
0.0
210
0.0
220
0.0
230
1.0
  2
_USER
 70
     0
 71
     1
 91
        1
 92
        1
 93
       10
 72
     1
 10
-205.3755092217441
 20
-249.6072312531564
 11
-206.5683019239117
 21
-249.6072312531564
 72
     1
 10
-206.5683019239117
 20
-249.6072312531564
 11
-206.5683019239117
 21
-252.6610407769675
 72
     1
 10
-206.5683019239117
 20
-252.6610407769675
 11
-205.3755092217441
 21
-252.6610407769675
 72
     1
 10
-205.3755092217441
 20
-252.6610407769675
 11
-205.3755092217441
 21
-251.3522652667629
 72
     1
 10
-205.3755092217441
 20
-251.3522652667629
 11
-204.1350048114912
 21
-252.6610407769675
 72
     1
 10
-204.1350048114912
 20
-252.6610407769675
 11
-202.9422121093248
 21
-252.6610407769675
 72
     1
 10
-202.9422121093248
 20
-252.6610407769675
 11
-202.9422121093248
 21
-249.6072312531564
 72
     1
 10
-202.9422121093248
 20
-249.6072312531564
 11
-204.1350048114912
 21
-249.6072312531564
 72
     1
 10
-204.1350048114912
 20
-249.6072312531564
 11
-204.1350048114912
 21
-250.9160067633615
 72
     1
 10
-204.1350048114912
 20
-250.9160067633615
 11
-205.3755092217441
 21
-249.6072312531564
 97
       10
330
170
330
171
330
172
330
19E
330
173
330
174
330
19D
330
1A0
330
19F
330
16F
 75
     1
 76
     0
 52
45.0
 41
0.1
 77
     0
 78
     1
 53
45.0
 43
0.0
 44
0.0
 45
-0.0707106781186548
 46
0.0707106781186548
 79
     0
 98
        1
 10
0.0
 20
0.0
  0
HATCH
  5
27F
330
74
100
AcDbEntity
  8
1
  6
Continuous
 62
     2
100
AcDbHatch
 10
0.0
 20
0.0
 30
0.0
210
0.0
220
0.0
230
1.0
  2
_USER
 70
     0
 71
     1
 91
        1
 92
        1
 93
       10
 72
     1
 10
-205.3755092217441
 20
-249.6072312531564
 11
-206.5683019239117
 21
-249.6072312531564
 72
     1
 10
-206.5683019239117
 20
-249.6072312531564
 11
-206.5683019239117
 21
-252.6610407769675
 72
     1
 10
-206.5683019239117
 20
-252.6610407769675
 11
-205.3755092217441
 21
-252.6610407769675
 72
     1
 10
-205.3755092217441
 20
-252.6610407769675
 11
-205.3755092217441
 21
-251.3522652667629
 72
     1
 10
-205.3755092217441
 20
-251.3522652667629
 11
-204.1350048114912
 21
-252.6610407769675
 72
     1
 10
-204.1350048114912
 20
-252.6610407769675
 11
-202.9422121093248
 21
-252.6610407769675
 72
     1
 10
-202.9422121093248
 20
-252.6610407769675
 11
-202.9422121093248
 21
-249.6072312531564
 72
     1
 10
-202.9422121093248
 20
-249.6072312531564
 11
-204.1350048114912
 21
-249.6072312531564
 72
     1
 10
-204.1350048114912
 20
-249.6072312531564
 11
-204.1350048114912
 21
-250.9160067633615
 72
     1
 10
-204.1350048114912
 20
-250.9160067633615
 11
-205.3755092217441
 21
-249.6072312531564
 97
       10
330
170
330
171
330
172
330
19E
330
173
330
174
330
19D
330
1A0
330
19F
330
16F
 75
     1
 76
     0
 52
45.0
 41
0.1
 77
     0
 78
     1
 53
45.0
 43
0.0
 44
0.0
 45
-0.0707106781186548
 46
0.0707106781186548
 79
     0
 98
        1
 10
0.0
 20
0.0
  0
HATCH
  5
280
330
74
100
AcDbEntity
  8
1
  6
Continuous
 62
     2
100
AcDbHatch
 10
0.0
 20
0.0
 30
0.0
210
0.0
220
0.0
230
1.0
  2
_USER
 70
     0
 71
     1
 91
        1
 92
        1
 93
       12
 72
     1
 10
-206.3773041606795
 20
-246.248040776982
 11
-206.3773041606795
 21
-249.3018503007932
 72
     1
 10
-206.3773041606795
 20
-249.3018503007932
 11
-207.5700968628459
 21
-249.3018503007932
 72
     1
 10
-207.5700968628459
 20
-249.3018503007932
 11
-207.5700968628459
 21
-248.1675781919494
 72
     1
 10
-207.5700968628459
 20
-248.1675781919494
 11
-208.6197544407534
 21
-248.1675781919494
 72
     1
 10
-208.6197544407534
 20
-248.1675781919494
 11
-208.6197544407534
 21
-249.3018503007932
 72
     1
 10
-208.6197544407534
 20
-249.3018503007932
 11
-209.81254714292
 21
-249.3018503007932
 72
     1
 10
-209.81254714292
 20
-249.3018503007932
 11
-209.81254714292
 21
-246.248040776982
 72
     1
 10
-209.81254714292
 20
-246.248040776982
 11
-208.6197544407534
 21
-246.248040776982
 72
     1
 10
-208.6197544407534
 20
-246.248040776982
 11
-208.6197544407534
 21
-247.3168741103166
 72
     1
 10
-208.6197544407534
 20
-247.3168741103166
 11
-207.5700968628459
 21
-247.3168741103166
 72
     1
 10
-207.5700968628459
 20
-247.3168741103166
 11
-207.5700968628459
 21
-246.248040776982
 72
     1
 10
-207.5700968628459
 20
-246.248040776982
 11
-206.3773041606795
 21
-246.248040776982
 97
       12
330
198
330
197
330
196
330
17E
330
17F
330
195
330
180
330
194
330
193
330
192
330
17C
330
17D
 75
     1
 76
     0
 52
45.0
 41
0.1
 77
     0
 78
     1
 53
45.0
 43
0.0
 44
0.0
 45
-0.0707106781186548
 46
0.0707106781186548
 79
     0
 98
        1
 10
0.0
 20
0.0
  0
HATCH
  5
281
330
74
100
AcDbEntity
  8
1
  6
Continuous
 62
     2
100
AcDbHatch
 10
0.0
 20
0.0
 30
0.0
210
0.0
220
0.0
230
1.0
  2
_USER
 70
     0
 71
     1
 91
        1
 92
        1
 93
       12
 72
     1
 10
-206.3773041606795
 20
-246.248040776982
 11
-206.3773041606795
 21
-249.3018503007932
 72
     1
 10
-206.3773041606795
 20
-249.3018503007932
 11
-207.5700968628459
 21
-249.3018503007932
 72
     1
 10
-207.5700968628459
 20
-249.3018503007932
 11
-207.5700968628459
 21
-248.1675781919494
 72
     1
 10
-207.5700968628459
 20
-248.1675781919494
 11
-208.6197544407534
 21
-248.1675781919494
 72
     1
 10
-208.6197544407534
 20
-248.1675781919494
 11
-208.6197544407534
 21
-249.3018503007932
 72
     1
 10
-208.6197544407534
 20
-249.3018503007932
 11
-209.81254714292
 21
-249.3018503007932
 72
     1
 10
-209.81254714292
 20
-249.3018503007932
 11
-209.81254714292
 21
-246.248040776982
 72
     1
 10
-209.81254714292
 20
-246.248040776982
 11
-208.6197544407534
 21
-246.248040776982
 72
     1
 10
-208.6197544407534
 20
-246.248040776982
 11
-208.6197544407534
 21
-247.3168741103166
 72
     1
 10
-208.6197544407534
 20
-247.3168741103166
 11
-207.5700968628459
 21
-247.3168741103166
 72
     1
 10
-207.5700968628459
 20
-247.3168741103166
 11
-207.5700968628459
 21
-246.248040776982
 72
     1
 10
-207.5700968628459
 20
-246.248040776982
 11
-206.3773041606795
 21
-246.248040776982
 97
       12
330
198
330
197
330
196
330
17E
330
17F
330
195
330
180
330
194
330
193
330
192
330
17C
330
17D
 75
     1
 76
     0
 52
45.0
 41
0.1
 77
     0
 78
     1
 53
45.0
 43
0.0
 44
0.0
 45
-0.0707106781186548
 46
0.0707106781186548
 79
     0
 98
        1
 10
0.0
 20
0.0
  0
ENDBLK
  5
76
330
74
100
AcDbEntity
  8
0
100
AcDbBlockEnd
  0
BLOCK
  5
7A
330
77
100
AcDbEntity
  8
0
100
AcDbBlockBegin
  2
A4I_CS
 70
     0
 10
-94.50000034689056
 20
-264.9545407769839
 30
0.0
  3
A4I_CS
  1

  0
INSERT
  5
78
330
77
100
AcDbEntity
  8
1
100
AcDbBlockReference
  2
_punkt
 10
-94.50000034689056
 20
-259.9545407769838
 30
0.0
  0
INSERT
  5
79
330
77
100
AcDbEntity
  8
1
100
AcDbBlockReference
  2
_rahmen
 10
-94.50000034689056
 20
-264.9545407769839
 30
0.0
  0
ENDBLK
  5
7B
330
77
100
AcDbEntity
  8
0
100
AcDbBlockEnd
  0
BLOCK
  5
D5
330
CE
100
AcDbEntity
  8
0
100
AcDbBlockBegin
  2
*D16
 70
     1
 10
0.0
 20
0.0
 30
0.0
  3
*D16
  1

  0
LINE
  5
CF
330
CE
100
AcDbEntity
  8
1
  6
Continuous
 62
     2
100
AcDbLine
 10
-153.0000001788089
 20
-79.73277402322714
 30
0.0
 11
-153.0000001788089
 21
-94.73277402322714
 31
0.0
  0
LINE
  5
D0
330
CE
100
AcDbEntity
  8
1
  6
Continuous
 62
     2
100
AcDbLine
 10
-148.0000001788089
 20
-79.73277402322714
 30
0.0
 11
-153.7500001788089
 21
-79.73277402322714
 31
0.0
  0
LINE
  5
D1
330
CE
100
AcDbEntity
  8
1
  6
Continuous
 62
     2
100
AcDbLine
 10
-148.0000001788089
 20
-94.73277402322714
 30
0.0
 11
-153.7500001788089
 21
-94.73277402322714
 31
0.0
  0
SOLID
  5
D2
330
CE
100
AcDbEntity
  8
1
 62
     2
100
AcDbTrace
 10
-152.769608308031
 20
-81.48277402322714
 30
0.0
 11
-153.2303920495868
 21
-81.48277402322714
 31
0.0
 12
-153.0000001788089
 22
-79.73277402322714
 32
0.0
 13
-153.0000001788089
 23
-79.73277402322714
 33
0.0
  0
SOLID
  5
D3
330
CE
100
AcDbEntity
  8
1
 62
     2
100
AcDbTrace
 10
-153.2303920495868
 20
-92.98277402322714
 30
0.0
 11
-152.769608308031
 21
-92.98277402322714
 31
0.0
 12
-153.0000001788089
 22
-94.73277402322714
 32
0.0
 13
-153.0000001788089
 23
-94.73277402322714
 33
0.0
  0
MTEXT
  5
D4
330
CE
100
AcDbEntity
  8
1
 62
     3
100
AcDbMText
 10
-153.7500001788089
 20
-88.28277402322713
 30
0.0
 40
1.75
 41
0.0
 71
     7
 72
     1
  1
15
  7
CONVERTER_11
 11
0.0
 21
1.0
 31
0.0
 73
     1
 44
0.60024009603842
  0
ENDBLK
  5
D6
330
CE
100
AcDbEntity
  8
0
100
AcDbBlockEnd
  0
BLOCK
  5
13A
330
133
100
AcDbEntity
  8
0
100
AcDbBlockBegin
  2
*D17
 70
     1
 10
0.0
 20
0.0
 30
0.0
  3
*D17
  1

  0
LINE
  5
134
330
133
100
AcDbEntity
  8
1
  6
Continuous
 62
     2
100
AcDbLine
 10
-147.999999999995
 20
-69.76016555735406
 30
0.0
 11
-124.999999999995
 21
-69.76016555735406
 31
0.0
  0
LINE
  5
135
330
133
100
AcDbEntity
  8
1
  6
Continuous
 62
     2
100
AcDbLine
 10
-147.999999999995
 20
-64.76016555735406
 30
0.0
 11
-147.999999999995
 21
-70.51016555735406
 31
0.0
  0
LINE
  5
136
330
133
100
AcDbEntity
  8
1
  6
Continuous
 62
     2
100
AcDbLine
 10
-124.999999999995
 20
-64.76016555735406
 30
0.0
 11
-124.999999999995
 21
-70.51016555735406
 31
0.0
  0
SOLID
  5
137
330
133
100
AcDbEntity
  8
1
 62
     2
100
AcDbTrace
 10
-146.249999999995
 20
-69.52977368657612
 30
0.0
 11
-146.249999999995
 21
-69.99055742813199
 31
0.0
 12
-147.999999999995
 22
-69.76016555735406
 32
0.0
 13
-147.999999999995
 23
-69.76016555735406
 33
0.0
  0
SOLID
  5
138
330
133
100
AcDbEntity
  8
1
 62
     2
100
AcDbTrace
 10
-126.749999999995
 20
-69.99055742813199
 30
0.0
 11
-126.749999999995
 21
-69.52977368657612
 31
0.0
 12
-124.999999999995
 22
-69.76016555735406
 32
0.0
 13
-124.999999999995
 23
-69.76016555735406
 33
0.0
  0
MTEXT
  5
139
330
133
100
AcDbEntity
  8
1
 62
     3
100
AcDbMText
 10
-137.812499999995
 20
-69.01016555735406
 30
0.0
 40
1.75
 41
0.0
 71
     7
 72
     1
  1
23
  7
CONVERTER_11
 11
0.9999999999970619
 21
2.424068405545306E-6
 31
0.0
 73
     1
 44
0.60024009603842
  0
ENDBLK
  5
13B
330
133
100
AcDbEntity
  8
0
100
AcDbBlockEnd
  0
BLOCK
  5
145
330
13E
100
AcDbEntity
  8
0
100
AcDbBlockBegin
  2
*D18
 70
     1
 10
0.0
 20
0.0
 30
0.0
  3
*D18
  1

  0
LINE
  5
13F
330
13E
100
AcDbEntity
  8
1
  6
Continuous
 62
     2
100
AcDbLine
 10
-152.999999999995
 20
-64.76016555735406
 30
0.0
 11
-152.999999999995
 21
-49.26016555735406
 31
0.0
  0
LINE
  5
140
330
13E
100
AcDbEntity
  8
1
  6
Continuous
 62
     2
100
AcDbLine
 10
-147.999999999995
 20
-64.76016555735406
 30
0.0
 11
-153.749999999995
 21
-64.76016555735406
 31
0.0
  0
LINE
  5
141
330
13E
100
AcDbEntity
  8
1
  6
Continuous
 62
     2
100
AcDbLine
 10
-147.999999999995
 20
-49.26016555735406
 30
0.0
 11
-153.749999999995
 21
-49.26016555735406
 31
0.0
  0
SOLID
  5
142
330
13E
100
AcDbEntity
  8
1
 62
     2
100
AcDbTrace
 10
-153.2303918707729
 20
-63.01016555735406
 30
0.0
 11
-152.7696081292171
 21
-63.01016555735406
 31
0.0
 12
-152.999999999995
 22
-64.76016555735406
 32
0.0
 13
-152.999999999995
 23
-64.76016555735406
 33
0.0
  0
SOLID
  5
143
330
13E
100
AcDbEntity
  8
1
 62
     2
100
AcDbTrace
 10
-152.7696081292171
 20
-51.01016555735406
 30
0.0
 11
-153.2303918707729
 21
-51.01016555735406
 31
0.0
 12
-152.999999999995
 22
-49.26016555735406
 32
0.0
 13
-152.999999999995
 23
-49.26016555735406
 33
0.0
  0
MTEXT
  5
144
330
13E
100
AcDbEntity
  8
1
 62
     3
100
AcDbMText
 10
-153.924999999995
 20
-59.147136257751
 30
0.0
 40
1.75
 41
0.0
 71
     7
 72
     1
  1
15,5
  7
CONVERTER_11
 11
0.0
 21
1.0
 31
0.0
 73
     1
 44
0.60024009603842
  0
ENDBLK
  5
146
330
13E
100
AcDbEntity
  8
0
100
AcDbBlockEnd
  0
ENDSEC
  0
SECTION
  2
ENTITIES
  0
INSERT
  5
7C
330
1F
100
AcDbEntity
  8
0
100
AcDbBlockReference
  2
Allg1
 10
-145.9999999999921
 20
-191.000000000002
 30
0.0
 41
2.0
 42
2.0
 43
2.0
  0
INSERT
  5
7D
330
1F
100
AcDbEntity
  8
0
100
AcDbBlockReference
  2
Drfsicht1
 10
-273.0000003576278
 20
-174.4655478295554
 30
0.0
 41
2.0
 42
2.0
 43
2.0
  0
INSERT
  5
7E
330
1F
100
AcDbEntity
  8
0
100
AcDbBlockReference
  2
Rckans1
 10
-143.000000000025
 20
-113.9999999999997
 30
0.0
 41
2.0
 42
2.0
 43
2.0
  0
INSERT
  5
7F
330
1F
100
AcDbEntity
  8
0
100
AcDbBlockReference
  2
SA_Links1
 10
-208.0000001788144
 20
-114.0
 30
0.0
 41
2.0
 42
2.0
 43
2.0
  0
INSERT
  5
80
330
1F
100
AcDbEntity
  8
0
100
AcDbBlockReference
  2
SA_Rechts1
 10
-348.0000004768474
 20
-113.9999999999997
 30
0.0
 41
2.0
 42
2.0
 43
2.0
  0
INSERT
  5
81
330
1F
100
AcDbEntity
  8
0
100
AcDbBlockReference
  2
Vordans1
 10
-273.0
 20
-113.9999999999997
 30
0.0
 41
2.0
 42
2.0
 43
2.0
  0
INSERT
  5
82
330
1F
100
AcDbEntity
  8
0
100
AcDbBlockReference
  2
A4I_CS
 10
-94.50000034689056
 20
-264.9545407769839
 30
0.0
  0
ENDSEC
  0
SECTION
  2
OBJECTS
  0
DICTIONARY
  5
C
330
0
100
AcDbDictionary
281
     1
  3
ACAD_GROUP
350
D
  3
ACAD_LAYOUT
350
1A
  3
ACAD_MATERIAL
350
3B
  3
ACAD_MLEADERSTYLE
350
284
  3
ACAD_MLINESTYLE
350
17
  3
ACAD_PLOTSETTINGS
350
19
  3
ACAD_PLOTSTYLENAME
350
E
  3
ACAD_VISUALSTYLE
350
2A
  3
AcDbVariableDictionary
350
282
  0
DICTIONARY
  5
D
102
{ACAD_REACTORS
330
C
102
}
330
C
100
AcDbDictionary
281
     1
  0
DICTIONARY
  5
1A
102
{ACAD_REACTORS
330
C
102
}
330
C
100
AcDbDictionary
281
     1
  3
Layout1
350
1E
  3
Layout2
350
26
  3
Model
350
22
  0
DICTIONARY
  5
3B
102
{ACAD_REACTORS
330
C
102
}
330
C
100
AcDbDictionary
281
     1
  3
ByBlock
350
3D
  3
ByLayer
350
3C
  3
Global
350
3E
  0
DICTIONARY
  5
284
102
{ACAD_REACTORS
330
C
102
}
330
C
100
AcDbDictionary
281
     1
  0
DICTIONARY
  5
17
102
{ACAD_REACTORS
330
C
102
}
330
C
100
AcDbDictionary
281
     1
  3
Standard
350
18
  0
DICTIONARY
  5
19
102
{ACAD_REACTORS
330
C
102
}
330
C
100
AcDbDictionary
281
     1
  0
ACDBDICTIONARYWDFLT
  5
E
102
{ACAD_REACTORS
330
C
102
}
330
C
100
AcDbDictionary
281
     1
  3
Normal
350
F
100
AcDbDictionaryWithDefault
340
F
  0
DICTIONARY
  5
2A
102
{ACAD_REACTORS
330
C
102
}
330
C
100
AcDbDictionary
281
     1
  3
2dWireframe
350
2F
  3
3D Hidden
350
31
  3
3dWireframe
350
30
  3
Basic
350
32
  3
Brighten
350
36
  3
ColorChange
350
3A
  3
Conceptual
350
34
  3
Dim
350
35
  3
Facepattern
350
39
  3
Flat
350
2B
  3
FlatWithEdges
350
2C
  3
Gouraud
350
2D
  3
GouraudWithEdges
350
2E
  3
Linepattern
350
38
  3
Realistic
350
33
  3
Thicken
350
37
  0
DICTIONARY
  5
282
102
{ACAD_REACTORS
330
C
102
}
330
C
100
AcDbDictionary
281
     1
  3
DIMASSOC
350
285
  3
HIDETEXT
350
286
  0
LAYOUT
  5
1E
102
{ACAD_REACTORS
330
1A
102
}
330
1A
100
AcDbPlotSettings
  1

  2
none_device
  4

  6

 40
0.0
 41
0.0
 42
0.0
 43
0.0
 44
0.0
 45
0.0
 46
0.0
 47
0.0
 48
0.0
 49
0.0
140
0.0
141
0.0
142
1.0
143
1.0
 70
   688
 72
     0
 73
     0
 74
     5
  7

 75
    16
147
1.0
148
0.0
149
0.0
100
AcDbLayout
  1
Layout1
 70
     1
 71
     1
 10
0.0
 20
0.0
 11
12.0
 21
9.0
 12
0.0
 22
0.0
 32
0.0
 14
1.00000000000000E+20
 24
1.00000000000000E+20
 34
1.00000000000000E+20
 15
-1.00000000000000E+20
 25
-1.00000000000000E+20
 35
-1.00000000000000E+20
146
0.0
 13
0.0
 23
0.0
 33
0.0
 16
1.0
 26
0.0
 36
0.0
 17
0.0
 27
1.0
 37
0.0
 76
     0
330
1B
  0
LAYOUT
  5
26
102
{ACAD_REACTORS
330
1A
102
}
330
1A
100
AcDbPlotSettings
  1

  2
none_device
  4

  6

 40
0.0
 41
0.0
 42
0.0
 43
0.0
 44
0.0
 45
0.0
 46
0.0
 47
0.0
 48
0.0
 49
0.0
140
0.0
141
0.0
142
1.0
143
1.0
 70
   688
 72
     0
 73
     0
 74
     5
  7

 75
    16
147
1.0
148
0.0
149
0.0
100
AcDbLayout
  1
Layout2
 70
     1
 71
     2
 10
0.0
 20
0.0
 11
0.0
 21
0.0
 12
0.0
 22
0.0
 32
0.0
 14
0.0
 24
0.0
 34
0.0
 15
0.0
 25
0.0
 35
0.0
146
0.0
 13
0.0
 23
0.0
 33
0.0
 16
1.0
 26
0.0
 36
0.0
 17
0.0
 27
1.0
 37
0.0
 76
     0
330
23
  0
LAYOUT
  5
22
102
{ACAD_REACTORS
330
1A
102
}
330
1A
100
AcDbPlotSettings
  1

  2
none_device
  4

  6

 40
0.0
 41
0.0
 42
0.0
 43
0.0
 44
0.0
 45
0.0
 46
0.0
 47
0.0
 48
0.0
 49
0.0
140
0.0
141
0.0
142
1.0
143
1.0
 70
  1712
 72
     0
 73
     0
 74
     0
  7

 75
     0
147
1.0
148
0.0
149
0.0
100
AcDbLayout
  1
Model
 70
     1
 71
     0
 10
0.0
 20
0.0
 11
12.0
 21
9.0
 12
0.0
 22
0.0
 32
0.0
 14
-386.5000003468896
 24
-264.9545407769839
 34
0.0
 15
-89.50000034689157
 25
-54.95454077698381
 35
0.0
146
0.0
 13
0.0
 23
0.0
 33
0.0
 16
1.0
 26
0.0
 36
0.0
 17
0.0
 27
1.0
 37
0.0
 76
     0
330
1F
331
29
  0
MATERIAL
  5
3D
102
{ACAD_REACTORS
330
3B
102
}
102
{ACAD_XDICTIONARY
360
2A9
102
}
330
3B
100
AcDbMaterial
  1
ByBlock
  0
MATERIAL
  5
3C
102
{ACAD_REACTORS
330
3B
102
}
102
{ACAD_XDICTIONARY
360
2A7
102
}
330
3B
100
AcDbMaterial
  1
ByLayer
  0
MATERIAL
  5
3E
102
{ACAD_REACTORS
330
3B
102
}
102
{ACAD_XDICTIONARY
360
2AB
102
}
330
3B
100
AcDbMaterial
  1
Global
  0
MLINESTYLE
  5
18
102
{ACAD_REACTORS
330
17
102
}
330
17
100
AcDbMlineStyle
  2
Standard
 70
     0
  3

 62
   256
 51
90.0
 52
90.0
 71
     2
 49
0.5
 62
   256
  6
BYLAYER
 49
-0.5
 62
   256
  6
BYLAYER
  0
ACDBPLACEHOLDER
  5
F
102
{ACAD_REACTORS
330
E
102
}
330
E
  0
VISUALSTYLE
  5
2F
102
{ACAD_REACTORS
330
2A
102
}
102
{ACAD_XDICTIONARY
360
28F
102
}
330
2A
100
AcDbVisualStyle
  2
2dWireframe
 70
     4
 71
     0
 72
     2
 73
     0
 90
        0
 40
-0.6
 41
-30.0
 62
     5
 63
     7
 74
     1
 91
        4
 64
     7
 65
   257
 75
     1
175
     1
 42
1.0
 92
        0
 66
   257
 43
1.0
 76
     1
 77
     6
 78
     2
 67
     7
 79
     5
170
     0
171
     0
290
     0
174
     0
 93
        1
 44
0.0
173
     0
291
     0
 45
0.0
1001
ACAD
1000
AcDbSavedByObjectVersion
1070
     0
  0
VISUALSTYLE
  5
31
102
{ACAD_REACTORS
330
2A
102
}
102
{ACAD_XDICTIONARY
360
293
102
}
330
2A
100
AcDbVisualStyle
  2
3D Hidden
 70
     6
 71
     1
 72
     2
 73
     2
 90
        0
 40
-0.6
 41
-30.0
 62
     5
 63
     7
 74
     2
 91
        2
 64
     7
 65
   257
 75
     2
175
     1
 42
40.0
 92
        0
 66
   257
 43
1.0
 76
     1
 77
     6
 78
     2
 67
     7
 79
     3
170
     0
171
     0
290
     0
174
     0
 93
        1
 44
0.0
173
     0
291
     0
 45
0.0
1001
ACAD
1000
AcDbSavedByObjectVersion
1070
     0
  0
VISUALSTYLE
  5
30
102
{ACAD_REACTORS
330
2A
102
}
102
{ACAD_XDICTIONARY
360
291
102
}
330
2A
100
AcDbVisualStyle
  2
3dWireframe
 70
     5
 71
     0
 72
     2
 73
     0
 90
        0
 40
-0.6
 41
-30.0
 62
     5
 63
     7
 74
     1
 91
        4
 64
     7
 65
   257
 75
     1
175
     1
 42
1.0
 92
        0
 66
   257
 43
1.0
 76
     1
 77
     6
 78
     2
 67
     7
 79
     5
170
     0
171
     0
290
     0
174
     0
 93
        1
 44
0.0
173
     0
291
     0
 45
0.0
1001
ACAD
1000
AcDbSavedByObjectVersion
1070
     0
  0
VISUALSTYLE
  5
32
102
{ACAD_REACTORS
330
2A
102
}
102
{ACAD_XDICTIONARY
360
295
102
}
330
2A
100
AcDbVisualStyle
  2
Basic
 70
     7
 71
     1
 72
     0
 73
     1
 90
        0
 40
-0.6
 41
-30.0
 62
     5
 63
     7
 74
     0
 91
        4
 64
     7
 65
   257
 75
     1
175
     1
 42
1.0
 92
        8
 66
     7
 43
1.0
 76
     1
 77
     6
 78
     2
 67
     7
 79
     5
170
     0
171
     0
290
     0
174
     0
 93
        1
 44
0.0
173
     0
291
     1
 45
0.0
1001
ACAD
1000
AcDbSavedByObjectVersion
1070
     0
  0
VISUALSTYLE
  5
36
102
{ACAD_REACTORS
330
2A
102
}
102
{ACAD_XDICTIONARY
360
29D
102
}
330
2A
100
AcDbVisualStyle
  2
Brighten
 70
    12
 71
     2
 72
     2
 73
     0
 90
        0
 40
-0.6
 41
-30.0
 62
     5
 63
     7
 74
     1
 91
        4
 64
     7
 65
   257
 75
     1
175
     1
 42
1.0
 92
        8
 66
     7
 43
1.0
 76
     1
 77
     6
 78
     2
 67
     7
 79
     5
170
     0
171
     0
290
     0
174
     0
 93
        1
 44
50.0
173
     0
291
     1
 45
0.0
1001
ACAD
1000
AcDbSavedByObjectVersion
1070
     0
  0
VISUALSTYLE
  5
3A
102
{ACAD_REACTORS
330
2A
102
}
102
{ACAD_XDICTIONARY
360
2A5
102
}
330
2A
100
AcDbVisualStyle
  2
ColorChange
 70
    16
 71
     2
 72
     2
 73
     3
 90
        0
 40
-0.6
 41
-30.0
 62
     5
 63
     8
 74
     1
 91
        4
 64
     7
 65
   257
 75
     1
175
     1
 42
1.0
 92
        8
 66
     8
 43
1.0
 76
     1
 77
     6
 78
     2
 67
     7
 79
     5
170
     0
171
     0
290
     0
174
     0
 93
        1
 44
0.0
173
     0
291
     1
 45
0.0
1001
ACAD
1000
AcDbSavedByObjectVersion
1070
     0
  0
VISUALSTYLE
  5
34
102
{ACAD_REACTORS
330
2A
102
}
102
{ACAD_XDICTIONARY
360
299
102
}
330
2A
100
AcDbVisualStyle
  2
Conceptual
 70
     9
 71
     3
 72
     2
 73
     0
 90
        0
 40
-0.6
 41
-30.0
 62
     5
 63
     7
 74
     2
 91
        2
 64
     7
 65
   257
 75
     1
175
     1
 42
40.0
 92
        8
 66
     7
 43
1.0
 76
     1
 77
     6
 78
     2
 67
     7
 79
     3
170
     0
171
     0
290
     0
174
     0
 93
        1
 44
0.0
173
     0
291
     0
 45
0.0
1001
ACAD
1000
AcDbSavedByObjectVersion
1070
     0
  0
VISUALSTYLE
  5
35
102
{ACAD_REACTORS
330
2A
102
}
102
{ACAD_XDICTIONARY
360
29B
102
}
330
2A
100
AcDbVisualStyle
  2
Dim
 70
    11
 71
     2
 72
     2
 73
     0
 90
        0
 40
-0.6
 41
-30.0
 62
     5
 63
     7
 74
     1
 91
        4
 64
     7
 65
   257
 75
     1
175
     1
 42
1.0
 92
        8
 66
     7
 43
1.0
 76
     1
 77
     6
 78
     2
 67
     7
 79
     5
170
     0
171
     0
290
     0
174
     0
 93
        1
 44
-50.0
173
     0
291
     1
 45
0.0
1001
ACAD
1000
AcDbSavedByObjectVersion
1070
     0
  0
VISUALSTYLE
  5
39
102
{ACAD_REACTORS
330
2A
102
}
102
{ACAD_XDICTIONARY
360
2A3
102
}
330
2A
100
AcDbVisualStyle
  2
Facepattern
 70
    15
 71
     2
 72
     2
 73
     0
 90
        0
 40
-0.6
 41
-30.0
 62
     5
 63
     7
 74
     1
 91
        4
 64
     7
 65
   257
 75
     1
175
     1
 42
1.0
 92
        8
 66
     7
 43
1.0
 76
     1
 77
     6
 78
     2
 67
     7
 79
     5
170
     0
171
     0
290
     0
174
     0
 93
        1
 44
0.0
173
     0
291
     1
 45
0.0
1001
ACAD
1000
AcDbSavedByObjectVersion
1070
     0
  0
VISUALSTYLE
  5
2B
102
{ACAD_REACTORS
330
2A
102
}
102
{ACAD_XDICTIONARY
360
287
102
}
330
2A
100
AcDbVisualStyle
  2
Flat
 70
     0
 71
     2
 72
     1
 73
     1
 90
        2
 40
-0.6
 41
30.0
 62
     5
 63
     7
 74
     0
 91
        4
 64
     7
 65
   257
 75
     1
175
     1
 42
1.0
 92
        8
 66
     7
 43
1.0
 76
     1
 77
     6
 78
     2
 67
     7
 79
     5
170
     0
171
     0
290
     0
174
     0
 93
       13
 44
0.0
173
     0
291
     1
 45
0.0
1001
ACAD
1000
AcDbSavedByObjectVersion
1070
     0
  0
VISUALSTYLE
  5
2C
102
{ACAD_REACTORS
330
2A
102
}
102
{ACAD_XDICTIONARY
360
289
102
}
330
2A
100
AcDbVisualStyle
  2
FlatWithEdges
 70
     1
 71
     2
 72
     1
 73
     1
 90
        2
 40
-0.6
 41
30.0
 62
     5
 63
     7
 74
     1
 91
        4
 64
     7
 65
   257
 75
     1
175
     1
 42
1.0
 92
        0
 66
   257
 43
1.0
 76
     1
 77
     6
 78
     2
 67
     7
 79
     5
170
     0
171
     0
290
     0
174
     0
 93
       13
 44
0.0
173
     0
291
     1
 45
0.0
1001
ACAD
1000
AcDbSavedByObjectVersion
1070
     0
  0
VISUALSTYLE
  5
2D
102
{ACAD_REACTORS
330
2A
102
}
102
{ACAD_XDICTIONARY
360
28B
102
}
330
2A
100
AcDbVisualStyle
  2
Gouraud
 70
     2
 71
     2
 72
     2
 73
     1
 90
        2
 40
-0.6
 41
30.0
 62
     5
 63
     7
 74
     0
 91
        4
 64
     7
 65
   257
 75
     1
175
     1
 42
1.0
 92
        0
 66
     7
 43
1.0
 76
     1
 77
     6
 78
     2
 67
     7
 79
     5
170
     0
171
     0
290
     0
174
     0
 93
       13
 44
0.0
173
     0
291
     1
 45
0.0
1001
ACAD
1000
AcDbSavedByObjectVersion
1070
     0
  0
VISUALSTYLE
  5
2E
102
{ACAD_REACTORS
330
2A
102
}
102
{ACAD_XDICTIONARY
360
28D
102
}
330
2A
100
AcDbVisualStyle
  2
GouraudWithEdges
 70
     3
 71
     2
 72
     2
 73
     1
 90
        2
 40
-0.6
 41
30.0
 62
     5
 63
     7
 74
     1
 91
        4
 64
     7
 65
   257
 75
     1
175
     1
 42
1.0
 92
        0
 66
   257
 43
1.0
 76
     1
 77
     6
 78
     2
 67
     7
 79
     5
170
     0
171
     0
290
     0
174
     0
 93
       13
 44
0.0
173
     0
291
     1
 45
0.0
1001
ACAD
1000
AcDbSavedByObjectVersion
1070
     0
  0
VISUALSTYLE
  5
38
102
{ACAD_REACTORS
330
2A
102
}
102
{ACAD_XDICTIONARY
360
2A1
102
}
330
2A
100
AcDbVisualStyle
  2
Linepattern
 70
    14
 71
     2
 72
     2
 73
     0
 90
        0
 40
-0.6
 41
-30.0
 62
     5
 63
     7
 74
     1
 91
        4
 64
     7
 65
   257
 75
     7
175
     7
 42
1.0
 92
        8
 66
     7
 43
1.0
 76
     1
 77
     6
 78
     2
 67
     7
 79
     5
170
     0
171
     0
290
     0
174
     0
 93
        1
 44
0.0
173
     0
291
     1
 45
0.0
1001
ACAD
1000
AcDbSavedByObjectVersion
1070
     0
  0
VISUALSTYLE
  5
33
102
{ACAD_REACTORS
330
2A
102
}
102
{ACAD_XDICTIONARY
360
297
102
}
330
2A
100
AcDbVisualStyle
  2
Realistic
 70
     8
 71
     2
 72
     2
 73
     0
 90
        0
 40
-0.6
 41
-30.0
 62
     5
 63
     7
 74
     1
 91
        0
 64
     7
 65
   257
 75
     1
175
     1
 42
1.0
 92
        8
 66
     8
 43
1.0
 76
     1
 77
     6
 78
     2
 67
     7
 79
     5
170
     0
171
     0
290
     0
174
     0
 93
       13
 44
0.0
173
     0
291
     0
 45
0.0
1001
ACAD
1000
AcDbSavedByObjectVersion
1070
     0
  0
VISUALSTYLE
  5
37
102
{ACAD_REACTORS
330
2A
102
}
102
{ACAD_XDICTIONARY
360
29F
102
}
330
2A
100
AcDbVisualStyle
  2
Thicken
 70
    13
 71
     2
 72
     2
 73
     0
 90
        0
 40
-0.6
 41
-30.0
 62
     5
 63
     7
 74
     1
 91
        4
 64
     7
 65
   257
 75
     1
175
     1
 42
1.0
 92
       12
 66
     7
 43
1.0
 76
     1
 77
     6
 78
     2
 67
     7
 79
     5
170
     0
171
     0
290
     0
174
     0
 93
        1
 44
0.0
173
     0
291
     1
 45
0.0
1001
ACAD
1000
AcDbSavedByObjectVersion
1070
     0
  0
DICTIONARYVAR
  5
285
102
{ACAD_REACTORS
330
282
102
}
330
282
100
DictionaryVariables
280
     0
  1
2
  0
DICTIONARYVAR
  5
286
102
{ACAD_REACTORS
330
282
102
}
330
282
100
DictionaryVariables
280
     0
  1
1
  0
DICTIONARY
  5
2A9
330
3D
100
AcDbDictionary
280
     1
281
     1
  3
ACAD_XREC_ROUNDTRIP
360
2AA
  0
DICTIONARY
  5
2A7
330
3C
100
AcDbDictionary
280
     1
281
     1
  3
ACAD_XREC_ROUNDTRIP
360
2A8
  0
DICTIONARY
  5
2AB
330
3E
100
AcDbDictionary
280
     1
281
     1
  3
ACAD_XREC_ROUNDTRIP
360
2AC
  0
DICTIONARY
  5
28F
330
2F
100
AcDbDictionary
280
     1
281
     1
  3
ACAD_XREC_ROUNDTRIP
360
290
  0
DICTIONARY
  5
293
330
31
100
AcDbDictionary
280
     1
281
     1
  3
ACAD_XREC_ROUNDTRIP
360
294
  0
DICTIONARY
  5
291
330
30
100
AcDbDictionary
280
     1
281
     1
  3
ACAD_XREC_ROUNDTRIP
360
292
  0
DICTIONARY
  5
295
330
32
100
AcDbDictionary
280
     1
281
     1
  3
ACAD_XREC_ROUNDTRIP
360
296
  0
DICTIONARY
  5
29D
330
36
100
AcDbDictionary
280
     1
281
     1
  3
ACAD_XREC_ROUNDTRIP
360
29E
  0
DICTIONARY
  5
2A5
330
3A
100
AcDbDictionary
280
     1
281
     1
  3
ACAD_XREC_ROUNDTRIP
360
2A6
  0
DICTIONARY
  5
299
330
34
100
AcDbDictionary
280
     1
281
     1
  3
ACAD_XREC_ROUNDTRIP
360
29A
  0
DICTIONARY
  5
29B
330
35
100
AcDbDictionary
280
     1
281
     1
  3
ACAD_XREC_ROUNDTRIP
360
29C
  0
DICTIONARY
  5
2A3
330
39
100
AcDbDictionary
280
     1
281
     1
  3
ACAD_XREC_ROUNDTRIP
360
2A4
  0
DICTIONARY
  5
287
330
2B
100
AcDbDictionary
280
     1
281
     1
  3
ACAD_XREC_ROUNDTRIP
360
288
  0
DICTIONARY
  5
289
330
2C
100
AcDbDictionary
280
     1
281
     1
  3
ACAD_XREC_ROUNDTRIP
360
28A
  0
DICTIONARY
  5
28B
330
2D
100
AcDbDictionary
280
     1
281
     1
  3
ACAD_XREC_ROUNDTRIP
360
28C
  0
DICTIONARY
  5
28D
330
2E
100
AcDbDictionary
280
     1
281
     1
  3
ACAD_XREC_ROUNDTRIP
360
28E
  0
DICTIONARY
  5
2A1
330
38
100
AcDbDictionary
280
     1
281
     1
  3
ACAD_XREC_ROUNDTRIP
360
2A2
  0
DICTIONARY
  5
297
330
33
100
AcDbDictionary
280
     1
281
     1
  3
ACAD_XREC_ROUNDTRIP
360
298
  0
DICTIONARY
  5
29F
330
37
100
AcDbDictionary
280
     1
281
     1
  3
ACAD_XREC_ROUNDTRIP
360
2A0
  0
XRECORD
  5
2AA
102
{ACAD_REACTORS
330
2A9
102
}
330
2A9
100
AcDbXrecord
280
     1
102
MATERIAL
148
0.0
149
0.0
149
0.0
 93
        0
 94
      127
282
     0
 72
     1
 77
     1
171
     1
175
     1
179
     1
273
     0
  0
XRECORD
  5
2A8
102
{ACAD_REACTORS
330
2A7
102
}
330
2A7
100
AcDbXrecord
280
     1
102
MATERIAL
148
0.0
149
0.0
149
0.0
 93
        0
 94
      127
282
     0
 72
     1
 77
     1
171
     1
175
     1
179
     1
273
     0
  0
XRECORD
  5
2AC
102
{ACAD_REACTORS
330
2AB
102
}
330
2AB
100
AcDbXrecord
280
     1
102
MATERIAL
148
0.0
149
0.0
149
0.0
 93
        0
 94
      127
282
     0
 72
     1
 77
     1
171
     1
175
     1
179
     1
273
     0
  0
XRECORD
  5
290
102
{ACAD_REACTORS
330
28F
102
}
330
28F
100
AcDbXrecord
280
     1
102
RTVSPropertyOp0
 70
     1
102
RTVSPropertyOp1
 70
     1
102
RTVSPropertyOp2
 70
     1
102
RTVSPropertyOp3
 70
     1
102
RTVSPropertyOp4
 70
     1
102
RTVSPropertyOp5
 70
     1
102
RTVSPropertyOp6
 70
     1
102
RTVSPropertyOp7
 70
     1
102
RTVSPropertyOp8
 70
     1
102
RTVSPropertyOp9
 70
     1
102
RTVSPropertyOp10
 70
     1
102
RTVSPropertyOp11
 70
     1
102
RTVSPropertyOp12
 70
     1
102
RTVSPropertyOp13
 70
     1
102
RTVSPropertyOp14
 70
     1
102
RTVSPropertyOp15
 70
     1
102
RTVSPropertyOp16
 70
     1
102
RTVSPropertyOp17
 70
     1
102
RTVSPropertyOp18
 70
     1
102
RTVSPropertyOp19
 70
     1
102
RTVSPropertyOp20
 70
     1
102
RTVSPropertyOp21
 70
     1
102
RTVSPropertyOp22
 70
     1
102
RTVSPropertyOp23
 70
     1
102
RTVSPropertyOp24
 70
     1
102
RTVSPropertyOp25
 70
     1
102
RTVSPropertyOp26
 70
     1
102
RTVSPropertyOp27
 70
     1
102
RTVSPropertyOp28
 70
     1
102
RTVSPropertyOp29
 70
     1
102
RTVSPropertyOp30
 70
     1
102
RTVSPropertyOp31
 70
     1
102
RTVSPropertyOp32
 70
     1
  0
XRECORD
  5
294
102
{ACAD_REACTORS
330
293
102
}
330
293
100
AcDbXrecord
280
     1
102
RTVSPropertyOp0
 70
     1
102
RTVSPropertyOp1
 70
     1
102
RTVSPropertyOp2
 70
     1
102
RTVSPropertyOp3
 70
     1
102
RTVSPropertyOp4
 70
     1
102
RTVSPropertyOp5
 70
     1
102
RTVSPropertyOp6
 70
     1
102
RTVSPropertyOp7
 70
     1
102
RTVSPropertyOp8
 70
     1
102
RTVSPropertyOp9
 70
     1
102
RTVSPropertyOp10
 70
     1
102
RTVSPropertyOp11
 70
     1
102
RTVSPropertyOp12
 70
     1
102
RTVSPropertyOp13
 70
     1
102
RTVSPropertyOp14
 70
     1
102
RTVSPropertyOp15
 70
     1
102
RTVSPropertyOp16
 70
     1
102
RTVSPropertyOp17
 70
     1
102
RTVSPropertyOp18
 70
     1
102
RTVSPropertyOp19
 70
     1
102
RTVSPropertyOp20
 70
     1
102
RTVSPropertyOp21
 70
     1
102
RTVSPropertyOp22
 70
     1
102
RTVSPropertyOp23
 70
     1
102
RTVSPropertyOp24
 70
     1
102
RTVSPropertyOp25
 70
     1
102
RTVSPropertyOp26
 70
     1
102
RTVSPropertyOp27
 70
     1
102
RTVSPropertyOp28
 70
     1
102
RTVSPropertyOp29
 70
     1
102
RTVSPropertyOp30
 70
     1
102
RTVSPropertyOp31
 70
     1
102
RTVSPropertyOp32
 70
     1
  0
XRECORD
  5
292
102
{ACAD_REACTORS
330
291
102
}
330
291
100
AcDbXrecord
280
     1
102
RTVSPropertyOp0
 70
     1
102
RTVSPropertyOp1
 70
     1
102
RTVSPropertyOp2
 70
     1
102
RTVSPropertyOp3
 70
     1
102
RTVSPropertyOp4
 70
     1
102
RTVSPropertyOp5
 70
     1
102
RTVSPropertyOp6
 70
     1
102
RTVSPropertyOp7
 70
     1
102
RTVSPropertyOp8
 70
     1
102
RTVSPropertyOp9
 70
     1
102
RTVSPropertyOp10
 70
     1
102
RTVSPropertyOp11
 70
     1
102
RTVSPropertyOp12
 70
     1
102
RTVSPropertyOp13
 70
     1
102
RTVSPropertyOp14
 70
     1
102
RTVSPropertyOp15
 70
     1
102
RTVSPropertyOp16
 70
     1
102
RTVSPropertyOp17
 70
     1
102
RTVSPropertyOp18
 70
     1
102
RTVSPropertyOp19
 70
     1
102
RTVSPropertyOp20
 70
     1
102
RTVSPropertyOp21
 70
     1
102
RTVSPropertyOp22
 70
     1
102
RTVSPropertyOp23
 70
     1
102
RTVSPropertyOp24
 70
     1
102
RTVSPropertyOp25
 70
     1
102
RTVSPropertyOp26
 70
     1
102
RTVSPropertyOp27
 70
     1
102
RTVSPropertyOp28
 70
     1
102
RTVSPropertyOp29
 70
     1
102
RTVSPropertyOp30
 70
     1
102
RTVSPropertyOp31
 70
     1
102
RTVSPropertyOp32
 70
     1
  0
XRECORD
  5
296
102
{ACAD_REACTORS
330
295
102
}
330
295
100
AcDbXrecord
280
     1
102
RTVSPropertyOp0
 70
     1
102
RTVSPropertyOp1
 70
     1
102
RTVSPropertyOp2
 70
     1
102
RTVSPropertyOp3
 70
     1
102
RTVSPropertyOp4
 70
     1
102
RTVSPropertyOp5
 70
     1
102
RTVSPropertyOp6
 70
     1
102
RTVSPropertyOp7
 70
     1
102
RTVSPropertyOp8
 70
     1
102
RTVSPropertyOp9
 70
     1
102
RTVSPropertyOp10
 70
     1
102
RTVSPropertyOp11
 70
     1
102
RTVSPropertyOp12
 70
     1
102
RTVSPropertyOp13
 70
     1
102
RTVSPropertyOp14
 70
     1
102
RTVSPropertyOp15
 70
     1
102
RTVSPropertyOp16
 70
     1
102
RTVSPropertyOp17
 70
     1
102
RTVSPropertyOp18
 70
     1
102
RTVSPropertyOp19
 70
     1
102
RTVSPropertyOp20
 70
     1
102
RTVSPropertyOp21
 70
     1
102
RTVSPropertyOp22
 70
     1
102
RTVSPropertyOp23
 70
     1
102
RTVSPropertyOp24
 70
     1
102
RTVSPropertyOp25
 70
     1
102
RTVSPropertyOp26
 70
     1
102
RTVSPropertyOp27
 70
     1
102
RTVSPropertyOp28
 70
     1
102
RTVSPropertyOp29
 70
     1
102
RTVSPropertyOp30
 70
     1
102
RTVSPropertyOp31
 70
     1
102
RTVSPropertyOp32
 70
     1
  0
XRECORD
  5
29E
102
{ACAD_REACTORS
330
29D
102
}
330
29D
100
AcDbXrecord
280
     1
102
RTVSPropertyOp0
 70
     1
102
RTVSPropertyOp1
 70
     1
102
RTVSPropertyOp2
 70
     1
102
RTVSPropertyOp3
 70
     1
102
RTVSPropertyOp4
 70
     1
102
RTVSPropertyOp5
 70
     1
102
RTVSPropertyOp6
 70
     1
102
RTVSPropertyOp7
 70
     1
102
RTVSPropertyOp8
 70
     1
102
RTVSPropertyOp9
 70
     1
102
RTVSPropertyOp10
 70
     1
102
RTVSPropertyOp11
 70
     1
102
RTVSPropertyOp12
 70
     1
102
RTVSPropertyOp13
 70
     1
102
RTVSPropertyOp14
 70
     1
102
RTVSPropertyOp15
 70
     1
102
RTVSPropertyOp16
 70
     1
102
RTVSPropertyOp17
 70
     1
102
RTVSPropertyOp18
 70
     1
102
RTVSPropertyOp19
 70
     1
102
RTVSPropertyOp20
 70
     1
102
RTVSPropertyOp21
 70
     1
102
RTVSPropertyOp22
 70
     1
102
RTVSPropertyOp23
 70
     1
102
RTVSPropertyOp24
 70
     1
102
RTVSPropertyOp25
 70
     1
102
RTVSPropertyOp26
 70
     1
102
RTVSPropertyOp27
 70
     1
102
RTVSPropertyOp28
 70
     1
102
RTVSPropertyOp29
 70
     1
102
RTVSPropertyOp30
 70
     1
102
RTVSPropertyOp31
 70
     1
102
RTVSPropertyOp32
 70
     1
  0
XRECORD
  5
2A6
102
{ACAD_REACTORS
330
2A5
102
}
330
2A5
100
AcDbXrecord
280
     1
102
RTVSPropertyOp0
 70
     1
102
RTVSPropertyOp1
 70
     1
102
RTVSPropertyOp2
 70
     1
102
RTVSPropertyOp3
 70
     1
102
RTVSPropertyOp4
 70
     1
102
RTVSPropertyOp5
 70
     1
102
RTVSPropertyOp6
 70
     1
102
RTVSPropertyOp7
 70
     1
102
RTVSPropertyOp8
 70
     1
102
RTVSPropertyOp9
 70
     1
102
RTVSPropertyOp10
 70
     1
102
RTVSPropertyOp11
 70
     1
102
RTVSPropertyOp12
 70
     1
102
RTVSPropertyOp13
 70
     1
102
RTVSPropertyOp14
 70
     1
102
RTVSPropertyOp15
 70
     1
102
RTVSPropertyOp16
 70
     1
102
RTVSPropertyOp17
 70
     1
102
RTVSPropertyOp18
 70
     1
102
RTVSPropertyOp19
 70
     1
102
RTVSPropertyOp20
 70
     1
102
RTVSPropertyOp21
 70
     1
102
RTVSPropertyOp22
 70
     1
102
RTVSPropertyOp23
 70
     1
102
RTVSPropertyOp24
 70
     1
102
RTVSPropertyOp25
 70
     1
102
RTVSPropertyOp26
 70
     1
102
RTVSPropertyOp27
 70
     1
102
RTVSPropertyOp28
 70
     1
102
RTVSPropertyOp29
 70
     1
102
RTVSPropertyOp30
 70
     1
102
RTVSPropertyOp31
 70
     1
102
RTVSPropertyOp32
 70
     1
  0
XRECORD
  5
29A
102
{ACAD_REACTORS
330
299
102
}
330
299
100
AcDbXrecord
280
     1
102
RTVSPropertyOp0
 70
     1
102
RTVSPropertyOp1
 70
     1
102
RTVSPropertyOp2
 70
     1
102
RTVSPropertyOp3
 70
     1
102
RTVSPropertyOp4
 70
     1
102
RTVSPropertyOp5
 70
     1
102
RTVSPropertyOp6
 70
     1
102
RTVSPropertyOp7
 70
     1
102
RTVSPropertyOp8
 70
     1
102
RTVSPropertyOp9
 70
     1
102
RTVSPropertyOp10
 70
     1
102
RTVSPropertyOp11
 70
     1
102
RTVSPropertyOp12
 70
     1
102
RTVSPropertyOp13
 70
     1
102
RTVSPropertyOp14
 70
     1
102
RTVSPropertyOp15
 70
     1
102
RTVSPropertyOp16
 70
     1
102
RTVSPropertyOp17
 70
     1
102
RTVSPropertyOp18
 70
     1
102
RTVSPropertyOp19
 70
     1
102
RTVSPropertyOp20
 70
     1
102
RTVSPropertyOp21
 70
     1
102
RTVSPropertyOp22
 70
     1
102
RTVSPropertyOp23
 70
     1
102
RTVSPropertyOp24
 70
     1
102
RTVSPropertyOp25
 70
     1
102
RTVSPropertyOp26
 70
     1
102
RTVSPropertyOp27
 70
     1
102
RTVSPropertyOp28
 70
     1
102
RTVSPropertyOp29
 70
     1
102
RTVSPropertyOp30
 70
     1
102
RTVSPropertyOp31
 70
     1
102
RTVSPropertyOp32
 70
     1
  0
XRECORD
  5
29C
102
{ACAD_REACTORS
330
29B
102
}
330
29B
100
AcDbXrecord
280
     1
102
RTVSPropertyOp0
 70
     1
102
RTVSPropertyOp1
 70
     1
102
RTVSPropertyOp2
 70
     1
102
RTVSPropertyOp3
 70
     1
102
RTVSPropertyOp4
 70
     1
102
RTVSPropertyOp5
 70
     1
102
RTVSPropertyOp6
 70
     1
102
RTVSPropertyOp7
 70
     1
102
RTVSPropertyOp8
 70
     1
102
RTVSPropertyOp9
 70
     1
102
RTVSPropertyOp10
 70
     1
102
RTVSPropertyOp11
 70
     1
102
RTVSPropertyOp12
 70
     1
102
RTVSPropertyOp13
 70
     1
102
RTVSPropertyOp14
 70
     1
102
RTVSPropertyOp15
 70
     1
102
RTVSPropertyOp16
 70
     1
102
RTVSPropertyOp17
 70
     1
102
RTVSPropertyOp18
 70
     1
102
RTVSPropertyOp19
 70
     1
102
RTVSPropertyOp20
 70
     1
102
RTVSPropertyOp21
 70
     1
102
RTVSPropertyOp22
 70
     1
102
RTVSPropertyOp23
 70
     1
102
RTVSPropertyOp24
 70
     1
102
RTVSPropertyOp25
 70
     1
102
RTVSPropertyOp26
 70
     1
102
RTVSPropertyOp27
 70
     1
102
RTVSPropertyOp28
 70
     1
102
RTVSPropertyOp29
 70
     1
102
RTVSPropertyOp30
 70
     1
102
RTVSPropertyOp31
 70
     1
102
RTVSPropertyOp32
 70
     1
  0
XRECORD
  5
2A4
102
{ACAD_REACTORS
330
2A3
102
}
330
2A3
100
AcDbXrecord
280
     1
102
RTVSPropertyOp0
 70
     1
102
RTVSPropertyOp1
 70
     1
102
RTVSPropertyOp2
 70
     1
102
RTVSPropertyOp3
 70
     1
102
RTVSPropertyOp4
 70
     1
102
RTVSPropertyOp5
 70
     1
102
RTVSPropertyOp6
 70
     1
102
RTVSPropertyOp7
 70
     1
102
RTVSPropertyOp8
 70
     1
102
RTVSPropertyOp9
 70
     1
102
RTVSPropertyOp10
 70
     1
102
RTVSPropertyOp11
 70
     1
102
RTVSPropertyOp12
 70
     1
102
RTVSPropertyOp13
 70
     1
102
RTVSPropertyOp14
 70
     1
102
RTVSPropertyOp15
 70
     1
102
RTVSPropertyOp16
 70
     1
102
RTVSPropertyOp17
 70
     1
102
RTVSPropertyOp18
 70
     1
102
RTVSPropertyOp19
 70
     1
102
RTVSPropertyOp20
 70
     1
102
RTVSPropertyOp21
 70
     1
102
RTVSPropertyOp22
 70
     1
102
RTVSPropertyOp23
 70
     1
102
RTVSPropertyOp24
 70
     1
102
RTVSPropertyOp25
 70
     1
102
RTVSPropertyOp26
 70
     1
102
RTVSPropertyOp27
 70
     1
102
RTVSPropertyOp28
 70
     1
102
RTVSPropertyOp29
 70
     1
102
RTVSPropertyOp30
 70
     1
102
RTVSPropertyOp31
 70
     1
102
RTVSPropertyOp32
 70
     1
  0
XRECORD
  5
288
102
{ACAD_REACTORS
330
287
102
}
330
287
100
AcDbXrecord
280
     1
102
RTVSPropertyOp0
 70
     1
102
RTVSPropertyOp1
 70
     1
102
RTVSPropertyOp2
 70
     1
102
RTVSPropertyOp3
 70
     1
102
RTVSPropertyOp4
 70
     1
102
RTVSPropertyOp5
 70
     1
102
RTVSPropertyOp6
 70
     1
102
RTVSPropertyOp7
 70
     1
102
RTVSPropertyOp8
 70
     1
102
RTVSPropertyOp9
 70
     1
102
RTVSPropertyOp10
 70
     1
102
RTVSPropertyOp11
 70
     1
102
RTVSPropertyOp12
 70
     1
102
RTVSPropertyOp13
 70
     1
102
RTVSPropertyOp14
 70
     1
102
RTVSPropertyOp15
 70
     1
102
RTVSPropertyOp16
 70
     1
102
RTVSPropertyOp17
 70
     1
102
RTVSPropertyOp18
 70
     1
102
RTVSPropertyOp19
 70
     1
102
RTVSPropertyOp20
 70
     1
102
RTVSPropertyOp21
 70
     1
102
RTVSPropertyOp22
 70
     1
102
RTVSPropertyOp23
 70
     1
102
RTVSPropertyOp24
 70
     1
102
RTVSPropertyOp25
 70
     1
102
RTVSPropertyOp26
 70
     1
102
RTVSPropertyOp27
 70
     1
102
RTVSPropertyOp28
 70
     1
102
RTVSPropertyOp29
 70
     1
102
RTVSPropertyOp30
 70
     1
102
RTVSPropertyOp31
 70
     1
102
RTVSPropertyOp32
 70
     1
  0
XRECORD
  5
28A
102
{ACAD_REACTORS
330
289
102
}
330
289
100
AcDbXrecord
280
     1
102
RTVSPropertyOp0
 70
     1
102
RTVSPropertyOp1
 70
     1
102
RTVSPropertyOp2
 70
     1
102
RTVSPropertyOp3
 70
     1
102
RTVSPropertyOp4
 70
     1
102
RTVSPropertyOp5
 70
     1
102
RTVSPropertyOp6
 70
     1
102
RTVSPropertyOp7
 70
     1
102
RTVSPropertyOp8
 70
     1
102
RTVSPropertyOp9
 70
     1
102
RTVSPropertyOp10
 70
     1
102
RTVSPropertyOp11
 70
     1
102
RTVSPropertyOp12
 70
     1
102
RTVSPropertyOp13
 70
     1
102
RTVSPropertyOp14
 70
     1
102
RTVSPropertyOp15
 70
     1
102
RTVSPropertyOp16
 70
     1
102
RTVSPropertyOp17
 70
     1
102
RTVSPropertyOp18
 70
     1
102
RTVSPropertyOp19
 70
     1
102
RTVSPropertyOp20
 70
     1
102
RTVSPropertyOp21
 70
     1
102
RTVSPropertyOp22
 70
     1
102
RTVSPropertyOp23
 70
     1
102
RTVSPropertyOp24
 70
     1
102
RTVSPropertyOp25
 70
     1
102
RTVSPropertyOp26
 70
     1
102
RTVSPropertyOp27
 70
     1
102
RTVSPropertyOp28
 70
     1
102
RTVSPropertyOp29
 70
     1
102
RTVSPropertyOp30
 70
     1
102
RTVSPropertyOp31
 70
     1
102
RTVSPropertyOp32
 70
     1
  0
XRECORD
  5
28C
102
{ACAD_REACTORS
330
28B
102
}
330
28B
100
AcDbXrecord
280
     1
102
RTVSPropertyOp0
 70
     1
102
RTVSPropertyOp1
 70
     1
102
RTVSPropertyOp2
 70
     1
102
RTVSPropertyOp3
 70
     1
102
RTVSPropertyOp4
 70
     1
102
RTVSPropertyOp5
 70
     1
102
RTVSPropertyOp6
 70
     1
102
RTVSPropertyOp7
 70
     1
102
RTVSPropertyOp8
 70
     1
102
RTVSPropertyOp9
 70
     1
102
RTVSPropertyOp10
 70
     1
102
RTVSPropertyOp11
 70
     1
102
RTVSPropertyOp12
 70
     1
102
RTVSPropertyOp13
 70
     1
102
RTVSPropertyOp14
 70
     1
102
RTVSPropertyOp15
 70
     1
102
RTVSPropertyOp16
 70
     1
102
RTVSPropertyOp17
 70
     1
102
RTVSPropertyOp18
 70
     1
102
RTVSPropertyOp19
 70
     1
102
RTVSPropertyOp20
 70
     1
102
RTVSPropertyOp21
 70
     1
102
RTVSPropertyOp22
 70
     1
102
RTVSPropertyOp23
 70
     1
102
RTVSPropertyOp24
 70
     1
102
RTVSPropertyOp25
 70
     1
102
RTVSPropertyOp26
 70
     1
102
RTVSPropertyOp27
 70
     1
102
RTVSPropertyOp28
 70
     1
102
RTVSPropertyOp29
 70
     1
102
RTVSPropertyOp30
 70
     1
102
RTVSPropertyOp31
 70
     1
102
RTVSPropertyOp32
 70
     1
  0
XRECORD
  5
28E
102
{ACAD_REACTORS
330
28D
102
}
330
28D
100
AcDbXrecord
280
     1
102
RTVSPropertyOp0
 70
     1
102
RTVSPropertyOp1
 70
     1
102
RTVSPropertyOp2
 70
     1
102
RTVSPropertyOp3
 70
     1
102
RTVSPropertyOp4
 70
     1
102
RTVSPropertyOp5
 70
     1
102
RTVSPropertyOp6
 70
     1
102
RTVSPropertyOp7
 70
     1
102
RTVSPropertyOp8
 70
     1
102
RTVSPropertyOp9
 70
     1
102
RTVSPropertyOp10
 70
     1
102
RTVSPropertyOp11
 70
     1
102
RTVSPropertyOp12
 70
     1
102
RTVSPropertyOp13
 70
     1
102
RTVSPropertyOp14
 70
     1
102
RTVSPropertyOp15
 70
     1
102
RTVSPropertyOp16
 70
     1
102
RTVSPropertyOp17
 70
     1
102
RTVSPropertyOp18
 70
     1
102
RTVSPropertyOp19
 70
     1
102
RTVSPropertyOp20
 70
     1
102
RTVSPropertyOp21
 70
     1
102
RTVSPropertyOp22
 70
     1
102
RTVSPropertyOp23
 70
     1
102
RTVSPropertyOp24
 70
     1
102
RTVSPropertyOp25
 70
     1
102
RTVSPropertyOp26
 70
     1
102
RTVSPropertyOp27
 70
     1
102
RTVSPropertyOp28
 70
     1
102
RTVSPropertyOp29
 70
     1
102
RTVSPropertyOp30
 70
     1
102
RTVSPropertyOp31
 70
     1
102
RTVSPropertyOp32
 70
     1
  0
XRECORD
  5
2A2
102
{ACAD_REACTORS
330
2A1
102
}
330
2A1
100
AcDbXrecord
280
     1
102
RTVSPropertyOp0
 70
     1
102
RTVSPropertyOp1
 70
     1
102
RTVSPropertyOp2
 70
     1
102
RTVSPropertyOp3
 70
     1
102
RTVSPropertyOp4
 70
     1
102
RTVSPropertyOp5
 70
     1
102
RTVSPropertyOp6
 70
     1
102
RTVSPropertyOp7
 70
     1
102
RTVSPropertyOp8
 70
     1
102
RTVSPropertyOp9
 70
     1
102
RTVSPropertyOp10
 70
     1
102
RTVSPropertyOp11
 70
     1
102
RTVSPropertyOp12
 70
     1
102
RTVSPropertyOp13
 70
     1
102
RTVSPropertyOp14
 70
     1
102
RTVSPropertyOp15
 70
     1
102
RTVSPropertyOp16
 70
     1
102
RTVSPropertyOp17
 70
     1
102
RTVSPropertyOp18
 70
     1
102
RTVSPropertyOp19
 70
     1
102
RTVSPropertyOp20
 70
     1
102
RTVSPropertyOp21
 70
     1
102
RTVSPropertyOp22
 70
     1
102
RTVSPropertyOp23
 70
     1
102
RTVSPropertyOp24
 70
     1
102
RTVSPropertyOp25
 70
     1
102
RTVSPropertyOp26
 70
     1
102
RTVSPropertyOp27
 70
     1
102
RTVSPropertyOp28
 70
     1
102
RTVSPropertyOp29
 70
     1
102
RTVSPropertyOp30
 70
     1
102
RTVSPropertyOp31
 70
     1
102
RTVSPropertyOp32
 70
     1
  0
XRECORD
  5
298
102
{ACAD_REACTORS
330
297
102
}
330
297
100
AcDbXrecord
280
     1
102
RTVSPropertyOp0
 70
     1
102
RTVSPropertyOp1
 70
     1
102
RTVSPropertyOp2
 70
     1
102
RTVSPropertyOp3
 70
     1
102
RTVSPropertyOp4
 70
     1
102
RTVSPropertyOp5
 70
     1
102
RTVSPropertyOp6
 70
     1
102
RTVSPropertyOp7
 70
     1
102
RTVSPropertyOp8
 70
     1
102
RTVSPropertyOp9
 70
     1
102
RTVSPropertyOp10
 70
     1
102
RTVSPropertyOp11
 70
     1
102
RTVSPropertyOp12
 70
     1
102
RTVSPropertyOp13
 70
     1
102
RTVSPropertyOp14
 70
     1
102
RTVSPropertyOp15
 70
     1
102
RTVSPropertyOp16
 70
     1
102
RTVSPropertyOp17
 70
     1
102
RTVSPropertyOp18
 70
     1
102
RTVSPropertyOp19
 70
     1
102
RTVSPropertyOp20
 70
     1
102
RTVSPropertyOp21
 70
     1
102
RTVSPropertyOp22
 70
     1
102
RTVSPropertyOp23
 70
     1
102
RTVSPropertyOp24
 70
     1
102
RTVSPropertyOp25
 70
     1
102
RTVSPropertyOp26
 70
     1
102
RTVSPropertyOp27
 70
     1
102
RTVSPropertyOp28
 70
     1
102
RTVSPropertyOp29
 70
     1
102
RTVSPropertyOp30
 70
     1
102
RTVSPropertyOp31
 70
     1
102
RTVSPropertyOp32
 70
     1
  0
XRECORD
  5
2A0
102
{ACAD_REACTORS
330
29F
102
}
330
29F
100
AcDbXrecord
280
     1
102
RTVSPropertyOp0
 70
     1
102
RTVSPropertyOp1
 70
     1
102
RTVSPropertyOp2
 70
     1
102
RTVSPropertyOp3
 70
     1
102
RTVSPropertyOp4
 70
     1
102
RTVSPropertyOp5
 70
     1
102
RTVSPropertyOp6
 70
     1
102
RTVSPropertyOp7
 70
     1
102
RTVSPropertyOp8
 70
     1
102
RTVSPropertyOp9
 70
     1
102
RTVSPropertyOp10
 70
     1
102
RTVSPropertyOp11
 70
     1
102
RTVSPropertyOp12
 70
     1
102
RTVSPropertyOp13
 70
     1
102
RTVSPropertyOp14
 70
     1
102
RTVSPropertyOp15
 70
     1
102
RTVSPropertyOp16
 70
     1
102
RTVSPropertyOp17
 70
     1
102
RTVSPropertyOp18
 70
     1
102
RTVSPropertyOp19
 70
     1
102
RTVSPropertyOp20
 70
     1
102
RTVSPropertyOp21
 70
     1
102
RTVSPropertyOp22
 70
     1
102
RTVSPropertyOp23
 70
     1
102
RTVSPropertyOp24
 70
     1
102
RTVSPropertyOp25
 70
     1
102
RTVSPropertyOp26
 70
     1
102
RTVSPropertyOp27
 70
     1
102
RTVSPropertyOp28
 70
     1
102
RTVSPropertyOp29
 70
     1
102
RTVSPropertyOp30
 70
     1
102
RTVSPropertyOp31
 70
     1
102
RTVSPropertyOp32
 70
     1
  0
ENDSEC
  0
EOF
