  0
SECTION
  2
HEADER
  9
$ACADVER
  1
AC1015
  9
$ACADMAINTVER
 70
     6
  9
$DWGCODEPAGE
  3
ANSI_1252
  9
$INSBASE
 10
0.0
 20
0.0
 30
0.0
  9
$EXTMIN
 10
-396.3000002490029
 20
-266.900926994912
 30
0.0
  9
$EXTMAX
 10
-99.30000024900482
 20
-56.90092699491191
 30
0.0
  9
$LIMMIN
 10
0.0
 20
0.0
  9
$LIMMAX
 10
12.0
 20
9.0
  9
$ORTHOMODE
 70
     0
  9
$REGENMODE
 70
     1
  9
$FILLMODE
 70
     1
  9
$QTEXTMODE
 70
     0
  9
$MIRRTEXT
 70
     1
  9
$LTSCALE
 40
1.0
  9
$ATTMODE
 70
     1
  9
$TEXTSIZE
 40
0.2
  9
$TRACEWID
 40
0.05
  9
$TEXTSTYLE
  7
Standard
  9
$CLAYER
  8
0
  9
$CELTYPE
  6
ByLayer
  9
$CECOLOR
 62
   256
  9
$CELTSCALE
 40
1.0
  9
$DISPSILH
 70
     0
  9
$DIMSCALE
 40
1.0
  9
$DIMASZ
 40
0.18
  9
$DIMEXO
 40
0.0625
  9
$DIMDLI
 40
0.38
  9
$DIMRND
 40
0.0
  9
$DIMDLE
 40
0.0
  9
$DIMEXE
 40
0.18
  9
$DIMTP
 40
0.0
  9
$DIMTM
 40
0.0
  9
$DIMTXT
 40
0.18
  9
$DIMCEN
 40
0.09
  9
$DIMTSZ
 40
0.0
  9
$DIMTOL
 70
     0
  9
$DIMLIM
 70
     0
  9
$DIMTIH
 70
     1
  9
$DIMTOH
 70
     1
  9
$DIMSE1
 70
     0
  9
$DIMSE2
 70
     0
  9
$DIMTAD
 70
     0
  9
$DIMZIN
 70
     0
  9
$DIMBLK
  1

  9
$DIMASO
 70
     1
  9
$DIMSHO
 70
     1
  9
$DIMPOST
  1

  9
$DIMAPOST
  1

  9
$DIMALT
 70
     0
  9
$DIMALTD
 70
     2
  9
$DIMALTF
 40
25.4
  9
$DIMLFAC
 40
1.0
  9
$DIMTOFL
 70
     0
  9
$DIMTVP
 40
0.0
  9
$DIMTIX
 70
     0
  9
$DIMSOXD
 70
     0
  9
$DIMSAH
 70
     0
  9
$DIMBLK1
  1

  9
$DIMBLK2
  1

  9
$DIMSTYLE
  2
Standard
  9
$DIMCLRD
 70
     0
  9
$DIMCLRE
 70
     0
  9
$DIMCLRT
 70
     0
  9
$DIMTFAC
 40
1.0
  9
$DIMGAP
 40
0.09
  9
$DIMJUST
 70
     0
  9
$DIMSD1
 70
     0
  9
$DIMSD2
 70
     0
  9
$DIMTOLJ
 70
     1
  9
$DIMTZIN
 70
     0
  9
$DIMALTZ
 70
     0
  9
$DIMALTTZ
 70
     0
  9
$DIMUPT
 70
     0
  9
$DIMDEC
 70
     4
  9
$DIMTDEC
 70
     4
  9
$DIMALTU
 70
     2
  9
$DIMALTTD
 70
     2
  9
$DIMTXSTY
  7
Standard
  9
$DIMAUNIT
 70
     0
  9
$DIMADEC
 70
     0
  9
$DIMALTRND
 40
0.0
  9
$DIMAZIN
 70
     0
  9
$DIMDSEP
 70
    46
  9
$DIMATFIT
 70
     3
  9
$DIMFRAC
 70
     0
  9
$DIMLDRBLK
  1

  9
$DIMLUNIT
 70
     2
  9
$DIMLWD
 70
    -2
  9
$DIMLWE
 70
    -2
  9
$DIMTMOVE
 70
     0
  9
$LUNITS
 70
     2
  9
$LUPREC
 70
     4
  9
$SKETCHINC
 40
0.1
  9
$FILLETRAD
 40
0.5
  9
$AUNITS
 70
     0
  9
$AUPREC
 70
     0
  9
$MENU
  1
.
  9
$ELEVATION
 40
0.0
  9
$PELEVATION
 40
0.0
  9
$THICKNESS
 40
0.0
  9
$LIMCHECK
 70
     0
  9
$CHAMFERA
 40
0.5
  9
$CHAMFERB
 40
0.5
  9
$CHAMFERC
 40
1.0
  9
$CHAMFERD
 40
0.0
  9
$SKPOLY
 70
     0
  9
$TDCREATE
 40
2457212.598825614
  9
$TDUCREATE
 40
2457212.51549228
  9
$TDUPDATE
 40
2457212.598826551
  9
$TDUUPDATE
 40
2457212.515493217
  9
$TDINDWG
 40
0.0000000116
  9
$TDUSRTIMER
 40
0.0000000116
  9
$USRTIMER
 70
     1
  9
$ANGBASE
 50
0.0
  9
$ANGDIR
 70
     0
  9
$PDMODE
 70
     0
  9
$PDSIZE
 40
0.0
  9
$PLINEWID
 40
0.0
  9
$SPLFRAME
 70
     0
  9
$SPLINETYPE
 70
     6
  9
$SPLINESEGS
 70
     8
  9
$HANDSEED
  5
286
  9
$SURFTAB1
 70
     6
  9
$SURFTAB2
 70
     6
  9
$SURFTYPE
 70
     6
  9
$SURFU
 70
     6
  9
$SURFV
 70
     6
  9
$UCSBASE
  2

  9
$UCSNAME
  2

  9
$UCSORG
 10
0.0
 20
0.0
 30
0.0
  9
$UCSXDIR
 10
1.0
 20
0.0
 30
0.0
  9
$UCSYDIR
 10
0.0
 20
1.0
 30
0.0
  9
$UCSORTHOREF
  2

  9
$UCSORTHOVIEW
 70
     0
  9
$UCSORGTOP
 10
0.0
 20
0.0
 30
0.0
  9
$UCSORGBOTTOM
 10
0.0
 20
0.0
 30
0.0
  9
$UCSORGLEFT
 10
0.0
 20
0.0
 30
0.0
  9
$UCSORGRIGHT
 10
0.0
 20
0.0
 30
0.0
  9
$UCSORGFRONT
 10
0.0
 20
0.0
 30
0.0
  9
$UCSORGBACK
 10
0.0
 20
0.0
 30
0.0
  9
$PUCSBASE
  2

  9
$PUCSNAME
  2

  9
$PUCSORG
 10
0.0
 20
0.0
 30
0.0
  9
$PUCSXDIR
 10
1.0
 20
0.0
 30
0.0
  9
$PUCSYDIR
 10
0.0
 20
1.0
 30
0.0
  9
$PUCSORTHOREF
  2

  9
$PUCSORTHOVIEW
 70
     0
  9
$PUCSORGTOP
 10
0.0
 20
0.0
 30
0.0
  9
$PUCSORGBOTTOM
 10
0.0
 20
0.0
 30
0.0
  9
$PUCSORGLEFT
 10
0.0
 20
0.0
 30
0.0
  9
$PUCSORGRIGHT
 10
0.0
 20
0.0
 30
0.0
  9
$PUCSORGFRONT
 10
0.0
 20
0.0
 30
0.0
  9
$PUCSORGBACK
 10
0.0
 20
0.0
 30
0.0
  9
$USERI1
 70
     0
  9
$USERI2
 70
     0
  9
$USERI3
 70
     0
  9
$USERI4
 70
     0
  9
$USERI5
 70
     0
  9
$USERR1
 40
18.1
  9
$USERR2
 40
0.0
  9
$USERR3
 40
0.0
  9
$USERR4
 40
0.0
  9
$USERR5
 40
0.0
  9
$WORLDVIEW
 70
     1
  9
$SHADEDGE
 70
     3
  9
$SHADEDIF
 70
    70
  9
$TILEMODE
 70
     1
  9
$MAXACTVP
 70
    64
  9
$PINSBASE
 10
0.0
 20
0.0
 30
0.0
  9
$PLIMCHECK
 70
     0
  9
$PEXTMIN
 10
1.00000000000000E+20
 20
1.00000000000000E+20
 30
1.00000000000000E+20
  9
$PEXTMAX
 10
-1.00000000000000E+20
 20
-1.00000000000000E+20
 30
-1.00000000000000E+20
  9
$PLIMMIN
 10
0.0
 20
0.0
  9
$PLIMMAX
 10
12.0
 20
9.0
  9
$UNITMODE
 70
     0
  9
$VISRETAIN
 70
     1
  9
$PLINEGEN
 70
     0
  9
$PSLTSCALE
 70
     1
  9
$TREEDEPTH
 70
  3020
  9
$CMLSTYLE
  2
Standard
  9
$CMLJUST
 70
     0
  9
$CMLSCALE
 40
1.0
  9
$PROXYGRAPHICS
 70
     1
  9
$MEASUREMENT
 70
     1
  9
$CELWEIGHT
370
    -1
  9
$ENDCAPS
280
     0
  9
$JOINSTYLE
280
     0
  9
$LWDISPLAY
290
     0
  9
$INSUNITS
 70
     4
  9
$HYPERLINKBASE
  1

  9
$STYLESHEET
  1

  9
$XEDIT
290
     1
  9
$CEPSNTYPE
380
     0
  9
$PSTYLEMODE
290
     1
  9
$FINGERPRINTGUID
  2
{D1D6DE24-D3A2-4B48-AA63-77F15F620610}
  9
$VERSIONGUID
  2
{FAEB1C32-E019-11D5-929B-00C0DF256EC4}
  9
$EXTNAMES
290
     1
  9
$PSVPSCALE
 40
0.0
  9
$OLESTARTUP
290
     0
  0
ENDSEC
  0
SECTION
  2
CLASSES
  0
CLASS
  1
ACDBDICTIONARYWDFLT
  2
AcDbDictionaryWithDefault
  3
ObjectDBX Classes
 90
        0
280
     0
281
     0
  0
CLASS
  1
VISUALSTYLE
  2
AcDbVisualStyle
  3
ObjectDBX Classes
 90
     4095
280
     0
281
     0
  0
CLASS
  1
MATERIAL
  2
AcDbMaterial
  3
ObjectDBX Classes
 90
     1153
280
     0
281
     0
  0
CLASS
  1
DICTIONARYVAR
  2
AcDbDictionaryVar
  3
ObjectDBX Classes
 90
        0
280
     0
281
     0
  0
CLASS
  1
ACDBPLACEHOLDER
  2
AcDbPlaceHolder
  3
ObjectDBX Classes
 90
        0
280
     0
281
     0
  0
CLASS
  1
LAYOUT
  2
AcDbLayout
  3
ObjectDBX Classes
 90
        0
280
     0
281
     0
  0
ENDSEC
  0
SECTION
  2
TABLES
  0
TABLE
  2
VPORT
  5
8
330
0
100
AcDbSymbolTable
 70
     1
  0
VPORT
  5
29
330
8
100
AcDbSymbolTableRecord
100
AcDbViewportTableRecord
  2
*Active
 70
     0
 10
0.0
 20
0.0
 11
1.0
 21
1.0
 12
-247.8000002490039
 22
-161.900926994912
 13
0.0
 23
0.0
 14
0.5
 24
0.5
 15
0.5
 25
0.5
 16
0.0
 26
0.0
 36
1.0
 17
0.0
 27
0.0
 37
0.0
 40
231.0000000000001
 41
1.60267857142857
 42
50.0
 43
0.0
 44
0.0
 50
0.0
 51
0.0
 71
     0
 72
   100
 73
     1
 74
     3
 75
     0
 76
     0
 77
     0
 78
     0
281
     0
 65
     1
110
0.0
120
0.0
130
0.0
111
1.0
121
0.0
131
0.0
112
0.0
122
1.0
132
0.0
 79
     0
146
0.0
  0
ENDTAB
  0
TABLE
  2
LTYPE
  5
5
330
0
100
AcDbSymbolTable
 70
     8
  0
LTYPE
  5
14
330
5
100
AcDbSymbolTableRecord
100
AcDbLinetypeTableRecord
  2
ByBlock
 70
     0
  3

 72
    65
 73
     0
 40
0.0
  0
LTYPE
  5
15
330
5
100
AcDbSymbolTableRecord
100
AcDbLinetypeTableRecord
  2
ByLayer
 70
     0
  3

 72
    65
 73
     0
 40
0.0
  0
LTYPE
  5
16
330
5
100
AcDbSymbolTableRecord
100
AcDbLinetypeTableRecord
  2
Continuous
 70
     0
  3
Solid line
 72
    65
 73
     0
 40
0.0
  0
LTYPE
  5
3F
330
5
100
AcDbSymbolTableRecord
100
AcDbLinetypeTableRecord
  2
DASHED
 70
     0
  3
Dashed
 72
    65
 73
     2
 40
15.0
 49
7.0
 74
     0
 49
-8.0
 74
     0
  0
LTYPE
  5
40
330
5
100
AcDbSymbolTableRecord
100
AcDbLinetypeTableRecord
  2
DOTTED
 70
     0
  3
Dotted
 72
    65
 73
     2
 40
1.0
 49
0.0
 74
     0
 49
-1.0
 74
     0
  0
LTYPE
  5
41
330
5
100
AcDbSymbolTableRecord
100
AcDbLinetypeTableRecord
  2
DOT_CENTER
 70
     0
  3
Dot_Center
 72
    65
 73
     4
 40
14.0
 49
12.0
 74
     0
 49
-1.0
 74
     0
 49
0.0
 74
     0
 49
-1.0
 74
     0
  0
LTYPE
  5
42
330
5
100
AcDbSymbolTableRecord
100
AcDbLinetypeTableRecord
  2
LONG_DASHED
 70
     0
  3
Long_Dashed
 72
    65
 73
     2
 40
15.0
 49
10.0
 74
     0
 49
-5.0
 74
     0
  0
LTYPE
  5
43
330
5
100
AcDbSymbolTableRecord
100
AcDbLinetypeTableRecord
  2
DASH_CENTER
 70
     0
  3
Dash_Center
 72
    65
 73
     4
 40
14.0
 49
11.0
 74
     0
 49
-1.0
 74
     0
 49
1.0
 74
     0
 49
-1.0
 74
     0
  0
LTYPE
  5
44
330
5
100
AcDbSymbolTableRecord
100
AcDbLinetypeTableRecord
  2
PHANTOM
 70
     0
  3
Phantom
 72
    65
 73
     6
 40
13.0
 49
10.0
 74
     0
 49
-1.0
 74
     0
 49
0.0
 74
     0
 49
-1.0
 74
     0
 49
0.0
 74
     0
 49
-1.0
 74
     0
  0
LTYPE
  5
45
330
5
100
AcDbSymbolTableRecord
100
AcDbLinetypeTableRecord
  2
CENTER_DASH_DASH
 70
     0
  3
Center_Dash_Dash
 72
    65
 73
     6
 40
14.0
 49
9.0
 74
     0
 49
-1.0
 74
     0
 49
1.0
 74
     0
 49
-1.0
 74
     0
 49
1.0
 74
     0
 49
-1.0
 74
     0
  0
ENDTAB
  0
TABLE
  2
LAYER
  5
2
330
0
100
AcDbSymbolTable
 70
     2
  0
LAYER
  5
10
330
2
100
AcDbSymbolTableRecord
100
AcDbLayerTableRecord
  2
0
 70
     0
 62
     7
  6
Continuous
370
    -3
390
F
  0
LAYER
  5
46
330
2
100
AcDbSymbolTableRecord
100
AcDbLayerTableRecord
  2
1
 70
     0
 62
     7
  6
Continuous
370
    -3
390
F
  0
ENDTAB
  0
TABLE
  2
STYLE
  5
3
330
0
100
AcDbSymbolTable
 70
     5
  0
STYLE
  5
11
330
3
100
AcDbSymbolTableRecord
100
AcDbTextStyleTableRecord
  2
Standard
 70
     0
 40
0.0
 41
1.0
 50
0.0
 71
     0
 42
0.2
  3
txt
  4

  0
STYLE
  5
A8
330
3
100
AcDbSymbolTableRecord
100
AcDbTextStyleTableRecord
  2
CONVERTER_11
 70
     0
 40
0.0
 41
0.9
 50
0.0
 71
     0
 42
0.2
  3
txt.shx
  4

  0
STYLE
  5
21B
330
3
100
AcDbSymbolTableRecord
100
AcDbTextStyleTableRecord
  2
CONVERTER_12
 70
     0
 40
0.0
 41
0.81
 50
0.0
 71
     0
 42
0.2
  3
txt.shx
  4

  0
STYLE
  5
221
330
3
100
AcDbSymbolTableRecord
100
AcDbTextStyleTableRecord
  2
CONVERTER_13
 70
     0
 40
0.0
 41
0.855
 50
0.0
 71
     0
 42
0.2
  3
txt.shx
  4

  0
STYLE
  5
224
330
3
100
AcDbSymbolTableRecord
100
AcDbTextStyleTableRecord
  2
CONVERTER_14
 70
     0
 40
0.0
 41
0.72
 50
0.0
 71
     0
 42
0.2
  3
txt.shx
  4

  0
ENDTAB
  0
TABLE
  2
VIEW
  5
6
330
0
100
AcDbSymbolTable
 70
     0
  0
ENDTAB
  0
TABLE
  2
UCS
  5
7
330
0
100
AcDbSymbolTable
 70
     0
  0
ENDTAB
  0
TABLE
  2
APPID
  5
9
330
0
100
AcDbSymbolTable
 70
     1
  0
APPID
  5
12
330
9
100
AcDbSymbolTableRecord
100
AcDbRegAppTableRecord
  2
ACAD
 70
     0
  0
ENDTAB
  0
TABLE
  2
DIMSTYLE
  5
A
330
0
100
AcDbSymbolTable
 70
     4
100
AcDbDimStyleTable
  0
DIMSTYLE
105
27
330
A
100
AcDbSymbolTableRecord
100
AcDbDimStyleTableRecord
  2
Standard
 70
     0
178
     0
340
11
  0
DIMSTYLE
105
C4
102
{ACAD_REACTORS
330
C5
102
}
330
A
100
AcDbSymbolTableRecord
100
AcDbDimStyleTableRecord
  2
ME10_DIM_10
 70
     0
 41
1.75
 42
0.0
 44
0.75
 73
     0
 74
     0
 77
     1
 78
     8
140
1.75
147
0.75
172
     1
173
     1
174
     1
175
     1
176
     2
177
     2
271
     1
178
     3
271
     1
340
A8
  0
DIMSTYLE
105
115
102
{ACAD_REACTORS
330
116
102
}
330
A
100
AcDbSymbolTableRecord
100
AcDbDimStyleTableRecord
  2
ME10_DIM_11
 70
     0
 41
1.75
 42
0.0
 44
0.75
 73
     0
 74
     0
 77
     1
 78
     8
140
1.75
147
0.75
172
     1
173
     1
174
     1
175
     1
176
     2
177
     2
271
     1
178
     3
271
     1
340
A8
  0
DIMSTYLE
105
120
102
{ACAD_REACTORS
330
121
102
}
330
A
100
AcDbSymbolTableRecord
100
AcDbDimStyleTableRecord
  2
ME10_DIM_12
 70
     0
 41
1.75
 42
0.0
 44
0.75
 73
     0
 74
     0
 77
     1
 78
     8
140
1.75
147
0.75
172
     1
173
     1
174
     1
175
     1
176
     2
177
     2
271
     1
178
     3
271
     1
340
A8
  0
ENDTAB
  0
TABLE
  2
BLOCK_RECORD
  5
1
330
0
100
AcDbSymbolTable
 70
    19
  0
BLOCK_RECORD
  5
1F
330
1
100
AcDbSymbolTableRecord
100
AcDbBlockTableRecord
  2
*Model_Space
340
22
  0
BLOCK_RECORD
  5
1B
330
1
100
AcDbSymbolTableRecord
100
AcDbBlockTableRecord
  2
*Paper_Space
340
1E
  0
BLOCK_RECORD
  5
23
330
1
100
AcDbSymbolTableRecord
100
AcDbBlockTableRecord
  2
*Paper_Space0
340
26
  0
BLOCK_RECORD
  5
47
330
1
100
AcDbSymbolTableRecord
100
AcDbBlockTableRecord
  2
0808011_PATG_4_23-select__1
340
0
102
{BLKREFS
331
4B
102
}
  0
BLOCK_RECORD
  5
4A
330
1
100
AcDbSymbolTableRecord
100
AcDbBlockTableRecord
  2
Allg1
340
0
102
{BLKREFS
331
7C
102
}
  0
BLOCK_RECORD
  5
4E
330
1
100
AcDbSymbolTableRecord
100
AcDbBlockTableRecord
  2
0808011_PATG_4_23-select__2
340
0
102
{BLKREFS
331
52
102
}
  0
BLOCK_RECORD
  5
51
330
1
100
AcDbSymbolTableRecord
100
AcDbBlockTableRecord
  2
Drfsicht1
340
0
102
{BLKREFS
331
7D
102
}
  0
BLOCK_RECORD
  5
55
330
1
100
AcDbSymbolTableRecord
100
AcDbBlockTableRecord
  2
0808011_PATG_4_23-select__3
340
0
102
{BLKREFS
331
59
102
}
  0
BLOCK_RECORD
  5
58
330
1
100
AcDbSymbolTableRecord
100
AcDbBlockTableRecord
  2
Rckans1
340
0
102
{BLKREFS
331
7E
102
}
  0
BLOCK_RECORD
  5
5C
330
1
100
AcDbSymbolTableRecord
100
AcDbBlockTableRecord
  2
0808011_PATG_4_23-select__4
340
0
102
{BLKREFS
331
60
102
}
  0
BLOCK_RECORD
  5
5F
330
1
100
AcDbSymbolTableRecord
100
AcDbBlockTableRecord
  2
SA_Links1
340
0
102
{BLKREFS
331
7F
102
}
  0
BLOCK_RECORD
  5
63
330
1
100
AcDbSymbolTableRecord
100
AcDbBlockTableRecord
  2
0808011_PATG_4_23-select__5
340
0
102
{BLKREFS
331
67
102
}
  0
BLOCK_RECORD
  5
66
330
1
100
AcDbSymbolTableRecord
100
AcDbBlockTableRecord
  2
SA_Rechts1
340
0
102
{BLKREFS
331
80
102
}
  0
BLOCK_RECORD
  5
6A
330
1
100
AcDbSymbolTableRecord
100
AcDbBlockTableRecord
  2
0808011_PATG_4_23-select__6
340
0
102
{BLKREFS
331
6E
102
}
  0
BLOCK_RECORD
  5
6D
330
1
100
AcDbSymbolTableRecord
100
AcDbBlockTableRecord
  2
Vordans1
340
0
102
{BLKREFS
331
81
102
}
  0
BLOCK_RECORD
  5
71
330
1
100
AcDbSymbolTableRecord
100
AcDbBlockTableRecord
  2
_punkt
340
0
102
{BLKREFS
331
78
102
}
  0
BLOCK_RECORD
  5
74
330
1
100
AcDbSymbolTableRecord
100
AcDbBlockTableRecord
  2
_rahmen
340
0
102
{BLKREFS
331
79
102
}
  0
BLOCK_RECORD
  5
77
330
1
100
AcDbSymbolTableRecord
100
AcDbBlockTableRecord
  2
A4I_CS
340
0
102
{BLKREFS
331
82
102
}
  0
BLOCK_RECORD
  5
BB
330
1
100
AcDbSymbolTableRecord
100
AcDbBlockTableRecord
  2
*D16
340
0
  0
BLOCK_RECORD
  5
10C
330
1
100
AcDbSymbolTableRecord
100
AcDbBlockTableRecord
  2
*D17
340
0
  0
BLOCK_RECORD
  5
117
330
1
100
AcDbSymbolTableRecord
100
AcDbBlockTableRecord
  2
*D18
340
0
  0
ENDTAB
  0
ENDSEC
  0
SECTION
  2
BLOCKS
  0
BLOCK
  5
20
330
1F
100
AcDbEntity
  8
0
100
AcDbBlockBegin
  2
*Model_Space
 70
     0
 10
0.0
 20
0.0
 30
0.0
  3
*Model_Space
  1

  0
ENDBLK
  5
21
330
1F
100
AcDbEntity
  8
0
100
AcDbBlockEnd
  0
BLOCK
  5
1C
330
1B
100
AcDbEntity
 67
     1
  8
0
100
AcDbBlockBegin
  2
*Paper_Space
 70
     0
 10
0.0
 20
0.0
 30
0.0
  3
*Paper_Space
  1

  0
ENDBLK
  5
1D
330
1B
100
AcDbEntity
 67
     1
  8
0
100
AcDbBlockEnd
  0
BLOCK
  5
24
330
23
100
AcDbEntity
  8
0
100
AcDbBlockBegin
  2
*Paper_Space0
 70
     0
 10
0.0
 20
0.0
 30
0.0
  3
*Paper_Space0
  1

  0
ENDBLK
  5
25
330
23
100
AcDbEntity
  8
0
100
AcDbBlockEnd
  0
BLOCK
  5
48
330
47
100
AcDbEntity
  8
0
100
AcDbBlockBegin
  2
0808011_PATG_4_23-select__1
 70
     0
 10
-88.86076079201962
 20
-107.4536903884125
 30
0.0
  3
0808011_PATG_4_23-select__1
  1

  0
LINE
  5
83
330
47
100
AcDbEntity
  8
0
  6
Continuous
 62
     7
100
AcDbLine
 10
-67.39298208559413
 20
-105.5610653616957
 30
0.0
 11
-66.72805365126572
 21
-105.7530136669714
 31
0.0
  0
LINE
  5
84
330
47
100
AcDbEntity
  8
0
  6
Continuous
 62
     7
100
AcDbLine
 10
-68.13844213398183
 20
-99.400547750134
 30
0.0
 11
-66.15425391128878
 21
-99.97333355238135
 31
0.0
  0
LINE
  5
85
330
47
100
AcDbEntity
  8
0
  6
Continuous
 62
     7
100
AcDbLine
 10
-66.22296275397716
 20
-96.56873554047638
 30
0.0
 11
-67.85845286223842
 21
-97.9851115218688
 31
0.0
  0
LINE
  5
86
330
47
100
AcDbEntity
  8
0
  6
Continuous
 62
     7
100
AcDbLine
 10
-87.98852871621624
 20
-91.98110910195385
 30
0.0
 11
-68.06994442917414
 21
-97.73110910195386
 31
0.0
  0
LINE
  5
87
330
47
100
AcDbEntity
  8
0
  6
Continuous
 62
     2
100
AcDbLine
 10
-88.12179209514989
 20
-90.76769663737093
 30
0.0
 11
-68.20320780810778
 21
-96.51769663737093
 31
0.0
  0
LINE
  5
88
330
47
100
AcDbEntity
  8
0
  6
Continuous
 62
     2
100
AcDbLine
 10
-87.1773278094356
 20
-88.1799030199934
 30
0.0
 11
-67.2587435223935
 21
-93.9299030199934
 31
0.0
  0
LINE
  5
89
330
47
100
AcDbEntity
  8
0
  6
Continuous
 62
     7
100
AcDbLine
 10
-86.25322439401901
 20
-87.67228732064859
 30
0.0
 11
-66.33464010697693
 21
-93.42228732064859
 31
0.0
  0
LINE
  5
8A
330
47
100
AcDbEntity
  8
0
  6
Continuous
 62
     7
100
AcDbLine
 10
-67.92716170492682
 20
-101.5087167402393
 30
0.0
 11
-66.15425391128878
 21
-99.97333355238135
 31
0.0
  0
LINE
  5
8B
330
47
100
AcDbEntity
  8
0
  6
Continuous
 62
     7
100
AcDbLine
 10
-67.59915232255835
 20
-101.7442675246993
 30
0.0
 11
-66.48226329365723
 21
-100.7770132524628
 31
0.0
  0
LINE
  5
8C
330
47
100
AcDbEntity
  8
0
  6
Continuous
 62
     7
100
AcDbLine
 10
-88.61041026416493
 20
-101.7036903884125
 30
0.0
 11
-68.69182597712283
 21
-107.4536903884125
 31
0.0
  0
LINE
  5
8D
330
47
100
AcDbEntity
  8
0
  6
Continuous
 62
     7
100
AcDbLine
 10
-66.35690178262882
 20
-104.0759187863945
 30
0.0
 11
-65.6328589129701
 21
-104.2849319592456
 31
0.0
  0
LINE
  5
8E
330
47
100
AcDbEntity
  8
0
  6
Continuous
 62
     7
100
AcDbLine
 10
-66.15425391128878
 20
-99.97333355238135
 30
0.0
 11
-66.40004426889728
 21
-104.94933396689
 31
0.0
  0
LINE
  5
8F
330
47
100
AcDbEntity
  8
0
  6
Continuous
 62
     7
100
AcDbLine
 10
-66.40004426889728
 20
-104.94933396689
 30
0.0
 11
-65.6328589129701
 21
-104.2849319592456
 31
0.0
  0
LINE
  5
90
330
47
100
AcDbEntity
  8
0
  6
Continuous
 62
     7
100
AcDbLine
 10
-66.72805365126572
 20
-105.7530136669714
 30
0.0
 11
-66.48226329365723
 21
-100.7770132524628
 31
0.0
  0
LINE
  5
91
330
47
100
AcDbEntity
  8
0
  6
Continuous
 62
     7
100
AcDbLine
 10
-66.72805365126572
 20
-105.7530136669714
 30
0.0
 11
-65.38958963909275
 21
-104.5938698303783
 31
0.0
  0
LINE
  5
92
330
47
100
AcDbEntity
  8
0
  6
Continuous
 62
     7
100
AcDbLine
 10
-68.4212241951727
 20
-101.3660931843693
 30
0.0
 11
-67.92716170492682
 21
-101.5087167402393
 31
0.0
  0
LINE
  5
93
330
47
100
AcDbEntity
  8
0
  6
Continuous
 62
     7
100
AcDbLine
 10
-67.6813713473183
 20
-106.0589957673595
 30
0.0
 11
-68.44855670324549
 21
-106.7233977750039
 31
0.0
  0
LINE
  5
94
330
47
100
AcDbEntity
  8
0
  6
Continuous
 62
     7
100
AcDbLine
 10
-67.92716170492682
 20
-101.5087167402393
 30
0.0
 11
-67.6813713473183
 21
-106.0589957673595
 31
0.0
  0
LINE
  5
95
330
47
100
AcDbEntity
  8
0
  6
Continuous
 62
     7
100
AcDbLine
 10
-68.53771388858786
 20
-105.8117909689993
 30
0.0
 11
-67.6813713473183
 21
-106.0589957673595
 31
0.0
  0
LINE
  5
96
330
47
100
AcDbEntity
  8
0
  6
Continuous
 62
     7
100
AcDbLine
 10
-67.35336196494985
 20
-106.2945465518194
 30
0.0
 11
-68.69182597712283
 21
-107.4536903884125
 31
0.0
  0
LINE
  5
97
330
47
100
AcDbEntity
  8
0
  6
Continuous
 62
     7
100
AcDbLine
 10
-67.35336196494985
 20
-106.2945465518194
 30
0.0
 11
-67.59915232255835
 21
-101.7442675246993
 31
0.0
  0
LINE
  5
98
330
47
100
AcDbEntity
  8
0
  6
Continuous
 62
     2
100
AcDbLine
 10
-86.74125638086417
 20
-87.80225408498598
 30
0.0
 11
-66.82267209382206
 21
-93.55225408498598
 31
0.0
  0
SPLINE
  5
99
330
47
100
AcDbEntity
  8
0
  6
Continuous
 62
     7
100
AcDbSpline
210
0.0
220
0.0
230
1.0
 70
     8
 71
     3
 72
     9
 73
     5
 74
     3
 42
0.000000001
 43
0.0000000001
 44
0.00000001
 40
0.0
 40
0.0
 40
0.0
 40
0.0
 40
0.2789327789492338
 40
0.5773060335457372
 40
0.5773060335457372
 40
0.5773060335457372
 40
0.5773060335457372
 10
-66.82267209382206
 20
-93.55225408498598
 30
0.0
 10
-66.89649464094984
 20
-93.60891805622207
 30
0.0
 10
-67.04928485252577
 20
-93.7261952614991
 30
0.0
 10
-67.18737394463021
 20
-93.8604929606771
 30
0.0
 10
-67.2587435223935
 20
-93.9299030199934
 30
0.0
 11
-66.82267209382206
 21
-93.55225408498598
 31
0.0
 11
-67.04070780810778
 21
-93.72621937659781
 31
0.0
 11
-67.2587435223935
 21
-93.9299030199934
 31
0.0
  0
SPLINE
  5
9A
330
47
100
AcDbEntity
  8
0
  6
Continuous
 62
     7
100
AcDbSpline
210
0.0
220
0.0
230
1.0
 70
     8
 71
     3
 72
     9
 73
     5
 74
     3
 42
0.000000001
 43
0.0000000001
 44
0.00000001
 40
0.0
 40
0.0
 40
0.0
 40
0.0
 40
0.5768012827298411
 40
1.222966624236897
 40
1.222966624236897
 40
1.222966624236897
 40
1.222966624236897
 10
-87.98852871621624
 20
-91.98110910195385
 30
0.0
 10
-88.02724400921397
 20
-91.79235721897143
 30
0.0
 10
-88.10933033805499
 20
-91.3921548238884
 30
0.0
 10
-88.11748402980017
 20
-90.98357397821786
 30
0.0
 10
-88.12179209514989
 20
-90.76769663737093
 30
0.0
 11
-87.98852871621624
 21
-91.98110910195385
 31
0.0
 11
-88.08822861917878
 21
-91.41298970445901
 31
0.0
 11
-88.12179209514989
 21
-90.76769663737093
 31
0.0
  0
SPLINE
  5
9B
330
47
100
AcDbEntity
  8
0
  6
Continuous
 62
     7
100
AcDbSpline
210
0.0
220
0.0
230
1.0
 70
     8
 71
     3
 72
     9
 73
     5
 74
     3
 42
0.000000001
 43
0.0000000001
 44
0.00000001
 40
0.0
 40
0.0
 40
0.0
 40
0.0
 40
0.5768012827298526
 40
1.222966624236908
 40
1.222966624236908
 40
1.222966624236908
 40
1.222966624236908
 10
-68.06994442917414
 20
-97.73110910195386
 30
0.0
 10
-68.10865972217191
 20
-97.54235721897143
 30
0.0
 10
-68.19074605101285
 20
-97.1421548238884
 30
0.0
 10
-68.19889974275804
 20
-96.73357397821785
 30
0.0
 10
-68.20320780810778
 20
-96.51769663737093
 30
0.0
 11
-68.06994442917414
 21
-97.73110910195386
 31
0.0
 11
-68.16964433213667
 21
-97.16298970445901
 31
0.0
 11
-68.20320780810778
 21
-96.51769663737093
 31
0.0
  0
SPLINE
  5
9C
330
47
100
AcDbEntity
  8
0
  6
Continuous
 62
     7
100
AcDbSpline
210
0.0
220
0.0
230
1.0
 70
     8
 71
     3
 72
    13
 73
     9
 74
     7
 42
0.000000001
 43
0.0000000001
 44
0.00000001
 40
0.0
 40
0.0
 40
0.0
 40
0.0
 40
0.4653550479825787
 40
0.9643694278130659
 40
1.472637507281565
 40
1.964836253604348
 40
2.417252439721512
 40
2.810579549371382
 40
2.810579549371382
 40
2.810579549371382
 40
2.810579549371382
 10
-68.20320780810778
 20
-96.51769663737093
 30
0.0
 10
-68.19654636747694
 20
-96.36252174270918
 30
0.0
 10
-68.18274164627762
 20
-96.04094808720207
 30
0.0
 10
-68.08592008126283
 20
-95.55801711877406
 30
0.0
 10
-67.94175279382009
 20
-95.07855643392516
 30
0.0
 10
-67.74984844749443
 20
-94.6333513520019
 30
0.0
 10
-67.5310447617223
 20
-94.24170908764438
 30
0.0
 10
-67.34518208438622
 20
-94.02888187948902
 30
0.0
 10
-67.2587435223935
 20
-93.9299030199934
 30
0.0
 11
-68.20320780810778
 21
-96.51769663737093
 31
0.0
 11
-68.17167403414606
 21
-96.05341122892253
 31
0.0
 11
-68.07901371819995
 21
-95.5630752065041
 31
0.0
 11
-67.93092743161532
 21
-95.07685828820023
 31
0.0
 11
-67.73652739377991
 21
-94.62467664789375
 31
0.0
 11
-67.50777433426062
 21
-94.23435313225447
 31
0.0
 11
-67.2587435223935
 21
-93.9299030199934
 31
0.0
  0
SPLINE
  5
9D
330
47
100
AcDbEntity
  8
0
  6
Continuous
 62
     7
100
AcDbSpline
210
0.0
220
0.0
230
1.0
 70
     8
 71
     3
 72
     9
 73
     5
 74
     3
 42
0.000000001
 43
0.0000000001
 44
0.00000001
 40
0.0
 40
0.0
 40
0.0
 40
0.0
 40
0.2332036620414928
 40
0.5185851815434918
 40
0.5185851815434918
 40
0.5185851815434918
 40
0.5185851815434918
 10
-66.33464010697693
 20
-93.42228732064859
 30
0.0
 10
-66.41424362678855
 20
-93.41503364949669
 30
0.0
 10
-66.59126145304823
 20
-93.39890336301568
 30
0.0
 10
-66.74052899207902
 20
-93.49781965731216
 30
0.0
 10
-66.82267209382206
 20
-93.55225408498598
 30
0.0
 11
-66.33464010697693
 21
-93.42228732064859
 31
0.0
 11
-66.56783892100592
 21
-93.42379137830322
 31
0.0
 11
-66.82267209382206
 21
-93.55225408498598
 31
0.0
  0
SPLINE
  5
9E
330
47
100
AcDbEntity
  8
0
  6
Continuous
 62
     7
100
AcDbSpline
210
0.0
220
0.0
230
1.0
 70
     8
 71
     3
 72
     9
 73
     5
 74
     3
 42
0.000000001
 43
0.0000000001
 44
0.00000001
 40
0.0
 40
0.0
 40
0.0
 40
0.0
 40
0.2789327789492338
 40
0.5773060335457268
 40
0.5773060335457268
 40
0.5773060335457268
 40
0.5773060335457268
 10
-86.74125638086417
 20
-87.80225408498598
 30
0.0
 10
-86.81507892799196
 20
-87.85891805622207
 30
0.0
 10
-86.96786913956785
 20
-87.97619526149907
 30
0.0
 10
-87.1059582316723
 20
-88.1104929606771
 30
0.0
 10
-87.1773278094356
 20
-88.1799030199934
 30
0.0
 11
-86.74125638086417
 21
-87.80225408498598
 31
0.0
 11
-86.95929209514989
 21
-87.97621937659781
 31
0.0
 11
-87.1773278094356
 21
-88.1799030199934
 31
0.0
  0
SPLINE
  5
9F
330
47
100
AcDbEntity
  8
0
  6
Continuous
 62
     7
100
AcDbSpline
210
0.0
220
0.0
230
1.0
 70
     8
 71
     3
 72
    11
 73
     7
 74
     5
 42
0.000000001
 43
0.0000000001
 44
0.00000001
 40
0.0
 40
0.0
 40
0.0
 40
0.0
 40
0.4063342313867972
 40
0.746120844782505
 40
1.018053727394362
 40
1.242572744509798
 40
1.242572744509798
 40
1.242572744509798
 40
1.242572744509798
 10
-65.87820780810779
 20
-94.50418757357211
 30
0.0
 10
-65.88303355949395
 20
-94.36817711414027
 30
0.0
 10
-65.89189472968394
 20
-94.11843138617766
 30
0.0
 10
-65.9790028467311
 20
-93.7908428648146
 30
0.0
 10
-66.11560857593994
 20
-93.53283228526413
 30
0.0
 10
-66.26643105054248
 20
-93.45671234860681
 30
0.0
 10
-66.33464010697693
 20
-93.42228732064859
 30
0.0
 11
-65.87820780810779
 21
-94.50418757357211
 31
0.0
 11
-65.90899111765663
 21
-94.09902107819838
 31
0.0
 11
-65.99949134437065
 21
-93.77150824853666
 31
0.0
 11
-66.14427329527511
 21
-93.54132205447786
 31
0.0
 11
-66.33464010697693
 21
-93.42228732064859
 31
0.0
  0
SPLINE
  5
A0
330
47
100
AcDbEntity
  8
0
  6
Continuous
 62
     7
100
AcDbSpline
210
0.0
220
0.0
230
1.0
 70
     8
 71
     3
 72
    13
 73
     9
 74
     7
 42
0.000000001
 43
0.0000000001
 44
0.00000001
 40
0.0
 40
0.0
 40
0.0
 40
0.0
 40
0.4653550479825797
 40
0.964369427813067
 40
1.472637507281561
 40
1.964836253604371
 40
2.417252439721523
 40
2.810579549371391
 40
2.810579549371391
 40
2.810579549371391
 40
2.810579549371391
 10
-88.12179209514989
 20
-90.76769663737093
 30
0.0
 10
-88.11513065451902
 20
-90.61252174270915
 30
0.0
 10
-88.10132593331974
 20
-90.29094808720212
 30
0.0
 10
-88.00450436830494
 20
-89.80801711877407
 30
0.0
 10
-87.86033708086218
 20
-89.32855643392517
 30
0.0
 10
-87.66843273453657
 20
-88.88335135200188
 30
0.0
 10
-87.4496290487644
 20
-88.49170908764437
 30
0.0
 10
-87.26376637142833
 20
-88.27888187948902
 30
0.0
 10
-87.1773278094356
 20
-88.1799030199934
 30
0.0
 11
-88.12179209514989
 21
-90.76769663737093
 31
0.0
 11
-88.09025832118816
 21
-90.30341122892253
 31
0.0
 11
-87.99759800524204
 21
-89.8130752065041
 31
0.0
 11
-87.84951171865742
 21
-89.32685828820023
 31
0.0
 11
-87.65511168082202
 21
-88.87467664789372
 31
0.0
 11
-87.42635862130273
 21
-88.48435313225445
 31
0.0
 11
-87.1773278094356
 21
-88.1799030199934
 31
0.0
  0
SPLINE
  5
A1
330
47
100
AcDbEntity
  8
0
  6
Continuous
 62
     7
100
AcDbSpline
210
0.0
220
0.0
230
1.0
 70
     8
 71
     3
 72
     9
 73
     5
 74
     3
 42
0.000000001
 43
0.0000000001
 44
0.00000001
 40
0.0
 40
0.0
 40
0.0
 40
0.0
 40
0.7474835557027761
 40
1.45171054078747
 40
1.45171054078747
 40
1.45171054078747
 40
1.45171054078747
 10
-66.01147118704145
 20
-95.94841898125642
 30
0.0
 10
-65.97273921499723
 20
-95.70198434406369
 30
0.0
 10
-65.89751669430507
 20
-95.22337614010706
 30
0.0
 10
-65.88451495964003
 20
-94.73910718084078
 30
0.0
 10
-65.87820780810779
 20
-94.50418757357211
 30
0.0
 11
-66.01147118704145
 21
-95.94841898125642
 31
0.0
 11
-65.9117712840789
 21
-95.20761428632076
 31
0.0
 11
-65.87820780810779
 21
-94.50418757357211
 31
0.0
  0
SPLINE
  5
A2
330
47
100
AcDbEntity
  8
0
  6
Continuous
 62
     7
100
AcDbSpline
210
0.0
220
0.0
230
1.0
 70
     8
 71
     3
 72
    11
 73
     7
 74
     5
 42
0.000000001
 43
0.0000000001
 44
0.00000001
 40
0.0
 40
0.0
 40
0.0
 40
0.0
 40
2.215241602868915
 40
4.272283160490055
 40
6.138826715707856
 40
7.793828833801054
 40
7.793828833801054
 40
7.793828833801054
 40
7.793828833801054
 10
-65.6328589129701
 20
-104.2849319592456
 30
0.0
 10
-65.57290364537263
 20
-103.5483553737868
 30
0.0
 10
-65.45727479152184
 20
-102.1278043422197
 30
0.0
 10
-65.51707479305549
 20
-100.0800204239652
 30
0.0
 10
-65.7292789731267
 20
-98.22514730841323
 30
0.0
 10
-66.06512634242112
 20
-97.09830951300678
 30
0.0
 10
-66.22296275397716
 20
-96.56873554047638
 30
0.0
 11
-65.6328589129701
 21
-104.2849319592456
 31
0.0
 11
-65.49526997191475
 21
-102.0739673192394
 31
0.0
 11
-65.54944842926486
 21
-100.0176393616428
 31
0.0
 11
-65.79404456733904
 21
-98.1671914214622
 31
0.0
 11
-66.22296275397716
 21
-96.56873554047638
 31
0.0
  0
SPLINE
  5
A3
330
47
100
AcDbEntity
  8
0
  6
Continuous
 62
     7
100
AcDbSpline
210
0.0
220
0.0
230
1.0
 70
     8
 71
     3
 72
    11
 73
     7
 74
     5
 42
0.000000001
 43
0.0000000001
 44
0.00000001
 40
0.0
 40
0.0
 40
0.0
 40
0.0
 40
2.501010740244315
 40
4.817022394530417
 40
6.905279394140226
 40
8.738516209699215
 40
8.738516209699215
 40
8.738516209699215
 40
8.738516209699215
 10
-65.38958963909275
 20
-104.5938698303783
 30
0.0
 10
-65.31024900259918
 20
-103.7632109605643
 30
0.0
 10
-65.15743654963472
 20
-102.1633368312674
 30
0.0
 10
-65.20703860214425
 20
-99.8592783120519
 30
0.0
 10
-65.43874729788622
 20
-97.78316612810806
 30
0.0
 10
-65.82902328227703
 20
-96.53289916377099
 30
0.0
 10
-66.01147118704145
 20
-95.94841898125642
 30
0.0
 11
-65.38958963909275
 21
-104.5938698303783
 31
0.0
 11
-65.20208921879079
 21
-102.0998974346261
 31
0.0
 11
-65.24516796886688
 21
-99.78428645481691
 31
0.0
 11
-65.5175831154444
 21
-97.71387410636743
 31
0.0
 11
-66.01147118704145
 21
-95.94841898125642
 31
0.0
  0
SPLINE
  5
A4
330
47
100
AcDbEntity
  8
0
  6
Continuous
 62
     7
100
AcDbSpline
210
0.0
220
0.0
230
1.0
 70
     8
 71
     3
 72
     9
 73
     5
 74
     3
 42
0.000000001
 43
0.0000000001
 44
0.00000001
 40
0.0
 40
0.0
 40
0.0
 40
0.0
 40
0.2332036620415211
 40
0.5185851815435265
 40
0.5185851815435265
 40
0.5185851815435265
 40
0.5185851815435265
 10
-86.25322439401901
 20
-87.67228732064859
 30
0.0
 10
-86.33282791383064
 20
-87.6650336494967
 30
0.0
 10
-86.50984574009034
 20
-87.64890336301562
 30
0.0
 10
-86.65911327912112
 20
-87.74781965731216
 30
0.0
 10
-86.74125638086417
 20
-87.80225408498598
 30
0.0
 11
-86.25322439401901
 21
-87.67228732064859
 31
0.0
 11
-86.48642320804802
 21
-87.6737913783032
 31
0.0
 11
-86.74125638086417
 21
-87.80225408498598
 31
0.0
  0
SPLINE
  5
A5
330
47
100
AcDbEntity
  8
0
  6
Continuous
 62
     7
100
AcDbSpline
210
0.0
220
0.0
230
1.0
 70
     8
 71
     3
 72
    11
 73
     7
 74
     5
 42
0.000000001
 43
0.0000000001
 44
0.00000001
 40
0.0
 40
0.0
 40
0.0
 40
0.0
 40
1.977446068448051
 40
4.128296333284522
 40
6.415513435648258
 40
8.795840317219685
 40
8.795840317219685
 40
8.795840317219685
 40
8.795840317219685
 10
-68.44855670324549
 20
-106.7233977750039
 30
0.0
 10
-68.50766778458673
 20
-106.0663262060831
 30
0.0
 10
-68.63107344103591
 20
-104.694563813202
 30
0.0
 10
-68.55365452803387
 20
-102.5530523158744
 30
0.0
 10
-68.31874899332803
 20
-100.2901703521568
 30
0.0
 10
-68.01391190939519
 20
-98.76361521410715
 30
0.0
 10
-67.85845286223842
 20
-97.9851115218688
 30
0.0
 11
-68.44855670324549
 21
-106.7233977750039
 31
0.0
 11
-68.58614564430083
 21
-104.7507441714651
 31
0.0
 11
-68.53196718695072
 21
-102.6005763730624
 31
0.0
 11
-68.28737104887654
 21
-100.3264754944021
 31
0.0
 11
-67.85845286223842
 21
-97.9851115218688
 31
0.0
  0
SPLINE
  5
A6
330
47
100
AcDbEntity
  8
0
  6
Continuous
 62
     7
100
AcDbSpline
210
0.0
220
0.0
230
1.0
 70
     8
 71
     3
 72
    11
 73
     7
 74
     5
 42
0.000000001
 43
0.0000000001
 44
0.00000001
 40
0.0
 40
0.0
 40
0.0
 40
0.0
 40
2.177300557696181
 40
4.567914290176281
 40
7.124717200011143
 40
9.791740384369074
 40
9.791740384369074
 40
9.791740384369074
 40
9.791740384369074
 10
-68.69182597712283
 20
-107.4536903884125
 30
0.0
 10
-68.77032765580431
 20
-106.7314073079131
 30
0.0
 10
-68.93502191692068
 20
-105.2160780640857
 30
0.0
 10
-68.86234272020833
 20
-102.8363505657337
 30
0.0
 10
-68.60148195343103
 20
-100.3088263915044
 30
0.0
 10
-68.24959846761563
 20
-98.6023501463897
 30
0.0
 10
-68.06994442917414
 20
-97.73110910195386
 30
0.0
 11
-68.69182597712283
 21
-107.4536903884125
 31
0.0
 11
-68.87932639742478
 21
-105.2844782470638
 31
0.0
 11
-68.8362476473487
 21
-102.8942526833962
 31
0.0
 11
-68.5638325007712
 21
-100.3520034603232
 31
0.0
 11
-68.06994442917414
 21
-97.73110910195386
 31
0.0
  0
SPLINE
  5
A7
330
47
100
AcDbEntity
  8
0
  6
Continuous
 62
     7
100
AcDbSpline
210
0.0
220
0.0
230
1.0
 70
     8
 71
     3
 72
    11
 73
     7
 74
     5
 42
0.000000001
 43
0.0000000001
 44
0.00000001
 40
0.0
 40
0.0
 40
0.0
 40
0.0
 40
2.177300557696196
 40
4.567914290176269
 40
7.124717200011147
 40
9.79174038436909
 40
9.79174038436909
 40
9.79174038436909
 40
9.79174038436909
 10
-88.61041026416493
 20
-101.7036903884125
 30
0.0
 10
-88.68891194284642
 20
-100.9814073079131
 30
0.0
 10
-88.85360620396277
 20
-99.46607806408568
 30
0.0
 10
-88.78092700725044
 20
-97.08635056573365
 30
0.0
 10
-88.52006624047317
 20
-94.55882639150447
 30
0.0
 10
-88.16818275465765
 20
-92.85235014638964
 30
0.0
 10
-87.98852871621624
 20
-91.98110910195385
 30
0.0
 11
-88.61041026416493
 21
-101.7036903884125
 31
0.0
 11
-88.79791068446688
 21
-99.53447824706375
 31
0.0
 11
-88.75483193439081
 21
-97.14425268339622
 31
0.0
 11
-88.48241678781329
 21
-94.60200346032319
 31
0.0
 11
-87.98852871621624
 21
-91.98110910195385
 31
0.0
  0
ENDBLK
  5
49
330
47
100
AcDbEntity
  8
0
100
AcDbBlockEnd
  0
BLOCK
  5
4C
330
4A
100
AcDbEntity
  8
0
100
AcDbBlockBegin
  2
Allg1
 70
     0
 10
-76.99999999999596
 20
-97.00000000000102
 30
0.0
  3
Allg1
  1

  0
INSERT
  5
4B
330
4A
100
AcDbEntity
  8
0
100
AcDbBlockReference
  2
0808011_PATG_4_23-select__1
 10
-88.86076079201962
 20
-107.4536903884125
 30
0.0
  0
MTEXT
  5
A9
330
4A
100
AcDbEntity
  8
1
 62
     6
100
AcDbMText
 10
-76.99999999999602
 20
-111.0009272438573
 30
0.0
 40
2.5
 41
0.0
 71
     2
 72
     1
  1
 
  7
CONVERTER_11
 73
     1
 44
1.32052821128451
  0
ENDBLK
  5
4D
330
4A
100
AcDbEntity
  8
0
100
AcDbBlockEnd
  0
BLOCK
  5
4F
330
4E
100
AcDbEntity
  8
0
100
AcDbBlockBegin
  2
0808011_PATG_4_23-select__2
 70
     0
 10
-152.9000002592752
 20
-90.50000017596565
 30
0.0
  3
0808011_PATG_4_23-select__2
  1

  0
LINE
  5
AA
330
4E
100
AcDbEntity
  8
0
  6
Continuous
 62
     7
100
AcDbLine
 10
-152.9000002592752
 20
-90.50000017596565
 30
0.0
 11
-152.9000002592752
 21
-89.12500017596564
 31
0.0
  0
LINE
  5
AB
330
4E
100
AcDbEntity
  8
0
  6
Continuous
 62
     7
100
AcDbLine
 10
-129.9000002592752
 20
-90.50000017596565
 30
0.0
 11
-129.9000002592752
 21
-89.12500017596564
 31
0.0
  0
LINE
  5
AC
330
4E
100
AcDbEntity
  8
0
  6
Continuous
 62
     7
100
AcDbLine
 10
-129.9000002592752
 20
-89.12500017596564
 30
0.0
 11
-129.9000002592752
 21
-87.23607160453707
 31
0.0
  0
LINE
  5
AD
330
4E
100
AcDbEntity
  8
0
  6
Continuous
 62
     7
100
AcDbLine
 10
-152.9000002592752
 20
-89.12500017596564
 30
0.0
 11
-152.9000002592752
 21
-87.23607160453707
 31
0.0
  0
LINE
  5
AE
330
4E
100
AcDbEntity
  8
0
  6
Continuous
 62
     7
100
AcDbLine
 10
-129.9000002592752
 20
-90.50000017596565
 30
0.0
 11
-152.9000002592752
 21
-90.50000017596565
 31
0.0
  0
LINE
  5
AF
330
4E
100
AcDbEntity
  8
0
  6
Continuous
 62
     2
100
AcDbLine
 10
-152.9000002592752
 20
-87.23607160453707
 30
0.0
 11
-129.9000002592752
 21
-87.23607160453707
 31
0.0
  0
LINE
  5
B0
330
4E
100
AcDbEntity
  8
0
  6
Continuous
 62
     7
100
AcDbLine
 10
-152.9000002592752
 20
-84.47500017596565
 30
0.0
 11
-152.9000002592752
 21
-86.36392874739421
 31
0.0
  0
LINE
  5
B1
330
4E
100
AcDbEntity
  8
0
  6
Continuous
 62
     2
100
AcDbLine
 10
-152.9000002592752
 20
-86.36392874739421
 30
0.0
 11
-129.9000002592752
 21
-86.36392874739421
 31
0.0
  0
LINE
  5
B2
330
4E
100
AcDbEntity
  8
0
  6
Continuous
 62
     7
100
AcDbLine
 10
-129.9000002592752
 20
-86.36392874739421
 30
0.0
 11
-129.9000002592752
 21
-87.23607160453707
 31
0.0
  0
LINE
  5
B3
330
4E
100
AcDbEntity
  8
0
  6
Continuous
 62
     7
100
AcDbLine
 10
-152.9000002592752
 20
-83.10000017596565
 30
0.0
 11
-152.9000002592752
 21
-84.47500017596565
 31
0.0
  0
LINE
  5
B4
330
4E
100
AcDbEntity
  8
0
  6
Continuous
 62
     7
100
AcDbLine
 10
-129.9000002592752
 20
-84.47500017596565
 30
0.0
 11
-129.9000002592752
 21
-86.36392874739421
 31
0.0
  0
LINE
  5
B5
330
4E
100
AcDbEntity
  8
0
  6
Continuous
 62
     7
100
AcDbLine
 10
-152.9000002592752
 20
-84.47500017596565
 30
0.0
 11
-129.9000002592752
 21
-84.47500017596565
 31
0.0
  0
LINE
  5
B6
330
4E
100
AcDbEntity
  8
0
  6
Continuous
 62
     7
100
AcDbLine
 10
-152.9000002592752
 20
-83.10000017596565
 30
0.0
 11
-129.9000002592752
 21
-83.10000017596565
 31
0.0
  0
LINE
  5
B7
330
4E
100
AcDbEntity
  8
0
  6
Continuous
 62
     7
100
AcDbLine
 10
-129.9000002592752
 20
-83.10000017596565
 30
0.0
 11
-129.9000002592752
 21
-84.47500017596565
 31
0.0
  0
LINE
  5
B8
330
4E
100
AcDbEntity
  8
0
  6
Continuous
 62
     7
100
AcDbLine
 10
-152.9000002592752
 20
-86.36392874739421
 30
0.0
 11
-152.9000002592752
 21
-87.23607160453707
 31
0.0
  0
LINE
  5
B9
330
4E
100
AcDbEntity
  8
0
  6
Continuous
 62
     7
100
AcDbLine
 10
-129.9000002592752
 20
-89.12500017596564
 30
0.0
 11
-152.9000002592752
 21
-89.12500017596564
 31
0.0
  0
ENDBLK
  5
50
330
4E
100
AcDbEntity
  8
0
100
AcDbBlockEnd
  0
BLOCK
  5
53
330
51
100
AcDbEntity
  8
0
100
AcDbBlockBegin
  2
Drfsicht1
 70
     0
 10
-141.4000002592802
 20
-86.80000027269125
 30
0.0
  3
Drfsicht1
  1

  0
INSERT
  5
52
330
51
100
AcDbEntity
  8
0
100
AcDbBlockReference
  2
0808011_PATG_4_23-select__2
 10
-152.9000002592752
 20
-90.50000017596565
 30
0.0
  0
MTEXT
  5
BA
330
51
100
AcDbEntity
  8
1
 62
     6
100
AcDbMText
 10
-141.4000002592802
 20
-93.00000018626451
 30
0.0
 40
2.5
 41
0.0
 71
     2
 72
     1
  1
 
  7
CONVERTER_11
 73
     1
 44
1.32052821128451
  0
DIMENSION
  5
C5
330
51
100
AcDbEntity
  8
1
100
AcDbDimension
  2
*D16
 10
-157.9000002592752
 20
-83.10000017596565
 30
0.0
 11
-159.6125002592752
 21
-86.80000017596564
 31
0.0
 70
    32
  1
<>
 71
     5
 42
-1.0
 53
90.0
  3
ME10_DIM_10
100
AcDbAlignedDimension
 13
-152.9000002592752
 23
-90.50000017596565
 33
0.0
 14
-152.9000002592752
 24
-83.10000017596565
 34
0.0
 50
90.0
100
AcDbRotatedDimension
  0
ENDBLK
  5
54
330
51
100
AcDbEntity
  8
0
100
AcDbBlockEnd
  0
BLOCK
  5
56
330
55
100
AcDbEntity
  8
0
100
AcDbBlockBegin
  2
0808011_PATG_4_23-select__3
 70
     0
 10
-95.5000000000175
 20
-68.09999975105474
 30
0.0
  3
0808011_PATG_4_23-select__3
  1

  0
LINE
  5
C6
330
55
100
AcDbEntity
  8
0
  6
Continuous
 62
     7
100
AcDbLine
 10
-72.5000000000175
 20
-57.49521145309363
 30
0.0
 11
-95.5000000000175
 21
-57.49521145309362
 31
0.0
  0
LINE
  5
C7
330
55
100
AcDbEntity
  8
0
  6
Continuous
 62
     7
100
AcDbLine
 10
-72.5000000000175
 20
-68.09999975105474
 30
0.0
 11
-72.5000000000175
 21
-57.49521145309363
 31
0.0
  0
LINE
  5
C8
330
55
100
AcDbEntity
  8
0
  6
Continuous
 62
     7
100
AcDbLine
 10
-72.5000000000175
 20
-57.49521145309363
 30
0.0
 11
-72.5000000000175
 21
-55.96082004802997
 31
0.0
  0
LINE
  5
C9
330
55
100
AcDbEntity
  8
0
  6
Continuous
 62
     7
100
AcDbLine
 10
-72.5000000000175
 20
-55.96082004802997
 30
0.0
 11
-72.5000000000175
 21
-53.91715765054404
 31
0.0
  0
LINE
  5
CA
330
55
100
AcDbEntity
  8
0
  6
Continuous
 62
     7
100
AcDbLine
 10
-72.5000000000175
 20
-53.91715765054404
 30
0.0
 11
-72.5000000000175
 21
-53.89999975105474
 31
0.0
  0
LINE
  5
CB
330
55
100
AcDbEntity
  8
0
  6
Continuous
 62
     7
100
AcDbLine
 10
-95.5000000000175
 20
-68.09999975105474
 30
0.0
 11
-95.5000000000175
 21
-57.49521145309362
 31
0.0
  0
LINE
  5
CC
330
55
100
AcDbEntity
  8
0
  6
Continuous
 62
     7
100
AcDbLine
 10
-95.5000000000175
 20
-57.49521145309362
 30
0.0
 11
-95.5000000000175
 21
-55.96082004802997
 31
0.0
  0
LINE
  5
CD
330
55
100
AcDbEntity
  8
0
  6
Continuous
 62
     7
100
AcDbLine
 10
-95.5000000000175
 20
-55.96082004802997
 30
0.0
 11
-95.5000000000175
 21
-53.91715765054404
 31
0.0
  0
LINE
  5
CE
330
55
100
AcDbEntity
  8
0
  6
Continuous
 62
     7
100
AcDbLine
 10
-95.5000000000175
 20
-53.91715765054404
 30
0.0
 11
-95.5000000000175
 21
-53.89999975105474
 31
0.0
  0
LINE
  5
CF
330
55
100
AcDbEntity
  8
0
  6
Continuous
 62
     2
100
AcDbLine
 10
-72.5000000000175
 20
-55.96082004802997
 30
0.0
 11
-95.5000000000175
 21
-55.96082004802997
 31
0.0
  0
LINE
  5
D0
330
55
100
AcDbEntity
  8
0
  6
Continuous
 62
     7
100
AcDbLine
 10
-72.5000000000175
 20
-53.89999975105474
 30
0.0
 11
-95.5000000000175
 21
-53.89999975105474
 31
0.0
  0
LINE
  5
D1
330
55
100
AcDbEntity
  8
0
  6
Continuous
 62
     2
100
AcDbLine
 10
-72.5000000000175
 20
-53.91715765054404
 30
0.0
 11
-95.5000000000175
 21
-53.91715765054404
 31
0.0
  0
LINE
  5
D2
330
55
100
AcDbEntity
  8
0
  6
Continuous
 62
     7
100
AcDbLine
 10
-72.5000000000175
 20
-68.09999975105474
 30
0.0
 11
-95.5000000000175
 21
-68.09999975105474
 31
0.0
  0
ENDBLK
  5
57
330
55
100
AcDbEntity
  8
0
100
AcDbBlockEnd
  0
BLOCK
  5
5A
330
58
100
AcDbEntity
  8
0
100
AcDbBlockBegin
  2
Rckans1
 70
     0
 10
-84.0000000000125
 20
-61.00000000000004
 30
0.0
  3
Rckans1
  1

  0
INSERT
  5
59
330
58
100
AcDbEntity
  8
0
100
AcDbBlockReference
  2
0808011_PATG_4_23-select__3
 10
-95.5000000000175
 20
-68.09999975105474
 30
0.0
  0
MTEXT
  5
D3
330
58
100
AcDbEntity
  8
1
 62
     6
100
AcDbMText
 10
-84.0000000000125
 20
-70.59999990463257
 30
0.0
 40
2.5
 41
0.0
 71
     2
 72
     1
  1
 
  7
CONVERTER_11
 73
     1
 44
1.32052821128451
  0
ENDBLK
  5
5B
330
58
100
AcDbEntity
  8
0
100
AcDbBlockEnd
  0
BLOCK
  5
5D
330
5C
100
AcDbEntity
  8
0
100
AcDbBlockBegin
  2
0808011_PATG_4_23-select__4
 70
     0
 10
-116.4000002263658
 20
-68.0999997510547
 30
0.0
  3
0808011_PATG_4_23-select__4
  1

  0
LINE
  5
D4
330
5C
100
AcDbEntity
  8
0
  6
Continuous
 62
     7
100
AcDbLine
 10
-114.4729080200038
 20
-61.99999975105469
 30
0.0
 11
-113.9813273047868
 21
-67.49999975105469
 31
0.0
  0
LINE
  5
D5
330
5C
100
AcDbEntity
  8
0
  6
Continuous
 62
     7
100
AcDbLine
 10
-113.9813273047868
 20
-67.49999975105469
 30
0.0
 11
-115.5156980166412
 21
-67.49999975105469
 31
0.0
  0
LINE
  5
D6
330
5C
100
AcDbEntity
  8
0
  6
Continuous
 62
     7
100
AcDbLine
 10
-114.3354903346271
 20
-57.99999975105469
 30
0.0
 11
-111.0645101181045
 21
-57.99999975105469
 31
0.0
  0
LINE
  5
D7
330
5C
100
AcDbEntity
  8
0
  6
Continuous
 62
     7
100
AcDbLine
 10
-110.9270924327278
 20
-61.99999975105469
 30
0.0
 11
-111.4186731479448
 21
-67.49999975105469
 31
0.0
  0
LINE
  5
D8
330
5C
100
AcDbEntity
  8
0
  6
Continuous
 62
     7
100
AcDbLine
 10
-112.0746919126817
 20
-68.0999997510547
 30
0.0
 11
-111.5831111974647
 21
-62.59999975105469
 31
0.0
  0
LINE
  5
D9
330
5C
100
AcDbEntity
  8
0
  6
Continuous
 62
     7
100
AcDbLine
 10
-113.3253085400499
 20
-68.0999997510547
 30
0.0
 11
-113.8168892552669
 21
-62.59999975105469
 31
0.0
  0
LINE
  5
DA
330
5C
100
AcDbEntity
  8
0
  6
Continuous
 62
     7
100
AcDbLine
 10
-110.9270924327278
 20
-61.99999975105469
 30
0.0
 11
-114.4729080200038
 21
-61.99999975105469
 31
0.0
  0
LINE
  5
DB
330
5C
100
AcDbEntity
  8
0
  6
Continuous
 62
     7
100
AcDbLine
 10
-111.5831111974647
 20
-62.59999975105469
 30
0.0
 11
-113.8168892552669
 21
-62.59999975105469
 31
0.0
  0
LINE
  5
DC
330
5C
100
AcDbEntity
  8
0
  6
Continuous
 62
     7
100
AcDbLine
 10
-111.4186731479448
 20
-67.49999975105469
 30
0.0
 11
-109.8843024360904
 21
-67.49999975105469
 31
0.0
  0
LINE
  5
DD
330
5C
100
AcDbEntity
  8
0
  6
Continuous
 62
     7
100
AcDbLine
 10
-113.3253085400499
 20
-68.0999997510547
 30
0.0
 11
-116.0022365643959
 21
-68.0999997510547
 31
0.0
  0
LINE
  5
DE
330
5C
100
AcDbEntity
  8
0
  6
Continuous
 62
     7
100
AcDbLine
 10
-112.0746919126817
 20
-68.0999997510547
 30
0.0
 11
-109.3977638883357
 21
-68.0999997510547
 31
0.0
  0
ARC
  5
DF
330
5C
100
AcDbEntity
  8
0
  6
Continuous
 62
     7
100
AcDbCircle
 10
-100.4000002263658
 20
-64.55454896839623
 30
0.0
 40
15.40000000000003
100
AcDbArc
 50
154.8100812941647
 51
191.0265028185188
  0
ARC
  5
E0
330
5C
100
AcDbEntity
  8
0
  6
Continuous
 62
     7
100
AcDbCircle
 10
-100.4000002263658
 20
-64.55454896839623
 30
0.0
 40
15.99999999999999
100
AcDbArc
 50
153.8189803144767
 51
192.8024781185146
  0
ARC
  5
E1
330
5C
100
AcDbEntity
  8
0
  6
Continuous
 62
     7
100
AcDbCircle
 10
-110.4750002263658
 20
-55.96082004802992
 30
0.0
 40
4.550000000000011
100
AcDbArc
 50
180.0
 51
199.7081321294767
  0
ARC
  5
E2
330
5C
100
AcDbEntity
  8
0
  6
Continuous
 62
     7
100
AcDbCircle
 10
-112.9750002263658
 20
-55.96082004802992
 30
0.0
 40
2.050000000000009
100
AcDbArc
 50
94.50645612847919
 51
180.0
  0
ARC
  5
E3
330
5C
100
AcDbEntity
  8
0
  6
Continuous
 62
     7
100
AcDbCircle
 10
-125.0000002263658
 20
-64.55454896839623
 30
0.0
 40
15.4
100
AcDbArc
 50
348.9734971814812
 51
25.18991870583532
  0
ARC
  5
E4
330
5C
100
AcDbEntity
  8
0
  6
Continuous
 62
     7
100
AcDbCircle
 10
-114.9250002263658
 20
-55.96082004802992
 30
0.0
 40
4.550000000000006
100
AcDbArc
 50
340.2918678705233
 51
0.0
  0
ARC
  5
E5
330
5C
100
AcDbEntity
  8
0
  6
Continuous
 62
     7
100
AcDbCircle
 10
-112.4250002263658
 20
-55.96082004802992
 30
0.0
 40
2.049999999999997
100
AcDbArc
 50
0.0
 51
85.49354387152121
  0
ARC
  5
E6
330
5C
100
AcDbEntity
  8
0
  6
Continuous
 62
     7
100
AcDbCircle
 10
-112.7000002263658
 20
-59.44999975105468
 30
0.0
 40
5.550000000000002
100
AcDbArc
 50
85.49354387152046
 51
94.50645612847956
  0
ARC
  5
E7
330
5C
100
AcDbEntity
  8
0
  6
Continuous
 62
     7
100
AcDbCircle
 10
-125.0000002263658
 20
-64.55454896839623
 30
0.0
 40
16.00000000000001
100
AcDbArc
 50
347.1975218814854
 51
26.18101968552332
  0
ENDBLK
  5
5E
330
5C
100
AcDbEntity
  8
0
100
AcDbBlockEnd
  0
BLOCK
  5
61
330
5F
100
AcDbEntity
  8
0
100
AcDbBlockBegin
  2
SA_Links1
 70
     0
 10
-112.7000001296402
 20
-61.0
 30
0.0
  3
SA_Links1
  1

  0
INSERT
  5
60
330
5F
100
AcDbEntity
  8
0
100
AcDbBlockReference
  2
0808011_PATG_4_23-select__4
 10
-116.4000002263658
 20
-68.0999997510547
 30
0.0
  0
MTEXT
  5
E8
330
5F
100
AcDbEntity
  8
1
 62
     6
100
AcDbMText
 10
-112.7000001296401
 20
-70.59999990463257
 30
0.0
 40
2.5
 41
0.0
 71
     2
 72
     1
  1
 
  7
CONVERTER_11
 73
     1
 44
1.32052821128451
  0
ENDBLK
  5
62
330
5F
100
AcDbEntity
  8
0
100
AcDbBlockEnd
  0
BLOCK
  5
64
330
63
100
AcDbEntity
  8
0
100
AcDbBlockBegin
  2
0808011_PATG_4_23-select__5
 70
     0
 10
-178.8000002489864
 20
-68.09999975105474
 30
0.0
  3
0808011_PATG_4_23-select__5
  1

  0
LINE
  5
E9
330
63
100
AcDbEntity
  8
0
  6
Continuous
 62
     7
100
AcDbLine
 10
-173.8186731705654
 20
-67.49999975105473
 30
0.0
 11
-172.284302458711
 21
-67.49999975105473
 31
0.0
  0
LINE
  5
EA
330
63
100
AcDbEntity
  8
0
  6
Continuous
 62
     7
100
AcDbLine
 10
-174.4746919353023
 20
-68.09999975105474
 30
0.0
 11
-173.9831112200853
 21
-62.59999975105475
 31
0.0
  0
LINE
  5
EB
330
63
100
AcDbEntity
  8
0
  6
Continuous
 62
     7
100
AcDbLine
 10
-174.4746919353023
 20
-68.09999975105474
 30
0.0
 11
-171.7977639109563
 21
-68.09999975105474
 31
0.0
  0
LINE
  5
EC
330
63
100
AcDbEntity
  8
0
  6
Continuous
 62
     7
100
AcDbLine
 10
-176.3813273274074
 20
-67.49999975105473
 30
0.0
 11
-177.9156980392618
 21
-67.49999975105473
 31
0.0
  0
LINE
  5
ED
330
63
100
AcDbEntity
  8
0
  6
Continuous
 62
     7
100
AcDbLine
 10
-176.8729080426244
 20
-61.99999975105474
 30
0.0
 11
-176.3813273274074
 21
-67.49999975105473
 31
0.0
  0
LINE
  5
EE
330
63
100
AcDbEntity
  8
0
  6
Continuous
 62
     7
100
AcDbLine
 10
-173.4645101407251
 20
-57.99999975105474
 30
0.0
 11
-176.7354903572477
 21
-57.99999975105474
 31
0.0
  0
LINE
  5
EF
330
63
100
AcDbEntity
  8
0
  6
Continuous
 62
     7
100
AcDbLine
 10
-173.3270924553484
 20
-61.99999975105474
 30
0.0
 11
-173.8186731705654
 21
-67.49999975105473
 31
0.0
  0
LINE
  5
F0
330
63
100
AcDbEntity
  8
0
  6
Continuous
 62
     7
100
AcDbLine
 10
-176.8729080426244
 20
-61.99999975105474
 30
0.0
 11
-173.3270924553484
 21
-61.99999975105474
 31
0.0
  0
LINE
  5
F1
330
63
100
AcDbEntity
  8
0
  6
Continuous
 62
     7
100
AcDbLine
 10
-176.2168892778875
 20
-62.59999975105475
 30
0.0
 11
-173.9831112200853
 21
-62.59999975105475
 31
0.0
  0
LINE
  5
F2
330
63
100
AcDbEntity
  8
0
  6
Continuous
 62
     7
100
AcDbLine
 10
-175.7253085626705
 20
-68.09999975105474
 30
0.0
 11
-178.4022365870165
 21
-68.09999975105474
 31
0.0
  0
LINE
  5
F3
330
63
100
AcDbEntity
  8
0
  6
Continuous
 62
     7
100
AcDbLine
 10
-175.7253085626705
 20
-68.09999975105474
 30
0.0
 11
-176.2168892778875
 21
-62.59999975105475
 31
0.0
  0
ARC
  5
F4
330
63
100
AcDbEntity
  8
0
  6
Continuous
 62
     7
100
AcDbCircle
 10
-172.8750002489864
 20
-55.96082004802997
 30
0.0
 40
4.550000000000011
100
AcDbArc
 50
180.0
 51
199.7081321294765
  0
ARC
  5
F5
330
63
100
AcDbEntity
  8
0
  6
Continuous
 62
     7
100
AcDbCircle
 10
-162.8000002489864
 20
-64.55454896839628
 30
0.0
 40
15.40000000000003
100
AcDbArc
 50
154.8100812941647
 51
191.0265028185188
  0
ARC
  5
F6
330
63
100
AcDbEntity
  8
0
  6
Continuous
 62
     7
100
AcDbCircle
 10
-162.8000002489864
 20
-64.55454896839628
 30
0.0
 40
16.00000000000001
100
AcDbArc
 50
153.8189803144767
 51
192.8024781185146
  0
ARC
  5
F7
330
63
100
AcDbEntity
  8
0
  6
Continuous
 62
     7
100
AcDbCircle
 10
-175.1000002489864
 20
-59.44999975105473
 30
0.0
 40
5.549999999999986
100
AcDbArc
 50
85.49354387152059
 51
94.50645612847971
  0
ARC
  5
F8
330
63
100
AcDbEntity
  8
0
  6
Continuous
 62
     7
100
AcDbCircle
 10
-174.8250002489864
 20
-55.96082004802997
 30
0.0
 40
2.050000000000011
100
AcDbArc
 50
0.0
 51
85.49354387152079
  0
ARC
  5
F9
330
63
100
AcDbEntity
  8
0
  6
Continuous
 62
     7
100
AcDbCircle
 10
-177.3250002489864
 20
-55.96082004802997
 30
0.0
 40
4.550000000000015
100
AcDbArc
 50
340.2918678705236
 51
0.0
  0
ARC
  5
FA
330
63
100
AcDbEntity
  8
0
  6
Continuous
 62
     7
100
AcDbCircle
 10
-175.3750002489864
 20
-55.96082004802997
 30
0.0
 40
2.049999999999995
100
AcDbArc
 50
94.50645612847923
 51
180.0
  0
ARC
  5
FB
330
63
100
AcDbEntity
  8
0
  6
Continuous
 62
     7
100
AcDbCircle
 10
-187.4000002489864
 20
-64.55454896839628
 30
0.0
 40
15.39999999999999
100
AcDbArc
 50
348.9734971814812
 51
25.18991870583532
  0
ARC
  5
FC
330
63
100
AcDbEntity
  8
0
  6
Continuous
 62
     7
100
AcDbCircle
 10
-187.4000002489864
 20
-64.55454896839628
 30
0.0
 40
16.00000000000002
100
AcDbArc
 50
347.1975218814854
 51
26.18101968552334
  0
ENDBLK
  5
65
330
63
100
AcDbEntity
  8
0
100
AcDbBlockEnd
  0
BLOCK
  5
68
330
66
100
AcDbEntity
  8
0
100
AcDbBlockBegin
  2
SA_Rechts1
 70
     0
 10
-175.100000345712
 20
-61.00000000000004
 30
0.0
  3
SA_Rechts1
  1

  0
INSERT
  5
67
330
66
100
AcDbEntity
  8
0
100
AcDbBlockReference
  2
0808011_PATG_4_23-select__5
 10
-178.8000002489864
 20
-68.09999975105474
 30
0.0
  0
MTEXT
  5
FD
330
66
100
AcDbEntity
  8
1
 62
     6
100
AcDbMText
 10
-175.1000003457119
 20
-70.59999990463257
 30
0.0
 40
2.5
 41
0.0
 71
     2
 72
     1
  1
 
  7
CONVERTER_11
 73
     1
 44
1.32052821128451
  0
ENDBLK
  5
69
330
66
100
AcDbEntity
  8
0
100
AcDbBlockEnd
  0
BLOCK
  5
6B
330
6A
100
AcDbEntity
  8
0
100
AcDbBlockBegin
  2
0808011_PATG_4_23-select__6
 70
     0
 10
-152.8999999999949
 20
-68.09999975105477
 30
0.0
  3
0808011_PATG_4_23-select__6
  1

  0
LINE
  5
FE
330
6A
100
AcDbEntity
  8
0
  6
Continuous
 62
     7
100
AcDbLine
 10
-152.8999999999949
 20
-57.49521145309366
 30
0.0
 11
-129.8999999999949
 21
-57.49521145309365
 31
0.0
  0
LINE
  5
FF
330
6A
100
AcDbEntity
  8
0
  6
Continuous
 62
     7
100
AcDbLine
 10
-152.8999999999949
 20
-57.49521145309366
 30
0.0
 11
-152.8999999999949
 21
-55.96082004803
 31
0.0
  0
LINE
  5
100
330
6A
100
AcDbEntity
  8
0
  6
Continuous
 62
     7
100
AcDbLine
 10
-152.8999999999949
 20
-55.96082004803
 30
0.0
 11
-152.8999999999949
 21
-53.91715765054407
 31
0.0
  0
LINE
  5
101
330
6A
100
AcDbEntity
  8
0
  6
Continuous
 62
     7
100
AcDbLine
 10
-129.8999999999949
 20
-55.96082004803
 30
0.0
 11
-129.8999999999949
 21
-53.91715765054407
 31
0.0
  0
LINE
  5
102
330
6A
100
AcDbEntity
  8
0
  6
Continuous
 62
     7
100
AcDbLine
 10
-129.8999999999949
 20
-53.89999975105476
 30
0.0
 11
-129.8999999999949
 21
-53.91715765054407
 31
0.0
  0
LINE
  5
103
330
6A
100
AcDbEntity
  8
0
  6
Continuous
 62
     2
100
AcDbLine
 10
-152.8999999999949
 20
-55.96082004803
 30
0.0
 11
-129.8999999999949
 21
-55.96082004803
 31
0.0
  0
LINE
  5
104
330
6A
100
AcDbEntity
  8
0
  6
Continuous
 62
     7
100
AcDbLine
 10
-129.8999999999949
 20
-57.49521145309365
 30
0.0
 11
-129.8999999999949
 21
-55.96082004803
 31
0.0
  0
LINE
  5
105
330
6A
100
AcDbEntity
  8
0
  6
Continuous
 62
     7
100
AcDbLine
 10
-152.8999999999949
 20
-68.09999975105477
 30
0.0
 11
-152.8999999999949
 21
-57.49521145309366
 31
0.0
  0
LINE
  5
106
330
6A
100
AcDbEntity
  8
0
  6
Continuous
 62
     7
100
AcDbLine
 10
-152.8999999999949
 20
-53.89999975105476
 30
0.0
 11
-152.8999999999949
 21
-53.91715765054407
 31
0.0
  0
LINE
  5
107
330
6A
100
AcDbEntity
  8
0
  6
Continuous
 62
     2
100
AcDbLine
 10
-152.8999999999949
 20
-53.91715765054407
 30
0.0
 11
-129.8999999999949
 21
-53.91715765054407
 31
0.0
  0
LINE
  5
108
330
6A
100
AcDbEntity
  8
0
  6
Continuous
 62
     7
100
AcDbLine
 10
-152.8999999999949
 20
-53.89999975105476
 30
0.0
 11
-129.8999999999949
 21
-53.89999975105476
 31
0.0
  0
LINE
  5
109
330
6A
100
AcDbEntity
  8
0
  6
Continuous
 62
     7
100
AcDbLine
 10
-129.8999999999949
 20
-68.09999975105477
 30
0.0
 11
-129.8999999999949
 21
-57.49521145309365
 31
0.0
  0
LINE
  5
10A
330
6A
100
AcDbEntity
  8
0
  6
Continuous
 62
     7
100
AcDbLine
 10
-152.8999999999949
 20
-68.09999975105477
 30
0.0
 11
-129.8999999999949
 21
-68.09999975105477
 31
0.0
  0
ENDBLK
  5
6C
330
6A
100
AcDbEntity
  8
0
100
AcDbBlockEnd
  0
BLOCK
  5
6F
330
6D
100
AcDbEntity
  8
0
100
AcDbBlockBegin
  2
Vordans1
 70
     0
 10
-141.3999999999999
 20
-61.00000000000007
 30
0.0
  3
Vordans1
  1

  0
INSERT
  5
6E
330
6D
100
AcDbEntity
  8
0
100
AcDbBlockReference
  2
0808011_PATG_4_23-select__6
 10
-152.8999999999949
 20
-68.09999975105477
 30
0.0
  0
MTEXT
  5
10B
330
6D
100
AcDbEntity
  8
1
 62
     6
100
AcDbMText
 10
-141.4
 20
-70.59999990463257
 30
0.0
 40
2.5
 41
0.0
 71
     2
 72
     1
  1
 
  7
CONVERTER_11
 73
     1
 44
1.32052821128451
  0
DIMENSION
  5
116
330
6D
100
AcDbEntity
  8
1
100
AcDbDimension
  2
*D17
 10
-152.8999999999949
 20
-73.09999975105477
 30
0.0
 11
-141.3999999999949
 21
-71.47499975105477
 31
0.0
 70
    33
  1
<>
 71
     5
 42
-1.0
 53
0.00013888888889
  3
ME10_DIM_11
100
AcDbAlignedDimension
 13
-129.8999999999949
 23
-68.09999975105477
 33
0.0
 14
-152.8999999999949
 24
-68.09999975105477
 34
0.0
  0
DIMENSION
  5
121
330
6D
100
AcDbEntity
  8
1
100
AcDbDimension
  2
*D18
 10
-157.8999999999949
 20
-68.09999975105477
 30
0.0
 11
-159.6124999999949
 21
-61.1835294062175
 31
0.0
 70
    32
  1
<>
 71
     5
 42
-1.0
 53
90.0
  3
ME10_DIM_12
100
AcDbAlignedDimension
 13
-152.8999999999949
 23
-53.89999975105476
 33
0.0
 14
-152.8999999999949
 24
-68.09999975105477
 34
0.0
 50
90.0
100
AcDbRotatedDimension
  0
ENDBLK
  5
70
330
6D
100
AcDbEntity
  8
0
100
AcDbBlockEnd
  0
BLOCK
  5
72
330
71
100
AcDbEntity
  8
0
100
AcDbBlockBegin
  2
_punkt
 70
     0
 10
-104.3000002490038
 20
-261.9009269949119
 30
0.0
  3
_punkt
  1

  0
LINE
  5
122
330
71
100
AcDbEntity
  8
1
  6
Continuous
 62
     2
100
AcDbLine
 10
-104.3000002490038
 20
-261.9009269949119
 30
0.0
 11
-104.3000002490038
 21
-266.900926994912
 31
0.0
  0
LINE
  5
123
330
71
100
AcDbEntity
  8
1
  6
Continuous
 62
     2
100
AcDbLine
 10
-104.3000002490038
 20
-261.9009269949119
 30
0.0
 11
-99.30000024900482
 21
-261.9009269949119
 31
0.0
  0
ENDBLK
  5
73
330
71
100
AcDbEntity
  8
0
100
AcDbBlockEnd
  0
BLOCK
  5
75
330
74
100
AcDbEntity
  8
0
100
AcDbBlockBegin
  2
_rahmen
 70
     0
 10
-104.3000002490038
 20
-266.900926994912
 30
0.0
  3
_rahmen
  1

  0
LINE
  5
124
330
74
100
AcDbEntity
  8
1
  6
DOT_CENTER
 62
     2
100
AcDbLine
 10
-229.8581498891912
 20
-240.775926994912
 30
0.0
 11
-224.3581498891912
 21
-240.775926994912
 31
0.0
  0
LINE
  5
125
330
74
100
AcDbEntity
  8
1
  6
PHANTOM
 62
     2
100
AcDbLine
 10
-221.1081498891912
 20
-238.025926994912
 30
0.0
 11
-221.1081498891912
 21
-243.525926994912
 31
0.0
  0
LINE
  5
126
330
74
100
AcDbEntity
  8
1
  6
PHANTOM
 62
     2
100
AcDbLine
 10
-218.3581498891912
 20
-240.775926994912
 30
0.0
 11
-223.8581498891912
 21
-240.775926994912
 31
0.0
  0
LINE
  5
127
330
74
100
AcDbEntity
  8
1
  6
Continuous
 62
     7
100
AcDbLine
 10
-169.5448047757538
 20
-253.400926994912
 30
0.0
 11
-169.5448047757538
 21
-244.9009269949119
 31
0.0
  0
LINE
  5
128
330
74
100
AcDbEntity
  8
1
  6
Continuous
 62
     6
100
AcDbLine
 10
-197.4448047757539
 20
-244.9009269949119
 30
0.0
 11
-104.3000002490021
 21
-244.9009269949119
 31
0.0
  0
LINE
  5
129
330
74
100
AcDbEntity
  8
1
  6
Continuous
 62
     7
100
AcDbLine
 10
-233.8448047757538
 20
-244.9009269949119
 30
0.0
 11
-233.8448047757538
 21
-236.4009269949119
 31
0.0
  0
LINE
  5
12A
330
74
100
AcDbEntity
  8
1
  6
Continuous
 62
     7
100
AcDbLine
 10
-197.4448047757539
 20
-244.9009269949119
 30
0.0
 11
-197.4448047757539
 21
-236.4009269949119
 31
0.0
  0
LINE
  5
12B
330
74
100
AcDbEntity
  8
1
  6
Continuous
 62
     7
100
AcDbLine
 10
-139.7184085306809
 20
-236.4009269949119
 30
0.0
 11
-139.7184085306809
 21
-244.9009269949119
 31
0.0
  0
LINE
  5
12C
330
74
100
AcDbEntity
  8
1
  6
Continuous
 62
     7
100
AcDbLine
 10
-113.2184085306813
 20
-236.4009269949119
 30
0.0
 11
-113.2184085306813
 21
-244.9009269949119
 31
0.0
  0
LINE
  5
12D
330
74
100
AcDbEntity
  8
1
  6
Continuous
 62
     6
100
AcDbLine
 10
-302.8448047757538
 20
-261.9009269949119
 30
0.0
 11
-347.8000002490038
 21
-261.9009269949119
 31
0.0
  0
LINE
  5
12E
330
74
100
AcDbEntity
  8
1
  6
Continuous
 62
     7
100
AcDbLine
 10
-104.3000002490025
 20
-253.4009269949119
 30
0.0
 11
-197.4448047757539
 21
-253.4009269949119
 31
0.0
  0
LINE
  5
12F
102
{ACAD_REACTORS
330
241
330
242
102
}
330
74
100
AcDbEntity
  8
0
  6
Continuous
 62
     2
100
AcDbLine
 10
-220.1373758339864
 20
-252.6006378792486
 30
0.0
 11
-220.1373758339864
 21
-251.7281208724453
 31
0.0
  0
LINE
  5
130
102
{ACAD_REACTORS
330
241
330
242
102
}
330
74
100
AcDbEntity
  8
0
  6
Continuous
 62
     2
100
AcDbLine
 10
-220.1373758339864
 20
-253.5604065867315
 30
0.0
 11
-220.1373758339864
 21
-254.4329235935347
 31
0.0
  0
LINE
  5
131
102
{ACAD_REACTORS
330
243
330
244
102
}
330
74
100
AcDbEntity
  8
0
  6
Continuous
 62
     2
100
AcDbLine
 10
-204.8043316976959
 20
-252.3388827772081
 30
0.0
 11
-203.7006923981278
 21
-252.3388827772081
 31
0.0
  0
LINE
  5
132
102
{ACAD_REACTORS
330
243
330
244
102
}
330
74
100
AcDbEntity
  8
0
  6
Continuous
 62
     2
100
AcDbLine
 10
-204.0346743547345
 20
-253.560406586732
 30
0.0
 11
-204.0346743547345
 21
-254.4329235935353
 31
0.0
  0
LINE
  5
133
102
{ACAD_REACTORS
330
24D
330
24E
102
}
330
74
100
AcDbEntity
  8
0
  6
Continuous
 62
     2
100
AcDbLine
 10
-205.8954309701144
 20
-251.2482365187213
 30
0.0
 11
-204.4974779231741
 21
-249.6673775249463
 31
0.0
  0
LINE
  5
134
102
{ACAD_REACTORS
330
24D
330
24E
102
}
330
74
100
AcDbEntity
  8
0
  6
Continuous
 62
     2
100
AcDbLine
 10
-205.8000075539416
 20
-248.1944269949101
 30
0.0
 11
-204.4974779231741
 21
-249.6673775249463
 31
0.0
  0
LINE
  5
135
102
{ACAD_REACTORS
330
24D
330
24E
102
}
330
74
100
AcDbEntity
  8
0
  6
Continuous
 62
     2
100
AcDbLine
 10
-203.1949482924077
 20
-248.1944269949101
 30
0.0
 11
-201.7922240746605
 21
-248.1944269949101
 31
0.0
  0
LINE
  5
136
102
{ACAD_REACTORS
330
24D
330
24E
102
}
330
74
100
AcDbEntity
  8
0
  6
Continuous
 62
     2
100
AcDbLine
 10
-204.4927067523662
 20
-251.2482365187213
 30
0.0
 11
-203.7961158143005
 21
-250.4605047334276
 31
0.0
  0
LINE
  5
137
102
{ACAD_REACTORS
330
24D
330
24E
102
}
330
74
100
AcDbEntity
  8
0
  6
Continuous
 62
     2
100
AcDbLine
 10
-204.4927067523662
 20
-251.2482365187213
 30
0.0
 11
-205.8954309701144
 21
-251.2482365187213
 31
0.0
  0
LINE
  5
138
102
{ACAD_REACTORS
330
24F
330
250
102
}
330
74
100
AcDbEntity
  8
0
  6
Continuous
 62
     2
100
AcDbLine
 10
-206.0147102403313
 20
-251.2482365187213
 30
0.0
 11
-207.2552146505842
 21
-251.2482365187213
 31
0.0
  0
LINE
  5
139
102
{ACAD_REACTORS
330
251
330
252
102
}
330
74
100
AcDbEntity
  8
0
  6
Continuous
 62
     2
100
AcDbLine
 10
-208.1231942587393
 20
-253.3859031853711
 30
0.0
 11
-208.4233594959294
 21
-252.6180882193844
 31
0.0
  0
LINE
  5
13A
102
{ACAD_REACTORS
330
251
330
252
102
}
330
74
100
AcDbEntity
  8
0
  6
Continuous
 62
     2
100
AcDbLine
 10
-208.7235247331218
 20
-253.3859031853711
 30
0.0
 11
-208.1231942587393
 21
-253.3859031853711
 31
0.0
  0
LINE
  5
13B
102
{ACAD_REACTORS
330
251
330
252
102
}
330
74
100
AcDbEntity
  8
0
  6
Continuous
 62
     2
100
AcDbLine
 10
-210.4415647479956
 20
-254.6074269948956
 30
0.0
 11
-209.2010603377426
 21
-254.6074269948956
 31
0.0
  0
LINE
  5
13C
102
{ACAD_REACTORS
330
251
330
252
102
}
330
74
100
AcDbEntity
  8
0
  6
Continuous
 62
     2
100
AcDbLine
 10
-209.0436117010563
 20
-251.5536174710845
 30
0.0
 11
-207.8031072908036
 21
-251.5536174710845
 31
0.0
  0
LINE
  5
13D
102
{ACAD_REACTORS
330
251
330
252
102
}
330
74
100
AcDbEntity
  8
0
  6
Continuous
 62
     2
100
AcDbLine
 10
-207.8031072908036
 20
-251.5536174710845
 30
0.0
 11
-206.4051542438633
 21
-254.6074269948956
 31
0.0
  0
LINE
  5
13E
102
{ACAD_REACTORS
330
251
330
252
102
}
330
74
100
AcDbEntity
  8
0
  6
Continuous
 62
     2
100
AcDbLine
 10
-207.6456586541172
 20
-254.6074269948956
 30
0.0
 11
-207.857138707593
 21
-254.0664664506777
 31
0.0
  0
LINE
  5
13F
102
{ACAD_REACTORS
330
253
330
254
102
}
330
74
100
AcDbEntity
  8
0
  6
Continuous
 62
     2
100
AcDbLine
 10
-211.7879778497032
 20
-254.6074269948956
 30
0.0
 11
-210.5951851475367
 21
-254.6074269948956
 31
0.0
  0
LINE
  5
140
102
{ACAD_REACTORS
330
253
330
254
102
}
330
74
100
AcDbEntity
  8
0
  6
Continuous
 62
     2
100
AcDbLine
 10
-211.7879778497032
 20
-252.3388827772081
 30
0.0
 11
-211.7879778497032
 21
-254.6074269948956
 31
0.0
  0
LINE
  5
141
102
{ACAD_REACTORS
330
253
330
254
102
}
330
74
100
AcDbEntity
  8
0
  6
Continuous
 62
     2
100
AcDbLine
 10
-212.5990768871778
 20
-251.5536174710845
 30
0.0
 11
-212.5990768871778
 21
-252.3388827772081
 31
0.0
  0
LINE
  5
142
102
{ACAD_REACTORS
330
255
330
256
102
}
330
74
100
AcDbEntity
  8
0
  6
Continuous
 62
     2
100
AcDbLine
 10
-211.1198630056052
 20
-251.2482365187213
 30
0.0
 11
-209.9270703034387
 21
-251.2482365187213
 31
0.0
  0
LINE
  5
143
102
{ACAD_REACTORS
330
255
330
256
102
}
330
74
100
AcDbEntity
  8
0
  6
Continuous
 62
     2
100
AcDbLine
 10
-208.6865658931847
 20
-249.5032025051153
 30
0.0
 11
-209.9270703034387
 21
-248.1944269949101
 31
0.0
  0
LINE
  5
144
102
{ACAD_REACTORS
330
255
330
256
102
}
330
74
100
AcDbEntity
  8
0
  6
Continuous
 62
     2
100
AcDbLine
 10
-207.4937731910181
 20
-248.1944269949101
 30
0.0
 11
-208.6865658931847
 21
-248.1944269949101
 31
0.0
  0
LINE
  5
145
102
{ACAD_REACTORS
330
255
330
256
102
}
330
74
100
AcDbEntity
  8
0
  6
Continuous
 62
     2
100
AcDbLine
 10
-207.4937731910181
 20
-251.2482365187213
 30
0.0
 11
-207.4937731910181
 21
-248.1944269949101
 31
0.0
  0
LINE
  5
146
102
{ACAD_REACTORS
330
255
330
256
102
}
330
74
100
AcDbEntity
  8
0
  6
Continuous
 62
     2
100
AcDbLine
 10
-208.6865658931847
 20
-251.2482365187213
 30
0.0
 11
-207.4937731910181
 21
-251.2482365187213
 31
0.0
  0
LINE
  5
147
102
{ACAD_REACTORS
330
255
330
256
102
}
330
74
100
AcDbEntity
  8
0
  6
Continuous
 62
     2
100
AcDbLine
 10
-209.9270703034387
 20
-249.9394610085166
 30
0.0
 11
-208.6865658931847
 21
-251.2482365187213
 31
0.0
  0
LINE
  5
148
102
{ACAD_REACTORS
330
257
330
258
102
}
330
74
100
AcDbEntity
  8
0
  6
Continuous
 62
     2
100
AcDbLine
 10
-213.9350047136044
 20
-252.8623929812896
 30
0.0
 11
-215.1755091238573
 21
-251.5536174710845
 31
0.0
  0
LINE
  5
149
102
{ACAD_REACTORS
330
257
330
258
102
}
330
74
100
AcDbEntity
  8
0
  6
Continuous
 62
     2
100
AcDbLine
 10
-213.9350047136044
 20
-251.5536174710845
 30
0.0
 11
-213.9350047136044
 21
-252.8623929812896
 31
0.0
  0
LINE
  5
14A
102
{ACAD_REACTORS
330
257
330
258
102
}
330
74
100
AcDbEntity
  8
0
  6
Continuous
 62
     2
100
AcDbLine
 10
-212.742212011438
 20
-251.5536174710845
 30
0.0
 11
-213.9350047136044
 21
-251.5536174710845
 31
0.0
  0
LINE
  5
14B
102
{ACAD_REACTORS
330
257
330
258
102
}
330
74
100
AcDbEntity
  8
0
  6
Continuous
 62
     2
100
AcDbLine
 10
-212.742212011438
 20
-254.6074269948956
 30
0.0
 11
-212.742212011438
 21
-251.5536174710845
 31
0.0
  0
LINE
  5
14C
102
{ACAD_REACTORS
330
257
330
258
102
}
330
74
100
AcDbEntity
  8
0
  6
Continuous
 62
     2
100
AcDbLine
 10
-215.1755091238573
 20
-253.298651484691
 30
0.0
 11
-213.9350047136044
 21
-254.6074269948956
 31
0.0
  0
LINE
  5
14D
102
{ACAD_REACTORS
330
257
330
258
102
}
330
74
100
AcDbEntity
  8
0
  6
Continuous
 62
     2
100
AcDbLine
 10
-215.1755091238573
 20
-254.6074269948956
 30
0.0
 11
-215.1755091238573
 21
-253.298651484691
 31
0.0
  0
LINE
  5
14E
102
{ACAD_REACTORS
330
247
330
248
102
}
330
74
100
AcDbEntity
  8
0
  6
Continuous
 62
     2
100
AcDbLine
 10
-212.6943493724658
 20
-248.8924406003531
 30
0.0
 11
-211.3584215460381
 21
-248.8924406003531
 31
0.0
  0
LINE
  5
14F
102
{ACAD_REACTORS
330
247
330
248
102
}
330
74
100
AcDbEntity
  8
0
  6
Continuous
 62
     2
100
AcDbLine
 10
-212.6943493724658
 20
-250.5502229132788
 30
0.0
 11
-212.6943493724658
 21
-250.0703385595371
 31
0.0
  0
LINE
  5
150
102
{ACAD_REACTORS
330
247
330
248
102
}
330
74
100
AcDbEntity
  8
0
  6
Continuous
 62
     2
100
AcDbLine
 10
-211.3584215460381
 20
-250.5502229132788
 30
0.0
 11
-212.6943493724658
 21
-250.5502229132788
 31
0.0
  0
LINE
  5
151
102
{ACAD_REACTORS
330
247
330
248
102
}
330
74
100
AcDbEntity
  8
0
  6
Continuous
 62
     2
100
AcDbLine
 10
-211.3584215460381
 20
-251.2482365187213
 30
0.0
 11
-211.3584215460381
 21
-250.5502229132788
 31
0.0
  0
LINE
  5
152
102
{ACAD_REACTORS
330
247
330
248
102
}
330
74
100
AcDbEntity
  8
0
  6
Continuous
 62
     2
100
AcDbLine
 10
-214.5087412698191
 20
-251.2482365187213
 30
0.0
 11
-211.3584215460381
 21
-251.2482365187213
 31
0.0
  0
LINE
  5
153
102
{ACAD_REACTORS
330
247
330
248
102
}
330
74
100
AcDbEntity
  8
0
  6
Continuous
 62
     2
100
AcDbLine
 10
-214.5087412698191
 20
-248.1944269949101
 30
0.0
 11
-211.3584215460381
 21
-248.1944269949101
 31
0.0
  0
LINE
  5
154
102
{ACAD_REACTORS
330
247
330
248
102
}
330
74
100
AcDbEntity
  8
0
  6
Continuous
 62
     2
100
AcDbLine
 10
-211.3584215460381
 20
-248.8924406003531
 30
0.0
 11
-211.3584215460381
 21
-248.1944269949101
 31
0.0
  0
LINE
  5
155
102
{ACAD_REACTORS
330
259
330
25A
102
}
330
74
100
AcDbEntity
  8
0
  6
Continuous
 62
     2
100
AcDbLine
 10
-217.3700967649591
 20
-249.2632603282447
 30
0.0
 11
-217.3700967649591
 21
-248.1944269949101
 31
0.0
  0
LINE
  5
156
102
{ACAD_REACTORS
330
259
330
25A
102
}
330
74
100
AcDbEntity
  8
0
  6
Continuous
 62
     2
100
AcDbLine
 10
-217.3700967649591
 20
-248.1944269949101
 30
0.0
 11
-216.1773040627927
 21
-248.1944269949101
 31
0.0
  0
LINE
  5
157
102
{ACAD_REACTORS
330
259
330
25A
102
}
330
74
100
AcDbEntity
  8
0
  6
Continuous
 62
     2
100
AcDbLine
 10
-217.3700967649591
 20
-250.1139644098775
 30
0.0
 11
-218.4197543428666
 21
-250.1139644098775
 31
0.0
  0
LINE
  5
158
102
{ACAD_REACTORS
330
259
330
25A
102
}
330
74
100
AcDbEntity
  8
0
  6
Continuous
 62
     2
100
AcDbLine
 10
-218.4197543428666
 20
-250.1139644098775
 30
0.0
 11
-218.4197543428666
 21
-251.2482365187213
 31
0.0
  0
LINE
  5
159
102
{ACAD_REACTORS
330
259
330
25A
102
}
330
74
100
AcDbEntity
  8
0
  6
Continuous
 62
     2
100
AcDbLine
 10
-219.6125470450332
 20
-248.1944269949101
 30
0.0
 11
-219.6125470450332
 21
-251.2482365187213
 31
0.0
  0
LINE
  5
15A
102
{ACAD_REACTORS
330
24B
330
24C
102
}
330
74
100
AcDbEntity
  8
0
  6
Continuous
 62
     2
100
AcDbLine
 10
-221.5687270765868
 20
-249.5632604896924
 30
0.0
 11
-221.5687270765868
 21
-248.8575328403502
 31
0.0
  0
LINE
  5
15B
102
{ACAD_REACTORS
330
24B
330
24C
102
}
330
74
100
AcDbEntity
  8
0
  6
Continuous
 62
     2
100
AcDbLine
 10
-222.8092314868409
 20
-251.2482365187213
 30
0.0
 11
-221.5687270765868
 21
-251.2482365187213
 31
0.0
  0
LINE
  5
15C
102
{ACAD_REACTORS
330
24B
330
24C
102
}
330
74
100
AcDbEntity
  8
0
  6
Continuous
 62
     2
100
AcDbLine
 10
-221.5687270765868
 20
-251.2482365187213
 30
0.0
 11
-221.5687270765868
 21
-250.3051582775775
 31
0.0
  0
LINE
  5
15D
102
{ACAD_REACTORS
330
245
330
246
102
}
330
74
100
AcDbEntity
  8
0
  6
Continuous
 62
     2
100
AcDbLine
 10
-227.1141773360523
 20
-253.8948714393387
 30
0.0
 11
-228.5900105970619
 21
-253.8948714393387
 31
0.0
  0
LINE
  5
15E
102
{ACAD_REACTORS
330
245
330
246
102
}
330
74
100
AcDbEntity
  8
0
  6
Continuous
 62
     2
100
AcDbLine
 10
-229.6081498891912
 20
-248.6186716103121
 30
0.0
 11
-229.6081498891912
 21
-254.1831823795123
 31
0.0
  0
LINE
  5
15F
102
{ACAD_REACTORS
330
245
330
246
102
}
330
74
100
AcDbEntity
  8
0
  6
Continuous
 62
     2
100
AcDbLine
 10
-229.1839052738084
 20
-248.1944269949283
 30
0.0
 11
-223.7105931830916
 21
-248.1944269949283
 31
0.0
  0
LINE
  5
160
102
{ACAD_REACTORS
330
245
330
246
102
}
330
74
100
AcDbEntity
  8
0
  6
Continuous
 62
     2
100
AcDbLine
 10
-223.2863485677077
 20
-248.6186716103121
 30
0.0
 11
-223.2863485677077
 21
-254.1831823795123
 31
0.0
  0
LINE
  5
161
102
{ACAD_REACTORS
330
245
330
246
102
}
330
74
100
AcDbEntity
  8
0
  6
Continuous
 62
     2
100
AcDbLine
 10
-223.7105931830916
 20
-254.6074269948956
 30
0.0
 11
-229.1839052738084
 21
-254.6074269948956
 31
0.0
  0
LINE
  5
162
102
{ACAD_REACTORS
330
245
330
246
102
}
330
74
100
AcDbEntity
  8
0
  6
Continuous
 62
     2
100
AcDbLine
 10
-226.7984604129757
 20
-253.579154516262
 30
0.0
 11
-226.7984604129757
 21
-252.0483835847304
 31
0.0
  0
LINE
  5
163
102
{ACAD_REACTORS
330
245
330
246
102
}
330
74
100
AcDbEntity
  8
0
  6
Continuous
 62
     2
100
AcDbLine
 10
-226.7984604129757
 20
-249.8267240926054
 30
0.0
 11
-226.7984604129757
 21
-249.2226994735449
 31
0.0
  0
LINE
  5
164
102
{ACAD_REACTORS
330
245
330
246
102
}
330
74
100
AcDbEntity
  8
0
  6
Continuous
 62
     2
100
AcDbLine
 10
-228.5900105970619
 20
-248.9069825504687
 30
0.0
 11
-227.1141773360523
 21
-248.9069825504687
 31
0.0
  0
LINE
  5
165
102
{ACAD_REACTORS
330
245
330
246
102
}
330
74
100
AcDbEntity
  8
0
  6
Continuous
 62
     2
100
AcDbLine
 10
-228.9057275201376
 20
-249.2226994735449
 30
0.0
 11
-228.9057275201376
 21
-253.579154516262
 31
0.0
  0
LINE
  5
166
102
{ACAD_REACTORS
330
24B
330
24C
102
}
330
74
100
AcDbEntity
  8
0
  6
Continuous
 62
     2
100
AcDbLine
 10
-221.5687270765868
 20
-250.3051582775775
 30
0.0
 11
-220.8099594888065
 21
-250.3051582775775
 31
0.0
  0
LINE
  5
167
102
{ACAD_REACTORS
330
24B
330
24C
102
}
330
74
100
AcDbEntity
  8
0
  6
Continuous
 62
     2
100
AcDbLine
 10
-222.8092314868409
 20
-248.1944269949101
 30
0.0
 11
-220.8099594888065
 21
-248.1944269949101
 31
0.0
  0
LINE
  5
168
102
{ACAD_REACTORS
330
24B
330
24C
102
}
330
74
100
AcDbEntity
  8
0
  6
Continuous
 62
     2
100
AcDbLine
 10
-222.8092314868409
 20
-248.1944269949101
 30
0.0
 11
-222.8092314868409
 21
-251.2482365187213
 31
0.0
  0
LINE
  5
169
102
{ACAD_REACTORS
330
24B
330
24C
102
}
330
74
100
AcDbEntity
  8
0
  6
Continuous
 62
     2
100
AcDbLine
 10
-221.5687270765868
 20
-249.5632604896924
 30
0.0
 11
-221.2514320150449
 21
-249.5632604896924
 31
0.0
  0
LINE
  5
16A
102
{ACAD_REACTORS
330
24B
330
24C
102
}
330
74
100
AcDbEntity
  8
0
  6
Continuous
 62
     2
100
AcDbLine
 10
-221.5687270765868
 20
-248.8575328403502
 30
0.0
 11
-221.2514320150449
 21
-248.8575328403502
 31
0.0
  0
LINE
  5
16B
102
{ACAD_REACTORS
330
259
330
25A
102
}
330
74
100
AcDbEntity
  8
0
  6
Continuous
 62
     2
100
AcDbLine
 10
-218.4197543428666
 20
-249.2632603282447
 30
0.0
 11
-217.3700967649591
 21
-249.2632603282447
 31
0.0
  0
LINE
  5
16C
102
{ACAD_REACTORS
330
259
330
25A
102
}
330
74
100
AcDbEntity
  8
0
  6
Continuous
 62
     2
100
AcDbLine
 10
-218.4197543428666
 20
-248.1944269949101
 30
0.0
 11
-218.4197543428666
 21
-249.2632603282447
 31
0.0
  0
LINE
  5
16D
102
{ACAD_REACTORS
330
259
330
25A
102
}
330
74
100
AcDbEntity
  8
0
  6
Continuous
 62
     2
100
AcDbLine
 10
-219.6125470450332
 20
-248.1944269949101
 30
0.0
 11
-218.4197543428666
 21
-248.1944269949101
 31
0.0
  0
LINE
  5
16E
102
{ACAD_REACTORS
330
259
330
25A
102
}
330
74
100
AcDbEntity
  8
0
  6
Continuous
 62
     2
100
AcDbLine
 10
-218.4197543428666
 20
-251.2482365187213
 30
0.0
 11
-219.6125470450332
 21
-251.2482365187213
 31
0.0
  0
LINE
  5
16F
102
{ACAD_REACTORS
330
259
330
25A
102
}
330
74
100
AcDbEntity
  8
0
  6
Continuous
 62
     2
100
AcDbLine
 10
-217.3700967649591
 20
-251.2482365187213
 30
0.0
 11
-217.3700967649591
 21
-250.1139644098775
 31
0.0
  0
LINE
  5
170
102
{ACAD_REACTORS
330
259
330
25A
102
}
330
74
100
AcDbEntity
  8
0
  6
Continuous
 62
     2
100
AcDbLine
 10
-216.1773040627927
 20
-251.2482365187213
 30
0.0
 11
-217.3700967649591
 21
-251.2482365187213
 31
0.0
  0
LINE
  5
171
102
{ACAD_REACTORS
330
259
330
25A
102
}
330
74
100
AcDbEntity
  8
0
  6
Continuous
 62
     2
100
AcDbLine
 10
-216.1773040627927
 20
-248.1944269949101
 30
0.0
 11
-216.1773040627927
 21
-251.2482365187213
 31
0.0
  0
LINE
  5
172
102
{ACAD_REACTORS
330
247
330
248
102
}
330
74
100
AcDbEntity
  8
0
  6
Continuous
 62
     2
100
AcDbLine
 10
-212.6943493724658
 20
-250.0703385595371
 30
0.0
 11
-211.3584215460381
 21
-250.0703385595371
 31
0.0
  0
LINE
  5
173
102
{ACAD_REACTORS
330
247
330
248
102
}
330
74
100
AcDbEntity
  8
0
  6
Continuous
 62
     2
100
AcDbLine
 10
-211.3584215460381
 20
-250.0703385595371
 30
0.0
 11
-211.3584215460381
 21
-249.3723249540948
 31
0.0
  0
LINE
  5
174
102
{ACAD_REACTORS
330
247
330
248
102
}
330
74
100
AcDbEntity
  8
0
  6
Continuous
 62
     2
100
AcDbLine
 10
-211.3584215460381
 20
-249.3723249540948
 30
0.0
 11
-212.6943493724658
 21
-249.3723249540948
 31
0.0
  0
LINE
  5
175
102
{ACAD_REACTORS
330
247
330
248
102
}
330
74
100
AcDbEntity
  8
0
  6
Continuous
 62
     2
100
AcDbLine
 10
-212.6943493724658
 20
-249.3723249540948
 30
0.0
 11
-212.6943493724658
 21
-248.8924406003531
 31
0.0
  0
LINE
  5
176
102
{ACAD_REACTORS
330
257
330
258
102
}
330
74
100
AcDbEntity
  8
0
  6
Continuous
 62
     2
100
AcDbLine
 10
-216.3683018260249
 20
-254.6074269948956
 30
0.0
 11
-215.1755091238573
 21
-254.6074269948956
 31
0.0
  0
LINE
  5
177
102
{ACAD_REACTORS
330
257
330
258
102
}
330
74
100
AcDbEntity
  8
0
  6
Continuous
 62
     2
100
AcDbLine
 10
-213.9350047136044
 20
-254.6074269948956
 30
0.0
 11
-212.742212011438
 21
-254.6074269948956
 31
0.0
  0
LINE
  5
178
102
{ACAD_REACTORS
330
257
330
258
102
}
330
74
100
AcDbEntity
  8
0
  6
Continuous
 62
     2
100
AcDbLine
 10
-215.1755091238573
 20
-251.5536174710845
 30
0.0
 11
-216.3683018260249
 21
-251.5536174710845
 31
0.0
  0
LINE
  5
179
102
{ACAD_REACTORS
330
257
330
258
102
}
330
74
100
AcDbEntity
  8
0
  6
Continuous
 62
     2
100
AcDbLine
 10
-216.3683018260249
 20
-251.5536174710845
 30
0.0
 11
-216.3683018260249
 21
-254.6074269948956
 31
0.0
  0
LINE
  5
17A
102
{ACAD_REACTORS
330
255
330
256
102
}
330
74
100
AcDbEntity
  8
0
  6
Continuous
 62
     2
100
AcDbLine
 10
-208.6865658931847
 20
-248.1944269949101
 30
0.0
 11
-208.6865658931847
 21
-249.5032025051153
 31
0.0
  0
LINE
  5
17B
102
{ACAD_REACTORS
330
255
330
256
102
}
330
74
100
AcDbEntity
  8
0
  6
Continuous
 62
     2
100
AcDbLine
 10
-209.9270703034387
 20
-248.1944269949101
 30
0.0
 11
-211.1198630056052
 21
-248.1944269949101
 31
0.0
  0
LINE
  5
17C
102
{ACAD_REACTORS
330
255
330
256
102
}
330
74
100
AcDbEntity
  8
0
  6
Continuous
 62
     2
100
AcDbLine
 10
-211.1198630056052
 20
-248.1944269949101
 30
0.0
 11
-211.1198630056052
 21
-251.2482365187213
 31
0.0
  0
LINE
  5
17D
102
{ACAD_REACTORS
330
255
330
256
102
}
330
74
100
AcDbEntity
  8
0
  6
Continuous
 62
     2
100
AcDbLine
 10
-209.9270703034387
 20
-251.2482365187213
 30
0.0
 11
-209.9270703034387
 21
-249.9394610085166
 31
0.0
  0
LINE
  5
17E
102
{ACAD_REACTORS
330
253
330
254
102
}
330
74
100
AcDbEntity
  8
0
  6
Continuous
 62
     2
100
AcDbLine
 10
-210.5951851475367
 20
-254.6074269948956
 30
0.0
 11
-210.5951851475367
 21
-252.3388827772081
 31
0.0
  0
LINE
  5
17F
102
{ACAD_REACTORS
330
253
330
254
102
}
330
74
100
AcDbEntity
  8
0
  6
Continuous
 62
     2
100
AcDbLine
 10
-210.5951851475367
 20
-252.3388827772081
 30
0.0
 11
-209.7840861100642
 21
-252.3388827772081
 31
0.0
  0
LINE
  5
180
102
{ACAD_REACTORS
330
253
330
254
102
}
330
74
100
AcDbEntity
  8
0
  6
Continuous
 62
     2
100
AcDbLine
 10
-209.7840861100642
 20
-252.3388827772081
 30
0.0
 11
-209.7840861100642
 21
-251.5536174710845
 31
0.0
  0
LINE
  5
181
102
{ACAD_REACTORS
330
253
330
254
102
}
330
74
100
AcDbEntity
  8
0
  6
Continuous
 62
     2
100
AcDbLine
 10
-209.7840861100642
 20
-251.5536174710845
 30
0.0
 11
-212.5990768871778
 21
-251.5536174710845
 31
0.0
  0
LINE
  5
182
102
{ACAD_REACTORS
330
253
330
254
102
}
330
74
100
AcDbEntity
  8
0
  6
Continuous
 62
     2
100
AcDbLine
 10
-212.5990768871778
 20
-252.3388827772081
 30
0.0
 11
-211.7879778497032
 21
-252.3388827772081
 31
0.0
  0
LINE
  5
183
102
{ACAD_REACTORS
330
251
330
252
102
}
330
74
100
AcDbEntity
  8
0
  6
Continuous
 62
     2
100
AcDbLine
 10
-208.9895802842668
 20
-254.0664664506777
 30
0.0
 11
-207.857138707593
 21
-254.0664664506777
 31
0.0
  0
LINE
  5
184
102
{ACAD_REACTORS
330
251
330
252
102
}
330
74
100
AcDbEntity
  8
0
  6
Continuous
 62
     2
100
AcDbLine
 10
-206.4051542438633
 20
-254.6074269948956
 30
0.0
 11
-207.6456586541172
 21
-254.6074269948956
 31
0.0
  0
LINE
  5
185
102
{ACAD_REACTORS
330
251
330
252
102
}
330
74
100
AcDbEntity
  8
0
  6
Continuous
 62
     2
100
AcDbLine
 10
-209.0436117010563
 20
-251.5536174710845
 30
0.0
 11
-210.4415647479956
 21
-254.6074269948956
 31
0.0
  0
LINE
  5
186
102
{ACAD_REACTORS
330
251
330
252
102
}
330
74
100
AcDbEntity
  8
0
  6
Continuous
 62
     2
100
AcDbLine
 10
-209.2010603377426
 20
-254.6074269948956
 30
0.0
 11
-208.9895802842668
 21
-254.0664664506777
 31
0.0
  0
LINE
  5
187
102
{ACAD_REACTORS
330
251
330
252
102
}
330
74
100
AcDbEntity
  8
0
  6
Continuous
 62
     2
100
AcDbLine
 10
-208.7235247331218
 20
-253.3859031853711
 30
0.0
 11
-208.4233594959294
 21
-252.6180882193844
 31
0.0
  0
LINE
  5
188
102
{ACAD_REACTORS
330
24F
330
250
102
}
330
74
100
AcDbEntity
  8
0
  6
Continuous
 62
     2
100
AcDbLine
 10
-207.2552146505842
 20
-251.2482365187213
 30
0.0
 11
-207.2552146505842
 21
-248.1944269949101
 31
0.0
  0
LINE
  5
189
102
{ACAD_REACTORS
330
24F
330
250
102
}
330
74
100
AcDbEntity
  8
0
  6
Continuous
 62
     2
100
AcDbLine
 10
-206.0147102403313
 20
-248.1944269949101
 30
0.0
 11
-206.0147102403313
 21
-251.2482365187213
 31
0.0
  0
LINE
  5
18A
102
{ACAD_REACTORS
330
24F
330
250
102
}
330
74
100
AcDbEntity
  8
0
  6
Continuous
 62
     2
100
AcDbLine
 10
-207.2552146505842
 20
-248.1944269949101
 30
0.0
 11
-206.0147102403313
 21
-248.1944269949101
 31
0.0
  0
LINE
  5
18B
102
{ACAD_REACTORS
330
24D
330
24E
102
}
330
74
100
AcDbEntity
  8
0
  6
Continuous
 62
     2
100
AcDbLine
 10
-203.7961158143005
 20
-250.4605047334276
 30
0.0
 11
-203.099524876235
 21
-251.2482365187213
 31
0.0
  0
LINE
  5
18C
102
{ACAD_REACTORS
330
24D
330
24E
102
}
330
74
100
AcDbEntity
  8
0
  6
Continuous
 62
     2
100
AcDbLine
 10
-203.099524876235
 20
-251.2482365187213
 30
0.0
 11
-201.6968006584867
 21
-251.2482365187213
 31
0.0
  0
LINE
  5
18D
102
{ACAD_REACTORS
330
24D
330
24E
102
}
330
74
100
AcDbEntity
  8
0
  6
Continuous
 62
     2
100
AcDbLine
 10
-203.094753705427
 20
-249.6673775249463
 30
0.0
 11
-201.6968006584867
 21
-251.2482365187213
 31
0.0
  0
LINE
  5
18E
102
{ACAD_REACTORS
330
24D
330
24E
102
}
330
74
100
AcDbEntity
  8
0
  6
Continuous
 62
     2
100
AcDbLine
 10
-203.094753705427
 20
-249.6673775249463
 30
0.0
 11
-201.7922240746605
 21
-248.1944269949101
 31
0.0
  0
LINE
  5
18F
102
{ACAD_REACTORS
330
24D
330
24E
102
}
330
74
100
AcDbEntity
  8
0
  6
Continuous
 62
     2
100
AcDbLine
 10
-203.7961158143005
 20
-248.8742503164656
 30
0.0
 11
-203.1949482924077
 21
-248.1944269949101
 31
0.0
  0
LINE
  5
190
102
{ACAD_REACTORS
330
24D
330
24E
102
}
330
74
100
AcDbEntity
  8
0
  6
Continuous
 62
     2
100
AcDbLine
 10
-204.3972833361923
 20
-248.1944269949101
 30
0.0
 11
-203.7961158143005
 21
-248.8742503164656
 31
0.0
  0
LINE
  5
191
102
{ACAD_REACTORS
330
24D
330
24E
102
}
330
74
100
AcDbEntity
  8
0
  6
Continuous
 62
     2
100
AcDbLine
 10
-204.3972833361923
 20
-248.1944269949101
 30
0.0
 11
-205.8000075539416
 21
-248.1944269949101
 31
0.0
  0
LINE
  5
192
102
{ACAD_REACTORS
330
243
330
244
102
}
330
74
100
AcDbEntity
  8
0
  6
Continuous
 62
     2
100
AcDbLine
 10
-203.7006923981278
 20
-254.6074269948956
 30
0.0
 11
-202.5078996959601
 21
-254.6074269948956
 31
0.0
  0
LINE
  5
193
102
{ACAD_REACTORS
330
243
330
244
102
}
330
74
100
AcDbEntity
  8
0
  6
Continuous
 62
     2
100
AcDbLine
 10
-202.5078996959601
 20
-254.6074269948956
 30
0.0
 11
-202.5078996959601
 21
-252.3388827772081
 31
0.0
  0
LINE
  5
194
102
{ACAD_REACTORS
330
243
330
244
102
}
330
74
100
AcDbEntity
  8
0
  6
Continuous
 62
     2
100
AcDbLine
 10
-202.5078996959601
 20
-252.3388827772081
 30
0.0
 11
-201.6968006584867
 21
-252.3388827772081
 31
0.0
  0
LINE
  5
195
102
{ACAD_REACTORS
330
243
330
244
102
}
330
74
100
AcDbEntity
  8
0
  6
Continuous
 62
     2
100
AcDbLine
 10
-201.6968006584867
 20
-252.3388827772081
 30
0.0
 11
-201.6968006584867
 21
-251.5536174710845
 31
0.0
  0
LINE
  5
196
102
{ACAD_REACTORS
330
243
330
244
102
}
330
74
100
AcDbEntity
  8
0
  6
Continuous
 62
     2
100
AcDbLine
 10
-205.0817461771154
 20
-251.553617471085
 30
0.0
 11
-201.6968006584867
 21
-251.5536174710845
 31
0.0
  0
LINE
  5
197
102
{ACAD_REACTORS
330
243
330
244
102
}
330
74
100
AcDbEntity
  8
0
  6
Continuous
 62
     2
100
AcDbLine
 10
-203.7006923981278
 20
-252.3388827772081
 30
0.0
 11
-203.7006923981278
 21
-254.6074269948956
 31
0.0
  0
LINE
  5
198
102
{ACAD_REACTORS
330
245
330
246
102
}
330
74
100
AcDbEntity
  8
0
  6
Continuous
 62
     2
100
AcDbLine
 10
-226.330178833607
 20
-252.6285468453311
 30
0.0
 11
-226.330178833607
 21
-252.046695438636
 31
0.0
  0
LINE
  5
199
102
{ACAD_REACTORS
330
245
330
246
102
}
330
74
100
AcDbEntity
  8
0
  6
Continuous
 62
     2
100
AcDbLine
 10
-226.330178833607
 20
-249.8284122386998
 30
0.0
 11
-226.330178833607
 21
-249.222876950193
 31
0.0
  0
LINE
  5
19A
330
74
100
AcDbEntity
  8
1
  6
Continuous
 62
     6
100
AcDbLine
 10
-247.8000002490038
 20
-261.9009269949119
 30
0.0
 11
-233.8448047757538
 21
-261.900926994912
 31
0.0
  0
LINE
  5
19B
330
74
100
AcDbEntity
  8
1
  6
Continuous
 62
     6
100
AcDbLine
 10
-297.800000249004
 20
-261.9009269949119
 30
0.0
 11
-302.8448047757538
 21
-261.9009269949119
 31
0.0
  0
LINE
  5
19C
330
74
100
AcDbEntity
  8
1
  6
Continuous
 62
     6
100
AcDbLine
 10
-147.8000002490038
 20
-261.9009269949119
 30
0.0
 11
-104.3000002490038
 21
-261.9009269949119
 31
0.0
  0
LINE
  5
19D
330
74
100
AcDbEntity
  8
1
  6
Continuous
 62
     6
100
AcDbLine
 10
-197.8000002490038
 20
-261.9009269949119
 30
0.0
 11
-215.6448047757538
 21
-261.9009269949119
 31
0.0
  0
LINE
  5
19E
330
74
100
AcDbEntity
  8
1
  6
Continuous
 62
     2
100
AcDbLine
 10
-104.3000002490038
 20
-261.9009269949119
 30
0.0
 11
-99.30000024900482
 21
-261.9009269949119
 31
0.0
  0
LINE
  5
19F
330
74
100
AcDbEntity
  8
1
  6
Continuous
 62
     2
100
AcDbLine
 10
-104.3000002490038
 20
-261.9009269949119
 30
0.0
 11
-104.3000002490038
 21
-266.900926994912
 31
0.0
  0
LINE
  5
1A0
330
74
100
AcDbEntity
  8
1
  6
Continuous
 62
     6
100
AcDbLine
 10
-233.8448047757538
 20
-244.9009269949119
 30
0.0
 11
-197.4448047757539
 21
-244.9009269949119
 31
0.0
  0
LINE
  5
1A1
330
74
100
AcDbEntity
  8
1
  6
Continuous
 62
     2
100
AcDbLine
 10
-99.30000024900482
 20
-266.900926994912
 30
0.0
 11
-99.30000024900482
 21
-261.9009269949119
 31
0.0
  0
LINE
  5
1A2
330
74
100
AcDbEntity
  8
1
  6
Continuous
 62
     2
100
AcDbLine
 10
-99.30000024900482
 20
-266.900926994912
 30
0.0
 11
-104.3000002490038
 21
-266.900926994912
 31
0.0
  0
LINE
  5
1A3
330
74
100
AcDbEntity
  8
1
  6
Continuous
 62
     2
100
AcDbLine
 10
-104.3000002490038
 20
-266.900926994912
 30
0.0
 11
-147.8000002490038
 21
-266.900926994912
 31
0.0
  0
LINE
  5
1A4
330
74
100
AcDbEntity
  8
1
  6
Continuous
 62
     6
100
AcDbLine
 10
-104.3000002490021
 20
-244.9009269949119
 30
0.0
 11
-104.3000002490029
 21
-211.9009269949118
 31
0.0
  0
LINE
  5
1A5
330
74
100
AcDbEntity
  8
1
  6
Continuous
 62
     2
100
AcDbLine
 10
-99.30000024900482
 20
-56.90092699491191
 30
0.0
 11
-247.8000002490038
 21
-56.90092699491191
 31
0.0
  0
LINE
  5
1A6
330
74
100
AcDbEntity
  8
1
  6
Continuous
 62
     6
100
AcDbLine
 10
-104.3000002490048
 20
-76.90092699491191
 30
0.0
 11
-391.3000002490029
 21
-76.90092699491191
 31
0.0
  0
LINE
  5
1A7
330
74
100
AcDbEntity
  8
1
  6
Continuous
 62
     2
100
AcDbLine
 10
-104.3000002490029
 20
-211.9009269949118
 30
0.0
 11
-99.30000024900482
 21
-211.9009269949118
 31
0.0
  0
LINE
  5
1A8
330
74
100
AcDbEntity
  8
1
  6
Continuous
 62
     6
100
AcDbLine
 10
-104.3000002490029
 20
-211.9009269949118
 30
0.0
 11
-104.3000002490034
 21
-161.900926994912
 31
0.0
  0
LINE
  5
1A9
330
74
100
AcDbEntity
  8
1
  6
Continuous
 62
     2
100
AcDbLine
 10
-99.30000024900482
 20
-211.9009269949118
 30
0.0
 11
-99.30000024900482
 21
-161.900926994912
 31
0.0
  0
LINE
  5
1AA
330
74
100
AcDbEntity
  8
1
  6
Continuous
 62
     2
100
AcDbLine
 10
-104.3000002490034
 20
-161.900926994912
 30
0.0
 11
-99.30000024900482
 21
-161.900926994912
 31
0.0
  0
LINE
  5
1AB
330
74
100
AcDbEntity
  8
1
  6
Continuous
 62
     6
100
AcDbLine
 10
-104.3000002490034
 20
-161.900926994912
 30
0.0
 11
-104.3000002490046
 21
-111.9009269949119
 31
0.0
  0
LINE
  5
1AC
330
74
100
AcDbEntity
  8
1
  6
Continuous
 62
     2
100
AcDbLine
 10
-99.30000024900482
 20
-161.900926994912
 30
0.0
 11
-99.30000024900482
 21
-111.9009269949119
 31
0.0
  0
LINE
  5
1AD
330
74
100
AcDbEntity
  8
1
  6
Continuous
 62
     2
100
AcDbLine
 10
-104.3000002490046
 20
-111.9009269949119
 30
0.0
 11
-99.30000024900482
 21
-111.9009269949119
 31
0.0
  0
LINE
  5
1AE
330
74
100
AcDbEntity
  8
1
  6
Continuous
 62
     6
100
AcDbLine
 10
-104.3000002490046
 20
-111.9009269949119
 30
0.0
 11
-104.3000002490048
 21
-76.90092699491191
 31
0.0
  0
LINE
  5
1AF
330
74
100
AcDbEntity
  8
1
  6
Continuous
 62
     2
100
AcDbLine
 10
-99.30000024900482
 20
-111.9009269949119
 30
0.0
 11
-99.30000024900482
 21
-56.90092699491191
 31
0.0
  0
LINE
  5
1B0
330
74
100
AcDbEntity
  8
1
  6
Continuous
 62
     2
100
AcDbLine
 10
-99.30000024900482
 20
-261.9009269949119
 30
0.0
 11
-99.30000024900482
 21
-211.9009269949118
 31
0.0
  0
LINE
  5
1B1
330
74
100
AcDbEntity
  8
1
  6
Continuous
 62
     2
100
AcDbLine
 10
-247.8000002490038
 20
-56.90092699491191
 30
0.0
 11
-396.3000002490029
 21
-56.90092699491191
 31
0.0
  0
LINE
  5
1B2
330
74
100
AcDbEntity
  8
1
  6
Continuous
 62
     2
100
AcDbLine
 10
-247.8000002490038
 20
-56.90092699491191
 30
0.0
 11
-247.8000002490038
 21
-66.10961883961323
 31
0.0
  0
LINE
  5
1B3
330
74
100
AcDbEntity
  8
1
  6
Continuous
 62
     2
100
AcDbLine
 10
-396.3000002490029
 20
-266.900926994912
 30
0.0
 11
-391.3000002490019
 21
-266.900926994912
 31
0.0
  0
LINE
  5
1B4
330
74
100
AcDbEntity
  8
1
  6
Continuous
 62
     2
100
AcDbLine
 10
-396.3000002490029
 20
-56.90092699491191
 30
0.0
 11
-396.3000002490029
 21
-111.9009269949119
 31
0.0
  0
LINE
  5
1B5
330
74
100
AcDbEntity
  8
1
  6
Continuous
 62
     6
100
AcDbLine
 10
-391.3000002490029
 20
-76.90092699491191
 30
0.0
 11
-391.3000002490028
 21
-111.9009269949119
 31
0.0
  0
LINE
  5
1B6
330
74
100
AcDbEntity
  8
1
  6
Continuous
 62
     2
100
AcDbLine
 10
-396.3000002490029
 20
-111.9009269949119
 30
0.0
 11
-391.3000002490028
 21
-111.9009269949119
 31
0.0
  0
LINE
  5
1B7
330
74
100
AcDbEntity
  8
1
  6
Continuous
 62
     2
100
AcDbLine
 10
-396.3000002490029
 20
-111.9009269949119
 30
0.0
 11
-396.3000002490029
 21
-161.900926994912
 31
0.0
  0
LINE
  5
1B8
330
74
100
AcDbEntity
  8
1
  6
Continuous
 62
     6
100
AcDbLine
 10
-391.3000002490028
 20
-111.9009269949119
 30
0.0
 11
-391.3000002490023
 21
-161.900926994912
 31
0.0
  0
LINE
  5
1B9
330
74
100
AcDbEntity
  8
1
  6
Continuous
 62
     2
100
AcDbLine
 10
-396.3000002490029
 20
-161.900926994912
 30
0.0
 11
-391.3000002490023
 21
-161.900926994912
 31
0.0
  0
LINE
  5
1BA
330
74
100
AcDbEntity
  8
1
  6
Continuous
 62
     2
100
AcDbLine
 10
-396.3000002490029
 20
-161.900926994912
 30
0.0
 11
-396.3000002490029
 21
-211.9009269949118
 31
0.0
  0
LINE
  5
1BB
330
74
100
AcDbEntity
  8
1
  6
Continuous
 62
     6
100
AcDbLine
 10
-391.3000002490023
 20
-161.900926994912
 30
0.0
 11
-391.3000002490021
 21
-211.9009269949118
 31
0.0
  0
LINE
  5
1BC
330
74
100
AcDbEntity
  8
1
  6
Continuous
 62
     2
100
AcDbLine
 10
-396.3000002490029
 20
-211.9009269949118
 30
0.0
 11
-391.3000002490021
 21
-211.9009269949118
 31
0.0
  0
LINE
  5
1BD
330
74
100
AcDbEntity
  8
1
  6
Continuous
 62
     2
100
AcDbLine
 10
-396.3000002490029
 20
-211.9009269949118
 30
0.0
 11
-396.3000002490029
 21
-261.9009269949119
 31
0.0
  0
LINE
  5
1BE
330
74
100
AcDbEntity
  8
1
  6
Continuous
 62
     6
100
AcDbLine
 10
-391.3000002490021
 20
-211.9009269949118
 30
0.0
 11
-391.3000002490019
 21
-261.9009269949119
 31
0.0
  0
LINE
  5
1BF
330
74
100
AcDbEntity
  8
1
  6
Continuous
 62
     2
100
AcDbLine
 10
-347.8000002490038
 20
-266.900926994912
 30
0.0
 11
-347.8000002490038
 21
-261.9009269949119
 31
0.0
  0
LINE
  5
1C0
330
74
100
AcDbEntity
  8
1
  6
Continuous
 62
     2
100
AcDbLine
 10
-347.8000002490038
 20
-266.900926994912
 30
0.0
 11
-297.800000249004
 21
-266.900926994912
 31
0.0
  0
LINE
  5
1C1
330
74
100
AcDbEntity
  8
1
  6
Continuous
 62
     2
100
AcDbLine
 10
-297.800000249004
 20
-266.900926994912
 30
0.0
 11
-297.800000249004
 21
-261.9009269949119
 31
0.0
  0
LINE
  5
1C2
330
74
100
AcDbEntity
  8
1
  6
Continuous
 62
     2
100
AcDbLine
 10
-297.800000249004
 20
-266.900926994912
 30
0.0
 11
-247.8000002490038
 21
-266.900926994912
 31
0.0
  0
LINE
  5
1C3
330
74
100
AcDbEntity
  8
1
  6
Continuous
 62
     2
100
AcDbLine
 10
-247.8000002490038
 20
-266.900926994912
 30
0.0
 11
-247.8000002490038
 21
-261.9009269949119
 31
0.0
  0
LINE
  5
1C4
330
74
100
AcDbEntity
  8
1
  6
Continuous
 62
     2
100
AcDbLine
 10
-247.8000002490038
 20
-266.900926994912
 30
0.0
 11
-197.8000002490038
 21
-266.900926994912
 31
0.0
  0
LINE
  5
1C5
330
74
100
AcDbEntity
  8
1
  6
Continuous
 62
     2
100
AcDbLine
 10
-197.8000002490038
 20
-266.900926994912
 30
0.0
 11
-197.8000002490038
 21
-261.9009269949119
 31
0.0
  0
LINE
  5
1C6
330
74
100
AcDbEntity
  8
1
  6
Continuous
 62
     2
100
AcDbLine
 10
-147.8000002490038
 20
-266.900926994912
 30
0.0
 11
-147.8000002490038
 21
-261.9009269949119
 31
0.0
  0
LINE
  5
1C7
330
74
100
AcDbEntity
  8
1
  6
Continuous
 62
     2
100
AcDbLine
 10
-147.8000002490038
 20
-266.900926994912
 30
0.0
 11
-197.8000002490038
 21
-266.900926994912
 31
0.0
  0
LINE
  5
1C8
330
74
100
AcDbEntity
  8
1
  6
Continuous
 62
     2
100
AcDbLine
 10
-391.3000002490019
 20
-261.9009269949119
 30
0.0
 11
-391.3000002490019
 21
-266.900926994912
 31
0.0
  0
LINE
  5
1C9
330
74
100
AcDbEntity
  8
1
  6
Continuous
 62
     2
100
AcDbLine
 10
-391.3000002490019
 20
-266.900926994912
 30
0.0
 11
-347.8000002490038
 21
-266.900926994912
 31
0.0
  0
LINE
  5
1CA
330
74
100
AcDbEntity
  8
1
  6
Continuous
 62
     2
100
AcDbLine
 10
-391.3000002490019
 20
-261.9009269949119
 30
0.0
 11
-396.3000002490029
 21
-261.9009269949119
 31
0.0
  0
LINE
  5
1CB
330
74
100
AcDbEntity
  8
1
  6
Continuous
 62
     2
100
AcDbLine
 10
-396.3000002490029
 20
-261.9009269949119
 30
0.0
 11
-396.3000002490029
 21
-266.900926994912
 31
0.0
  0
LINE
  5
1CC
330
74
100
AcDbEntity
  8
1
  6
Continuous
 62
     6
100
AcDbLine
 10
-104.3000002490038
 20
-261.9009269949119
 30
0.0
 11
-104.3000002490025
 21
-253.4009269949119
 31
0.0
  0
LINE
  5
1CD
330
74
100
AcDbEntity
  8
1
  6
Continuous
 62
     6
100
AcDbLine
 10
-197.4448047757539
 20
-261.900926994912
 30
0.0
 11
-147.8000002490038
 21
-261.9009269949119
 31
0.0
  0
LINE
  5
1CE
330
74
100
AcDbEntity
  8
1
  6
Continuous
 62
     6
100
AcDbLine
 10
-350.100000249004
 20
-261.900926994912
 30
0.0
 11
-347.8000002490038
 21
-261.9009269949119
 31
0.0
  0
LINE
  5
1CF
330
74
100
AcDbEntity
  8
1
  6
Continuous
 62
     6
100
AcDbLine
 10
-247.8000002490038
 20
-261.9009269949119
 30
0.0
 11
-297.800000249004
 21
-261.9009269949119
 31
0.0
  0
LINE
  5
1D0
330
74
100
AcDbEntity
  8
1
  6
Continuous
 62
     7
100
AcDbLine
 10
-233.8448047757538
 20
-244.9009269949119
 30
0.0
 11
-233.8448047757538
 21
-257.650926994912
 31
0.0
  0
LINE
  5
1D1
330
74
100
AcDbEntity
  8
1
  6
Continuous
 62
     7
100
AcDbLine
 10
-197.4448047757539
 20
-244.9009269949119
 30
0.0
 11
-197.4448047757539
 21
-257.6509269949119
 31
0.0
  0
LINE
  5
1D2
330
74
100
AcDbEntity
  8
1
  6
Continuous
 62
     6
100
AcDbLine
 10
-350.100000249004
 20
-261.900926994912
 30
0.0
 11
-356.300000249002
 21
-261.9009269949119
 31
0.0
  0
LINE
  5
1D3
330
74
100
AcDbEntity
  8
1
  6
Continuous
 62
     6
100
AcDbLine
 10
-197.4448047757539
 20
-261.900926994912
 30
0.0
 11
-197.8000002490038
 21
-261.9009269949119
 31
0.0
  0
LINE
  5
1D4
330
74
100
AcDbEntity
  8
1
  6
Continuous
 62
     6
100
AcDbLine
 10
-104.3000002490021
 20
-244.9009269949119
 30
0.0
 11
-104.3000002490025
 21
-253.4009269949119
 31
0.0
  0
LINE
  5
1D5
330
74
100
AcDbEntity
  8
1
  6
Continuous
 62
     6
100
AcDbLine
 10
-356.300000249002
 20
-261.9009269949119
 30
0.0
 11
-391.3000002490019
 21
-261.9009269949119
 31
0.0
  0
LINE
  5
1D6
330
74
100
AcDbEntity
  8
1
  6
Continuous
 62
     2
100
AcDbLine
 10
-229.6081498891912
 20
-239.525926994912
 30
0.0
 11
-224.6081498891912
 21
-238.275926994912
 31
0.0
  0
LINE
  5
1D7
330
74
100
AcDbEntity
  8
1
  6
Continuous
 62
     2
100
AcDbLine
 10
-229.6081498891912
 20
-242.025926994912
 30
0.0
 11
-229.6081498891912
 21
-239.525926994912
 31
0.0
  0
LINE
  5
1D8
330
74
100
AcDbEntity
  8
1
  6
Continuous
 62
     2
100
AcDbLine
 10
-224.6081498891912
 20
-243.275926994912
 30
0.0
 11
-229.6081498891912
 21
-242.025926994912
 31
0.0
  0
LINE
  5
1D9
330
74
100
AcDbEntity
  8
1
  6
Continuous
 62
     2
100
AcDbLine
 10
-224.6081498891912
 20
-238.275926994912
 30
0.0
 11
-224.6081498891912
 21
-243.275926994912
 31
0.0
  0
LINE
  5
1DA
330
74
100
AcDbEntity
  8
1
  6
Continuous
 62
     7
100
AcDbLine
 10
-233.8448047757538
 20
-257.650926994912
 30
0.0
 11
-215.6448047757538
 21
-257.6509269949119
 31
0.0
  0
LINE
  5
1DB
330
74
100
AcDbEntity
  8
1
  6
Continuous
 62
     7
100
AcDbLine
 10
-233.8448047757538
 20
-257.650926994912
 30
0.0
 11
-233.8448047757538
 21
-261.900926994912
 31
0.0
  0
LINE
  5
1DC
330
74
100
AcDbEntity
  8
1
  6
Continuous
 62
     7
100
AcDbLine
 10
-197.4448047757539
 20
-257.6509269949119
 30
0.0
 11
-197.4448047757539
 21
-261.900926994912
 31
0.0
  0
LINE
  5
1DD
330
74
100
AcDbEntity
  8
1
  6
Continuous
 62
     7
100
AcDbLine
 10
-215.6448047757538
 20
-257.6509269949119
 30
0.0
 11
-215.6448047757538
 21
-261.9009269949119
 31
0.0
  0
LINE
  5
1DE
330
74
100
AcDbEntity
  8
1
  6
Continuous
 62
     6
100
AcDbLine
 10
-215.6448047757538
 20
-261.9009269949119
 30
0.0
 11
-233.8448047757538
 21
-261.900926994912
 31
0.0
  0
LINE
  5
1DF
330
74
100
AcDbEntity
  8
1
  6
Continuous
 62
     7
100
AcDbLine
 10
-215.6448047757538
 20
-257.6509269949119
 30
0.0
 11
-197.4448047757539
 21
-257.6509269949119
 31
0.0
  0
LINE
  5
1E0
330
74
100
AcDbEntity
  8
1
  6
Continuous
 62
     6
100
AcDbLine
 10
-233.8448047757538
 20
-236.4009269949119
 30
0.0
 11
-104.3000002490021
 21
-236.4009269949119
 31
0.0
  0
ARC
  5
1E1
102
{ACAD_REACTORS
330
249
330
24A
102
}
330
74
100
AcDbEntity
  8
0
  6
Continuous
 62
     2
100
AcDbCircle
 10
-218.4531567767938
 20
-253.0805222329903
 30
0.0
 40
0.77179977867969
100
AcDbArc
 50
321.8795802028388
 51
38.12041979715458
  0
ARC
  5
1E2
102
{ACAD_REACTORS
330
249
330
24A
102
}
330
74
100
AcDbEntity
  8
0
  6
Continuous
 62
     2
100
AcDbCircle
 10
-218.2534167404474
 20
-253.2372534111103
 30
0.0
 40
0.5179085730137754
100
AcDbArc
 50
218.1204197971937
 51
321.8795802027966
  0
ARC
  5
1E3
102
{ACAD_REACTORS
330
249
330
24A
102
}
330
74
100
AcDbEntity
  8
0
  6
Continuous
 62
     2
100
AcDbCircle
 10
-218.0536767041013
 20
-253.0805222329903
 30
0.0
 40
0.7717997786794856
100
AcDbArc
 50
141.8795802028376
 51
218.120419797169
  0
ARC
  5
1E4
102
{ACAD_REACTORS
330
249
330
24A
102
}
330
74
100
AcDbEntity
  8
0
  6
Continuous
 62
     2
100
AcDbCircle
 10
-218.2534167404474
 20
-252.9237910548698
 30
0.0
 40
0.517908573013295
100
AcDbArc
 50
38.12041979715146
 51
141.8795802028583
  0
ARC
  5
1E5
102
{ACAD_REACTORS
330
241
330
242
102
}
330
74
100
AcDbEntity
  8
0
  6
Continuous
 62
     2
100
AcDbCircle
 10
-221.3154308760113
 20
-254.4909885983985
 30
0.0
 40
2.227384008973492
100
AcDbArc
 50
58.0690910500401
 51
71.55192388186676
  0
ARC
  5
1E6
102
{ACAD_REACTORS
330
241
330
242
102
}
330
74
100
AcDbEntity
  8
0
  6
Continuous
 62
     2
100
AcDbCircle
 10
-221.0537031750525
 20
-252.8754508036513
 30
0.0
 40
0.511580060194863
100
AcDbArc
 50
113.3722778882033
 51
151.4785267423044
  0
ARC
  5
1E7
102
{ACAD_REACTORS
330
241
330
242
102
}
330
74
100
AcDbEntity
  8
0
  6
Continuous
 62
     2
100
AcDbCircle
 10
-220.6763459169722
 20
-253.0805222329903
 30
0.0
 40
0.9410597353332545
100
AcDbArc
 50
151.4785267422669
 51
208.5214732577073
  0
ARC
  5
1E8
102
{ACAD_REACTORS
330
241
330
242
102
}
330
74
100
AcDbEntity
  8
0
  6
Continuous
 62
     2
100
AcDbCircle
 10
-221.4733037511042
 20
-249.7678412877339
 30
0.0
 40
4.852596863498166
100
AcDbArc
 50
275.1581447696249
 51
285.9799912583529
  0
ARC
  5
1E9
102
{ACAD_REACTORS
330
241
330
242
102
}
330
74
100
AcDbEntity
  8
0
  6
Continuous
 62
     2
100
AcDbCircle
 10
-221.1844476563683
 20
-252.9677318709555
 30
0.0
 40
1.639695123939408
100
AcDbArc
 50
195.0618917770884
 51
275.1581447696395
  0
ARC
  5
1EA
102
{ACAD_REACTORS
330
241
330
242
102
}
330
74
100
AcDbEntity
  8
0
  6
Continuous
 62
     2
100
AcDbCircle
 10
-221.6035754998311
 20
-253.0805222329903
 30
0.0
 40
1.205656168390964
100
AcDbArc
 50
164.9381082228781
 51
195.0618917770945
  0
ARC
  5
1EB
102
{ACAD_REACTORS
330
241
330
242
102
}
330
74
100
AcDbEntity
  8
0
  6
Continuous
 62
     2
100
AcDbCircle
 10
-221.1844476563683
 20
-253.1933125950252
 30
0.0
 40
1.639695123940507
100
AcDbArc
 50
84.84185523036236
 51
164.9381082228877
  0
ARC
  5
1EC
102
{ACAD_REACTORS
330
245
330
246
102
}
330
74
100
AcDbEntity
  8
0
  6
Continuous
 62
     2
100
AcDbCircle
 10
-226.0144619105302
 20
-252.046695438636
 30
0.0
 40
0.3157169230765071
100
AcDbArc
 50
115.3740086783541
 51
180.0
  0
ARC
  5
1ED
102
{ACAD_REACTORS
330
245
330
246
102
}
330
74
100
AcDbEntity
  8
0
  6
Continuous
 62
     2
100
AcDbCircle
 10
-226.0144619105302
 20
-249.8284122386998
 30
0.0
 40
0.315716923076792
100
AcDbArc
 50
180.0
 51
244.6259913216459
  0
ARC
  5
1EE
102
{ACAD_REACTORS
330
245
330
246
102
}
330
74
100
AcDbEntity
  8
0
  6
Continuous
 62
     2
100
AcDbCircle
 10
-226.0088457752202
 20
-250.9257118977621
 30
0.0
 40
2.018561131933237
100
AcDbArc
 50
269.8110329575866
 51
90.18896704241334
  0
ARC
  5
1EF
102
{ACAD_REACTORS
330
245
330
246
102
}
330
74
100
AcDbEntity
  8
0
  6
Continuous
 62
     2
100
AcDbCircle
 10
-226.0144619105302
 20
-252.6285468453311
 30
0.0
 40
0.315716923076792
100
AcDbArc
 50
180.0
 51
269.8110329574541
  0
ARC
  5
1F0
102
{ACAD_REACTORS
330
243
330
244
102
}
330
74
100
AcDbEntity
  8
0
  6
Continuous
 62
     2
100
AcDbCircle
 10
-204.9510016957996
 20
-252.8754508036513
 30
0.0
 40
0.5115800601944143
100
AcDbArc
 50
109.3371432194853
 51
151.4785267424225
  0
ARC
  5
1F1
102
{ACAD_REACTORS
330
243
330
244
102
}
330
74
100
AcDbEntity
  8
0
  6
Continuous
 62
     2
100
AcDbCircle
 10
-204.9510016957996
 20
-253.2855936623288
 30
0.0
 40
0.511580060196008
100
AcDbArc
 50
208.5214732576838
 51
246.6277221118449
  0
ARC
  5
1F2
102
{ACAD_REACTORS
330
243
330
244
102
}
330
74
100
AcDbEntity
  8
0
  6
Continuous
 62
     2
100
AcDbCircle
 10
-205.500874020577
 20
-253.0805222329903
 30
0.0
 40
1.205656168392995
100
AcDbArc
 50
164.9381082229041
 51
195.0618917770972
  0
ARC
  5
1F3
102
{ACAD_REACTORS
330
243
330
244
102
}
330
74
100
AcDbEntity
  8
0
  6
Continuous
 62
     2
100
AcDbCircle
 10
-205.0817461771154
 20
-253.1933125950252
 30
0.0
 40
1.639695123940186
100
AcDbArc
 50
90.0
 51
164.9381082228957
  0
ARC
  5
1F4
102
{ACAD_REACTORS
330
247
330
248
102
}
330
74
100
AcDbEntity
  8
0
  6
Continuous
 62
     2
100
AcDbCircle
 10
-214.5087412698191
 20
-249.721331756816
 30
0.0
 40
1.526904761905911
100
AcDbArc
 50
90.0
 51
270.0
  0
ARC
  5
1F5
102
{ACAD_REACTORS
330
24B
330
24C
102
}
330
74
100
AcDbEntity
  8
0
  6
Continuous
 62
     2
100
AcDbCircle
 10
-221.2514320150449
 20
-249.2103966650213
 30
0.0
 40
0.3528638246710898
100
AcDbArc
 50
270.0
 51
90.0
  0
ARC
  5
1F6
102
{ACAD_REACTORS
330
245
330
246
102
}
330
74
100
AcDbEntity
  8
0
  6
Continuous
 62
     2
100
AcDbCircle
 10
-228.5900105970619
 20
-249.2226994735449
 30
0.0
 40
0.3157169230761951
100
AcDbArc
 50
90.0
 51
180.0
  0
ARC
  5
1F7
102
{ACAD_REACTORS
330
245
330
246
102
}
330
74
100
AcDbEntity
  8
0
  6
Continuous
 62
     2
100
AcDbCircle
 10
-226.5915928884773
 20
-250.9375538386676
 30
0.0
 40
0.9118975235576268
100
AcDbArc
 50
115.1944106485298
 51
244.8055893514854
  0
ARC
  5
1F8
102
{ACAD_REACTORS
330
245
330
246
102
}
330
74
100
AcDbEntity
  8
0
  6
Continuous
 62
     2
100
AcDbCircle
 10
-227.1141773360523
 20
-252.0483835847304
 30
0.0
 40
0.3157169230766215
100
AcDbArc
 50
0.0
 51
64.80558935146249
  0
ARC
  5
1F9
102
{ACAD_REACTORS
330
245
330
246
102
}
330
74
100
AcDbEntity
  8
0
  6
Continuous
 62
     2
100
AcDbCircle
 10
-229.1839052738084
 20
-254.1831823795123
 30
0.0
 40
0.4242446153828041
100
AcDbArc
 50
180.0
 51
270.0
  0
ARC
  5
1FA
102
{ACAD_REACTORS
330
247
330
248
102
}
330
74
100
AcDbEntity
  8
0
  6
Continuous
 62
     2
100
AcDbCircle
 10
-214.2924692596539
 20
-249.5646005786955
 30
0.0
 40
0.5179085730135266
100
AcDbArc
 50
38.12041979714334
 51
141.8795802028489
  0
ARC
  5
1FB
102
{ACAD_REACTORS
330
247
330
248
102
}
330
74
100
AcDbEntity
  8
0
  6
Continuous
 62
     2
100
AcDbCircle
 10
-214.0927292233076
 20
-249.721331756816
 30
0.0
 40
0.77179977867969
100
AcDbArc
 50
141.8795802028388
 51
218.1204197971546
  0
ARC
  5
1FC
102
{ACAD_REACTORS
330
249
330
24A
102
}
330
74
100
AcDbEntity
  8
0
  6
Continuous
 62
     2
100
AcDbCircle
 10
-218.2534167404474
 20
-252.541947222687
 30
0.0
 40
2.065479772208497
100
AcDbArc
 50
242.4518518243391
 51
297.5481481756875
  0
ARC
  5
1FD
102
{ACAD_REACTORS
330
249
330
24A
102
}
330
74
100
AcDbEntity
  8
0
  6
Continuous
 62
     2
100
AcDbCircle
 10
-218.2534167404474
 20
-253.6190972432931
 30
0.0
 40
2.065479772208593
100
AcDbArc
 50
62.45185182430674
 51
117.5481481756667
  0
ARC
  5
1FE
102
{ACAD_REACTORS
330
249
330
24A
102
}
330
74
100
AcDbEntity
  8
0
  6
Continuous
 62
     2
100
AcDbCircle
 10
-218.5343566322807
 20
-253.0805222329903
 30
0.0
 40
1.458034083651503
100
AcDbArc
 50
117.5481481756634
 51
242.4518518243366
  0
ARC
  5
1FF
102
{ACAD_REACTORS
330
249
330
24A
102
}
330
74
100
AcDbEntity
  8
0
  6
Continuous
 62
     2
100
AcDbCircle
 10
-217.9724768486141
 20
-253.0805222329903
 30
0.0
 40
1.458034083652003
100
AcDbArc
 50
297.548148175701
 51
62.45185182429896
  0
ARC
  5
200
102
{ACAD_REACTORS
330
247
330
248
102
}
330
74
100
AcDbEntity
  8
0
  6
Continuous
 62
     2
100
AcDbCircle
 10
-214.2924692596539
 20
-249.8780629349364
 30
0.0
 40
0.5179085730134372
100
AcDbArc
 50
218.1204197971511
 51
321.8795802028566
  0
ARC
  5
201
102
{ACAD_REACTORS
330
247
330
248
102
}
330
74
100
AcDbEntity
  8
0
  6
Continuous
 62
     2
100
AcDbCircle
 10
-214.4922092960001
 20
-249.721331756816
 30
0.0
 40
0.7717997786796421
100
AcDbArc
 50
321.8795802028467
 51
38.12041979715993
  0
ARC
  5
202
102
{ACAD_REACTORS
330
245
330
246
102
}
330
74
100
AcDbEntity
  8
0
  6
Continuous
 62
     2
100
AcDbCircle
 10
-223.7105931830916
 20
-254.1831823795123
 30
0.0
 40
0.4242446153833157
100
AcDbArc
 50
270.0
 51
0.0
  0
ARC
  5
203
102
{ACAD_REACTORS
330
245
330
246
102
}
330
74
100
AcDbEntity
  8
0
  6
Continuous
 62
     2
100
AcDbCircle
 10
-223.7105931830916
 20
-248.6186716103121
 30
0.0
 40
0.4242446153838841
100
AcDbArc
 50
0.0
 51
90.0
  0
ARC
  5
204
102
{ACAD_REACTORS
330
245
330
246
102
}
330
74
100
AcDbEntity
  8
0
  6
Continuous
 62
     2
100
AcDbCircle
 10
-229.1839052738084
 20
-248.6186716103121
 30
0.0
 40
0.4242446153837989
100
AcDbArc
 50
90.0
 51
180.0
  0
ARC
  5
205
102
{ACAD_REACTORS
330
245
330
246
102
}
330
74
100
AcDbEntity
  8
0
  6
Continuous
 62
     2
100
AcDbCircle
 10
-227.1141773360523
 20
-253.579154516262
 30
0.0
 40
0.3157169230766783
100
AcDbArc
 50
270.0
 51
0.0
  0
ARC
  5
206
102
{ACAD_REACTORS
330
245
330
246
102
}
330
74
100
AcDbEntity
  8
0
  6
Continuous
 62
     2
100
AcDbCircle
 10
-227.1141773360523
 20
-249.8267240926054
 30
0.0
 40
0.315716923076146
100
AcDbArc
 50
295.1944106485375
 51
0.0
  0
ARC
  5
207
102
{ACAD_REACTORS
330
245
330
246
102
}
330
74
100
AcDbEntity
  8
0
  6
Continuous
 62
     2
100
AcDbCircle
 10
-227.1141773360523
 20
-249.2226994735449
 30
0.0
 40
0.3157169230766215
100
AcDbArc
 50
0.0
 51
90.0
  0
ARC
  5
208
102
{ACAD_REACTORS
330
245
330
246
102
}
330
74
100
AcDbEntity
  8
0
  6
Continuous
 62
     2
100
AcDbCircle
 10
-228.5900105970619
 20
-253.579154516262
 30
0.0
 40
0.3157169230756836
100
AcDbArc
 50
180.0
 51
270.0
  0
ARC
  5
209
102
{ACAD_REACTORS
330
24B
330
24C
102
}
330
74
100
AcDbEntity
  8
0
  6
Continuous
 62
     2
100
AcDbCircle
 10
-220.8099594888065
 20
-249.2497926362438
 30
0.0
 40
1.055365641333708
100
AcDbArc
 50
270.0
 51
90.0
  0
ARC
  5
20A
102
{ACAD_REACTORS
330
243
330
244
102
}
330
74
100
AcDbEntity
  8
0
  6
Continuous
 62
     2
100
AcDbCircle
 10
-205.0817461771154
 20
-252.9677318709555
 30
0.0
 40
1.639695123940421
100
AcDbArc
 50
195.0618917771015
 51
275.1581447696762
  0
ARC
  5
20B
102
{ACAD_REACTORS
330
243
330
244
102
}
330
74
100
AcDbEntity
  8
0
  6
Continuous
 62
     2
100
AcDbCircle
 10
-205.3706022718512
 20
-249.7678412877339
 30
0.0
 40
4.85259686349885
100
AcDbArc
 50
275.158144769636
 51
285.9799912583383
  0
ARC
  5
20C
102
{ACAD_REACTORS
330
243
330
244
102
}
330
74
100
AcDbEntity
  8
0
  6
Continuous
 62
     2
100
AcDbCircle
 10
-205.2127293967584
 20
-251.6700558675822
 30
0.0
 40
2.227384008972773
100
AcDbArc
 50
288.4480761181333
 51
301.9309089499387
  0
ARC
  5
20D
102
{ACAD_REACTORS
330
243
330
244
102
}
330
74
100
AcDbEntity
  8
0
  6
Continuous
 62
     2
100
AcDbCircle
 10
-204.7945616630965
 20
-252.9236016436188
 30
0.0
 40
0.9059297849852801
100
AcDbArc
 50
246.6277221118183
 51
288.4480761180817
  0
ARC
  5
20E
102
{ACAD_REACTORS
330
243
330
244
102
}
330
74
100
AcDbEntity
  8
0
  6
Continuous
 62
     2
100
AcDbCircle
 10
-204.5736444377182
 20
-253.0805222329903
 30
0.0
 40
0.9410597353348924
100
AcDbArc
 50
151.4785267423624
 51
208.5214732576695
  0
ARC
  5
20F
102
{ACAD_REACTORS
330
243
330
244
102
}
330
74
100
AcDbEntity
  8
0
  6
Continuous
 62
     2
100
AcDbCircle
 10
-204.8043316976959
 20
-253.2934057840342
 30
0.0
 40
0.9545230068260935
100
AcDbArc
 50
90.0
 51
109.3371432194314
  0
ARC
  5
210
102
{ACAD_REACTORS
330
245
330
246
102
}
330
74
100
AcDbEntity
  8
0
  6
Continuous
 62
     2
100
AcDbCircle
 10
-226.0144619105302
 20
-249.222876950193
 30
0.0
 40
0.3157169230760711
100
AcDbArc
 50
90.18896704254594
 51
180.0
  0
ARC
  5
211
102
{ACAD_REACTORS
330
245
330
246
102
}
330
74
100
AcDbEntity
  8
0
  6
Continuous
 62
     2
100
AcDbCircle
 10
-226.5405046086181
 20
-250.9375538386676
 30
0.0
 40
0.9118481501444712
100
AcDbArc
 50
295.3740086781781
 51
64.62599132180661
  0
ARC
  5
212
102
{ACAD_REACTORS
330
241
330
242
102
}
330
74
100
AcDbEntity
  8
0
  6
Continuous
 62
     2
100
AcDbCircle
 10
-221.3154308760113
 20
-251.6700558675816
 30
0.0
 40
2.227384008972773
100
AcDbArc
 50
288.4480761181333
 51
301.9309089499599
  0
ARC
  5
213
102
{ACAD_REACTORS
330
241
330
242
102
}
330
74
100
AcDbEntity
  8
0
  6
Continuous
 62
     2
100
AcDbCircle
 10
-220.8972631423505
 20
-252.9236016436188
 30
0.0
 40
0.9059297849849192
100
AcDbArc
 50
246.627722111871
 51
288.4480761181601
  0
ARC
  5
214
102
{ACAD_REACTORS
330
241
330
242
102
}
330
74
100
AcDbEntity
  8
0
  6
Continuous
 62
     2
100
AcDbCircle
 10
-221.0537031750525
 20
-253.2855936623288
 30
0.0
 40
0.5115800601948034
100
AcDbArc
 50
208.5214732576956
 51
246.6277221118245
  0
ARC
  5
215
102
{ACAD_REACTORS
330
241
330
242
102
}
330
74
100
AcDbEntity
  8
0
  6
Continuous
 62
     2
100
AcDbCircle
 10
-220.8972631423505
 20
-253.2374428223619
 30
0.0
 40
0.9059297849853588
100
AcDbArc
 50
71.55192388185235
 51
113.372277888129
  0
ARC
  5
216
102
{ACAD_REACTORS
330
241
330
242
102
}
330
74
100
AcDbEntity
  8
0
  6
Continuous
 62
     2
100
AcDbCircle
 10
-221.4733037511042
 20
-256.3932031782462
 30
0.0
 40
4.852596863498095
100
AcDbArc
 50
74.02000874164747
 51
84.84185523037509
  0
CIRCLE
  5
217
102
{ACAD_REACTORS
330
245
330
246
102
}
330
74
100
AcDbEntity
  8
0
  6
Continuous
 62
     2
100
AcDbCircle
 10
-226.5643196232909
 20
-250.9375538386676
 30
0.0
 40
0.4709789327785074
  0
CIRCLE
  5
218
330
74
100
AcDbEntity
  8
1
  6
Continuous
 62
     2
100
AcDbCircle
 10
-221.1081498891912
 20
-240.775926994912
 30
0.0
 40
1.249999999999886
  0
CIRCLE
  5
219
330
74
100
AcDbEntity
  8
1
  6
Continuous
 62
     2
100
AcDbCircle
 10
-221.1081498891912
 20
-240.775926994912
 30
0.0
 40
2.5
  0
TEXT
  5
21A
330
74
100
AcDbEntity
  8
1
 62
     7
100
AcDbText
 10
-178.47125705374
 20
-243.600926994912
 30
0.0
 40
2.5
  1
/
 41
0.9
  7
CONVERTER_11
100
AcDbText
  0
TEXT
  5
21C
330
74
100
AcDbEntity
  8
1
 62
     7
100
AcDbText
 10
-176.314892556698
 20
-243.600926994912
 30
0.0
 40
2.5
  1
00
 41
0.81
  7
CONVERTER_12
100
AcDbText
  0
TEXT
  5
21D
330
74
100
AcDbEntity
  8
1
 62
     3
100
AcDbText
 10
-138.7184085306809
 20
-243.600926994912
 30
0.0
 40
2.5
  1
08.07.2015
 41
0.81
  7
CONVERTER_12
100
AcDbText
  0
MTEXT
  5
21E
330
74
100
AcDbEntity
  8
1
 62
     2
100
AcDbMText
 10
-138.7184085306809
 20
-237.400926994912
 30
0.0
 40
1.8
 41
0.0
 71
     1
 72
     1
  1
date
  7
CONVERTER_11
 73
     1
 44
1.32052821128451
  0
MTEXT
  5
21F
330
74
100
AcDbEntity
  8
1
 62
     2
100
AcDbMText
 10
-168.5448047757538
 20
-245.900926994912
 30
0.0
 40
1.8
 41
0.0
 71
     1
 72
     1
  1
document-type
  7
CONVERTER_11
 73
     1
 44
1.20048019207683
  0
TEXT
  5
220
330
74
100
AcDbEntity
  8
1
 62
     3
100
AcDbText
 10
-168.5448047757538
 20
-252.100926994912
 30
0.0
 40
2.5
  1
Customer drawing select
 41
0.81
  7
CONVERTER_12
100
AcDbText
  0
MTEXT
  5
222
330
74
100
AcDbEntity
  8
1
 62
     2
100
AcDbMText
 10
-196.3448047757538
 20
-237.4009269949119
 30
0.0
 40
1.8
 41
0.0
 71
     1
 72
     1
  1
document-No. / RI
  7
CONVERTER_13
 73
     1
 44
1.32052821128451
  0
TEXT
  5
223
330
74
100
AcDbEntity
  8
1
 62
     7
100
AcDbText
 10
-196.3448047757538
 20
-243.600926994912
 30
0.0
 40
2.5
  1
00882596
 41
0.81
  7
CONVERTER_12
100
AcDbText
  0
MTEXT
  5
225
330
74
100
AcDbEntity
  8
1
 62
     3
100
AcDbMText
 10
-108.7592043898415
 20
-243.6009269949118
 30
0.0
 40
2.5
 41
0.0
 71
     8
 72
     1
  1
2:1
  7
CONVERTER_14
 73
     1
 44
1.32052821128451
  0
MTEXT
  5
226
330
74
100
AcDbEntity
  8
1
 62
     2
100
AcDbMText
 10
-112.1184085306811
 20
-237.4009269949119
 30
0.0
 40
1.8
 41
0.0
 71
     1
 72
     1
  1
scale
  7
CONVERTER_11
 73
     1
 44
1.20048019207683
  0
MTEXT
  5
227
330
74
100
AcDbEntity
  8
1
 62
     2
100
AcDbMText
 10
-196.3448047757538
 20
-245.9009269949119
 30
0.0
 40
1.8
 41
0.0
 71
     1
 72
     1
  1
ident.-No.
  7
CONVERTER_11
 73
     1
 44
1.20048019207683
  0
TEXT
  5
228
330
74
100
AcDbEntity
  8
1
 62
     7
100
AcDbText
 10
-195.9448047757541
 20
-252.100926994912
 30
0.0
 40
2.5
  1
0808011
 41
0.81
  7
CONVERTER_12
100
AcDbText
  0
MTEXT
  5
229
330
74
100
AcDbEntity
  8
1
 62
     2
100
AcDbMText
 10
-268.2828195008013
 20
-249.150926994912
 30
0.0
 40
2.0
 41
0.0
 71
     5
 72
     1
  1
General Information\P- Simplified representation\P- Document excluded from change process\P- Linear dimensions [mm]
  7
CONVERTER_11
 73
     1
 44
1.20048019207683
  0
MTEXT
  5
22A
330
74
100
AcDbEntity
  8
1
 62
     7
100
AcDbMText
 10
-101.8000002490048
 20
-186.90092699491
 30
0.0
 40
3.5
 41
0.0
 71
     5
 72
     1
  1
C
  7
CONVERTER_11
 73
     1
 44
1.20048019207683
  0
MTEXT
  5
22B
330
74
100
AcDbEntity
  8
1
 62
     7
100
AcDbMText
 10
-101.8000002490048
 20
-84.40092699491191
 30
0.0
 40
3.5
 41
0.0
 71
     5
 72
     1
  1
A
  7
CONVERTER_11
 73
     1
 44
1.20048019207683
  0
MTEXT
  5
22C
330
74
100
AcDbEntity
  8
1
 62
     7
100
AcDbMText
 10
-101.8000002490048
 20
-136.90092699491
 30
0.0
 40
3.5
 41
0.0
 71
     5
 72
     1
  1
B
  7
CONVERTER_11
 73
     1
 44
1.20048019207683
  0
MTEXT
  5
22D
330
74
100
AcDbEntity
  8
1
 62
     7
100
AcDbMText
 10
-101.8000002490048
 20
-239.4009269949119
 30
0.0
 40
3.5
 41
0.0
 71
     5
 72
     1
  1
D
  7
CONVERTER_11
 73
     1
 44
1.20048019207683
  0
MTEXT
  5
22E
330
74
100
AcDbEntity
  8
1
 62
     7
100
AcDbMText
 10
-372.0500002490034
 20
-264.400926994912
 30
0.0
 40
3.5
 41
0.0
 71
     5
 72
     1
  1
1
  7
CONVERTER_11
 73
     1
 44
1.20048019207683
  0
MTEXT
  5
22F
330
74
100
AcDbEntity
  8
1
 62
     7
100
AcDbMText
 10
-322.8000002490038
 20
-264.400926994912
 30
0.0
 40
3.5
 41
0.0
 71
     5
 72
     1
  1
2
  7
CONVERTER_11
 73
     1
 44
1.20048019207683
  0
MTEXT
  5
230
330
74
100
AcDbEntity
  8
1
 62
     7
100
AcDbMText
 10
-272.8000002490038
 20
-264.400926994912
 30
0.0
 40
3.5
 41
0.0
 71
     5
 72
     1
  1
3
  7
CONVERTER_11
 73
     1
 44
1.20048019207683
  0
MTEXT
  5
231
330
74
100
AcDbEntity
  8
1
 62
     7
100
AcDbMText
 10
-222.8000002490039
 20
-264.400926994912
 30
0.0
 40
3.5
 41
0.0
 71
     5
 72
     1
  1
4
  7
CONVERTER_11
 73
     1
 44
1.20048019207683
  0
MTEXT
  5
232
330
74
100
AcDbEntity
  8
1
 62
     7
100
AcDbMText
 10
-172.8000002490038
 20
-264.400926994912
 30
0.0
 40
3.5
 41
0.0
 71
     5
 72
     1
  1
5
  7
CONVERTER_11
 73
     1
 44
1.20048019207683
  0
MTEXT
  5
233
330
74
100
AcDbEntity
  8
1
 62
     7
100
AcDbMText
 10
-123.5500002490046
 20
-264.400926994912
 30
0.0
 40
3.5
 41
0.0
 71
     5
 72
     1
  1
6
  7
CONVERTER_11
 73
     1
 44
1.20048019207683
  0
MTEXT
  5
234
330
74
100
AcDbEntity
  8
1
 62
     7
100
AcDbMText
 10
-393.8000002490029
 20
-84.40092699491191
 30
0.0
 40
3.5
 41
0.0
 71
     5
 72
     1
  1
A
  7
CONVERTER_11
 73
     1
 44
1.20048019207683
  0
MTEXT
  5
235
330
74
100
AcDbEntity
  8
1
 62
     7
100
AcDbMText
 10
-393.8000002490029
 20
-136.9009269949119
 30
0.0
 40
3.5
 41
0.0
 71
     5
 72
     1
  1
B
  7
CONVERTER_11
 73
     1
 44
1.20048019207683
  0
MTEXT
  5
236
330
74
100
AcDbEntity
  8
1
 62
     7
100
AcDbMText
 10
-393.8000002490029
 20
-186.9009269949119
 30
0.0
 40
3.5
 41
0.0
 71
     5
 72
     1
  1
C
  7
CONVERTER_11
 73
     1
 44
1.20048019207683
  0
MTEXT
  5
237
330
74
100
AcDbEntity
  8
1
 62
     7
100
AcDbMText
 10
-393.8000002490029
 20
-239.4009269949119
 30
0.0
 40
3.5
 41
0.0
 71
     5
 72
     1
  1
D
  7
CONVERTER_11
 73
     1
 44
1.20048019207683
  0
MTEXT
  5
238
330
74
100
AcDbEntity
  8
1
 62
     3
100
AcDbMText
 10
-207.6448047757539
 20
-240.7759269949119
 30
0.0
 40
2.5
 41
0.0
 71
     5
 72
     1
  1
DIN A4
  7
CONVERTER_11
 73
     1
 44
1.20048019207683
  0
MTEXT
  5
239
330
74
100
AcDbEntity
  8
1
 62
     2
100
AcDbMText
 10
-196.4448047757539
 20
-254.4009269949119
 30
0.0
 40
1.8
 41
0.0
 71
     1
 72
     1
  1
description
  7
CONVERTER_11
 73
     1
 44
1.20048019207683
  0
MTEXT
  5
23A
330
74
100
AcDbEntity
  8
1
 62
     7
100
AcDbMText
 10
-150.8724025123783
 20
-258.6509269949117
 30
0.0
 40
3.0
 41
0.0
 71
     5
 72
     1
  1
PATG 4/23
  7
CONVERTER_12
 73
     1
 44
1.20048019207683
  0
TEXT
  5
23B
330
74
100
AcDbEntity
  8
1
 62
     2
100
AcDbText
 10
-209.4094959659403
 20
-260.650926994912
 30
0.0
 40
1.8
  1
1
 41
0.9
  7
CONVERTER_11
100
AcDbText
  0
TEXT
  5
23C
330
74
100
AcDbEntity
  8
1
 62
     2
100
AcDbText
 10
-224.1985398054118
 20
-260.7001756487139
 30
0.0
 40
1.8
  1
1
 41
0.9
  7
CONVERTER_11
100
AcDbText
  0
TEXT
  5
23D
330
74
100
AcDbEntity
  8
1
 62
     2
100
AcDbText
 10
-232.8448047757538
 20
-260.6599442099036
 30
0.0
 40
1.8
  1
page
 41
0.9
  7
CONVERTER_11
100
AcDbText
  0
TEXT
  5
23E
330
74
100
AcDbEntity
  8
1
 62
     2
100
AcDbText
 10
-214.644804775754
 20
-260.6599442099035
 30
0.0
 40
1.8
  1
of
 41
0.9
  7
CONVERTER_11
100
AcDbText
  0
MTEXT
  5
23F
330
74
100
AcDbEntity
  8
1
 62
     3
100
AcDbMText
 10
-208.4418226241439
 20
-75.10961883961312
 30
0.0
 40
1.8
 41
0.0
 71
     7
 72
     1
  3
Transfer or duplication of this document as well as the utilisation or\Pcommunication of its content are not permitted unless express consen\Pis granted. Violations give rise to claims for damages. All rights reserved\Pin case of patent, utility mod
  1
el or design patent registrations.
  7
CONVERTER_11
 73
     1
 44
0.99639855942377
  0
MTEXT
  5
240
330
74
100
AcDbEntity
  8
1
 62
     3
100
AcDbMText
 10
-391.294932462932
 20
-75.10961883961312
 30
0.0
 40
1.8
 41
0.0
 71
     7
 72
     1
  3
Weitergabe sowie Vervielf\U+00e4ltigung dieses Dokuments, Verwertung und \PMitteilung seines Inhalts sind verboten, soweit nicht ausdr\U+00fccklich gestattet. \PZuwiderhandlungen verpflichten zu Schadenersatz. Alle Rechte f\U+00fcr den Fall\Pder Pat
  1
ent-, Gebrauchsmuster- oder Designeintragung vorbehalten.
  7
CONVERTER_11
 73
     1
 44
0.99639855942377
  0
HATCH
  5
241
330
74
100
AcDbEntity
  8
1
  6
Continuous
 62
     2
100
AcDbHatch
 10
0.0
 20
0.0
 30
0.0
210
0.0
220
0.0
230
1.0
  2
_USER
 70
     0
 71
     1
 91
        1
 92
        1
 93
       14
 72
     2
 10
-221.6035754998311
 20
-253.0805222329903
 40
1.205656168390964
 50
164.9381082228781
 51
195.0618917770945
 73
     1
 72
     2
 10
-221.1844476563683
 20
-252.9677318709555
 40
1.639695123939408
 50
195.0618917770884
 51
275.1581447696395
 73
     1
 72
     2
 10
-221.4733037511042
 20
-249.7678412877339
 40
4.852596863498166
 50
275.1581447696249
 51
285.9799912583529
 73
     1
 72
     1
 10
-220.1373758339864
 20
-254.4329235935347
 11
-220.1373758339864
 21
-253.5604065867315
 72
     2
 10
-221.3154308760113
 20
-251.6700558675816
 40
2.227384008972773
 50
58.06909105004009
 51
71.55192388186677
 73
     0
 72
     2
 10
-220.8972631423505
 20
-252.9236016436188
 40
0.9059297849849192
 50
71.55192388183985
 51
113.372277888129
 73
     0
 72
     2
 10
-221.0537031750525
 20
-253.2855936623288
 40
0.5115800601948034
 50
113.3722778881755
 51
151.4785267423044
 73
     0
 72
     2
 10
-220.6763459169722
 20
-253.0805222329903
 40
0.9410597353332545
 50
151.4785267422927
 51
208.5214732577331
 73
     0
 72
     2
 10
-221.0537031750525
 20
-252.8754508036513
 40
0.511580060194863
 50
208.5214732576956
 51
246.6277221117967
 73
     0
 72
     2
 10
-220.8972631423505
 20
-253.2374428223619
 40
0.9059297849853588
 50
246.627722111871
 51
288.4480761181476
 73
     0
 72
     2
 10
-221.3154308760113
 20
-254.4909885983985
 40
2.227384008973492
 50
288.4480761181333
 51
301.9309089499599
 73
     0
 72
     1
 10
-220.1373758339864
 20
-252.6006378792486
 11
-220.1373758339864
 21
-251.7281208724453
 72
     2
 10
-221.4733037511042
 20
-256.3932031782462
 40
4.852596863498095
 50
74.02000874164747
 51
84.84185523037509
 73
     1
 72
     2
 10
-221.1844476563683
 20
-253.1933125950252
 40
1.639695123940507
 50
84.84185523036236
 51
164.9381082228877
 73
     1
 97
       14
330
216
330
12F
330
1E5
330
215
330
1E6
330
1E7
330
214
330
213
330
212
330
130
330
1E8
330
1E9
330
1EA
330
1EB
 75
     1
 76
     0
 52
45.0
 41
0.1
 77
     0
 78
     1
 53
45.0
 43
0.0
 44
0.0
 45
-0.0707106781186548
 46
0.0707106781186548
 79
     0
 98
        1
 10
0.0
 20
0.0
  0
HATCH
  5
242
330
74
100
AcDbEntity
  8
1
  6
Continuous
 62
     2
100
AcDbHatch
 10
0.0
 20
0.0
 30
0.0
210
0.0
220
0.0
230
1.0
  2
_USER
 70
     0
 71
     1
 91
        1
 92
        1
 93
       14
 72
     2
 10
-221.6035754998311
 20
-253.0805222329903
 40
1.205656168390964
 50
164.9381082228781
 51
195.0618917770945
 73
     1
 72
     2
 10
-221.1844476563683
 20
-252.9677318709555
 40
1.639695123939408
 50
195.0618917770884
 51
275.1581447696395
 73
     1
 72
     2
 10
-221.4733037511042
 20
-249.7678412877339
 40
4.852596863498166
 50
275.1581447696249
 51
285.9799912583529
 73
     1
 72
     1
 10
-220.1373758339864
 20
-254.4329235935347
 11
-220.1373758339864
 21
-253.5604065867315
 72
     2
 10
-221.3154308760113
 20
-251.6700558675816
 40
2.227384008972773
 50
58.06909105004009
 51
71.55192388186677
 73
     0
 72
     2
 10
-220.8972631423505
 20
-252.9236016436188
 40
0.9059297849849192
 50
71.55192388183985
 51
113.372277888129
 73
     0
 72
     2
 10
-221.0537031750525
 20
-253.2855936623288
 40
0.5115800601948034
 50
113.3722778881755
 51
151.4785267423044
 73
     0
 72
     2
 10
-220.6763459169722
 20
-253.0805222329903
 40
0.9410597353332545
 50
151.4785267422927
 51
208.5214732577331
 73
     0
 72
     2
 10
-221.0537031750525
 20
-252.8754508036513
 40
0.511580060194863
 50
208.5214732576956
 51
246.6277221117967
 73
     0
 72
     2
 10
-220.8972631423505
 20
-253.2374428223619
 40
0.9059297849853588
 50
246.627722111871
 51
288.4480761181476
 73
     0
 72
     2
 10
-221.3154308760113
 20
-254.4909885983985
 40
2.227384008973492
 50
288.4480761181333
 51
301.9309089499599
 73
     0
 72
     1
 10
-220.1373758339864
 20
-252.6006378792486
 11
-220.1373758339864
 21
-251.7281208724453
 72
     2
 10
-221.4733037511042
 20
-256.3932031782462
 40
4.852596863498095
 50
74.02000874164747
 51
84.84185523037509
 73
     1
 72
     2
 10
-221.1844476563683
 20
-253.1933125950252
 40
1.639695123940507
 50
84.84185523036236
 51
164.9381082228877
 73
     1
 97
       14
330
216
330
12F
330
1E5
330
215
330
1E6
330
1E7
330
214
330
213
330
212
330
130
330
1E8
330
1E9
330
1EA
330
1EB
 75
     1
 76
     0
 52
45.0
 41
0.1
 77
     0
 78
     1
 53
45.0
 43
0.0
 44
0.0
 45
-0.0707106781186548
 46
0.0707106781186548
 79
     0
 98
        1
 10
0.0
 20
0.0
  0
HATCH
  5
243
330
74
100
AcDbEntity
  8
1
  6
Continuous
 62
     2
100
AcDbHatch
 10
0.0
 20
0.0
 30
0.0
210
0.0
220
0.0
230
1.0
  2
_USER
 70
     0
 71
     1
 91
        1
 92
        1
 93
       18
 72
     2
 10
-205.0817461771154
 20
-253.1933125950252
 40
1.639695123940186
 50
90.0
 51
164.9381082228957
 73
     1
 72
     2
 10
-205.500874020577
 20
-253.0805222329903
 40
1.205656168392995
 50
164.9381082229041
 51
195.0618917770972
 73
     1
 72
     2
 10
-205.0817461771154
 20
-252.9677318709555
 40
1.639695123940421
 50
195.0618917771015
 51
275.1581447696762
 73
     1
 72
     2
 10
-205.3706022718512
 20
-249.7678412877339
 40
4.85259686349885
 50
275.158144769636
 51
285.9799912583383
 73
     1
 72
     1
 10
-204.0346743547345
 20
-254.4329235935353
 11
-204.0346743547345
 21
-253.560406586732
 72
     2
 10
-205.2127293967584
 20
-251.6700558675822
 40
2.227384008972773
 50
58.06909105006127
 51
71.55192388186677
 73
     0
 72
     2
 10
-204.7945616630965
 20
-252.9236016436188
 40
0.9059297849852801
 50
71.55192388191827
 51
113.3722778881817
 73
     0
 72
     2
 10
-204.9510016957996
 20
-253.2855936623288
 40
0.511580060196008
 50
113.3722778881551
 51
151.4785267423162
 73
     0
 72
     2
 10
-204.5736444377182
 20
-253.0805222329903
 40
0.9410597353348924
 50
151.4785267423305
 51
208.5214732576376
 73
     0
 72
     2
 10
-204.9510016957996
 20
-252.8754508036513
 40
0.5115800601944143
 50
208.5214732575775
 51
250.6628567805147
 73
     0
 72
     2
 10
-204.8043316976959
 20
-253.2934057840342
 40
0.9545230068260935
 50
250.6628567805685
 51
270.0
 73
     0
 72
     1
 10
-204.8043316976959
 20
-252.3388827772081
 11
-203.7006923981278
 21
-252.3388827772081
 72
     1
 10
-203.7006923981278
 20
-252.3388827772081
 11
-203.7006923981278
 21
-254.6074269948956
 72
     1
 10
-203.7006923981278
 20
-254.6074269948956
 11
-202.5078996959601
 21
-254.6074269948956
 72
     1
 10
-202.5078996959601
 20
-254.6074269948956
 11
-202.5078996959601
 21
-252.3388827772081
 72
     1
 10
-202.5078996959601
 20
-252.3388827772081
 11
-201.6968006584867
 21
-252.3388827772081
 72
     1
 10
-201.6968006584867
 20
-252.3388827772081
 11
-201.6968006584867
 21
-251.5536174710845
 72
     1
 10
-201.6968006584867
 20
-251.5536174710845
 11
-205.0817461771154
 21
-251.553617471085
 97
       18
330
195
330
194
330
193
330
192
330
197
330
131
330
20F
330
1F0
330
20E
330
1F1
330
20D
330
20C
330
132
330
20B
330
20A
330
1F2
330
1F3
330
196
 75
     1
 76
     0
 52
45.0
 41
0.1
 77
     0
 78
     1
 53
45.0
 43
0.0
 44
0.0
 45
-0.0707106781186548
 46
0.0707106781186548
 79
     0
 98
        1
 10
0.0
 20
0.0
  0
HATCH
  5
244
330
74
100
AcDbEntity
  8
1
  6
Continuous
 62
     2
100
AcDbHatch
 10
0.0
 20
0.0
 30
0.0
210
0.0
220
0.0
230
1.0
  2
_USER
 70
     0
 71
     1
 91
        1
 92
        1
 93
       18
 72
     2
 10
-205.0817461771154
 20
-253.1933125950252
 40
1.639695123940186
 50
90.0
 51
164.9381082228957
 73
     1
 72
     2
 10
-205.500874020577
 20
-253.0805222329903
 40
1.205656168392995
 50
164.9381082229041
 51
195.0618917770972
 73
     1
 72
     2
 10
-205.0817461771154
 20
-252.9677318709555
 40
1.639695123940421
 50
195.0618917771015
 51
275.1581447696762
 73
     1
 72
     2
 10
-205.3706022718512
 20
-249.7678412877339
 40
4.85259686349885
 50
275.158144769636
 51
285.9799912583383
 73
     1
 72
     1
 10
-204.0346743547345
 20
-254.4329235935353
 11
-204.0346743547345
 21
-253.560406586732
 72
     2
 10
-205.2127293967584
 20
-251.6700558675822
 40
2.227384008972773
 50
58.06909105006127
 51
71.55192388186677
 73
     0
 72
     2
 10
-204.7945616630965
 20
-252.9236016436188
 40
0.9059297849852801
 50
71.55192388191827
 51
113.3722778881817
 73
     0
 72
     2
 10
-204.9510016957996
 20
-253.2855936623288
 40
0.511580060196008
 50
113.3722778881551
 51
151.4785267423162
 73
     0
 72
     2
 10
-204.5736444377182
 20
-253.0805222329903
 40
0.9410597353348924
 50
151.4785267423305
 51
208.5214732576376
 73
     0
 72
     2
 10
-204.9510016957996
 20
-252.8754508036513
 40
0.5115800601944143
 50
208.5214732575775
 51
250.6628567805147
 73
     0
 72
     2
 10
-204.8043316976959
 20
-253.2934057840342
 40
0.9545230068260935
 50
250.6628567805685
 51
270.0
 73
     0
 72
     1
 10
-204.8043316976959
 20
-252.3388827772081
 11
-203.7006923981278
 21
-252.3388827772081
 72
     1
 10
-203.7006923981278
 20
-252.3388827772081
 11
-203.7006923981278
 21
-254.6074269948956
 72
     1
 10
-203.7006923981278
 20
-254.6074269948956
 11
-202.5078996959601
 21
-254.6074269948956
 72
     1
 10
-202.5078996959601
 20
-254.6074269948956
 11
-202.5078996959601
 21
-252.3388827772081
 72
     1
 10
-202.5078996959601
 20
-252.3388827772081
 11
-201.6968006584867
 21
-252.3388827772081
 72
     1
 10
-201.6968006584867
 20
-252.3388827772081
 11
-201.6968006584867
 21
-251.5536174710845
 72
     1
 10
-201.6968006584867
 20
-251.5536174710845
 11
-205.0817461771154
 21
-251.553617471085
 97
       18
330
195
330
194
330
193
330
192
330
197
330
131
330
20F
330
1F0
330
20E
330
1F1
330
20D
330
20C
330
132
330
20B
330
20A
330
1F2
330
1F3
330
196
 75
     1
 76
     0
 52
45.0
 41
0.1
 77
     0
 78
     1
 53
45.0
 43
0.0
 44
0.0
 45
-0.0707106781186548
 46
0.0707106781186548
 79
     0
 98
        1
 10
0.0
 20
0.0
  0
HATCH
  5
245
330
74
100
AcDbEntity
  8
1
  6
Continuous
 62
     2
100
AcDbHatch
 10
0.0
 20
0.0
 30
0.0
210
0.0
220
0.0
230
1.0
  2
_USER
 70
     0
 71
     1
 91
        4
 92
        1
 93
        8
 72
     2
 10
-229.1839052738084
 20
-248.6186716103121
 40
0.4242446153837989
 50
90.0
 51
180.0
 73
     1
 72
     1
 10
-229.6081498891912
 20
-248.6186716103121
 11
-229.6081498891912
 21
-254.1831823795123
 72
     2
 10
-229.1839052738084
 20
-254.1831823795123
 40
0.4242446153828041
 50
180.0
 51
270.0
 73
     1
 72
     1
 10
-229.1839052738084
 20
-254.6074269948956
 11
-223.7105931830916
 21
-254.6074269948956
 72
     2
 10
-223.7105931830916
 20
-254.1831823795123
 40
0.4242446153833157
 50
270.0
 51
360.0
 73
     1
 72
     1
 10
-223.2863485677077
 20
-254.1831823795123
 11
-223.2863485677077
 21
-248.6186716103121
 72
     2
 10
-223.7105931830916
 20
-248.6186716103121
 40
0.4242446153838841
 50
0.0
 51
90.0
 73
     1
 72
     1
 10
-223.7105931830916
 20
-248.1944269949283
 11
-229.1839052738084
 21
-248.1944269949283
 97
        8
330
203
330
160
330
202
330
161
330
1F9
330
15E
330
204
330
15F
 92
       16
 93
        1
 72
     2
 10
-226.5643196232909
 20
-250.9375538386676
 40
0.4709789327785074
 50
0.0
 51
360.0
 73
     1
 97
        1
330
217
 92
       16
 93
        8
 72
     2
 10
-226.5405046086181
 20
-250.9375538386676
 40
0.9118481501444712
 50
295.3740086781781
 51
424.6259913218067
 73
     1
 72
     2
 10
-226.0144619105302
 20
-249.8284122386998
 40
0.315716923076792
 50
115.3740086783541
 51
180.0
 73
     0
 72
     1
 10
-226.330178833607
 20
-249.8284122386998
 11
-226.330178833607
 21
-249.222876950193
 72
     2
 10
-226.0144619105302
 20
-249.222876950193
 40
0.3157169230760711
 50
180.0
 51
269.8110329574541
 73
     0
 72
     2
 10
-226.0088457752202
 20
-250.9257118977621
 40
2.018561131933237
 50
269.8110329575866
 51
450.1889670424133
 73
     0
 72
     2
 10
-226.0144619105302
 20
-252.6285468453311
 40
0.315716923076792
 50
90.1889670425459
 51
180.0
 73
     0
 72
     1
 10
-226.330178833607
 20
-252.6285468453311
 11
-226.330178833607
 21
-252.046695438636
 72
     2
 10
-226.0144619105302
 20
-252.046695438636
 40
0.3157169230765071
 50
180.0
 51
244.6259913216459
 73
     0
 97
        8
330
211
330
1ED
330
199
330
210
330
1EE
330
1EF
330
198
330
1EC
 92
       16
 93
       12
 72
     1
 10
-228.5900105970619
 20
-253.8948714393387
 11
-227.1141773360523
 21
-253.8948714393387
 72
     2
 10
-227.1141773360523
 20
-253.579154516262
 40
0.3157169230766783
 50
270.0
 51
360.0
 73
     1
 72
     1
 10
-226.7984604129757
 20
-253.579154516262
 11
-226.7984604129757
 21
-252.0483835847304
 72
     2
 10
-227.1141773360523
 20
-252.0483835847304
 40
0.3157169230766215
 50
0.0
 51
64.80558935146249
 73
     1
 72
     2
 10
-226.5915928884773
 20
-250.9375538386676
 40
0.9118975235576268
 50
115.1944106485146
 51
244.8055893514702
 73
     0
 72
     2
 10
-227.1141773360523
 20
-249.8267240926054
 40
0.315716923076146
 50
295.1944106485375
 51
360.0
 73
     1
 72
     1
 10
-226.7984604129757
 20
-249.8267240926054
 11
-226.7984604129757
 21
-249.2226994735449
 72
     2
 10
-227.1141773360523
 20
-249.2226994735449
 40
0.3157169230766215
 50
0.0
 51
90.0
 73
     1
 72
     1
 10
-227.1141773360523
 20
-248.9069825504687
 11
-228.5900105970619
 21
-248.9069825504687
 72
     2
 10
-228.5900105970619
 20
-249.2226994735449
 40
0.3157169230761951
 50
90.0
 51
180.0
 73
     1
 72
     1
 10
-228.9057275201376
 20
-249.2226994735449
 11
-228.9057275201376
 21
-253.579154516262
 72
     2
 10
-228.5900105970619
 20
-253.579154516262
 40
0.3157169230756836
 50
180.0
 51
270.0
 73
     1
 97
       12
330
165
330
1F6
330
164
330
207
330
163
330
206
330
1F7
330
1F8
330
162
330
205
330
15D
330
208
 75
     1
 76
     0
 52
45.0
 41
0.1
 77
     0
 78
     1
 53
45.0
 43
0.0
 44
0.0
 45
-0.0707106781186548
 46
0.0707106781186548
 79
     0
 98
        1
 10
0.0
 20
0.0
  0
HATCH
  5
246
330
74
100
AcDbEntity
  8
1
  6
Continuous
 62
     2
100
AcDbHatch
 10
0.0
 20
0.0
 30
0.0
210
0.0
220
0.0
230
1.0
  2
_USER
 70
     0
 71
     1
 91
        4
 92
        1
 93
        8
 72
     2
 10
-229.1839052738084
 20
-248.6186716103121
 40
0.4242446153837989
 50
90.0
 51
180.0
 73
     1
 72
     1
 10
-229.6081498891912
 20
-248.6186716103121
 11
-229.6081498891912
 21
-254.1831823795123
 72
     2
 10
-229.1839052738084
 20
-254.1831823795123
 40
0.4242446153828041
 50
180.0
 51
270.0
 73
     1
 72
     1
 10
-229.1839052738084
 20
-254.6074269948956
 11
-223.7105931830916
 21
-254.6074269948956
 72
     2
 10
-223.7105931830916
 20
-254.1831823795123
 40
0.4242446153833157
 50
270.0
 51
360.0
 73
     1
 72
     1
 10
-223.2863485677077
 20
-254.1831823795123
 11
-223.2863485677077
 21
-248.6186716103121
 72
     2
 10
-223.7105931830916
 20
-248.6186716103121
 40
0.4242446153838841
 50
0.0
 51
90.0
 73
     1
 72
     1
 10
-223.7105931830916
 20
-248.1944269949283
 11
-229.1839052738084
 21
-248.1944269949283
 97
        8
330
203
330
160
330
202
330
161
330
1F9
330
15E
330
204
330
15F
 92
       16
 93
        1
 72
     2
 10
-226.5643196232909
 20
-250.9375538386676
 40
0.4709789327785074
 50
0.0
 51
360.0
 73
     1
 97
        1
330
217
 92
       16
 93
        8
 72
     2
 10
-226.5405046086181
 20
-250.9375538386676
 40
0.9118481501444712
 50
295.3740086781781
 51
424.6259913218067
 73
     1
 72
     2
 10
-226.0144619105302
 20
-249.8284122386998
 40
0.315716923076792
 50
115.3740086783541
 51
180.0
 73
     0
 72
     1
 10
-226.330178833607
 20
-249.8284122386998
 11
-226.330178833607
 21
-249.222876950193
 72
     2
 10
-226.0144619105302
 20
-249.222876950193
 40
0.3157169230760711
 50
180.0
 51
269.8110329574541
 73
     0
 72
     2
 10
-226.0088457752202
 20
-250.9257118977621
 40
2.018561131933237
 50
269.8110329575866
 51
450.1889670424133
 73
     0
 72
     2
 10
-226.0144619105302
 20
-252.6285468453311
 40
0.315716923076792
 50
90.1889670425459
 51
180.0
 73
     0
 72
     1
 10
-226.330178833607
 20
-252.6285468453311
 11
-226.330178833607
 21
-252.046695438636
 72
     2
 10
-226.0144619105302
 20
-252.046695438636
 40
0.3157169230765071
 50
180.0
 51
244.6259913216459
 73
     0
 97
        8
330
211
330
1ED
330
199
330
210
330
1EE
330
1EF
330
198
330
1EC
 92
       16
 93
       12
 72
     1
 10
-228.5900105970619
 20
-253.8948714393387
 11
-227.1141773360523
 21
-253.8948714393387
 72
     2
 10
-227.1141773360523
 20
-253.579154516262
 40
0.3157169230766783
 50
270.0
 51
360.0
 73
     1
 72
     1
 10
-226.7984604129757
 20
-253.579154516262
 11
-226.7984604129757
 21
-252.0483835847304
 72
     2
 10
-227.1141773360523
 20
-252.0483835847304
 40
0.3157169230766215
 50
0.0
 51
64.80558935146249
 73
     1
 72
     2
 10
-226.5915928884773
 20
-250.9375538386676
 40
0.9118975235576268
 50
115.1944106485146
 51
244.8055893514702
 73
     0
 72
     2
 10
-227.1141773360523
 20
-249.8267240926054
 40
0.315716923076146
 50
295.1944106485375
 51
360.0
 73
     1
 72
     1
 10
-226.7984604129757
 20
-249.8267240926054
 11
-226.7984604129757
 21
-249.2226994735449
 72
     2
 10
-227.1141773360523
 20
-249.2226994735449
 40
0.3157169230766215
 50
0.0
 51
90.0
 73
     1
 72
     1
 10
-227.1141773360523
 20
-248.9069825504687
 11
-228.5900105970619
 21
-248.9069825504687
 72
     2
 10
-228.5900105970619
 20
-249.2226994735449
 40
0.3157169230761951
 50
90.0
 51
180.0
 73
     1
 72
     1
 10
-228.9057275201376
 20
-249.2226994735449
 11
-228.9057275201376
 21
-253.579154516262
 72
     2
 10
-228.5900105970619
 20
-253.579154516262
 40
0.3157169230756836
 50
180.0
 51
270.0
 73
     1
 97
       12
330
165
330
1F6
330
164
330
207
330
163
330
206
330
1F7
330
1F8
330
162
330
205
330
15D
330
208
 75
     1
 76
     0
 52
45.0
 41
0.1
 77
     0
 78
     1
 53
45.0
 43
0.0
 44
0.0
 45
-0.0707106781186548
 46
0.0707106781186548
 79
     0
 98
        1
 10
0.0
 20
0.0
  0
HATCH
  5
247
330
74
100
AcDbEntity
  8
1
  6
Continuous
 62
     2
100
AcDbHatch
 10
0.0
 20
0.0
 30
0.0
210
0.0
220
0.0
230
1.0
  2
_USER
 70
     0
 71
     1
 91
        2
 92
        1
 93
       12
 72
     2
 10
-214.5087412698191
 20
-249.721331756816
 40
1.526904761905911
 50
90.0
 51
270.0
 73
     1
 72
     1
 10
-214.5087412698191
 20
-251.2482365187213
 11
-211.3584215460381
 21
-251.2482365187213
 72
     1
 10
-211.3584215460381
 20
-251.2482365187213
 11
-211.3584215460381
 21
-250.5502229132788
 72
     1
 10
-211.3584215460381
 20
-250.5502229132788
 11
-212.6943493724658
 21
-250.5502229132788
 72
     1
 10
-212.6943493724658
 20
-250.5502229132788
 11
-212.6943493724658
 21
-250.0703385595371
 72
     1
 10
-212.6943493724658
 20
-250.0703385595371
 11
-211.3584215460381
 21
-250.0703385595371
 72
     1
 10
-211.3584215460381
 20
-250.0703385595371
 11
-211.3584215460381
 21
-249.3723249540948
 72
     1
 10
-211.3584215460381
 20
-249.3723249540948
 11
-212.6943493724658
 21
-249.3723249540948
 72
     1
 10
-212.6943493724658
 20
-249.3723249540948
 11
-212.6943493724658
 21
-248.8924406003531
 72
     1
 10
-212.6943493724658
 20
-248.8924406003531
 11
-211.3584215460381
 21
-248.8924406003531
 72
     1
 10
-211.3584215460381
 20
-248.8924406003531
 11
-211.3584215460381
 21
-248.1944269949101
 72
     1
 10
-211.3584215460381
 20
-248.1944269949101
 11
-214.5087412698191
 21
-248.1944269949101
 97
       12
330
154
330
14E
330
175
330
174
330
173
330
172
330
14F
330
150
330
151
330
152
330
1F4
330
153
 92
       16
 93
        4
 72
     2
 10
-214.0927292233076
 20
-249.721331756816
 40
0.77179977867969
 50
141.8795802028388
 51
218.1204197971546
 73
     1
 72
     2
 10
-214.2924692596539
 20
-249.8780629349364
 40
0.5179085730134372
 50
218.1204197971511
 51
321.8795802028566
 73
     1
 72
     2
 10
-214.4922092960001
 20
-249.721331756816
 40
0.7717997786796421
 50
321.8795802028467
 51
398.1204197971599
 73
     1
 72
     2
 10
-214.2924692596539
 20
-249.5646005786955
 40
0.5179085730135266
 50
38.12041979714334
 51
141.8795802028489
 73
     1
 97
        4
330
201
330
200
330
1FB
330
1FA
 75
     1
 76
     0
 52
45.0
 41
0.1
 77
     0
 78
     1
 53
45.0
 43
0.0
 44
0.0
 45
-0.0707106781186548
 46
0.0707106781186548
 79
     0
 98
        1
 10
0.0
 20
0.0
  0
HATCH
  5
248
330
74
100
AcDbEntity
  8
1
  6
Continuous
 62
     2
100
AcDbHatch
 10
0.0
 20
0.0
 30
0.0
210
0.0
220
0.0
230
1.0
  2
_USER
 70
     0
 71
     1
 91
        2
 92
        1
 93
       12
 72
     2
 10
-214.5087412698191
 20
-249.721331756816
 40
1.526904761905911
 50
90.0
 51
270.0
 73
     1
 72
     1
 10
-214.5087412698191
 20
-251.2482365187213
 11
-211.3584215460381
 21
-251.2482365187213
 72
     1
 10
-211.3584215460381
 20
-251.2482365187213
 11
-211.3584215460381
 21
-250.5502229132788
 72
     1
 10
-211.3584215460381
 20
-250.5502229132788
 11
-212.6943493724658
 21
-250.5502229132788
 72
     1
 10
-212.6943493724658
 20
-250.5502229132788
 11
-212.6943493724658
 21
-250.0703385595371
 72
     1
 10
-212.6943493724658
 20
-250.0703385595371
 11
-211.3584215460381
 21
-250.0703385595371
 72
     1
 10
-211.3584215460381
 20
-250.0703385595371
 11
-211.3584215460381
 21
-249.3723249540948
 72
     1
 10
-211.3584215460381
 20
-249.3723249540948
 11
-212.6943493724658
 21
-249.3723249540948
 72
     1
 10
-212.6943493724658
 20
-249.3723249540948
 11
-212.6943493724658
 21
-248.8924406003531
 72
     1
 10
-212.6943493724658
 20
-248.8924406003531
 11
-211.3584215460381
 21
-248.8924406003531
 72
     1
 10
-211.3584215460381
 20
-248.8924406003531
 11
-211.3584215460381
 21
-248.1944269949101
 72
     1
 10
-211.3584215460381
 20
-248.1944269949101
 11
-214.5087412698191
 21
-248.1944269949101
 97
       12
330
154
330
14E
330
175
330
174
330
173
330
172
330
14F
330
150
330
151
330
152
330
1F4
330
153
 92
       16
 93
        4
 72
     2
 10
-214.0927292233076
 20
-249.721331756816
 40
0.77179977867969
 50
141.8795802028388
 51
218.1204197971546
 73
     1
 72
     2
 10
-214.2924692596539
 20
-249.8780629349364
 40
0.5179085730134372
 50
218.1204197971511
 51
321.8795802028566
 73
     1
 72
     2
 10
-214.4922092960001
 20
-249.721331756816
 40
0.7717997786796421
 50
321.8795802028467
 51
398.1204197971599
 73
     1
 72
     2
 10
-214.2924692596539
 20
-249.5646005786955
 40
0.5179085730135266
 50
38.12041979714334
 51
141.8795802028489
 73
     1
 97
        4
330
201
330
200
330
1FB
330
1FA
 75
     1
 76
     0
 52
45.0
 41
0.1
 77
     0
 78
     1
 53
45.0
 43
0.0
 44
0.0
 45
-0.0707106781186548
 46
0.0707106781186548
 79
     0
 98
        1
 10
0.0
 20
0.0
  0
HATCH
  5
249
330
74
100
AcDbEntity
  8
1
  6
Continuous
 62
     2
100
AcDbHatch
 10
0.0
 20
0.0
 30
0.0
210
0.0
220
0.0
230
1.0
  2
_USER
 70
     0
 71
     1
 91
        2
 92
        1
 93
        4
 72
     2
 10
-218.5343566322807
 20
-253.0805222329903
 40
1.458034083651503
 50
117.5481481756634
 51
242.4518518243366
 73
     1
 72
     2
 10
-218.2534167404474
 20
-252.541947222687
 40
2.065479772208497
 50
242.4518518243391
 51
297.5481481756875
 73
     1
 72
     2
 10
-217.9724768486141
 20
-253.0805222329903
 40
1.458034083652003
 50
297.548148175701
 51
422.451851824299
 73
     1
 72
     2
 10
-218.2534167404474
 20
-253.6190972432931
 40
2.065479772208593
 50
62.45185182430674
 51
117.5481481756667
 73
     1
 97
        4
330
1FF
330
1FC
330
1FE
330
1FD
 92
       16
 93
        4
 72
     2
 10
-218.2534167404474
 20
-252.9237910548698
 40
0.517908573013295
 50
38.12041979715146
 51
141.8795802028583
 73
     1
 72
     2
 10
-218.0536767041013
 20
-253.0805222329903
 40
0.7717997786794856
 50
141.8795802028376
 51
218.120419797169
 73
     1
 72
     2
 10
-218.2534167404474
 20
-253.2372534111103
 40
0.5179085730137754
 50
218.1204197971937
 51
321.8795802027966
 73
     1
 72
     2
 10
-218.4531567767938
 20
-253.0805222329903
 40
0.77179977867969
 50
321.8795802028388
 51
398.1204197971546
 73
     1
 97
        4
330
1E2
330
1E3
330
1E4
330
1E1
 75
     1
 76
     0
 52
45.0
 41
0.1
 77
     0
 78
     1
 53
45.0
 43
0.0
 44
0.0
 45
-0.0707106781186548
 46
0.0707106781186548
 79
     0
 98
        1
 10
0.0
 20
0.0
  0
HATCH
  5
24A
330
74
100
AcDbEntity
  8
1
  6
Continuous
 62
     2
100
AcDbHatch
 10
0.0
 20
0.0
 30
0.0
210
0.0
220
0.0
230
1.0
  2
_USER
 70
     0
 71
     1
 91
        2
 92
        1
 93
        4
 72
     2
 10
-218.5343566322807
 20
-253.0805222329903
 40
1.458034083651503
 50
117.5481481756634
 51
242.4518518243366
 73
     1
 72
     2
 10
-218.2534167404474
 20
-252.541947222687
 40
2.065479772208497
 50
242.4518518243391
 51
297.5481481756875
 73
     1
 72
     2
 10
-217.9724768486141
 20
-253.0805222329903
 40
1.458034083652003
 50
297.548148175701
 51
422.451851824299
 73
     1
 72
     2
 10
-218.2534167404474
 20
-253.6190972432931
 40
2.065479772208593
 50
62.45185182430674
 51
117.5481481756667
 73
     1
 97
        4
330
1FF
330
1FC
330
1FE
330
1FD
 92
       16
 93
        4
 72
     2
 10
-218.2534167404474
 20
-252.9237910548698
 40
0.517908573013295
 50
38.12041979715146
 51
141.8795802028583
 73
     1
 72
     2
 10
-218.0536767041013
 20
-253.0805222329903
 40
0.7717997786794856
 50
141.8795802028376
 51
218.120419797169
 73
     1
 72
     2
 10
-218.2534167404474
 20
-253.2372534111103
 40
0.5179085730137754
 50
218.1204197971937
 51
321.8795802027966
 73
     1
 72
     2
 10
-218.4531567767938
 20
-253.0805222329903
 40
0.77179977867969
 50
321.8795802028388
 51
398.1204197971546
 73
     1
 97
        4
330
1E2
330
1E3
330
1E4
330
1E1
 75
     1
 76
     0
 52
45.0
 41
0.1
 77
     0
 78
     1
 53
45.0
 43
0.0
 44
0.0
 45
-0.0707106781186548
 46
0.0707106781186548
 79
     0
 98
        1
 10
0.0
 20
0.0
  0
HATCH
  5
24B
330
74
100
AcDbEntity
  8
1
  6
Continuous
 62
     2
100
AcDbHatch
 10
0.0
 20
0.0
 30
0.0
210
0.0
220
0.0
230
1.0
  2
_USER
 70
     0
 71
     1
 91
        2
 92
        1
 93
        6
 72
     1
 10
-222.8092314868409
 20
-248.1944269949101
 11
-222.8092314868409
 21
-251.2482365187213
 72
     1
 10
-222.8092314868409
 20
-251.2482365187213
 11
-221.5687270765868
 21
-251.2482365187213
 72
     1
 10
-221.5687270765868
 20
-251.2482365187213
 11
-221.5687270765868
 21
-250.3051582775775
 72
     1
 10
-221.5687270765868
 20
-250.3051582775775
 11
-220.8099594888065
 21
-250.3051582775775
 72
     2
 10
-220.8099594888065
 20
-249.2497926362438
 40
1.055365641333708
 50
270.0
 51
450.0
 73
     1
 72
     1
 10
-220.8099594888065
 20
-248.1944269949101
 11
-222.8092314868409
 21
-248.1944269949101
 97
        6
330
209
330
166
330
15C
330
15B
330
168
330
167
 92
       16
 93
        4
 72
     1
 10
-221.2514320150449
 20
-248.8575328403502
 11
-221.5687270765868
 21
-248.8575328403502
 72
     1
 10
-221.5687270765868
 20
-248.8575328403502
 11
-221.5687270765868
 21
-249.5632604896924
 72
     1
 10
-221.5687270765868
 20
-249.5632604896924
 11
-221.2514320150449
 21
-249.5632604896924
 72
     2
 10
-221.2514320150449
 20
-249.2103966650213
 40
0.3528638246710898
 50
270.0
 51
450.0
 73
     1
 97
        4
330
169
330
15A
330
16A
330
1F5
 75
     1
 76
     0
 52
45.0
 41
0.1
 77
     0
 78
     1
 53
45.0
 43
0.0
 44
0.0
 45
-0.0707106781186548
 46
0.0707106781186548
 79
     0
 98
        1
 10
0.0
 20
0.0
  0
HATCH
  5
24C
330
74
100
AcDbEntity
  8
1
  6
Continuous
 62
     2
100
AcDbHatch
 10
0.0
 20
0.0
 30
0.0
210
0.0
220
0.0
230
1.0
  2
_USER
 70
     0
 71
     1
 91
        2
 92
        1
 93
        6
 72
     1
 10
-222.8092314868409
 20
-248.1944269949101
 11
-222.8092314868409
 21
-251.2482365187213
 72
     1
 10
-222.8092314868409
 20
-251.2482365187213
 11
-221.5687270765868
 21
-251.2482365187213
 72
     1
 10
-221.5687270765868
 20
-251.2482365187213
 11
-221.5687270765868
 21
-250.3051582775775
 72
     1
 10
-221.5687270765868
 20
-250.3051582775775
 11
-220.8099594888065
 21
-250.3051582775775
 72
     2
 10
-220.8099594888065
 20
-249.2497926362438
 40
1.055365641333708
 50
270.0
 51
450.0
 73
     1
 72
     1
 10
-220.8099594888065
 20
-248.1944269949101
 11
-222.8092314868409
 21
-248.1944269949101
 97
        6
330
209
330
166
330
15C
330
15B
330
168
330
167
 92
       16
 93
        4
 72
     1
 10
-221.2514320150449
 20
-248.8575328403502
 11
-221.5687270765868
 21
-248.8575328403502
 72
     1
 10
-221.5687270765868
 20
-248.8575328403502
 11
-221.5687270765868
 21
-249.5632604896924
 72
     1
 10
-221.5687270765868
 20
-249.5632604896924
 11
-221.2514320150449
 21
-249.5632604896924
 72
     2
 10
-221.2514320150449
 20
-249.2103966650213
 40
0.3528638246710898
 50
270.0
 51
450.0
 73
     1
 97
        4
330
169
330
15A
330
16A
330
1F5
 75
     1
 76
     0
 52
45.0
 41
0.1
 77
     0
 78
     1
 53
45.0
 43
0.0
 44
0.0
 45
-0.0707106781186548
 46
0.0707106781186548
 79
     0
 98
        1
 10
0.0
 20
0.0
  0
HATCH
  5
24D
330
74
100
AcDbEntity
  8
1
  6
Continuous
 62
     2
100
AcDbHatch
 10
0.0
 20
0.0
 30
0.0
210
0.0
220
0.0
230
1.0
  2
_USER
 70
     0
 71
     1
 91
        1
 92
        1
 93
       12
 72
     1
 10
-203.1949482924077
 20
-248.1944269949101
 11
-201.7922240746605
 21
-248.1944269949101
 72
     1
 10
-201.7922240746605
 20
-248.1944269949101
 11
-203.094753705427
 21
-249.6673775249463
 72
     1
 10
-203.094753705427
 20
-249.6673775249463
 11
-201.6968006584867
 21
-251.2482365187213
 72
     1
 10
-201.6968006584867
 20
-251.2482365187213
 11
-203.099524876235
 21
-251.2482365187213
 72
     1
 10
-203.099524876235
 20
-251.2482365187213
 11
-203.7961158143005
 21
-250.4605047334276
 72
     1
 10
-203.7961158143005
 20
-250.4605047334276
 11
-204.4927067523662
 21
-251.2482365187213
 72
     1
 10
-204.4927067523662
 20
-251.2482365187213
 11
-205.8954309701144
 21
-251.2482365187213
 72
     1
 10
-205.8954309701144
 20
-251.2482365187213
 11
-204.4974779231741
 21
-249.6673775249463
 72
     1
 10
-204.4974779231741
 20
-249.6673775249463
 11
-205.8000075539416
 21
-248.1944269949101
 72
     1
 10
-205.8000075539416
 20
-248.1944269949101
 11
-204.3972833361923
 21
-248.1944269949101
 72
     1
 10
-204.3972833361923
 20
-248.1944269949101
 11
-203.7961158143005
 21
-248.8742503164656
 72
     1
 10
-203.7961158143005
 20
-248.8742503164656
 11
-203.1949482924077
 21
-248.1944269949101
 97
       12
330
135
330
18E
330
18D
330
18C
330
18B
330
136
330
137
330
133
330
134
330
191
330
190
330
18F
 75
     1
 76
     0
 52
45.0
 41
0.1
 77
     0
 78
     1
 53
45.0
 43
0.0
 44
0.0
 45
-0.0707106781186548
 46
0.0707106781186548
 79
     0
 98
        1
 10
0.0
 20
0.0
  0
HATCH
  5
24E
330
74
100
AcDbEntity
  8
1
  6
Continuous
 62
     2
100
AcDbHatch
 10
0.0
 20
0.0
 30
0.0
210
0.0
220
0.0
230
1.0
  2
_USER
 70
     0
 71
     1
 91
        1
 92
        1
 93
       12
 72
     1
 10
-203.1949482924077
 20
-248.1944269949101
 11
-201.7922240746605
 21
-248.1944269949101
 72
     1
 10
-201.7922240746605
 20
-248.1944269949101
 11
-203.094753705427
 21
-249.6673775249463
 72
     1
 10
-203.094753705427
 20
-249.6673775249463
 11
-201.6968006584867
 21
-251.2482365187213
 72
     1
 10
-201.6968006584867
 20
-251.2482365187213
 11
-203.099524876235
 21
-251.2482365187213
 72
     1
 10
-203.099524876235
 20
-251.2482365187213
 11
-203.7961158143005
 21
-250.4605047334276
 72
     1
 10
-203.7961158143005
 20
-250.4605047334276
 11
-204.4927067523662
 21
-251.2482365187213
 72
     1
 10
-204.4927067523662
 20
-251.2482365187213
 11
-205.8954309701144
 21
-251.2482365187213
 72
     1
 10
-205.8954309701144
 20
-251.2482365187213
 11
-204.4974779231741
 21
-249.6673775249463
 72
     1
 10
-204.4974779231741
 20
-249.6673775249463
 11
-205.8000075539416
 21
-248.1944269949101
 72
     1
 10
-205.8000075539416
 20
-248.1944269949101
 11
-204.3972833361923
 21
-248.1944269949101
 72
     1
 10
-204.3972833361923
 20
-248.1944269949101
 11
-203.7961158143005
 21
-248.8742503164656
 72
     1
 10
-203.7961158143005
 20
-248.8742503164656
 11
-203.1949482924077
 21
-248.1944269949101
 97
       12
330
135
330
18E
330
18D
330
18C
330
18B
330
136
330
137
330
133
330
134
330
191
330
190
330
18F
 75
     1
 76
     0
 52
45.0
 41
0.1
 77
     0
 78
     1
 53
45.0
 43
0.0
 44
0.0
 45
-0.0707106781186548
 46
0.0707106781186548
 79
     0
 98
        1
 10
0.0
 20
0.0
  0
HATCH
  5
24F
330
74
100
AcDbEntity
  8
1
  6
Continuous
 62
     2
100
AcDbHatch
 10
0.0
 20
0.0
 30
0.0
210
0.0
220
0.0
230
1.0
  2
_USER
 70
     0
 71
     1
 91
        1
 92
        1
 93
        4
 72
     1
 10
-206.0147102403313
 20
-248.1944269949101
 11
-206.0147102403313
 21
-251.2482365187213
 72
     1
 10
-206.0147102403313
 20
-251.2482365187213
 11
-207.2552146505842
 21
-251.2482365187213
 72
     1
 10
-207.2552146505842
 20
-251.2482365187213
 11
-207.2552146505842
 21
-248.1944269949101
 72
     1
 10
-207.2552146505842
 20
-248.1944269949101
 11
-206.0147102403313
 21
-248.1944269949101
 97
        4
330
189
330
138
330
188
330
18A
 75
     1
 76
     0
 52
45.0
 41
0.1
 77
     0
 78
     1
 53
45.0
 43
0.0
 44
0.0
 45
-0.0707106781186548
 46
0.0707106781186548
 79
     0
 98
        1
 10
0.0
 20
0.0
  0
HATCH
  5
250
330
74
100
AcDbEntity
  8
1
  6
Continuous
 62
     2
100
AcDbHatch
 10
0.0
 20
0.0
 30
0.0
210
0.0
220
0.0
230
1.0
  2
_USER
 70
     0
 71
     1
 91
        1
 92
        1
 93
        4
 72
     1
 10
-206.0147102403313
 20
-248.1944269949101
 11
-206.0147102403313
 21
-251.2482365187213
 72
     1
 10
-206.0147102403313
 20
-251.2482365187213
 11
-207.2552146505842
 21
-251.2482365187213
 72
     1
 10
-207.2552146505842
 20
-251.2482365187213
 11
-207.2552146505842
 21
-248.1944269949101
 72
     1
 10
-207.2552146505842
 20
-248.1944269949101
 11
-206.0147102403313
 21
-248.1944269949101
 97
        4
330
189
330
138
330
188
330
18A
 75
     1
 76
     0
 52
45.0
 41
0.1
 77
     0
 78
     1
 53
45.0
 43
0.0
 44
0.0
 45
-0.0707106781186548
 46
0.0707106781186548
 79
     0
 98
        1
 10
0.0
 20
0.0
  0
HATCH
  5
251
330
74
100
AcDbEntity
  8
1
  6
Continuous
 62
     2
100
AcDbHatch
 10
0.0
 20
0.0
 30
0.0
210
0.0
220
0.0
230
1.0
  2
_USER
 70
     0
 71
     1
 91
        2
 92
        1
 93
        8
 72
     1
 10
-206.4051542438633
 20
-254.6074269948956
 11
-207.6456586541172
 21
-254.6074269948956
 72
     1
 10
-207.6456586541172
 20
-254.6074269948956
 11
-207.857138707593
 21
-254.0664664506777
 72
     1
 10
-207.857138707593
 20
-254.0664664506777
 11
-208.9895802842668
 21
-254.0664664506777
 72
     1
 10
-208.9895802842668
 20
-254.0664664506777
 11
-209.2010603377426
 21
-254.6074269948956
 72
     1
 10
-209.2010603377426
 20
-254.6074269948956
 11
-210.4415647479956
 21
-254.6074269948956
 72
     1
 10
-210.4415647479956
 20
-254.6074269948956
 11
-209.0436117010563
 21
-251.5536174710845
 72
     1
 10
-209.0436117010563
 20
-251.5536174710845
 11
-207.8031072908036
 21
-251.5536174710845
 72
     1
 10
-207.8031072908036
 20
-251.5536174710845
 11
-206.4051542438633
 21
-254.6074269948956
 97
        8
330
184
330
13E
330
183
330
186
330
13B
330
185
330
13C
330
13D
 92
       16
 93
        3
 72
     1
 10
-208.7235247331218
 20
-253.3859031853711
 11
-208.1231942587393
 21
-253.3859031853711
 72
     1
 10
-208.1231942587393
 20
-253.3859031853711
 11
-208.4233594959294
 21
-252.6180882193844
 72
     1
 10
-208.4233594959294
 20
-252.6180882193844
 11
-208.7235247331218
 21
-253.3859031853711
 97
        3
330
13A
330
139
330
187
 75
     1
 76
     0
 52
45.0
 41
0.1
 77
     0
 78
     1
 53
45.0
 43
0.0
 44
0.0
 45
-0.0707106781186548
 46
0.0707106781186548
 79
     0
 98
        1
 10
0.0
 20
0.0
  0
HATCH
  5
252
330
74
100
AcDbEntity
  8
1
  6
Continuous
 62
     2
100
AcDbHatch
 10
0.0
 20
0.0
 30
0.0
210
0.0
220
0.0
230
1.0
  2
_USER
 70
     0
 71
     1
 91
        2
 92
        1
 93
        8
 72
     1
 10
-206.4051542438633
 20
-254.6074269948956
 11
-207.6456586541172
 21
-254.6074269948956
 72
     1
 10
-207.6456586541172
 20
-254.6074269948956
 11
-207.857138707593
 21
-254.0664664506777
 72
     1
 10
-207.857138707593
 20
-254.0664664506777
 11
-208.9895802842668
 21
-254.0664664506777
 72
     1
 10
-208.9895802842668
 20
-254.0664664506777
 11
-209.2010603377426
 21
-254.6074269948956
 72
     1
 10
-209.2010603377426
 20
-254.6074269948956
 11
-210.4415647479956
 21
-254.6074269948956
 72
     1
 10
-210.4415647479956
 20
-254.6074269948956
 11
-209.0436117010563
 21
-251.5536174710845
 72
     1
 10
-209.0436117010563
 20
-251.5536174710845
 11
-207.8031072908036
 21
-251.5536174710845
 72
     1
 10
-207.8031072908036
 20
-251.5536174710845
 11
-206.4051542438633
 21
-254.6074269948956
 97
        8
330
184
330
13E
330
183
330
186
330
13B
330
185
330
13C
330
13D
 92
       16
 93
        3
 72
     1
 10
-208.7235247331218
 20
-253.3859031853711
 11
-208.1231942587393
 21
-253.3859031853711
 72
     1
 10
-208.1231942587393
 20
-253.3859031853711
 11
-208.4233594959294
 21
-252.6180882193844
 72
     1
 10
-208.4233594959294
 20
-252.6180882193844
 11
-208.7235247331218
 21
-253.3859031853711
 97
        3
330
13A
330
139
330
187
 75
     1
 76
     0
 52
45.0
 41
0.1
 77
     0
 78
     1
 53
45.0
 43
0.0
 44
0.0
 45
-0.0707106781186548
 46
0.0707106781186548
 79
     0
 98
        1
 10
0.0
 20
0.0
  0
HATCH
  5
253
330
74
100
AcDbEntity
  8
1
  6
Continuous
 62
     2
100
AcDbHatch
 10
0.0
 20
0.0
 30
0.0
210
0.0
220
0.0
230
1.0
  2
_USER
 70
     0
 71
     1
 91
        1
 92
        1
 93
        8
 72
     1
 10
-212.5990768871778
 20
-251.5536174710845
 11
-212.5990768871778
 21
-252.3388827772081
 72
     1
 10
-212.5990768871778
 20
-252.3388827772081
 11
-211.7879778497032
 21
-252.3388827772081
 72
     1
 10
-211.7879778497032
 20
-252.3388827772081
 11
-211.7879778497032
 21
-254.6074269948956
 72
     1
 10
-211.7879778497032
 20
-254.6074269948956
 11
-210.5951851475367
 21
-254.6074269948956
 72
     1
 10
-210.5951851475367
 20
-254.6074269948956
 11
-210.5951851475367
 21
-252.3388827772081
 72
     1
 10
-210.5951851475367
 20
-252.3388827772081
 11
-209.7840861100642
 21
-252.3388827772081
 72
     1
 10
-209.7840861100642
 20
-252.3388827772081
 11
-209.7840861100642
 21
-251.5536174710845
 72
     1
 10
-209.7840861100642
 20
-251.5536174710845
 11
-212.5990768871778
 21
-251.5536174710845
 97
        8
330
180
330
17F
330
17E
330
13F
330
140
330
182
330
141
330
181
 75
     1
 76
     0
 52
45.0
 41
0.1
 77
     0
 78
     1
 53
45.0
 43
0.0
 44
0.0
 45
-0.0707106781186548
 46
0.0707106781186548
 79
     0
 98
        1
 10
0.0
 20
0.0
  0
HATCH
  5
254
330
74
100
AcDbEntity
  8
1
  6
Continuous
 62
     2
100
AcDbHatch
 10
0.0
 20
0.0
 30
0.0
210
0.0
220
0.0
230
1.0
  2
_USER
 70
     0
 71
     1
 91
        1
 92
        1
 93
        8
 72
     1
 10
-212.5990768871778
 20
-251.5536174710845
 11
-212.5990768871778
 21
-252.3388827772081
 72
     1
 10
-212.5990768871778
 20
-252.3388827772081
 11
-211.7879778497032
 21
-252.3388827772081
 72
     1
 10
-211.7879778497032
 20
-252.3388827772081
 11
-211.7879778497032
 21
-254.6074269948956
 72
     1
 10
-211.7879778497032
 20
-254.6074269948956
 11
-210.5951851475367
 21
-254.6074269948956
 72
     1
 10
-210.5951851475367
 20
-254.6074269948956
 11
-210.5951851475367
 21
-252.3388827772081
 72
     1
 10
-210.5951851475367
 20
-252.3388827772081
 11
-209.7840861100642
 21
-252.3388827772081
 72
     1
 10
-209.7840861100642
 20
-252.3388827772081
 11
-209.7840861100642
 21
-251.5536174710845
 72
     1
 10
-209.7840861100642
 20
-251.5536174710845
 11
-212.5990768871778
 21
-251.5536174710845
 97
        8
330
180
330
17F
330
17E
330
13F
330
140
330
182
330
141
330
181
 75
     1
 76
     0
 52
45.0
 41
0.1
 77
     0
 78
     1
 53
45.0
 43
0.0
 44
0.0
 45
-0.0707106781186548
 46
0.0707106781186548
 79
     0
 98
        1
 10
0.0
 20
0.0
  0
HATCH
  5
255
330
74
100
AcDbEntity
  8
1
  6
Continuous
 62
     2
100
AcDbHatch
 10
0.0
 20
0.0
 30
0.0
210
0.0
220
0.0
230
1.0
  2
_USER
 70
     0
 71
     1
 91
        1
 92
        1
 93
       10
 72
     1
 10
-209.9270703034387
 20
-248.1944269949101
 11
-211.1198630056052
 21
-248.1944269949101
 72
     1
 10
-211.1198630056052
 20
-248.1944269949101
 11
-211.1198630056052
 21
-251.2482365187213
 72
     1
 10
-211.1198630056052
 20
-251.2482365187213
 11
-209.9270703034387
 21
-251.2482365187213
 72
     1
 10
-209.9270703034387
 20
-251.2482365187213
 11
-209.9270703034387
 21
-249.9394610085166
 72
     1
 10
-209.9270703034387
 20
-249.9394610085166
 11
-208.6865658931847
 21
-251.2482365187213
 72
     1
 10
-208.6865658931847
 20
-251.2482365187213
 11
-207.4937731910181
 21
-251.2482365187213
 72
     1
 10
-207.4937731910181
 20
-251.2482365187213
 11
-207.4937731910181
 21
-248.1944269949101
 72
     1
 10
-207.4937731910181
 20
-248.1944269949101
 11
-208.6865658931847
 21
-248.1944269949101
 72
     1
 10
-208.6865658931847
 20
-248.1944269949101
 11
-208.6865658931847
 21
-249.5032025051153
 72
     1
 10
-208.6865658931847
 20
-249.5032025051153
 11
-209.9270703034387
 21
-248.1944269949101
 97
       10
330
17A
330
144
330
145
330
146
330
147
330
17D
330
142
330
17C
330
17B
330
143
 75
     1
 76
     0
 52
45.0
 41
0.1
 77
     0
 78
     1
 53
45.0
 43
0.0
 44
0.0
 45
-0.0707106781186548
 46
0.0707106781186548
 79
     0
 98
        1
 10
0.0
 20
0.0
  0
HATCH
  5
256
330
74
100
AcDbEntity
  8
1
  6
Continuous
 62
     2
100
AcDbHatch
 10
0.0
 20
0.0
 30
0.0
210
0.0
220
0.0
230
1.0
  2
_USER
 70
     0
 71
     1
 91
        1
 92
        1
 93
       10
 72
     1
 10
-209.9270703034387
 20
-248.1944269949101
 11
-211.1198630056052
 21
-248.1944269949101
 72
     1
 10
-211.1198630056052
 20
-248.1944269949101
 11
-211.1198630056052
 21
-251.2482365187213
 72
     1
 10
-211.1198630056052
 20
-251.2482365187213
 11
-209.9270703034387
 21
-251.2482365187213
 72
     1
 10
-209.9270703034387
 20
-251.2482365187213
 11
-209.9270703034387
 21
-249.9394610085166
 72
     1
 10
-209.9270703034387
 20
-249.9394610085166
 11
-208.6865658931847
 21
-251.2482365187213
 72
     1
 10
-208.6865658931847
 20
-251.2482365187213
 11
-207.4937731910181
 21
-251.2482365187213
 72
     1
 10
-207.4937731910181
 20
-251.2482365187213
 11
-207.4937731910181
 21
-248.1944269949101
 72
     1
 10
-207.4937731910181
 20
-248.1944269949101
 11
-208.6865658931847
 21
-248.1944269949101
 72
     1
 10
-208.6865658931847
 20
-248.1944269949101
 11
-208.6865658931847
 21
-249.5032025051153
 72
     1
 10
-208.6865658931847
 20
-249.5032025051153
 11
-209.9270703034387
 21
-248.1944269949101
 97
       10
330
17A
330
144
330
145
330
146
330
147
330
17D
330
142
330
17C
330
17B
330
143
 75
     1
 76
     0
 52
45.0
 41
0.1
 77
     0
 78
     1
 53
45.0
 43
0.0
 44
0.0
 45
-0.0707106781186548
 46
0.0707106781186548
 79
     0
 98
        1
 10
0.0
 20
0.0
  0
HATCH
  5
257
330
74
100
AcDbEntity
  8
1
  6
Continuous
 62
     2
100
AcDbHatch
 10
0.0
 20
0.0
 30
0.0
210
0.0
220
0.0
230
1.0
  2
_USER
 70
     0
 71
     1
 91
        1
 92
        1
 93
       10
 72
     1
 10
-215.1755091238573
 20
-251.5536174710845
 11
-216.3683018260249
 21
-251.5536174710845
 72
     1
 10
-216.3683018260249
 20
-251.5536174710845
 11
-216.3683018260249
 21
-254.6074269948956
 72
     1
 10
-216.3683018260249
 20
-254.6074269948956
 11
-215.1755091238573
 21
-254.6074269948956
 72
     1
 10
-215.1755091238573
 20
-254.6074269948956
 11
-215.1755091238573
 21
-253.298651484691
 72
     1
 10
-215.1755091238573
 20
-253.298651484691
 11
-213.9350047136044
 21
-254.6074269948956
 72
     1
 10
-213.9350047136044
 20
-254.6074269948956
 11
-212.742212011438
 21
-254.6074269948956
 72
     1
 10
-212.742212011438
 20
-254.6074269948956
 11
-212.742212011438
 21
-251.5536174710845
 72
     1
 10
-212.742212011438
 20
-251.5536174710845
 11
-213.9350047136044
 21
-251.5536174710845
 72
     1
 10
-213.9350047136044
 20
-251.5536174710845
 11
-213.9350047136044
 21
-252.8623929812896
 72
     1
 10
-213.9350047136044
 20
-252.8623929812896
 11
-215.1755091238573
 21
-251.5536174710845
 97
       10
330
149
330
14A
330
14B
330
177
330
14C
330
14D
330
176
330
179
330
178
330
148
 75
     1
 76
     0
 52
45.0
 41
0.1
 77
     0
 78
     1
 53
45.0
 43
0.0
 44
0.0
 45
-0.0707106781186548
 46
0.0707106781186548
 79
     0
 98
        1
 10
0.0
 20
0.0
  0
HATCH
  5
258
330
74
100
AcDbEntity
  8
1
  6
Continuous
 62
     2
100
AcDbHatch
 10
0.0
 20
0.0
 30
0.0
210
0.0
220
0.0
230
1.0
  2
_USER
 70
     0
 71
     1
 91
        1
 92
        1
 93
       10
 72
     1
 10
-215.1755091238573
 20
-251.5536174710845
 11
-216.3683018260249
 21
-251.5536174710845
 72
     1
 10
-216.3683018260249
 20
-251.5536174710845
 11
-216.3683018260249
 21
-254.6074269948956
 72
     1
 10
-216.3683018260249
 20
-254.6074269948956
 11
-215.1755091238573
 21
-254.6074269948956
 72
     1
 10
-215.1755091238573
 20
-254.6074269948956
 11
-215.1755091238573
 21
-253.298651484691
 72
     1
 10
-215.1755091238573
 20
-253.298651484691
 11
-213.9350047136044
 21
-254.6074269948956
 72
     1
 10
-213.9350047136044
 20
-254.6074269948956
 11
-212.742212011438
 21
-254.6074269948956
 72
     1
 10
-212.742212011438
 20
-254.6074269948956
 11
-212.742212011438
 21
-251.5536174710845
 72
     1
 10
-212.742212011438
 20
-251.5536174710845
 11
-213.9350047136044
 21
-251.5536174710845
 72
     1
 10
-213.9350047136044
 20
-251.5536174710845
 11
-213.9350047136044
 21
-252.8623929812896
 72
     1
 10
-213.9350047136044
 20
-252.8623929812896
 11
-215.1755091238573
 21
-251.5536174710845
 97
       10
330
149
330
14A
330
14B
330
177
330
14C
330
14D
330
176
330
179
330
178
330
148
 75
     1
 76
     0
 52
45.0
 41
0.1
 77
     0
 78
     1
 53
45.0
 43
0.0
 44
0.0
 45
-0.0707106781186548
 46
0.0707106781186548
 79
     0
 98
        1
 10
0.0
 20
0.0
  0
HATCH
  5
259
330
74
100
AcDbEntity
  8
1
  6
Continuous
 62
     2
100
AcDbHatch
 10
0.0
 20
0.0
 30
0.0
210
0.0
220
0.0
230
1.0
  2
_USER
 70
     0
 71
     1
 91
        1
 92
        1
 93
       12
 72
     1
 10
-216.1773040627927
 20
-248.1944269949101
 11
-216.1773040627927
 21
-251.2482365187213
 72
     1
 10
-216.1773040627927
 20
-251.2482365187213
 11
-217.3700967649591
 21
-251.2482365187213
 72
     1
 10
-217.3700967649591
 20
-251.2482365187213
 11
-217.3700967649591
 21
-250.1139644098775
 72
     1
 10
-217.3700967649591
 20
-250.1139644098775
 11
-218.4197543428666
 21
-250.1139644098775
 72
     1
 10
-218.4197543428666
 20
-250.1139644098775
 11
-218.4197543428666
 21
-251.2482365187213
 72
     1
 10
-218.4197543428666
 20
-251.2482365187213
 11
-219.6125470450332
 21
-251.2482365187213
 72
     1
 10
-219.6125470450332
 20
-251.2482365187213
 11
-219.6125470450332
 21
-248.1944269949101
 72
     1
 10
-219.6125470450332
 20
-248.1944269949101
 11
-218.4197543428666
 21
-248.1944269949101
 72
     1
 10
-218.4197543428666
 20
-248.1944269949101
 11
-218.4197543428666
 21
-249.2632603282447
 72
     1
 10
-218.4197543428666
 20
-249.2632603282447
 11
-217.3700967649591
 21
-249.2632603282447
 72
     1
 10
-217.3700967649591
 20
-249.2632603282447
 11
-217.3700967649591
 21
-248.1944269949101
 72
     1
 10
-217.3700967649591
 20
-248.1944269949101
 11
-216.1773040627927
 21
-248.1944269949101
 97
       12
330
171
330
170
330
16F
330
157
330
158
330
16E
330
159
330
16D
330
16C
330
16B
330
155
330
156
 75
     1
 76
     0
 52
45.0
 41
0.1
 77
     0
 78
     1
 53
45.0
 43
0.0
 44
0.0
 45
-0.0707106781186548
 46
0.0707106781186548
 79
     0
 98
        1
 10
0.0
 20
0.0
  0
HATCH
  5
25A
330
74
100
AcDbEntity
  8
1
  6
Continuous
 62
     2
100
AcDbHatch
 10
0.0
 20
0.0
 30
0.0
210
0.0
220
0.0
230
1.0
  2
_USER
 70
     0
 71
     1
 91
        1
 92
        1
 93
       12
 72
     1
 10
-216.1773040627927
 20
-248.1944269949101
 11
-216.1773040627927
 21
-251.2482365187213
 72
     1
 10
-216.1773040627927
 20
-251.2482365187213
 11
-217.3700967649591
 21
-251.2482365187213
 72
     1
 10
-217.3700967649591
 20
-251.2482365187213
 11
-217.3700967649591
 21
-250.1139644098775
 72
     1
 10
-217.3700967649591
 20
-250.1139644098775
 11
-218.4197543428666
 21
-250.1139644098775
 72
     1
 10
-218.4197543428666
 20
-250.1139644098775
 11
-218.4197543428666
 21
-251.2482365187213
 72
     1
 10
-218.4197543428666
 20
-251.2482365187213
 11
-219.6125470450332
 21
-251.2482365187213
 72
     1
 10
-219.6125470450332
 20
-251.2482365187213
 11
-219.6125470450332
 21
-248.1944269949101
 72
     1
 10
-219.6125470450332
 20
-248.1944269949101
 11
-218.4197543428666
 21
-248.1944269949101
 72
     1
 10
-218.4197543428666
 20
-248.1944269949101
 11
-218.4197543428666
 21
-249.2632603282447
 72
     1
 10
-218.4197543428666
 20
-249.2632603282447
 11
-217.3700967649591
 21
-249.2632603282447
 72
     1
 10
-217.3700967649591
 20
-249.2632603282447
 11
-217.3700967649591
 21
-248.1944269949101
 72
     1
 10
-217.3700967649591
 20
-248.1944269949101
 11
-216.1773040627927
 21
-248.1944269949101
 97
       12
330
171
330
170
330
16F
330
157
330
158
330
16E
330
159
330
16D
330
16C
330
16B
330
155
330
156
 75
     1
 76
     0
 52
45.0
 41
0.1
 77
     0
 78
     1
 53
45.0
 43
0.0
 44
0.0
 45
-0.0707106781186548
 46
0.0707106781186548
 79
     0
 98
        1
 10
0.0
 20
0.0
  0
ENDBLK
  5
76
330
74
100
AcDbEntity
  8
0
100
AcDbBlockEnd
  0
BLOCK
  5
7A
330
77
100
AcDbEntity
  8
0
100
AcDbBlockBegin
  2
A4I_CS
 70
     0
 10
-104.3000002490038
 20
-266.900926994912
 30
0.0
  3
A4I_CS
  1

  0
INSERT
  5
78
330
77
100
AcDbEntity
  8
1
100
AcDbBlockReference
  2
_punkt
 10
-104.3000002490038
 20
-261.9009269949119
 30
0.0
  0
INSERT
  5
79
330
77
100
AcDbEntity
  8
1
100
AcDbBlockReference
  2
_rahmen
 10
-104.3000002490038
 20
-266.900926994912
 30
0.0
  0
ENDBLK
  5
7B
330
77
100
AcDbEntity
  8
0
100
AcDbBlockEnd
  0
BLOCK
  5
C2
330
BB
100
AcDbEntity
  8
0
100
AcDbBlockBegin
  2
*D16
 70
     1
 10
0.0
 20
0.0
 30
0.0
  3
*D16
  1

  0
LINE
  5
BC
330
BB
100
AcDbEntity
  8
1
  6
Continuous
 62
     2
100
AcDbLine
 10
-157.9000002592752
 20
-83.10000017596565
 30
0.0
 11
-157.9000002592752
 21
-90.50000017596565
 31
0.0
  0
LINE
  5
BD
330
BB
100
AcDbEntity
  8
1
  6
Continuous
 62
     2
100
AcDbLine
 10
-152.9000002592752
 20
-83.10000017596565
 30
0.0
 11
-158.6500002592752
 21
-83.10000017596565
 31
0.0
  0
LINE
  5
BE
330
BB
100
AcDbEntity
  8
1
  6
Continuous
 62
     2
100
AcDbLine
 10
-152.9000002592752
 20
-90.50000017596565
 30
0.0
 11
-158.6500002592752
 21
-90.50000017596565
 31
0.0
  0
SOLID
  5
BF
330
BB
100
AcDbEntity
  8
1
 62
     2
100
AcDbTrace
 10
-157.6696083884973
 20
-84.85000017596565
 30
0.0
 11
-158.1303921300531
 21
-84.85000017596565
 31
0.0
 12
-157.9000002592752
 22
-83.10000017596565
 32
0.0
 13
-157.9000002592752
 23
-83.10000017596565
 33
0.0
  0
SOLID
  5
C0
330
BB
100
AcDbEntity
  8
1
 62
     2
100
AcDbTrace
 10
-158.1303921300531
 20
-88.75000017596565
 30
0.0
 11
-157.6696083884973
 21
-88.75000017596565
 31
0.0
 12
-157.9000002592752
 22
-90.50000017596565
 32
0.0
 13
-157.9000002592752
 23
-90.50000017596565
 33
0.0
  0
MTEXT
  5
C1
330
BB
100
AcDbEntity
  8
1
 62
     3
100
AcDbMText
 10
-158.8250002592752
 20
-88.41875017596564
 30
0.0
 40
1.75
 41
0.0
 71
     7
 72
     1
  1
7,4
  7
CONVERTER_11
 11
0.0
 21
1.0
 31
0.0
 73
     1
 44
0.60024009603842
  0
ENDBLK
  5
C3
330
BB
100
AcDbEntity
  8
0
100
AcDbBlockEnd
  0
BLOCK
  5
113
330
10C
100
AcDbEntity
  8
0
100
AcDbBlockBegin
  2
*D17
 70
     1
 10
0.0
 20
0.0
 30
0.0
  3
*D17
  1

  0
LINE
  5
10D
330
10C
100
AcDbEntity
  8
1
  6
Continuous
 62
     2
100
AcDbLine
 10
-152.8999999999949
 20
-73.09999975105477
 30
0.0
 11
-129.8999999999949
 21
-73.09999975105477
 31
0.0
  0
LINE
  5
10E
330
10C
100
AcDbEntity
  8
1
  6
Continuous
 62
     2
100
AcDbLine
 10
-152.8999999999949
 20
-68.09999975105477
 30
0.0
 11
-152.8999999999949
 21
-73.84999975105477
 31
0.0
  0
LINE
  5
10F
330
10C
100
AcDbEntity
  8
1
  6
Continuous
 62
     2
100
AcDbLine
 10
-129.8999999999949
 20
-68.09999975105477
 30
0.0
 11
-129.8999999999949
 21
-73.84999975105477
 31
0.0
  0
SOLID
  5
110
330
10C
100
AcDbEntity
  8
1
 62
     2
100
AcDbTrace
 10
-151.1499999999949
 20
-72.86960788027683
 30
0.0
 11
-151.1499999999949
 21
-73.3303916218327
 31
0.0
 12
-152.8999999999949
 22
-73.09999975105477
 32
0.0
 13
-152.8999999999949
 23
-73.09999975105477
 33
0.0
  0
SOLID
  5
111
330
10C
100
AcDbEntity
  8
1
 62
     2
100
AcDbTrace
 10
-131.6499999999949
 20
-73.3303916218327
 30
0.0
 11
-131.6499999999949
 21
-72.86960788027683
 31
0.0
 12
-129.8999999999949
 22
-73.09999975105477
 32
0.0
 13
-129.8999999999949
 23
-73.09999975105477
 33
0.0
  0
MTEXT
  5
112
330
10C
100
AcDbEntity
  8
1
 62
     3
100
AcDbMText
 10
-142.7124999999949
 20
-72.34999975105477
 30
0.0
 40
1.75
 41
0.0
 71
     7
 72
     1
  1
23
  7
CONVERTER_11
 11
0.9999999999970619
 21
2.424068405545306E-6
 31
0.0
 73
     1
 44
0.60024009603842
  0
ENDBLK
  5
114
330
10C
100
AcDbEntity
  8
0
100
AcDbBlockEnd
  0
BLOCK
  5
11E
330
117
100
AcDbEntity
  8
0
100
AcDbBlockBegin
  2
*D18
 70
     1
 10
0.0
 20
0.0
 30
0.0
  3
*D18
  1

  0
LINE
  5
118
330
117
100
AcDbEntity
  8
1
  6
Continuous
 62
     2
100
AcDbLine
 10
-157.8999999999949
 20
-68.09999975105477
 30
0.0
 11
-157.8999999999949
 21
-53.89999975105476
 31
0.0
  0
LINE
  5
119
330
117
100
AcDbEntity
  8
1
  6
Continuous
 62
     2
100
AcDbLine
 10
-152.8999999999949
 20
-68.09999975105477
 30
0.0
 11
-158.6499999999949
 21
-68.09999975105477
 31
0.0
  0
LINE
  5
11A
330
117
100
AcDbEntity
  8
1
  6
Continuous
 62
     2
100
AcDbLine
 10
-152.8999999999949
 20
-53.89999975105476
 30
0.0
 11
-158.6499999999949
 21
-53.89999975105476
 31
0.0
  0
SOLID
  5
11B
330
117
100
AcDbEntity
  8
1
 62
     2
100
AcDbTrace
 10
-158.1303918707728
 20
-66.34999975105477
 30
0.0
 11
-157.669608129217
 21
-66.34999975105477
 31
0.0
 12
-157.8999999999949
 22
-68.09999975105477
 32
0.0
 13
-157.8999999999949
 23
-68.09999975105477
 33
0.0
  0
SOLID
  5
11C
330
117
100
AcDbEntity
  8
1
 62
     2
100
AcDbTrace
 10
-157.669608129217
 20
-55.64999975105476
 30
0.0
 11
-158.1303918707728
 21
-55.64999975105476
 31
0.0
 12
-157.8999999999949
 22
-53.89999975105476
 32
0.0
 13
-157.8999999999949
 23
-53.89999975105476
 33
0.0
  0
MTEXT
  5
11D
330
117
100
AcDbEntity
  8
1
 62
     3
100
AcDbMText
 10
-158.8249999999949
 20
-63.3272794062175
 30
0.0
 40
1.75
 41
0.0
 71
     7
 72
     1
  1
14,2
  7
CONVERTER_11
 11
0.0
 21
1.0
 31
0.0
 73
     1
 44
0.60024009603842
  0
ENDBLK
  5
11F
330
117
100
AcDbEntity
  8
0
100
AcDbBlockEnd
  0
ENDSEC
  0
SECTION
  2
ENTITIES
  0
INSERT
  5
7C
330
1F
100
AcDbEntity
  8
0
100
AcDbBlockReference
  2
Allg1
 10
-153.9999999999919
 20
-194.000000000002
 30
0.0
 41
2.0
 42
2.0
 43
2.0
  0
INSERT
  5
7D
330
1F
100
AcDbEntity
  8
0
100
AcDbBlockReference
  2
Drfsicht1
 10
-282.8000005185604
 20
-173.6000005453825
 30
0.0
 41
2.0
 42
2.0
 43
2.0
  0
INSERT
  5
7E
330
1F
100
AcDbEntity
  8
0
100
AcDbBlockReference
  2
Rckans1
 10
-168.000000000025
 20
-122.0000000000001
 30
0.0
 41
2.0
 42
2.0
 43
2.0
  0
INSERT
  5
7F
330
1F
100
AcDbEntity
  8
0
100
AcDbBlockReference
  2
SA_Links1
 10
-225.4000002592804
 20
-122.0
 30
0.0
 41
2.0
 42
2.0
 43
2.0
  0
INSERT
  5
80
330
1F
100
AcDbEntity
  8
0
100
AcDbBlockReference
  2
SA_Rechts1
 10
-350.200000691424
 20
-122.0000000000001
 30
0.0
 41
2.0
 42
2.0
 43
2.0
  0
INSERT
  5
81
330
1F
100
AcDbEntity
  8
0
100
AcDbBlockReference
  2
Vordans1
 10
-282.7999999999998
 20
-122.0000000000001
 30
0.0
 41
2.0
 42
2.0
 43
2.0
  0
INSERT
  5
82
330
1F
100
AcDbEntity
  8
0
100
AcDbBlockReference
  2
A4I_CS
 10
-104.3000002490038
 20
-266.900926994912
 30
0.0
  0
ENDSEC
  0
SECTION
  2
OBJECTS
  0
DICTIONARY
  5
C
330
0
100
AcDbDictionary
281
     1
  3
ACAD_GROUP
350
D
  3
ACAD_LAYOUT
350
1A
  3
ACAD_MATERIAL
350
3B
  3
ACAD_MLEADERSTYLE
350
25D
  3
ACAD_MLINESTYLE
350
17
  3
ACAD_PLOTSETTINGS
350
19
  3
ACAD_PLOTSTYLENAME
350
E
  3
ACAD_VISUALSTYLE
350
2A
  3
AcDbVariableDictionary
350
25B
  0
DICTIONARY
  5
D
102
{ACAD_REACTORS
330
C
102
}
330
C
100
AcDbDictionary
281
     1
  0
DICTIONARY
  5
1A
102
{ACAD_REACTORS
330
C
102
}
330
C
100
AcDbDictionary
281
     1
  3
Layout1
350
1E
  3
Layout2
350
26
  3
Model
350
22
  0
DICTIONARY
  5
3B
102
{ACAD_REACTORS
330
C
102
}
330
C
100
AcDbDictionary
281
     1
  3
ByBlock
350
3D
  3
ByLayer
350
3C
  3
Global
350
3E
  0
DICTIONARY
  5
25D
102
{ACAD_REACTORS
330
C
102
}
330
C
100
AcDbDictionary
281
     1
  0
DICTIONARY
  5
17
102
{ACAD_REACTORS
330
C
102
}
330
C
100
AcDbDictionary
281
     1
  3
Standard
350
18
  0
DICTIONARY
  5
19
102
{ACAD_REACTORS
330
C
102
}
330
C
100
AcDbDictionary
281
     1
  0
ACDBDICTIONARYWDFLT
  5
E
102
{ACAD_REACTORS
330
C
102
}
330
C
100
AcDbDictionary
281
     1
  3
Normal
350
F
100
AcDbDictionaryWithDefault
340
F
  0
DICTIONARY
  5
2A
102
{ACAD_REACTORS
330
C
102
}
330
C
100
AcDbDictionary
281
     1
  3
2dWireframe
350
2F
  3
3D Hidden
350
31
  3
3dWireframe
350
30
  3
Basic
350
32
  3
Brighten
350
36
  3
ColorChange
350
3A
  3
Conceptual
350
34
  3
Dim
350
35
  3
Facepattern
350
39
  3
Flat
350
2B
  3
FlatWithEdges
350
2C
  3
Gouraud
350
2D
  3
GouraudWithEdges
350
2E
  3
Linepattern
350
38
  3
Realistic
350
33
  3
Thicken
350
37
  0
DICTIONARY
  5
25B
102
{ACAD_REACTORS
330
C
102
}
330
C
100
AcDbDictionary
281
     1
  3
DIMASSOC
350
25E
  3
HIDETEXT
350
25F
  0
LAYOUT
  5
1E
102
{ACAD_REACTORS
330
1A
102
}
330
1A
100
AcDbPlotSettings
  1

  2
none_device
  4

  6

 40
0.0
 41
0.0
 42
0.0
 43
0.0
 44
0.0
 45
0.0
 46
0.0
 47
0.0
 48
0.0
 49
0.0
140
0.0
141
0.0
142
1.0
143
1.0
 70
   688
 72
     0
 73
     0
 74
     5
  7

 75
    16
147
1.0
148
0.0
149
0.0
100
AcDbLayout
  1
Layout1
 70
     1
 71
     1
 10
0.0
 20
0.0
 11
12.0
 21
9.0
 12
0.0
 22
0.0
 32
0.0
 14
1.00000000000000E+20
 24
1.00000000000000E+20
 34
1.00000000000000E+20
 15
-1.00000000000000E+20
 25
-1.00000000000000E+20
 35
-1.00000000000000E+20
146
0.0
 13
0.0
 23
0.0
 33
0.0
 16
1.0
 26
0.0
 36
0.0
 17
0.0
 27
1.0
 37
0.0
 76
     0
330
1B
  0
LAYOUT
  5
26
102
{ACAD_REACTORS
330
1A
102
}
330
1A
100
AcDbPlotSettings
  1

  2
none_device
  4

  6

 40
0.0
 41
0.0
 42
0.0
 43
0.0
 44
0.0
 45
0.0
 46
0.0
 47
0.0
 48
0.0
 49
0.0
140
0.0
141
0.0
142
1.0
143
1.0
 70
   688
 72
     0
 73
     0
 74
     5
  7

 75
    16
147
1.0
148
0.0
149
0.0
100
AcDbLayout
  1
Layout2
 70
     1
 71
     2
 10
0.0
 20
0.0
 11
0.0
 21
0.0
 12
0.0
 22
0.0
 32
0.0
 14
0.0
 24
0.0
 34
0.0
 15
0.0
 25
0.0
 35
0.0
146
0.0
 13
0.0
 23
0.0
 33
0.0
 16
1.0
 26
0.0
 36
0.0
 17
0.0
 27
1.0
 37
0.0
 76
     0
330
23
  0
LAYOUT
  5
22
102
{ACAD_REACTORS
330
1A
102
}
330
1A
100
AcDbPlotSettings
  1

  2
none_device
  4

  6

 40
0.0
 41
0.0
 42
0.0
 43
0.0
 44
0.0
 45
0.0
 46
0.0
 47
0.0
 48
0.0
 49
0.0
140
0.0
141
0.0
142
1.0
143
1.0
 70
  1712
 72
     0
 73
     0
 74
     0
  7

 75
     0
147
1.0
148
0.0
149
0.0
100
AcDbLayout
  1
Model
 70
     1
 71
     0
 10
0.0
 20
0.0
 11
12.0
 21
9.0
 12
0.0
 22
0.0
 32
0.0
 14
-396.3000002490029
 24
-266.900926994912
 34
0.0
 15
-99.30000024900482
 25
-56.90092699491191
 35
0.0
146
0.0
 13
0.0
 23
0.0
 33
0.0
 16
1.0
 26
0.0
 36
0.0
 17
0.0
 27
1.0
 37
0.0
 76
     0
330
1F
331
29
  0
MATERIAL
  5
3D
102
{ACAD_REACTORS
330
3B
102
}
102
{ACAD_XDICTIONARY
360
282
102
}
330
3B
100
AcDbMaterial
  1
ByBlock
  0
MATERIAL
  5
3C
102
{ACAD_REACTORS
330
3B
102
}
102
{ACAD_XDICTIONARY
360
280
102
}
330
3B
100
AcDbMaterial
  1
ByLayer
  0
MATERIAL
  5
3E
102
{ACAD_REACTORS
330
3B
102
}
102
{ACAD_XDICTIONARY
360
284
102
}
330
3B
100
AcDbMaterial
  1
Global
  0
MLINESTYLE
  5
18
102
{ACAD_REACTORS
330
17
102
}
330
17
100
AcDbMlineStyle
  2
Standard
 70
     0
  3

 62
   256
 51
90.0
 52
90.0
 71
     2
 49
0.5
 62
   256
  6
BYLAYER
 49
-0.5
 62
   256
  6
BYLAYER
  0
ACDBPLACEHOLDER
  5
F
102
{ACAD_REACTORS
330
E
102
}
330
E
  0
VISUALSTYLE
  5
2F
102
{ACAD_REACTORS
330
2A
102
}
102
{ACAD_XDICTIONARY
360
268
102
}
330
2A
100
AcDbVisualStyle
  2
2dWireframe
 70
     4
 71
     0
 72
     2
 73
     0
 90
        0
 40
-0.6
 41
-30.0
 62
     5
 63
     7
 74
     1
 91
        4
 64
     7
 65
   257
 75
     1
175
     1
 42
1.0
 92
        0
 66
   257
 43
1.0
 76
     1
 77
     6
 78
     2
 67
     7
 79
     5
170
     0
171
     0
290
     0
174
     0
 93
        1
 44
0.0
173
     0
291
     0
 45
0.0
1001
ACAD
1000
AcDbSavedByObjectVersion
1070
     0
  0
VISUALSTYLE
  5
31
102
{ACAD_REACTORS
330
2A
102
}
102
{ACAD_XDICTIONARY
360
26C
102
}
330
2A
100
AcDbVisualStyle
  2
3D Hidden
 70
     6
 71
     1
 72
     2
 73
     2
 90
        0
 40
-0.6
 41
-30.0
 62
     5
 63
     7
 74
     2
 91
        2
 64
     7
 65
   257
 75
     2
175
     1
 42
40.0
 92
        0
 66
   257
 43
1.0
 76
     1
 77
     6
 78
     2
 67
     7
 79
     3
170
     0
171
     0
290
     0
174
     0
 93
        1
 44
0.0
173
     0
291
     0
 45
0.0
1001
ACAD
1000
AcDbSavedByObjectVersion
1070
     0
  0
VISUALSTYLE
  5
30
102
{ACAD_REACTORS
330
2A
102
}
102
{ACAD_XDICTIONARY
360
26A
102
}
330
2A
100
AcDbVisualStyle
  2
3dWireframe
 70
     5
 71
     0
 72
     2
 73
     0
 90
        0
 40
-0.6
 41
-30.0
 62
     5
 63
     7
 74
     1
 91
        4
 64
     7
 65
   257
 75
     1
175
     1
 42
1.0
 92
        0
 66
   257
 43
1.0
 76
     1
 77
     6
 78
     2
 67
     7
 79
     5
170
     0
171
     0
290
     0
174
     0
 93
        1
 44
0.0
173
     0
291
     0
 45
0.0
1001
ACAD
1000
AcDbSavedByObjectVersion
1070
     0
  0
VISUALSTYLE
  5
32
102
{ACAD_REACTORS
330
2A
102
}
102
{ACAD_XDICTIONARY
360
26E
102
}
330
2A
100
AcDbVisualStyle
  2
Basic
 70
     7
 71
     1
 72
     0
 73
     1
 90
        0
 40
-0.6
 41
-30.0
 62
     5
 63
     7
 74
     0
 91
        4
 64
     7
 65
   257
 75
     1
175
     1
 42
1.0
 92
        8
 66
     7
 43
1.0
 76
     1
 77
     6
 78
     2
 67
     7
 79
     5
170
     0
171
     0
290
     0
174
     0
 93
        1
 44
0.0
173
     0
291
     1
 45
0.0
1001
ACAD
1000
AcDbSavedByObjectVersion
1070
     0
  0
VISUALSTYLE
  5
36
102
{ACAD_REACTORS
330
2A
102
}
102
{ACAD_XDICTIONARY
360
276
102
}
330
2A
100
AcDbVisualStyle
  2
Brighten
 70
    12
 71
     2
 72
     2
 73
     0
 90
        0
 40
-0.6
 41
-30.0
 62
     5
 63
     7
 74
     1
 91
        4
 64
     7
 65
   257
 75
     1
175
     1
 42
1.0
 92
        8
 66
     7
 43
1.0
 76
     1
 77
     6
 78
     2
 67
     7
 79
     5
170
     0
171
     0
290
     0
174
     0
 93
        1
 44
50.0
173
     0
291
     1
 45
0.0
1001
ACAD
1000
AcDbSavedByObjectVersion
1070
     0
  0
VISUALSTYLE
  5
3A
102
{ACAD_REACTORS
330
2A
102
}
102
{ACAD_XDICTIONARY
360
27E
102
}
330
2A
100
AcDbVisualStyle
  2
ColorChange
 70
    16
 71
     2
 72
     2
 73
     3
 90
        0
 40
-0.6
 41
-30.0
 62
     5
 63
     8
 74
     1
 91
        4
 64
     7
 65
   257
 75
     1
175
     1
 42
1.0
 92
        8
 66
     8
 43
1.0
 76
     1
 77
     6
 78
     2
 67
     7
 79
     5
170
     0
171
     0
290
     0
174
     0
 93
        1
 44
0.0
173
     0
291
     1
 45
0.0
1001
ACAD
1000
AcDbSavedByObjectVersion
1070
     0
  0
VISUALSTYLE
  5
34
102
{ACAD_REACTORS
330
2A
102
}
102
{ACAD_XDICTIONARY
360
272
102
}
330
2A
100
AcDbVisualStyle
  2
Conceptual
 70
     9
 71
     3
 72
     2
 73
     0
 90
        0
 40
-0.6
 41
-30.0
 62
     5
 63
     7
 74
     2
 91
        2
 64
     7
 65
   257
 75
     1
175
     1
 42
40.0
 92
        8
 66
     7
 43
1.0
 76
     1
 77
     6
 78
     2
 67
     7
 79
     3
170
     0
171
     0
290
     0
174
     0
 93
        1
 44
0.0
173
     0
291
     0
 45
0.0
1001
ACAD
1000
AcDbSavedByObjectVersion
1070
     0
  0
VISUALSTYLE
  5
35
102
{ACAD_REACTORS
330
2A
102
}
102
{ACAD_XDICTIONARY
360
274
102
}
330
2A
100
AcDbVisualStyle
  2
Dim
 70
    11
 71
     2
 72
     2
 73
     0
 90
        0
 40
-0.6
 41
-30.0
 62
     5
 63
     7
 74
     1
 91
        4
 64
     7
 65
   257
 75
     1
175
     1
 42
1.0
 92
        8
 66
     7
 43
1.0
 76
     1
 77
     6
 78
     2
 67
     7
 79
     5
170
     0
171
     0
290
     0
174
     0
 93
        1
 44
-50.0
173
     0
291
     1
 45
0.0
1001
ACAD
1000
AcDbSavedByObjectVersion
1070
     0
  0
VISUALSTYLE
  5
39
102
{ACAD_REACTORS
330
2A
102
}
102
{ACAD_XDICTIONARY
360
27C
102
}
330
2A
100
AcDbVisualStyle
  2
Facepattern
 70
    15
 71
     2
 72
     2
 73
     0
 90
        0
 40
-0.6
 41
-30.0
 62
     5
 63
     7
 74
     1
 91
        4
 64
     7
 65
   257
 75
     1
175
     1
 42
1.0
 92
        8
 66
     7
 43
1.0
 76
     1
 77
     6
 78
     2
 67
     7
 79
     5
170
     0
171
     0
290
     0
174
     0
 93
        1
 44
0.0
173
     0
291
     1
 45
0.0
1001
ACAD
1000
AcDbSavedByObjectVersion
1070
     0
  0
VISUALSTYLE
  5
2B
102
{ACAD_REACTORS
330
2A
102
}
102
{ACAD_XDICTIONARY
360
260
102
}
330
2A
100
AcDbVisualStyle
  2
Flat
 70
     0
 71
     2
 72
     1
 73
     1
 90
        2
 40
-0.6
 41
30.0
 62
     5
 63
     7
 74
     0
 91
        4
 64
     7
 65
   257
 75
     1
175
     1
 42
1.0
 92
        8
 66
     7
 43
1.0
 76
     1
 77
     6
 78
     2
 67
     7
 79
     5
170
     0
171
     0
290
     0
174
     0
 93
       13
 44
0.0
173
     0
291
     1
 45
0.0
1001
ACAD
1000
AcDbSavedByObjectVersion
1070
     0
  0
VISUALSTYLE
  5
2C
102
{ACAD_REACTORS
330
2A
102
}
102
{ACAD_XDICTIONARY
360
262
102
}
330
2A
100
AcDbVisualStyle
  2
FlatWithEdges
 70
     1
 71
     2
 72
     1
 73
     1
 90
        2
 40
-0.6
 41
30.0
 62
     5
 63
     7
 74
     1
 91
        4
 64
     7
 65
   257
 75
     1
175
     1
 42
1.0
 92
        0
 66
   257
 43
1.0
 76
     1
 77
     6
 78
     2
 67
     7
 79
     5
170
     0
171
     0
290
     0
174
     0
 93
       13
 44
0.0
173
     0
291
     1
 45
0.0
1001
ACAD
1000
AcDbSavedByObjectVersion
1070
     0
  0
VISUALSTYLE
  5
2D
102
{ACAD_REACTORS
330
2A
102
}
102
{ACAD_XDICTIONARY
360
264
102
}
330
2A
100
AcDbVisualStyle
  2
Gouraud
 70
     2
 71
     2
 72
     2
 73
     1
 90
        2
 40
-0.6
 41
30.0
 62
     5
 63
     7
 74
     0
 91
        4
 64
     7
 65
   257
 75
     1
175
     1
 42
1.0
 92
        0
 66
     7
 43
1.0
 76
     1
 77
     6
 78
     2
 67
     7
 79
     5
170
     0
171
     0
290
     0
174
     0
 93
       13
 44
0.0
173
     0
291
     1
 45
0.0
1001
ACAD
1000
AcDbSavedByObjectVersion
1070
     0
  0
VISUALSTYLE
  5
2E
102
{ACAD_REACTORS
330
2A
102
}
102
{ACAD_XDICTIONARY
360
266
102
}
330
2A
100
AcDbVisualStyle
  2
GouraudWithEdges
 70
     3
 71
     2
 72
     2
 73
     1
 90
        2
 40
-0.6
 41
30.0
 62
     5
 63
     7
 74
     1
 91
        4
 64
     7
 65
   257
 75
     1
175
     1
 42
1.0
 92
        0
 66
   257
 43
1.0
 76
     1
 77
     6
 78
     2
 67
     7
 79
     5
170
     0
171
     0
290
     0
174
     0
 93
       13
 44
0.0
173
     0
291
     1
 45
0.0
1001
ACAD
1000
AcDbSavedByObjectVersion
1070
     0
  0
VISUALSTYLE
  5
38
102
{ACAD_REACTORS
330
2A
102
}
102
{ACAD_XDICTIONARY
360
27A
102
}
330
2A
100
AcDbVisualStyle
  2
Linepattern
 70
    14
 71
     2
 72
     2
 73
     0
 90
        0
 40
-0.6
 41
-30.0
 62
     5
 63
     7
 74
     1
 91
        4
 64
     7
 65
   257
 75
     7
175
     7
 42
1.0
 92
        8
 66
     7
 43
1.0
 76
     1
 77
     6
 78
     2
 67
     7
 79
     5
170
     0
171
     0
290
     0
174
     0
 93
        1
 44
0.0
173
     0
291
     1
 45
0.0
1001
ACAD
1000
AcDbSavedByObjectVersion
1070
     0
  0
VISUALSTYLE
  5
33
102
{ACAD_REACTORS
330
2A
102
}
102
{ACAD_XDICTIONARY
360
270
102
}
330
2A
100
AcDbVisualStyle
  2
Realistic
 70
     8
 71
     2
 72
     2
 73
     0
 90
        0
 40
-0.6
 41
-30.0
 62
     5
 63
     7
 74
     1
 91
        0
 64
     7
 65
   257
 75
     1
175
     1
 42
1.0
 92
        8
 66
     8
 43
1.0
 76
     1
 77
     6
 78
     2
 67
     7
 79
     5
170
     0
171
     0
290
     0
174
     0
 93
       13
 44
0.0
173
     0
291
     0
 45
0.0
1001
ACAD
1000
AcDbSavedByObjectVersion
1070
     0
  0
VISUALSTYLE
  5
37
102
{ACAD_REACTORS
330
2A
102
}
102
{ACAD_XDICTIONARY
360
278
102
}
330
2A
100
AcDbVisualStyle
  2
Thicken
 70
    13
 71
     2
 72
     2
 73
     0
 90
        0
 40
-0.6
 41
-30.0
 62
     5
 63
     7
 74
     1
 91
        4
 64
     7
 65
   257
 75
     1
175
     1
 42
1.0
 92
       12
 66
     7
 43
1.0
 76
     1
 77
     6
 78
     2
 67
     7
 79
     5
170
     0
171
     0
290
     0
174
     0
 93
        1
 44
0.0
173
     0
291
     1
 45
0.0
1001
ACAD
1000
AcDbSavedByObjectVersion
1070
     0
  0
DICTIONARYVAR
  5
25E
102
{ACAD_REACTORS
330
25B
102
}
330
25B
100
DictionaryVariables
280
     0
  1
2
  0
DICTIONARYVAR
  5
25F
102
{ACAD_REACTORS
330
25B
102
}
330
25B
100
DictionaryVariables
280
     0
  1
1
  0
DICTIONARY
  5
282
330
3D
100
AcDbDictionary
280
     1
281
     1
  3
ACAD_XREC_ROUNDTRIP
360
283
  0
DICTIONARY
  5
280
330
3C
100
AcDbDictionary
280
     1
281
     1
  3
ACAD_XREC_ROUNDTRIP
360
281
  0
DICTIONARY
  5
284
330
3E
100
AcDbDictionary
280
     1
281
     1
  3
ACAD_XREC_ROUNDTRIP
360
285
  0
DICTIONARY
  5
268
330
2F
100
AcDbDictionary
280
     1
281
     1
  3
ACAD_XREC_ROUNDTRIP
360
269
  0
DICTIONARY
  5
26C
330
31
100
AcDbDictionary
280
     1
281
     1
  3
ACAD_XREC_ROUNDTRIP
360
26D
  0
DICTIONARY
  5
26A
330
30
100
AcDbDictionary
280
     1
281
     1
  3
ACAD_XREC_ROUNDTRIP
360
26B
  0
DICTIONARY
  5
26E
330
32
100
AcDbDictionary
280
     1
281
     1
  3
ACAD_XREC_ROUNDTRIP
360
26F
  0
DICTIONARY
  5
276
330
36
100
AcDbDictionary
280
     1
281
     1
  3
ACAD_XREC_ROUNDTRIP
360
277
  0
DICTIONARY
  5
27E
330
3A
100
AcDbDictionary
280
     1
281
     1
  3
ACAD_XREC_ROUNDTRIP
360
27F
  0
DICTIONARY
  5
272
330
34
100
AcDbDictionary
280
     1
281
     1
  3
ACAD_XREC_ROUNDTRIP
360
273
  0
DICTIONARY
  5
274
330
35
100
AcDbDictionary
280
     1
281
     1
  3
ACAD_XREC_ROUNDTRIP
360
275
  0
DICTIONARY
  5
27C
330
39
100
AcDbDictionary
280
     1
281
     1
  3
ACAD_XREC_ROUNDTRIP
360
27D
  0
DICTIONARY
  5
260
330
2B
100
AcDbDictionary
280
     1
281
     1
  3
ACAD_XREC_ROUNDTRIP
360
261
  0
DICTIONARY
  5
262
330
2C
100
AcDbDictionary
280
     1
281
     1
  3
ACAD_XREC_ROUNDTRIP
360
263
  0
DICTIONARY
  5
264
330
2D
100
AcDbDictionary
280
     1
281
     1
  3
ACAD_XREC_ROUNDTRIP
360
265
  0
DICTIONARY
  5
266
330
2E
100
AcDbDictionary
280
     1
281
     1
  3
ACAD_XREC_ROUNDTRIP
360
267
  0
DICTIONARY
  5
27A
330
38
100
AcDbDictionary
280
     1
281
     1
  3
ACAD_XREC_ROUNDTRIP
360
27B
  0
DICTIONARY
  5
270
330
33
100
AcDbDictionary
280
     1
281
     1
  3
ACAD_XREC_ROUNDTRIP
360
271
  0
DICTIONARY
  5
278
330
37
100
AcDbDictionary
280
     1
281
     1
  3
ACAD_XREC_ROUNDTRIP
360
279
  0
XRECORD
  5
283
102
{ACAD_REACTORS
330
282
102
}
330
282
100
AcDbXrecord
280
     1
102
MATERIAL
148
0.0
149
0.0
149
0.0
 93
        0
 94
      127
282
     0
 72
     1
 77
     1
171
     1
175
     1
179
     1
273
     0
  0
XRECORD
  5
281
102
{ACAD_REACTORS
330
280
102
}
330
280
100
AcDbXrecord
280
     1
102
MATERIAL
148
0.0
149
0.0
149
0.0
 93
        0
 94
      127
282
     0
 72
     1
 77
     1
171
     1
175
     1
179
     1
273
     0
  0
XRECORD
  5
285
102
{ACAD_REACTORS
330
284
102
}
330
284
100
AcDbXrecord
280
     1
102
MATERIAL
148
0.0
149
0.0
149
0.0
 93
        0
 94
      127
282
     0
 72
     1
 77
     1
171
     1
175
     1
179
     1
273
     0
  0
XRECORD
  5
269
102
{ACAD_REACTORS
330
268
102
}
330
268
100
AcDbXrecord
280
     1
102
RTVSPropertyOp0
 70
     1
102
RTVSPropertyOp1
 70
     1
102
RTVSPropertyOp2
 70
     1
102
RTVSPropertyOp3
 70
     1
102
RTVSPropertyOp4
 70
     1
102
RTVSPropertyOp5
 70
     1
102
RTVSPropertyOp6
 70
     1
102
RTVSPropertyOp7
 70
     1
102
RTVSPropertyOp8
 70
     1
102
RTVSPropertyOp9
 70
     1
102
RTVSPropertyOp10
 70
     1
102
RTVSPropertyOp11
 70
     1
102
RTVSPropertyOp12
 70
     1
102
RTVSPropertyOp13
 70
     1
102
RTVSPropertyOp14
 70
     1
102
RTVSPropertyOp15
 70
     1
102
RTVSPropertyOp16
 70
     1
102
RTVSPropertyOp17
 70
     1
102
RTVSPropertyOp18
 70
     1
102
RTVSPropertyOp19
 70
     1
102
RTVSPropertyOp20
 70
     1
102
RTVSPropertyOp21
 70
     1
102
RTVSPropertyOp22
 70
     1
102
RTVSPropertyOp23
 70
     1
102
RTVSPropertyOp24
 70
     1
102
RTVSPropertyOp25
 70
     1
102
RTVSPropertyOp26
 70
     1
102
RTVSPropertyOp27
 70
     1
102
RTVSPropertyOp28
 70
     1
102
RTVSPropertyOp29
 70
     1
102
RTVSPropertyOp30
 70
     1
102
RTVSPropertyOp31
 70
     1
102
RTVSPropertyOp32
 70
     1
  0
XRECORD
  5
26D
102
{ACAD_REACTORS
330
26C
102
}
330
26C
100
AcDbXrecord
280
     1
102
RTVSPropertyOp0
 70
     1
102
RTVSPropertyOp1
 70
     1
102
RTVSPropertyOp2
 70
     1
102
RTVSPropertyOp3
 70
     1
102
RTVSPropertyOp4
 70
     1
102
RTVSPropertyOp5
 70
     1
102
RTVSPropertyOp6
 70
     1
102
RTVSPropertyOp7
 70
     1
102
RTVSPropertyOp8
 70
     1
102
RTVSPropertyOp9
 70
     1
102
RTVSPropertyOp10
 70
     1
102
RTVSPropertyOp11
 70
     1
102
RTVSPropertyOp12
 70
     1
102
RTVSPropertyOp13
 70
     1
102
RTVSPropertyOp14
 70
     1
102
RTVSPropertyOp15
 70
     1
102
RTVSPropertyOp16
 70
     1
102
RTVSPropertyOp17
 70
     1
102
RTVSPropertyOp18
 70
     1
102
RTVSPropertyOp19
 70
     1
102
RTVSPropertyOp20
 70
     1
102
RTVSPropertyOp21
 70
     1
102
RTVSPropertyOp22
 70
     1
102
RTVSPropertyOp23
 70
     1
102
RTVSPropertyOp24
 70
     1
102
RTVSPropertyOp25
 70
     1
102
RTVSPropertyOp26
 70
     1
102
RTVSPropertyOp27
 70
     1
102
RTVSPropertyOp28
 70
     1
102
RTVSPropertyOp29
 70
     1
102
RTVSPropertyOp30
 70
     1
102
RTVSPropertyOp31
 70
     1
102
RTVSPropertyOp32
 70
     1
  0
XRECORD
  5
26B
102
{ACAD_REACTORS
330
26A
102
}
330
26A
100
AcDbXrecord
280
     1
102
RTVSPropertyOp0
 70
     1
102
RTVSPropertyOp1
 70
     1
102
RTVSPropertyOp2
 70
     1
102
RTVSPropertyOp3
 70
     1
102
RTVSPropertyOp4
 70
     1
102
RTVSPropertyOp5
 70
     1
102
RTVSPropertyOp6
 70
     1
102
RTVSPropertyOp7
 70
     1
102
RTVSPropertyOp8
 70
     1
102
RTVSPropertyOp9
 70
     1
102
RTVSPropertyOp10
 70
     1
102
RTVSPropertyOp11
 70
     1
102
RTVSPropertyOp12
 70
     1
102
RTVSPropertyOp13
 70
     1
102
RTVSPropertyOp14
 70
     1
102
RTVSPropertyOp15
 70
     1
102
RTVSPropertyOp16
 70
     1
102
RTVSPropertyOp17
 70
     1
102
RTVSPropertyOp18
 70
     1
102
RTVSPropertyOp19
 70
     1
102
RTVSPropertyOp20
 70
     1
102
RTVSPropertyOp21
 70
     1
102
RTVSPropertyOp22
 70
     1
102
RTVSPropertyOp23
 70
     1
102
RTVSPropertyOp24
 70
     1
102
RTVSPropertyOp25
 70
     1
102
RTVSPropertyOp26
 70
     1
102
RTVSPropertyOp27
 70
     1
102
RTVSPropertyOp28
 70
     1
102
RTVSPropertyOp29
 70
     1
102
RTVSPropertyOp30
 70
     1
102
RTVSPropertyOp31
 70
     1
102
RTVSPropertyOp32
 70
     1
  0
XRECORD
  5
26F
102
{ACAD_REACTORS
330
26E
102
}
330
26E
100
AcDbXrecord
280
     1
102
RTVSPropertyOp0
 70
     1
102
RTVSPropertyOp1
 70
     1
102
RTVSPropertyOp2
 70
     1
102
RTVSPropertyOp3
 70
     1
102
RTVSPropertyOp4
 70
     1
102
RTVSPropertyOp5
 70
     1
102
RTVSPropertyOp6
 70
     1
102
RTVSPropertyOp7
 70
     1
102
RTVSPropertyOp8
 70
     1
102
RTVSPropertyOp9
 70
     1
102
RTVSPropertyOp10
 70
     1
102
RTVSPropertyOp11
 70
     1
102
RTVSPropertyOp12
 70
     1
102
RTVSPropertyOp13
 70
     1
102
RTVSPropertyOp14
 70
     1
102
RTVSPropertyOp15
 70
     1
102
RTVSPropertyOp16
 70
     1
102
RTVSPropertyOp17
 70
     1
102
RTVSPropertyOp18
 70
     1
102
RTVSPropertyOp19
 70
     1
102
RTVSPropertyOp20
 70
     1
102
RTVSPropertyOp21
 70
     1
102
RTVSPropertyOp22
 70
     1
102
RTVSPropertyOp23
 70
     1
102
RTVSPropertyOp24
 70
     1
102
RTVSPropertyOp25
 70
     1
102
RTVSPropertyOp26
 70
     1
102
RTVSPropertyOp27
 70
     1
102
RTVSPropertyOp28
 70
     1
102
RTVSPropertyOp29
 70
     1
102
RTVSPropertyOp30
 70
     1
102
RTVSPropertyOp31
 70
     1
102
RTVSPropertyOp32
 70
     1
  0
XRECORD
  5
277
102
{ACAD_REACTORS
330
276
102
}
330
276
100
AcDbXrecord
280
     1
102
RTVSPropertyOp0
 70
     1
102
RTVSPropertyOp1
 70
     1
102
RTVSPropertyOp2
 70
     1
102
RTVSPropertyOp3
 70
     1
102
RTVSPropertyOp4
 70
     1
102
RTVSPropertyOp5
 70
     1
102
RTVSPropertyOp6
 70
     1
102
RTVSPropertyOp7
 70
     1
102
RTVSPropertyOp8
 70
     1
102
RTVSPropertyOp9
 70
     1
102
RTVSPropertyOp10
 70
     1
102
RTVSPropertyOp11
 70
     1
102
RTVSPropertyOp12
 70
     1
102
RTVSPropertyOp13
 70
     1
102
RTVSPropertyOp14
 70
     1
102
RTVSPropertyOp15
 70
     1
102
RTVSPropertyOp16
 70
     1
102
RTVSPropertyOp17
 70
     1
102
RTVSPropertyOp18
 70
     1
102
RTVSPropertyOp19
 70
     1
102
RTVSPropertyOp20
 70
     1
102
RTVSPropertyOp21
 70
     1
102
RTVSPropertyOp22
 70
     1
102
RTVSPropertyOp23
 70
     1
102
RTVSPropertyOp24
 70
     1
102
RTVSPropertyOp25
 70
     1
102
RTVSPropertyOp26
 70
     1
102
RTVSPropertyOp27
 70
     1
102
RTVSPropertyOp28
 70
     1
102
RTVSPropertyOp29
 70
     1
102
RTVSPropertyOp30
 70
     1
102
RTVSPropertyOp31
 70
     1
102
RTVSPropertyOp32
 70
     1
  0
XRECORD
  5
27F
102
{ACAD_REACTORS
330
27E
102
}
330
27E
100
AcDbXrecord
280
     1
102
RTVSPropertyOp0
 70
     1
102
RTVSPropertyOp1
 70
     1
102
RTVSPropertyOp2
 70
     1
102
RTVSPropertyOp3
 70
     1
102
RTVSPropertyOp4
 70
     1
102
RTVSPropertyOp5
 70
     1
102
RTVSPropertyOp6
 70
     1
102
RTVSPropertyOp7
 70
     1
102
RTVSPropertyOp8
 70
     1
102
RTVSPropertyOp9
 70
     1
102
RTVSPropertyOp10
 70
     1
102
RTVSPropertyOp11
 70
     1
102
RTVSPropertyOp12
 70
     1
102
RTVSPropertyOp13
 70
     1
102
RTVSPropertyOp14
 70
     1
102
RTVSPropertyOp15
 70
     1
102
RTVSPropertyOp16
 70
     1
102
RTVSPropertyOp17
 70
     1
102
RTVSPropertyOp18
 70
     1
102
RTVSPropertyOp19
 70
     1
102
RTVSPropertyOp20
 70
     1
102
RTVSPropertyOp21
 70
     1
102
RTVSPropertyOp22
 70
     1
102
RTVSPropertyOp23
 70
     1
102
RTVSPropertyOp24
 70
     1
102
RTVSPropertyOp25
 70
     1
102
RTVSPropertyOp26
 70
     1
102
RTVSPropertyOp27
 70
     1
102
RTVSPropertyOp28
 70
     1
102
RTVSPropertyOp29
 70
     1
102
RTVSPropertyOp30
 70
     1
102
RTVSPropertyOp31
 70
     1
102
RTVSPropertyOp32
 70
     1
  0
XRECORD
  5
273
102
{ACAD_REACTORS
330
272
102
}
330
272
100
AcDbXrecord
280
     1
102
RTVSPropertyOp0
 70
     1
102
RTVSPropertyOp1
 70
     1
102
RTVSPropertyOp2
 70
     1
102
RTVSPropertyOp3
 70
     1
102
RTVSPropertyOp4
 70
     1
102
RTVSPropertyOp5
 70
     1
102
RTVSPropertyOp6
 70
     1
102
RTVSPropertyOp7
 70
     1
102
RTVSPropertyOp8
 70
     1
102
RTVSPropertyOp9
 70
     1
102
RTVSPropertyOp10
 70
     1
102
RTVSPropertyOp11
 70
     1
102
RTVSPropertyOp12
 70
     1
102
RTVSPropertyOp13
 70
     1
102
RTVSPropertyOp14
 70
     1
102
RTVSPropertyOp15
 70
     1
102
RTVSPropertyOp16
 70
     1
102
RTVSPropertyOp17
 70
     1
102
RTVSPropertyOp18
 70
     1
102
RTVSPropertyOp19
 70
     1
102
RTVSPropertyOp20
 70
     1
102
RTVSPropertyOp21
 70
     1
102
RTVSPropertyOp22
 70
     1
102
RTVSPropertyOp23
 70
     1
102
RTVSPropertyOp24
 70
     1
102
RTVSPropertyOp25
 70
     1
102
RTVSPropertyOp26
 70
     1
102
RTVSPropertyOp27
 70
     1
102
RTVSPropertyOp28
 70
     1
102
RTVSPropertyOp29
 70
     1
102
RTVSPropertyOp30
 70
     1
102
RTVSPropertyOp31
 70
     1
102
RTVSPropertyOp32
 70
     1
  0
XRECORD
  5
275
102
{ACAD_REACTORS
330
274
102
}
330
274
100
AcDbXrecord
280
     1
102
RTVSPropertyOp0
 70
     1
102
RTVSPropertyOp1
 70
     1
102
RTVSPropertyOp2
 70
     1
102
RTVSPropertyOp3
 70
     1
102
RTVSPropertyOp4
 70
     1
102
RTVSPropertyOp5
 70
     1
102
RTVSPropertyOp6
 70
     1
102
RTVSPropertyOp7
 70
     1
102
RTVSPropertyOp8
 70
     1
102
RTVSPropertyOp9
 70
     1
102
RTVSPropertyOp10
 70
     1
102
RTVSPropertyOp11
 70
     1
102
RTVSPropertyOp12
 70
     1
102
RTVSPropertyOp13
 70
     1
102
RTVSPropertyOp14
 70
     1
102
RTVSPropertyOp15
 70
     1
102
RTVSPropertyOp16
 70
     1
102
RTVSPropertyOp17
 70
     1
102
RTVSPropertyOp18
 70
     1
102
RTVSPropertyOp19
 70
     1
102
RTVSPropertyOp20
 70
     1
102
RTVSPropertyOp21
 70
     1
102
RTVSPropertyOp22
 70
     1
102
RTVSPropertyOp23
 70
     1
102
RTVSPropertyOp24
 70
     1
102
RTVSPropertyOp25
 70
     1
102
RTVSPropertyOp26
 70
     1
102
RTVSPropertyOp27
 70
     1
102
RTVSPropertyOp28
 70
     1
102
RTVSPropertyOp29
 70
     1
102
RTVSPropertyOp30
 70
     1
102
RTVSPropertyOp31
 70
     1
102
RTVSPropertyOp32
 70
     1
  0
XRECORD
  5
27D
102
{ACAD_REACTORS
330
27C
102
}
330
27C
100
AcDbXrecord
280
     1
102
RTVSPropertyOp0
 70
     1
102
RTVSPropertyOp1
 70
     1
102
RTVSPropertyOp2
 70
     1
102
RTVSPropertyOp3
 70
     1
102
RTVSPropertyOp4
 70
     1
102
RTVSPropertyOp5
 70
     1
102
RTVSPropertyOp6
 70
     1
102
RTVSPropertyOp7
 70
     1
102
RTVSPropertyOp8
 70
     1
102
RTVSPropertyOp9
 70
     1
102
RTVSPropertyOp10
 70
     1
102
RTVSPropertyOp11
 70
     1
102
RTVSPropertyOp12
 70
     1
102
RTVSPropertyOp13
 70
     1
102
RTVSPropertyOp14
 70
     1
102
RTVSPropertyOp15
 70
     1
102
RTVSPropertyOp16
 70
     1
102
RTVSPropertyOp17
 70
     1
102
RTVSPropertyOp18
 70
     1
102
RTVSPropertyOp19
 70
     1
102
RTVSPropertyOp20
 70
     1
102
RTVSPropertyOp21
 70
     1
102
RTVSPropertyOp22
 70
     1
102
RTVSPropertyOp23
 70
     1
102
RTVSPropertyOp24
 70
     1
102
RTVSPropertyOp25
 70
     1
102
RTVSPropertyOp26
 70
     1
102
RTVSPropertyOp27
 70
     1
102
RTVSPropertyOp28
 70
     1
102
RTVSPropertyOp29
 70
     1
102
RTVSPropertyOp30
 70
     1
102
RTVSPropertyOp31
 70
     1
102
RTVSPropertyOp32
 70
     1
  0
XRECORD
  5
261
102
{ACAD_REACTORS
330
260
102
}
330
260
100
AcDbXrecord
280
     1
102
RTVSPropertyOp0
 70
     1
102
RTVSPropertyOp1
 70
     1
102
RTVSPropertyOp2
 70
     1
102
RTVSPropertyOp3
 70
     1
102
RTVSPropertyOp4
 70
     1
102
RTVSPropertyOp5
 70
     1
102
RTVSPropertyOp6
 70
     1
102
RTVSPropertyOp7
 70
     1
102
RTVSPropertyOp8
 70
     1
102
RTVSPropertyOp9
 70
     1
102
RTVSPropertyOp10
 70
     1
102
RTVSPropertyOp11
 70
     1
102
RTVSPropertyOp12
 70
     1
102
RTVSPropertyOp13
 70
     1
102
RTVSPropertyOp14
 70
     1
102
RTVSPropertyOp15
 70
     1
102
RTVSPropertyOp16
 70
     1
102
RTVSPropertyOp17
 70
     1
102
RTVSPropertyOp18
 70
     1
102
RTVSPropertyOp19
 70
     1
102
RTVSPropertyOp20
 70
     1
102
RTVSPropertyOp21
 70
     1
102
RTVSPropertyOp22
 70
     1
102
RTVSPropertyOp23
 70
     1
102
RTVSPropertyOp24
 70
     1
102
RTVSPropertyOp25
 70
     1
102
RTVSPropertyOp26
 70
     1
102
RTVSPropertyOp27
 70
     1
102
RTVSPropertyOp28
 70
     1
102
RTVSPropertyOp29
 70
     1
102
RTVSPropertyOp30
 70
     1
102
RTVSPropertyOp31
 70
     1
102
RTVSPropertyOp32
 70
     1
  0
XRECORD
  5
263
102
{ACAD_REACTORS
330
262
102
}
330
262
100
AcDbXrecord
280
     1
102
RTVSPropertyOp0
 70
     1
102
RTVSPropertyOp1
 70
     1
102
RTVSPropertyOp2
 70
     1
102
RTVSPropertyOp3
 70
     1
102
RTVSPropertyOp4
 70
     1
102
RTVSPropertyOp5
 70
     1
102
RTVSPropertyOp6
 70
     1
102
RTVSPropertyOp7
 70
     1
102
RTVSPropertyOp8
 70
     1
102
RTVSPropertyOp9
 70
     1
102
RTVSPropertyOp10
 70
     1
102
RTVSPropertyOp11
 70
     1
102
RTVSPropertyOp12
 70
     1
102
RTVSPropertyOp13
 70
     1
102
RTVSPropertyOp14
 70
     1
102
RTVSPropertyOp15
 70
     1
102
RTVSPropertyOp16
 70
     1
102
RTVSPropertyOp17
 70
     1
102
RTVSPropertyOp18
 70
     1
102
RTVSPropertyOp19
 70
     1
102
RTVSPropertyOp20
 70
     1
102
RTVSPropertyOp21
 70
     1
102
RTVSPropertyOp22
 70
     1
102
RTVSPropertyOp23
 70
     1
102
RTVSPropertyOp24
 70
     1
102
RTVSPropertyOp25
 70
     1
102
RTVSPropertyOp26
 70
     1
102
RTVSPropertyOp27
 70
     1
102
RTVSPropertyOp28
 70
     1
102
RTVSPropertyOp29
 70
     1
102
RTVSPropertyOp30
 70
     1
102
RTVSPropertyOp31
 70
     1
102
RTVSPropertyOp32
 70
     1
  0
XRECORD
  5
265
102
{ACAD_REACTORS
330
264
102
}
330
264
100
AcDbXrecord
280
     1
102
RTVSPropertyOp0
 70
     1
102
RTVSPropertyOp1
 70
     1
102
RTVSPropertyOp2
 70
     1
102
RTVSPropertyOp3
 70
     1
102
RTVSPropertyOp4
 70
     1
102
RTVSPropertyOp5
 70
     1
102
RTVSPropertyOp6
 70
     1
102
RTVSPropertyOp7
 70
     1
102
RTVSPropertyOp8
 70
     1
102
RTVSPropertyOp9
 70
     1
102
RTVSPropertyOp10
 70
     1
102
RTVSPropertyOp11
 70
     1
102
RTVSPropertyOp12
 70
     1
102
RTVSPropertyOp13
 70
     1
102
RTVSPropertyOp14
 70
     1
102
RTVSPropertyOp15
 70
     1
102
RTVSPropertyOp16
 70
     1
102
RTVSPropertyOp17
 70
     1
102
RTVSPropertyOp18
 70
     1
102
RTVSPropertyOp19
 70
     1
102
RTVSPropertyOp20
 70
     1
102
RTVSPropertyOp21
 70
     1
102
RTVSPropertyOp22
 70
     1
102
RTVSPropertyOp23
 70
     1
102
RTVSPropertyOp24
 70
     1
102
RTVSPropertyOp25
 70
     1
102
RTVSPropertyOp26
 70
     1
102
RTVSPropertyOp27
 70
     1
102
RTVSPropertyOp28
 70
     1
102
RTVSPropertyOp29
 70
     1
102
RTVSPropertyOp30
 70
     1
102
RTVSPropertyOp31
 70
     1
102
RTVSPropertyOp32
 70
     1
  0
XRECORD
  5
267
102
{ACAD_REACTORS
330
266
102
}
330
266
100
AcDbXrecord
280
     1
102
RTVSPropertyOp0
 70
     1
102
RTVSPropertyOp1
 70
     1
102
RTVSPropertyOp2
 70
     1
102
RTVSPropertyOp3
 70
     1
102
RTVSPropertyOp4
 70
     1
102
RTVSPropertyOp5
 70
     1
102
RTVSPropertyOp6
 70
     1
102
RTVSPropertyOp7
 70
     1
102
RTVSPropertyOp8
 70
     1
102
RTVSPropertyOp9
 70
     1
102
RTVSPropertyOp10
 70
     1
102
RTVSPropertyOp11
 70
     1
102
RTVSPropertyOp12
 70
     1
102
RTVSPropertyOp13
 70
     1
102
RTVSPropertyOp14
 70
     1
102
RTVSPropertyOp15
 70
     1
102
RTVSPropertyOp16
 70
     1
102
RTVSPropertyOp17
 70
     1
102
RTVSPropertyOp18
 70
     1
102
RTVSPropertyOp19
 70
     1
102
RTVSPropertyOp20
 70
     1
102
RTVSPropertyOp21
 70
     1
102
RTVSPropertyOp22
 70
     1
102
RTVSPropertyOp23
 70
     1
102
RTVSPropertyOp24
 70
     1
102
RTVSPropertyOp25
 70
     1
102
RTVSPropertyOp26
 70
     1
102
RTVSPropertyOp27
 70
     1
102
RTVSPropertyOp28
 70
     1
102
RTVSPropertyOp29
 70
     1
102
RTVSPropertyOp30
 70
     1
102
RTVSPropertyOp31
 70
     1
102
RTVSPropertyOp32
 70
     1
  0
XRECORD
  5
27B
102
{ACAD_REACTORS
330
27A
102
}
330
27A
100
AcDbXrecord
280
     1
102
RTVSPropertyOp0
 70
     1
102
RTVSPropertyOp1
 70
     1
102
RTVSPropertyOp2
 70
     1
102
RTVSPropertyOp3
 70
     1
102
RTVSPropertyOp4
 70
     1
102
RTVSPropertyOp5
 70
     1
102
RTVSPropertyOp6
 70
     1
102
RTVSPropertyOp7
 70
     1
102
RTVSPropertyOp8
 70
     1
102
RTVSPropertyOp9
 70
     1
102
RTVSPropertyOp10
 70
     1
102
RTVSPropertyOp11
 70
     1
102
RTVSPropertyOp12
 70
     1
102
RTVSPropertyOp13
 70
     1
102
RTVSPropertyOp14
 70
     1
102
RTVSPropertyOp15
 70
     1
102
RTVSPropertyOp16
 70
     1
102
RTVSPropertyOp17
 70
     1
102
RTVSPropertyOp18
 70
     1
102
RTVSPropertyOp19
 70
     1
102
RTVSPropertyOp20
 70
     1
102
RTVSPropertyOp21
 70
     1
102
RTVSPropertyOp22
 70
     1
102
RTVSPropertyOp23
 70
     1
102
RTVSPropertyOp24
 70
     1
102
RTVSPropertyOp25
 70
     1
102
RTVSPropertyOp26
 70
     1
102
RTVSPropertyOp27
 70
     1
102
RTVSPropertyOp28
 70
     1
102
RTVSPropertyOp29
 70
     1
102
RTVSPropertyOp30
 70
     1
102
RTVSPropertyOp31
 70
     1
102
RTVSPropertyOp32
 70
     1
  0
XRECORD
  5
271
102
{ACAD_REACTORS
330
270
102
}
330
270
100
AcDbXrecord
280
     1
102
RTVSPropertyOp0
 70
     1
102
RTVSPropertyOp1
 70
     1
102
RTVSPropertyOp2
 70
     1
102
RTVSPropertyOp3
 70
     1
102
RTVSPropertyOp4
 70
     1
102
RTVSPropertyOp5
 70
     1
102
RTVSPropertyOp6
 70
     1
102
RTVSPropertyOp7
 70
     1
102
RTVSPropertyOp8
 70
     1
102
RTVSPropertyOp9
 70
     1
102
RTVSPropertyOp10
 70
     1
102
RTVSPropertyOp11
 70
     1
102
RTVSPropertyOp12
 70
     1
102
RTVSPropertyOp13
 70
     1
102
RTVSPropertyOp14
 70
     1
102
RTVSPropertyOp15
 70
     1
102
RTVSPropertyOp16
 70
     1
102
RTVSPropertyOp17
 70
     1
102
RTVSPropertyOp18
 70
     1
102
RTVSPropertyOp19
 70
     1
102
RTVSPropertyOp20
 70
     1
102
RTVSPropertyOp21
 70
     1
102
RTVSPropertyOp22
 70
     1
102
RTVSPropertyOp23
 70
     1
102
RTVSPropertyOp24
 70
     1
102
RTVSPropertyOp25
 70
     1
102
RTVSPropertyOp26
 70
     1
102
RTVSPropertyOp27
 70
     1
102
RTVSPropertyOp28
 70
     1
102
RTVSPropertyOp29
 70
     1
102
RTVSPropertyOp30
 70
     1
102
RTVSPropertyOp31
 70
     1
102
RTVSPropertyOp32
 70
     1
  0
XRECORD
  5
279
102
{ACAD_REACTORS
330
278
102
}
330
278
100
AcDbXrecord
280
     1
102
RTVSPropertyOp0
 70
     1
102
RTVSPropertyOp1
 70
     1
102
RTVSPropertyOp2
 70
     1
102
RTVSPropertyOp3
 70
     1
102
RTVSPropertyOp4
 70
     1
102
RTVSPropertyOp5
 70
     1
102
RTVSPropertyOp6
 70
     1
102
RTVSPropertyOp7
 70
     1
102
RTVSPropertyOp8
 70
     1
102
RTVSPropertyOp9
 70
     1
102
RTVSPropertyOp10
 70
     1
102
RTVSPropertyOp11
 70
     1
102
RTVSPropertyOp12
 70
     1
102
RTVSPropertyOp13
 70
     1
102
RTVSPropertyOp14
 70
     1
102
RTVSPropertyOp15
 70
     1
102
RTVSPropertyOp16
 70
     1
102
RTVSPropertyOp17
 70
     1
102
RTVSPropertyOp18
 70
     1
102
RTVSPropertyOp19
 70
     1
102
RTVSPropertyOp20
 70
     1
102
RTVSPropertyOp21
 70
     1
102
RTVSPropertyOp22
 70
     1
102
RTVSPropertyOp23
 70
     1
102
RTVSPropertyOp24
 70
     1
102
RTVSPropertyOp25
 70
     1
102
RTVSPropertyOp26
 70
     1
102
RTVSPropertyOp27
 70
     1
102
RTVSPropertyOp28
 70
     1
102
RTVSPropertyOp29
 70
     1
102
RTVSPropertyOp30
 70
     1
102
RTVSPropertyOp31
 70
     1
102
RTVSPropertyOp32
 70
     1
  0
ENDSEC
  0
EOF
