  0
SECTION
  2
HEADER
  9
$ACADVER
  1
AC1015
  9
$ACADMAINTVER
 70
     6
  9
$DWGCODEPAGE
  3
ANSI_1252
  9
$INSBASE
 10
0.0
 20
0.0
 30
0.0
  9
$EXTMIN
 10
-386.5000003468896
 20
-264.9545407769839
 30
0.0
  9
$EXTMAX
 10
-89.50000034689157
 20
-54.95454077698381
 30
0.0
  9
$LIMMIN
 10
0.0
 20
0.0
  9
$LIMMAX
 10
12.0
 20
9.0
  9
$ORTHOMODE
 70
     0
  9
$REGENMODE
 70
     1
  9
$FILLMODE
 70
     1
  9
$QTEXTMODE
 70
     0
  9
$MIRRTEXT
 70
     1
  9
$LTSCALE
 40
1.0
  9
$ATTMODE
 70
     1
  9
$TEXTSIZE
 40
0.2
  9
$TRACEWID
 40
0.05
  9
$TEXTSTYLE
  7
Standard
  9
$CLAYER
  8
0
  9
$CELTYPE
  6
ByLayer
  9
$CECOLOR
 62
   256
  9
$CELTSCALE
 40
1.0
  9
$DISPSILH
 70
     0
  9
$DIMSCALE
 40
1.0
  9
$DIMASZ
 40
0.18
  9
$DIMEXO
 40
0.0625
  9
$DIMDLI
 40
0.38
  9
$DIMRND
 40
0.0
  9
$DIMDLE
 40
0.0
  9
$DIMEXE
 40
0.18
  9
$DIMTP
 40
0.0
  9
$DIMTM
 40
0.0
  9
$DIMTXT
 40
0.18
  9
$DIMCEN
 40
0.09
  9
$DIMTSZ
 40
0.0
  9
$DIMTOL
 70
     0
  9
$DIMLIM
 70
     0
  9
$DIMTIH
 70
     1
  9
$DIMTOH
 70
     1
  9
$DIMSE1
 70
     0
  9
$DIMSE2
 70
     0
  9
$DIMTAD
 70
     0
  9
$DIMZIN
 70
     0
  9
$DIMBLK
  1

  9
$DIMASO
 70
     1
  9
$DIMSHO
 70
     1
  9
$DIMPOST
  1

  9
$DIMAPOST
  1

  9
$DIMALT
 70
     0
  9
$DIMALTD
 70
     2
  9
$DIMALTF
 40
25.4
  9
$DIMLFAC
 40
1.0
  9
$DIMTOFL
 70
     0
  9
$DIMTVP
 40
0.0
  9
$DIMTIX
 70
     0
  9
$DIMSOXD
 70
     0
  9
$DIMSAH
 70
     0
  9
$DIMBLK1
  1

  9
$DIMBLK2
  1

  9
$DIMSTYLE
  2
Standard
  9
$DIMCLRD
 70
     0
  9
$DIMCLRE
 70
     0
  9
$DIMCLRT
 70
     0
  9
$DIMTFAC
 40
1.0
  9
$DIMGAP
 40
0.09
  9
$DIMJUST
 70
     0
  9
$DIMSD1
 70
     0
  9
$DIMSD2
 70
     0
  9
$DIMTOLJ
 70
     1
  9
$DIMTZIN
 70
     0
  9
$DIMALTZ
 70
     0
  9
$DIMALTTZ
 70
     0
  9
$DIMUPT
 70
     0
  9
$DIMDEC
 70
     4
  9
$DIMTDEC
 70
     4
  9
$DIMALTU
 70
     2
  9
$DIMALTTD
 70
     2
  9
$DIMTXSTY
  7
Standard
  9
$DIMAUNIT
 70
     0
  9
$DIMADEC
 70
     0
  9
$DIMALTRND
 40
0.0
  9
$DIMAZIN
 70
     0
  9
$DIMDSEP
 70
    46
  9
$DIMATFIT
 70
     3
  9
$DIMFRAC
 70
     0
  9
$DIMLDRBLK
  1

  9
$DIMLUNIT
 70
     2
  9
$DIMLWD
 70
    -2
  9
$DIMLWE
 70
    -2
  9
$DIMTMOVE
 70
     0
  9
$LUNITS
 70
     2
  9
$LUPREC
 70
     4
  9
$SKETCHINC
 40
0.1
  9
$FILLETRAD
 40
0.5
  9
$AUNITS
 70
     0
  9
$AUPREC
 70
     0
  9
$MENU
  1
.
  9
$ELEVATION
 40
0.0
  9
$PELEVATION
 40
0.0
  9
$THICKNESS
 40
0.0
  9
$LIMCHECK
 70
     0
  9
$CHAMFERA
 40
0.5
  9
$CHAMFERB
 40
0.5
  9
$CHAMFERC
 40
1.0
  9
$CHAMFERD
 40
0.0
  9
$SKPOLY
 70
     0
  9
$TDCREATE
 40
2457212.595462986
  9
$TDUCREATE
 40
2457212.512129653
  9
$TDUPDATE
 40
2457212.595464062
  9
$TDUUPDATE
 40
2457212.512130729
  9
$TDINDWG
 40
0.0000000116
  9
$TDUSRTIMER
 40
0.0000000116
  9
$USRTIMER
 70
     1
  9
$ANGBASE
 50
0.0
  9
$ANGDIR
 70
     0
  9
$PDMODE
 70
     0
  9
$PDSIZE
 40
0.0
  9
$PLINEWID
 40
0.0
  9
$SPLFRAME
 70
     0
  9
$SPLINETYPE
 70
     6
  9
$SPLINESEGS
 70
     8
  9
$HANDSEED
  5
2AD
  9
$SURFTAB1
 70
     6
  9
$SURFTAB2
 70
     6
  9
$SURFTYPE
 70
     6
  9
$SURFU
 70
     6
  9
$SURFV
 70
     6
  9
$UCSBASE
  2

  9
$UCSNAME
  2

  9
$UCSORG
 10
0.0
 20
0.0
 30
0.0
  9
$UCSXDIR
 10
1.0
 20
0.0
 30
0.0
  9
$UCSYDIR
 10
0.0
 20
1.0
 30
0.0
  9
$UCSORTHOREF
  2

  9
$UCSORTHOVIEW
 70
     0
  9
$UCSORGTOP
 10
0.0
 20
0.0
 30
0.0
  9
$UCSORGBOTTOM
 10
0.0
 20
0.0
 30
0.0
  9
$UCSORGLEFT
 10
0.0
 20
0.0
 30
0.0
  9
$UCSORGRIGHT
 10
0.0
 20
0.0
 30
0.0
  9
$UCSORGFRONT
 10
0.0
 20
0.0
 30
0.0
  9
$UCSORGBACK
 10
0.0
 20
0.0
 30
0.0
  9
$PUCSBASE
  2

  9
$PUCSNAME
  2

  9
$PUCSORG
 10
0.0
 20
0.0
 30
0.0
  9
$PUCSXDIR
 10
1.0
 20
0.0
 30
0.0
  9
$PUCSYDIR
 10
0.0
 20
1.0
 30
0.0
  9
$PUCSORTHOREF
  2

  9
$PUCSORTHOVIEW
 70
     0
  9
$PUCSORGTOP
 10
0.0
 20
0.0
 30
0.0
  9
$PUCSORGBOTTOM
 10
0.0
 20
0.0
 30
0.0
  9
$PUCSORGLEFT
 10
0.0
 20
0.0
 30
0.0
  9
$PUCSORGRIGHT
 10
0.0
 20
0.0
 30
0.0
  9
$PUCSORGFRONT
 10
0.0
 20
0.0
 30
0.0
  9
$PUCSORGBACK
 10
0.0
 20
0.0
 30
0.0
  9
$USERI1
 70
     0
  9
$USERI2
 70
     0
  9
$USERI3
 70
     0
  9
$USERI4
 70
     0
  9
$USERI5
 70
     0
  9
$USERR1
 40
18.1
  9
$USERR2
 40
0.0
  9
$USERR3
 40
0.0
  9
$USERR4
 40
0.0
  9
$USERR5
 40
0.0
  9
$WORLDVIEW
 70
     1
  9
$SHADEDGE
 70
     3
  9
$SHADEDIF
 70
    70
  9
$TILEMODE
 70
     1
  9
$MAXACTVP
 70
    64
  9
$PINSBASE
 10
0.0
 20
0.0
 30
0.0
  9
$PLIMCHECK
 70
     0
  9
$PEXTMIN
 10
1.00000000000000E+20
 20
1.00000000000000E+20
 30
1.00000000000000E+20
  9
$PEXTMAX
 10
-1.00000000000000E+20
 20
-1.00000000000000E+20
 30
-1.00000000000000E+20
  9
$PLIMMIN
 10
0.0
 20
0.0
  9
$PLIMMAX
 10
12.0
 20
9.0
  9
$UNITMODE
 70
     0
  9
$VISRETAIN
 70
     1
  9
$PLINEGEN
 70
     0
  9
$PSLTSCALE
 70
     1
  9
$TREEDEPTH
 70
  3020
  9
$CMLSTYLE
  2
Standard
  9
$CMLJUST
 70
     0
  9
$CMLSCALE
 40
1.0
  9
$PROXYGRAPHICS
 70
     1
  9
$MEASUREMENT
 70
     1
  9
$CELWEIGHT
370
    -1
  9
$ENDCAPS
280
     0
  9
$JOINSTYLE
280
     0
  9
$LWDISPLAY
290
     0
  9
$INSUNITS
 70
     4
  9
$HYPERLINKBASE
  1

  9
$STYLESHEET
  1

  9
$XEDIT
290
     1
  9
$CEPSNTYPE
380
     0
  9
$PSTYLEMODE
290
     1
  9
$FINGERPRINTGUID
  2
{DFF1ED18-E7F5-49CC-B395-38C2F86DF478}
  9
$VERSIONGUID
  2
{FAEB1C32-E019-11D5-929B-00C0DF256EC4}
  9
$EXTNAMES
290
     1
  9
$PSVPSCALE
 40
0.0
  9
$OLESTARTUP
290
     0
  0
ENDSEC
  0
SECTION
  2
CLASSES
  0
CLASS
  1
ACDBDICTIONARYWDFLT
  2
AcDbDictionaryWithDefault
  3
ObjectDBX Classes
 90
        0
280
     0
281
     0
  0
CLASS
  1
VISUALSTYLE
  2
AcDbVisualStyle
  3
ObjectDBX Classes
 90
     4095
280
     0
281
     0
  0
CLASS
  1
MATERIAL
  2
AcDbMaterial
  3
ObjectDBX Classes
 90
     1153
280
     0
281
     0
  0
CLASS
  1
DICTIONARYVAR
  2
AcDbDictionaryVar
  3
ObjectDBX Classes
 90
        0
280
     0
281
     0
  0
CLASS
  1
ACDBPLACEHOLDER
  2
AcDbPlaceHolder
  3
ObjectDBX Classes
 90
        0
280
     0
281
     0
  0
CLASS
  1
LAYOUT
  2
AcDbLayout
  3
ObjectDBX Classes
 90
        0
280
     0
281
     0
  0
ENDSEC
  0
SECTION
  2
TABLES
  0
TABLE
  2
VPORT
  5
8
330
0
100
AcDbSymbolTable
 70
     1
  0
VPORT
  5
29
330
8
100
AcDbSymbolTableRecord
100
AcDbViewportTableRecord
  2
*Active
 70
     0
 10
0.0
 20
0.0
 11
1.0
 21
1.0
 12
-238.0000003468906
 22
-159.9545407769839
 13
0.0
 23
0.0
 14
0.5
 24
0.5
 15
0.5
 25
0.5
 16
0.0
 26
0.0
 36
1.0
 17
0.0
 27
0.0
 37
0.0
 40
231.0000000000001
 41
1.60267857142857
 42
50.0
 43
0.0
 44
0.0
 50
0.0
 51
0.0
 71
     0
 72
   100
 73
     1
 74
     3
 75
     0
 76
     0
 77
     0
 78
     0
281
     0
 65
     1
110
0.0
120
0.0
130
0.0
111
1.0
121
0.0
131
0.0
112
0.0
122
1.0
132
0.0
 79
     0
146
0.0
  0
ENDTAB
  0
TABLE
  2
LTYPE
  5
5
330
0
100
AcDbSymbolTable
 70
     8
  0
LTYPE
  5
14
330
5
100
AcDbSymbolTableRecord
100
AcDbLinetypeTableRecord
  2
ByBlock
 70
     0
  3

 72
    65
 73
     0
 40
0.0
  0
LTYPE
  5
15
330
5
100
AcDbSymbolTableRecord
100
AcDbLinetypeTableRecord
  2
ByLayer
 70
     0
  3

 72
    65
 73
     0
 40
0.0
  0
LTYPE
  5
16
330
5
100
AcDbSymbolTableRecord
100
AcDbLinetypeTableRecord
  2
Continuous
 70
     0
  3
Solid line
 72
    65
 73
     0
 40
0.0
  0
LTYPE
  5
3F
330
5
100
AcDbSymbolTableRecord
100
AcDbLinetypeTableRecord
  2
DASHED
 70
     0
  3
Dashed
 72
    65
 73
     2
 40
15.0
 49
7.0
 74
     0
 49
-8.0
 74
     0
  0
LTYPE
  5
40
330
5
100
AcDbSymbolTableRecord
100
AcDbLinetypeTableRecord
  2
DOTTED
 70
     0
  3
Dotted
 72
    65
 73
     2
 40
1.0
 49
0.0
 74
     0
 49
-1.0
 74
     0
  0
LTYPE
  5
41
330
5
100
AcDbSymbolTableRecord
100
AcDbLinetypeTableRecord
  2
DOT_CENTER
 70
     0
  3
Dot_Center
 72
    65
 73
     4
 40
14.0
 49
12.0
 74
     0
 49
-1.0
 74
     0
 49
0.0
 74
     0
 49
-1.0
 74
     0
  0
LTYPE
  5
42
330
5
100
AcDbSymbolTableRecord
100
AcDbLinetypeTableRecord
  2
LONG_DASHED
 70
     0
  3
Long_Dashed
 72
    65
 73
     2
 40
15.0
 49
10.0
 74
     0
 49
-5.0
 74
     0
  0
LTYPE
  5
43
330
5
100
AcDbSymbolTableRecord
100
AcDbLinetypeTableRecord
  2
DASH_CENTER
 70
     0
  3
Dash_Center
 72
    65
 73
     4
 40
14.0
 49
11.0
 74
     0
 49
-1.0
 74
     0
 49
1.0
 74
     0
 49
-1.0
 74
     0
  0
LTYPE
  5
44
330
5
100
AcDbSymbolTableRecord
100
AcDbLinetypeTableRecord
  2
PHANTOM
 70
     0
  3
Phantom
 72
    65
 73
     6
 40
13.0
 49
10.0
 74
     0
 49
-1.0
 74
     0
 49
0.0
 74
     0
 49
-1.0
 74
     0
 49
0.0
 74
     0
 49
-1.0
 74
     0
  0
LTYPE
  5
45
330
5
100
AcDbSymbolTableRecord
100
AcDbLinetypeTableRecord
  2
CENTER_DASH_DASH
 70
     0
  3
Center_Dash_Dash
 72
    65
 73
     6
 40
14.0
 49
9.0
 74
     0
 49
-1.0
 74
     0
 49
1.0
 74
     0
 49
-1.0
 74
     0
 49
1.0
 74
     0
 49
-1.0
 74
     0
  0
ENDTAB
  0
TABLE
  2
LAYER
  5
2
330
0
100
AcDbSymbolTable
 70
     2
  0
LAYER
  5
10
330
2
100
AcDbSymbolTableRecord
100
AcDbLayerTableRecord
  2
0
 70
     0
 62
     7
  6
Continuous
370
    -3
390
F
  0
LAYER
  5
46
330
2
100
AcDbSymbolTableRecord
100
AcDbLayerTableRecord
  2
1
 70
     0
 62
     7
  6
Continuous
370
    -3
390
F
  0
ENDTAB
  0
TABLE
  2
STYLE
  5
3
330
0
100
AcDbSymbolTable
 70
     5
  0
STYLE
  5
11
330
3
100
AcDbSymbolTableRecord
100
AcDbTextStyleTableRecord
  2
Standard
 70
     0
 40
0.0
 41
1.0
 50
0.0
 71
     0
 42
0.2
  3
txt
  4

  0
STYLE
  5
B5
330
3
100
AcDbSymbolTableRecord
100
AcDbTextStyleTableRecord
  2
CONVERTER_11
 70
     0
 40
0.0
 41
0.9
 50
0.0
 71
     0
 42
0.2
  3
txt.shx
  4

  0
STYLE
  5
247
330
3
100
AcDbSymbolTableRecord
100
AcDbTextStyleTableRecord
  2
CONVERTER_12
 70
     0
 40
0.0
 41
0.81
 50
0.0
 71
     0
 42
0.2
  3
txt.shx
  4

  0
STYLE
  5
25D
330
3
100
AcDbSymbolTableRecord
100
AcDbTextStyleTableRecord
  2
CONVERTER_13
 70
     0
 40
0.0
 41
0.72
 50
0.0
 71
     0
 42
0.2
  3
txt.shx
  4

  0
STYLE
  5
260
330
3
100
AcDbSymbolTableRecord
100
AcDbTextStyleTableRecord
  2
CONVERTER_14
 70
     0
 40
0.0
 41
0.855
 50
0.0
 71
     0
 42
0.2
  3
txt.shx
  4

  0
ENDTAB
  0
TABLE
  2
VIEW
  5
6
330
0
100
AcDbSymbolTable
 70
     0
  0
ENDTAB
  0
TABLE
  2
UCS
  5
7
330
0
100
AcDbSymbolTable
 70
     0
  0
ENDTAB
  0
TABLE
  2
APPID
  5
9
330
0
100
AcDbSymbolTable
 70
     1
  0
APPID
  5
12
330
9
100
AcDbSymbolTableRecord
100
AcDbRegAppTableRecord
  2
ACAD
 70
     0
  0
ENDTAB
  0
TABLE
  2
DIMSTYLE
  5
A
330
0
100
AcDbSymbolTable
 70
     4
100
AcDbDimStyleTable
  0
DIMSTYLE
105
27
330
A
100
AcDbSymbolTableRecord
100
AcDbDimStyleTableRecord
  2
Standard
 70
     0
178
     0
340
11
  0
DIMSTYLE
105
D7
102
{ACAD_REACTORS
330
D8
102
}
330
A
100
AcDbSymbolTableRecord
100
AcDbDimStyleTableRecord
  2
ME10_DIM_10
 70
     0
 41
1.75
 42
0.0
 44
0.75
 73
     0
 74
     0
 77
     1
 78
     8
140
1.75
147
0.75
172
     1
173
     1
174
     1
175
     1
176
     2
177
     2
271
     1
178
     3
271
     1
340
B5
  0
DIMSTYLE
105
13C
102
{ACAD_REACTORS
330
13D
102
}
330
A
100
AcDbSymbolTableRecord
100
AcDbDimStyleTableRecord
  2
ME10_DIM_11
 70
     0
 41
1.75
 42
0.0
 44
0.75
 73
     0
 74
     0
 77
     1
 78
     8
140
1.75
147
0.75
172
     1
173
     1
174
     1
175
     1
176
     2
177
     2
271
     1
178
     3
271
     1
340
B5
  0
DIMSTYLE
105
147
102
{ACAD_REACTORS
330
148
102
}
330
A
100
AcDbSymbolTableRecord
100
AcDbDimStyleTableRecord
  2
ME10_DIM_12
 70
     0
 41
1.75
 42
0.0
 44
0.75
 73
     0
 74
     0
 77
     1
 78
     8
140
1.75
147
0.75
172
     1
173
     1
174
     1
175
     1
176
     2
177
     2
271
     1
178
     3
271
     1
340
B5
  0
ENDTAB
  0
TABLE
  2
BLOCK_RECORD
  5
1
330
0
100
AcDbSymbolTable
 70
    19
  0
BLOCK_RECORD
  5
1F
330
1
100
AcDbSymbolTableRecord
100
AcDbBlockTableRecord
  2
*Model_Space
340
22
  0
BLOCK_RECORD
  5
1B
330
1
100
AcDbSymbolTableRecord
100
AcDbBlockTableRecord
  2
*Paper_Space
340
1E
  0
BLOCK_RECORD
  5
23
330
1
100
AcDbSymbolTableRecord
100
AcDbBlockTableRecord
  2
*Paper_Space0
340
26
  0
BLOCK_RECORD
  5
47
330
1
100
AcDbSymbolTableRecord
100
AcDbBlockTableRecord
  2
0803312_PATG_5_12-select__1
340
0
102
{BLKREFS
331
4B
102
}
  0
BLOCK_RECORD
  5
4A
330
1
100
AcDbSymbolTableRecord
100
AcDbBlockTableRecord
  2
Allg1
340
0
102
{BLKREFS
331
7C
102
}
  0
BLOCK_RECORD
  5
4E
330
1
100
AcDbSymbolTableRecord
100
AcDbBlockTableRecord
  2
0803312_PATG_5_12-select__2
340
0
102
{BLKREFS
331
52
102
}
  0
BLOCK_RECORD
  5
51
330
1
100
AcDbSymbolTableRecord
100
AcDbBlockTableRecord
  2
Drfsicht1
340
0
102
{BLKREFS
331
7D
102
}
  0
BLOCK_RECORD
  5
55
330
1
100
AcDbSymbolTableRecord
100
AcDbBlockTableRecord
  2
0803312_PATG_5_12-select__3
340
0
102
{BLKREFS
331
59
102
}
  0
BLOCK_RECORD
  5
58
330
1
100
AcDbSymbolTableRecord
100
AcDbBlockTableRecord
  2
Rckans1
340
0
102
{BLKREFS
331
7E
102
}
  0
BLOCK_RECORD
  5
5C
330
1
100
AcDbSymbolTableRecord
100
AcDbBlockTableRecord
  2
0803312_PATG_5_12-select__4
340
0
102
{BLKREFS
331
60
102
}
  0
BLOCK_RECORD
  5
5F
330
1
100
AcDbSymbolTableRecord
100
AcDbBlockTableRecord
  2
SA_Links1
340
0
102
{BLKREFS
331
7F
102
}
  0
BLOCK_RECORD
  5
63
330
1
100
AcDbSymbolTableRecord
100
AcDbBlockTableRecord
  2
0803312_PATG_5_12-select__5
340
0
102
{BLKREFS
331
67
102
}
  0
BLOCK_RECORD
  5
66
330
1
100
AcDbSymbolTableRecord
100
AcDbBlockTableRecord
  2
SA_Rechts1
340
0
102
{BLKREFS
331
80
102
}
  0
BLOCK_RECORD
  5
6A
330
1
100
AcDbSymbolTableRecord
100
AcDbBlockTableRecord
  2
0803312_PATG_5_12-select__6
340
0
102
{BLKREFS
331
6E
102
}
  0
BLOCK_RECORD
  5
6D
330
1
100
AcDbSymbolTableRecord
100
AcDbBlockTableRecord
  2
Vordans1
340
0
102
{BLKREFS
331
81
102
}
  0
BLOCK_RECORD
  5
71
330
1
100
AcDbSymbolTableRecord
100
AcDbBlockTableRecord
  2
_punkt
340
0
102
{BLKREFS
331
78
102
}
  0
BLOCK_RECORD
  5
74
330
1
100
AcDbSymbolTableRecord
100
AcDbBlockTableRecord
  2
_rahmen
340
0
102
{BLKREFS
331
79
102
}
  0
BLOCK_RECORD
  5
77
330
1
100
AcDbSymbolTableRecord
100
AcDbBlockTableRecord
  2
A4I_CS
340
0
102
{BLKREFS
331
82
102
}
  0
BLOCK_RECORD
  5
CE
330
1
100
AcDbSymbolTableRecord
100
AcDbBlockTableRecord
  2
*D16
340
0
  0
BLOCK_RECORD
  5
133
330
1
100
AcDbSymbolTableRecord
100
AcDbBlockTableRecord
  2
*D17
340
0
  0
BLOCK_RECORD
  5
13E
330
1
100
AcDbSymbolTableRecord
100
AcDbBlockTableRecord
  2
*D18
340
0
  0
ENDTAB
  0
ENDSEC
  0
SECTION
  2
BLOCKS
  0
BLOCK
  5
20
330
1F
100
AcDbEntity
  8
0
100
AcDbBlockBegin
  2
*Model_Space
 70
     0
 10
0.0
 20
0.0
 30
0.0
  3
*Model_Space
  1

  0
ENDBLK
  5
21
330
1F
100
AcDbEntity
  8
0
100
AcDbBlockEnd
  0
BLOCK
  5
1C
330
1B
100
AcDbEntity
 67
     1
  8
0
100
AcDbBlockBegin
  2
*Paper_Space
 70
     0
 10
0.0
 20
0.0
 30
0.0
  3
*Paper_Space
  1

  0
ENDBLK
  5
1D
330
1B
100
AcDbEntity
 67
     1
  8
0
100
AcDbBlockEnd
  0
BLOCK
  5
24
330
23
100
AcDbEntity
  8
0
100
AcDbBlockBegin
  2
*Paper_Space0
 70
     0
 10
0.0
 20
0.0
 30
0.0
  3
*Paper_Space0
  1

  0
ENDBLK
  5
25
330
23
100
AcDbEntity
  8
0
100
AcDbBlockEnd
  0
BLOCK
  5
48
330
47
100
AcDbEntity
  8
0
100
AcDbBlockBegin
  2
0803312_PATG_5_12-select__1
 70
     0
 10
-81.97310056861264
 20
-105.5193361552518
 30
0.0
  3
0803312_PATG_5_12-select__1
  1

  0
LINE
  5
83
330
47
100
AcDbEntity
  8
0
  6
Continuous
 62
     2
100
AcDbLine
 10
-70.50546781625327
 20
-104.8621256767451
 30
0.0
 11
-70.41507701596558
 21
-104.8882192531843
 31
0.0
  0
LINE
  5
84
330
47
100
AcDbEntity
  8
0
  6
Continuous
 62
     7
100
AcDbLine
 10
-70.62716395647632
 20
-105.4533017195031
 30
0.0
 11
-81.01946880188957
 21
-102.4533017195031
 31
0.0
  0
LINE
  5
85
330
47
100
AcDbEntity
  8
0
  6
Continuous
 62
     2
100
AcDbLine
 10
-81.86195603765077
 20
-101.0558612912707
 30
0.0
 11
-71.46965119223749
 21
-104.0558612912707
 31
0.0
  0
LINE
  5
86
330
47
100
AcDbEntity
  8
0
  6
Continuous
 62
     2
100
AcDbLine
 10
-66.12175648636932
 20
-97.35864451857906
 30
0.0
 11
-64.43082763772848
 21
-97.84677363155072
 31
0.0
  0
LINE
  5
87
330
47
100
AcDbEntity
  8
0
  6
Continuous
 62
     7
100
AcDbLine
 10
-67.67668969153706
 20
-93.91089384546719
 30
0.0
 11
-67.93100599419718
 21
-94.13113822416737
 31
0.0
  0
LINE
  5
88
330
47
100
AcDbEntity
  8
0
  6
Continuous
 62
     2
100
AcDbLine
 10
-79.28589112744928
 20
-89.38578443849462
 30
0.0
 11
-68.89358628203598
 21
-92.38578443849462
 31
0.0
  0
LINE
  5
89
330
47
100
AcDbEntity
  8
0
  6
Continuous
 62
     2
100
AcDbLine
 10
-78.67651612744928
 20
-87.78634377088021
 30
0.0
 11
-68.284211282036
 21
-90.78634377088021
 31
0.0
  0
LINE
  5
8A
330
47
100
AcDbEntity
  8
0
  6
Continuous
 62
     2
100
AcDbLine
 10
-77.7157892491115
 20
-86.95432988814119
 30
0.0
 11
-67.32348440369822
 21
-89.95432988814119
 31
0.0
  0
LINE
  5
8B
330
47
100
AcDbEntity
  8
0
  6
Continuous
 62
     7
100
AcDbLine
 10
-67.03846746721175
 20
-89.90569922150017
 30
0.0
 11
-77.430772312625
 21
-86.90569922150017
 31
0.0
  0
LINE
  5
8C
330
47
100
AcDbEntity
  8
0
  6
Continuous
 62
     7
100
AcDbLine
 10
-71.15012745956193
 20
-103.8461867542145
 30
0.0
 11
-69.20024485920008
 21
-104.409069376318
 31
0.0
  0
LINE
  5
8D
330
47
100
AcDbEntity
  8
0
  6
Continuous
 62
     7
100
AcDbLine
 10
-66.7413232631251
 20
-92.29171152325863
 30
0.0
 11
-65.61239715607881
 21
-92.6176044191578
 31
0.0
  0
LINE
  5
8E
330
47
100
AcDbEntity
  8
0
  6
Continuous
 62
     7
100
AcDbLine
 10
-69.62720633629033
 20
-96.3122206128839
 30
0.0
 11
-66.1189288360958
 21
-97.32497309244852
 31
0.0
  0
LINE
  5
8F
330
47
100
AcDbEntity
  8
0
  6
Continuous
 62
     7
100
AcDbLine
 10
-66.1189288360958
 20
-97.32497309244852
 30
0.0
 11
-69.48876684963841
 21
-100.2433384188149
 31
0.0
  0
LINE
  5
90
330
47
100
AcDbEntity
  8
0
  6
Continuous
 62
     7
100
AcDbLine
 10
-69.14000370711376
 20
-100.4609159197555
 30
0.0
 11
-66.46769197862046
 21
-98.14662607604922
 31
0.0
  0
LINE
  5
91
330
47
100
AcDbEntity
  8
0
  6
Continuous
 62
     7
100
AcDbLine
 10
-68.80112581490255
 20
-94.5007692971263
 30
0.0
 11
-79.19343066031581
 21
-91.5007692971263
 31
0.0
  0
LINE
  5
92
330
47
100
AcDbEntity
  8
0
  6
Continuous
 62
     7
100
AcDbLine
 10
-70.9278995786059
 20
-99.82789658458042
 30
0.0
 11
-69.48876684963841
 21
-100.2433384188149
 31
0.0
  0
LINE
  5
93
330
47
100
AcDbEntity
  8
0
  6
Continuous
 62
     2
100
AcDbLine
 10
-66.31271001965935
 20
-100.0420951339836
 30
0.0
 11
-65.19261866976866
 21
-100.3654376551717
 31
0.0
  0
LINE
  5
94
330
47
100
AcDbEntity
  8
0
  6
Continuous
 62
     7
100
AcDbLine
 10
-69.01212797102944
 20
-102.0786125950835
 30
0.0
 11
-66.7257198970149
 21
-102.7386417535883
 31
0.0
  0
SPLINE
  5
95
330
47
100
AcDbEntity
  8
0
  6
Continuous
 62
     7
100
AcDbSpline
210
0.0
220
0.0
230
1.0
 70
     8
 71
     3
 72
    11
 73
     7
 74
     5
 42
0.000000001
 43
0.0000000001
 44
0.00000001
 40
0.0
 40
0.0
 40
0.0
 40
0.0
 40
0.4045187433894812
 40
0.7583335390794446
 40
1.068930331155653
 40
1.351584309507114
 40
1.351584309507114
 40
1.351584309507114
 40
1.351584309507114
 10
-69.20024485920008
 20
-104.409069376318
 30
0.0
 10
-69.30352725485264
 20
-104.4963985098607
 30
0.0
 10
-69.4971462385782
 20
-104.6601105935423
 30
0.0
 10
-69.81331166802148
 20
-104.8279632016141
 30
0.0
 10
-70.12225796129547
 20
-104.9192020869377
 30
0.0
 10
-70.32058446900744
 20
-104.8982174013149
 30
0.0
 10
-70.41507701596558
 20
-104.8882192531843
 30
0.0
 11
-69.20024485920008
 21
-104.409069376318
 31
0.0
 11
-69.51882170205306
 21
-104.6583567756075
 31
0.0
 11
-69.83182932372713
 21
-104.8233147708389
 31
0.0
 11
-70.13268891164397
 21
-104.9004761467894
 31
0.0
 11
-70.41507701596558
 21
-104.8882192531843
 31
0.0
  0
SPLINE
  5
96
330
47
100
AcDbEntity
  8
0
  6
Continuous
 62
     7
100
AcDbSpline
210
0.0
220
0.0
230
1.0
 70
     8
 71
     3
 72
    11
 73
     7
 74
     5
 42
0.000000001
 43
0.0000000001
 44
0.00000001
 40
0.0
 40
0.0
 40
0.0
 40
0.0
 40
0.6128499832070924
 40
1.138224996519846
 40
1.584481574152925
 40
1.977452890951877
 40
1.977452890951877
 40
1.977452890951877
 40
1.977452890951877
 10
-68.88197578871933
 20
-104.6060141328642
 30
0.0
 10
-69.02332073328586
 20
-104.7544905204647
 30
0.0
 10
-69.28583580023444
 20
-105.0302505507411
 30
0.0
 10
-69.72529076304168
 20
-105.3264220648663
 30
0.0
 10
-70.1592163990569
 20
-105.5001716603938
 30
0.0
 10
-70.44132713617691
 20
-105.4773670086005
 30
0.0
 10
-70.57342644866083
 20
-105.466688645832
 30
0.0
 11
-68.88197578871933
 21
-104.6060141328642
 31
0.0
 11
-69.32142500982808
 21
-105.0331785970329
 31
0.0
 11
-69.75877837789172
 21
-105.3242815672326
 31
0.0
 11
-70.18047167036323
 21
-105.4702942538373
 31
0.0
 11
-70.57342644866083
 21
-105.466688645832
 31
0.0
  0
SPLINE
  5
97
330
47
100
AcDbEntity
  8
0
  6
Continuous
 62
     7
100
AcDbSpline
210
0.0
220
0.0
230
1.0
 70
     8
 71
     3
 72
    11
 73
     7
 74
     5
 42
0.000000001
 43
0.0000000001
 44
0.00000001
 40
0.0
 40
0.0
 40
0.0
 40
0.0
 40
0.3363104720874332
 40
0.7189251602670104
 40
1.175199429906479
 40
1.713340579759154
 40
1.713340579759154
 40
1.713340579759154
 40
1.713340579759154
 10
-81.01946880188957
 20
-102.4533017195031
 30
0.0
 10
-81.12333708756456
 20
-102.4069780996623
 30
0.0
 10
-81.34537454306964
 20
-102.3079528747216
 30
0.0
 10
-81.58717713912596
 20
-101.9831294443088
 30
0.0
 10
-81.76997352781954
 20
-101.5604157547979
 30
0.0
 10
-81.82965734916277
 20
-101.2330302951876
 30
0.0
 10
-81.86195603765077
 20
-101.0558612912707
 30
0.0
 11
-81.01946880188957
 21
-102.4533017195031
 31
0.0
 11
-81.31485475200192
 21
-102.2925165324403
 31
0.0
 11
-81.55928083041013
 21
-101.9981529883071
 31
0.0
 11
-81.74388000586237
 21
-101.5808888554517
 31
0.0
 11
-81.86195603765077
 21
-101.0558612912707
 31
0.0
  0
SPLINE
  5
98
330
47
100
AcDbEntity
  8
0
  6
Continuous
 62
     7
100
AcDbSpline
210
0.0
220
0.0
230
1.0
 70
     8
 71
     3
 72
    11
 73
     7
 74
     5
 42
0.000000001
 43
0.0000000001
 44
0.00000001
 40
0.0
 40
0.0
 40
0.0
 40
0.0
 40
0.3363104720874207
 40
0.7189251602669979
 40
1.175199429906472
 40
1.713340579759141
 40
1.713340579759141
 40
1.713340579759141
 40
1.713340579759141
 10
-70.62716395647632
 20
-105.4533017195031
 30
0.0
 10
-70.7310322421513
 20
-105.4069780996623
 30
0.0
 10
-70.95306969765639
 20
-105.3079528747216
 30
0.0
 10
-71.19487229371269
 20
-104.9831294443088
 30
0.0
 10
-71.3776686824063
 20
-104.5604157547979
 30
0.0
 10
-71.4373525037495
 20
-104.2330302951876
 30
0.0
 10
-71.46965119223749
 20
-104.0558612912707
 30
0.0
 11
-70.62716395647632
 21
-105.4533017195031
 31
0.0
 11
-70.92254990658866
 21
-105.2925165324403
 31
0.0
 11
-71.16697598499687
 21
-104.9981529883071
 31
0.0
 11
-71.35157516044912
 21
-104.5808888554517
 31
0.0
 11
-71.46965119223749
 21
-104.0558612912707
 31
0.0
  0
SPLINE
  5
99
330
47
100
AcDbEntity
  8
0
  6
Continuous
 62
     7
100
AcDbSpline
210
0.0
220
0.0
230
1.0
 70
     8
 71
     3
 72
     9
 73
     5
 74
     3
 42
0.000000001
 43
0.0000000001
 44
0.00000001
 40
0.0
 40
0.0
 40
0.0
 40
0.0
 40
0.02770993116233
 40
0.0553892705471444
 40
0.0553892705471444
 40
0.0553892705471444
 40
0.0553892705471444
 10
-70.57342644866083
 20
-105.466688645832
 30
0.0
 10
-70.58244935380654
 20
-105.4647039526074
 30
0.0
 10
-70.6004851981517
 20
-105.4607367378158
 30
0.0
 10
-70.6182743137111
 20
-105.4557791526892
 30
0.0
 10
-70.62716395647632
 20
-105.4533017195031
 30
0.0
 11
-70.57342644866083
 21
-105.466688645832
 31
0.0
 11
-70.60043341150816
 21
-105.4604866902536
 31
0.0
 11
-70.62716395647632
 21
-105.4533017195031
 31
0.0
  0
SPLINE
  5
9A
330
47
100
AcDbEntity
  8
0
  6
Continuous
 62
     7
100
AcDbSpline
210
0.0
220
0.0
230
1.0
 70
     8
 71
     3
 72
    11
 73
     7
 74
     5
 42
0.000000001
 43
0.0000000001
 44
0.00000001
 40
0.0
 40
0.0
 40
0.0
 40
0.0
 40
0.6456477382209095
 40
1.315729995100919
 40
1.988991457288182
 40
2.643977983533665
 40
2.643977983533665
 40
2.643977983533665
 40
2.643977983533665
 10
-65.19261866976866
 20
-100.3654376551717
 30
0.0
 10
-65.0996653576093
 20
-100.1711419908291
 30
0.0
 10
-64.91024093189763
 20
-99.7751975425535
 30
0.0
 10
-64.69575234371734
 20
-99.14664474552268
 30
0.0
 10
-64.52540320249344
 20
-98.5015604729247
 30
0.0
 10
-64.4620623255139
 20
-98.0630246886752
 30
0.0
 10
-64.43082763772848
 20
-97.84677363155072
 30
0.0
 11
-65.19261866976866
 21
-100.3654376551717
 31
0.0
 11
-64.92520614081853
 21
-99.77777147291934
 31
0.0
 11
-64.70364654933942
 21
-99.14537794062656
 31
0.0
 11
-64.5366625315504
 21
-98.49315302886826
 31
0.0
 11
-64.43082763772848
 21
-97.84677363155072
 31
0.0
  0
SPLINE
  5
9B
330
47
100
AcDbEntity
  8
0
  6
Continuous
 62
     7
100
AcDbSpline
210
0.0
220
0.0
230
1.0
 70
     8
 71
     3
 72
    11
 73
     7
 74
     5
 42
0.000000001
 43
0.0000000001
 44
0.00000001
 40
0.0
 40
0.0
 40
0.0
 40
0.0
 40
0.7595855744503829
 40
1.547917641536156
 40
2.339989950155391
 40
3.110562334036087
 40
3.110562334036087
 40
3.110562334036087
 40
3.110562334036087
 10
-65.03426923707343
 20
-100.6696377850415
 30
0.0
 10
-64.92491239922839
 20
-100.4410546504989
 30
0.0
 10
-64.70206013121049
 20
-99.97523765354742
 30
0.0
 10
-64.44972061693596
 20
-99.23576377406317
 30
0.0
 10
-64.24930986119209
 20
-98.4768411005881
 30
0.0
 10
-64.174791185012
 20
-97.96091664800743
 30
0.0
 10
-64.13804449349674
 20
-97.70650363960502
 30
0.0
 11
-65.03426923707343
 21
-100.6696377850415
 31
0.0
 11
-64.71966626183799
 21
-99.97826580592104
 31
0.0
 11
-64.45900791892137
 21
-99.23427341498837
 31
0.0
 11
-64.26255613328722
 21
-98.46694998939037
 31
0.0
 11
-64.13804449349674
 21
-97.70650363960502
 31
0.0
  0
SPLINE
  5
9C
330
47
100
AcDbEntity
  8
0
  6
Continuous
 62
     7
100
AcDbSpline
210
0.0
220
0.0
230
1.0
 70
     8
 71
     3
 72
    13
 73
     9
 74
     7
 42
0.000000001
 43
0.0000000001
 44
0.00000001
 40
0.0
 40
0.0
 40
0.0
 40
0.0
 40
0.2951582768103141
 40
0.6015716477190745
 40
0.9088101282071801
 40
1.206388358705985
 40
1.484483947008652
 40
1.73472862864978
 40
1.73472862864978
 40
1.73472862864978
 40
1.73472862864978
 10
-79.28589112744928
 20
-89.38578443849462
 30
0.0
 10
-79.27442839561897
 20
-89.28799259472106
 30
0.0
 10
-79.25106581575704
 20
-89.08867987129942
 30
0.0
 10
-79.17996953330578
 20
-88.79355338376351
 30
0.0
 10
-79.08551839849683
 20
-88.50448396212218
 30
0.0
 10
-78.96771766019795
 20
-88.23450011039857
 30
0.0
 10
-78.83562810618605
 20
-87.99182344276943
 30
0.0
 10
-78.72765624958485
 20
-87.85238690815318
 30
0.0
 10
-78.67651612744928
 20
-87.78634377088021
 30
0.0
 11
-79.28589112744928
 21
-89.38578443849462
 31
0.0
 11
-79.24579794269569
 21
-89.09336189426188
 31
0.0
 11
-79.17614446661179
 21
-88.79497029451795
 31
0.0
 11
-79.07987072142149
 21
-88.50320523448374
 31
0.0
 11
-78.96104072154125
 21
-88.23038251585629
 31
0.0
 11
-78.82467035694803
 21
-87.98801857217109
 31
0.0
 11
-78.67651612744928
 21
-87.78634377088021
 31
0.0
  0
SPLINE
  5
9D
330
47
100
AcDbEntity
  8
0
  6
Continuous
 62
     7
100
AcDbSpline
210
0.0
220
0.0
230
1.0
 70
     8
 71
     3
 72
     9
 73
     5
 74
     3
 42
0.000000001
 43
0.0000000001
 44
0.00000001
 40
0.0
 40
0.0
 40
0.0
 40
0.0
 40
1.1985155661333
 40
2.281558450931983
 40
2.281558450931983
 40
2.281558450931983
 40
2.281558450931983
 10
-66.80656987083168
 20
-92.77343318029166
 30
0.0
 10
-66.75317196118546
 20
-92.37644611721969
 30
0.0
 10
-66.65152085913425
 20
-91.62072027115605
 30
0.0
 10
-66.69396255932061
 20
-90.85960107160054
 30
0.0
 10
-66.71410940369825
 20
-90.49830209489332
 30
0.0
 11
-66.80656987083168
 21
-92.77343318029166
 31
0.0
 11
-66.68613799038235
 21
-91.58098371555523
 31
0.0
 11
-66.71410940369825
 21
-90.49830209489332
 31
0.0
  0
SPLINE
  5
9E
330
47
100
AcDbEntity
  8
0
  6
Continuous
 62
     7
100
AcDbSpline
210
0.0
220
0.0
230
1.0
 70
     8
 71
     3
 72
    11
 73
     7
 74
     5
 42
0.000000001
 43
0.0000000001
 44
0.00000001
 40
0.0
 40
0.0
 40
0.0
 40
0.0
 40
0.1363278649639707
 40
0.2940351130275426
 40
0.4848124453210045
 40
0.7111677446243485
 40
0.7111677446243485
 40
0.7111677446243485
 40
0.7111677446243485
 10
-67.03846746721175
 20
-89.90569922150017
 30
0.0
 10
-66.99652936750184
 20
-89.9250399104158
 30
0.0
 10
-66.90607630520759
 20
-89.96675437132355
 30
0.0
 10
-66.81189481488437
 20
-90.10546721147387
 30
0.0
 10
-66.74353128467114
 20
-90.28493267541486
 30
0.0
 10
-66.72445893144163
 20
-90.42324660894069
 30
0.0
 10
-66.71410940369825
 20
-90.49830209489332
 30
0.0
 11
-67.03846746721175
 21
-89.90569922150017
 31
0.0
 11
-66.91981858150969
 21
-89.97283884960275
 31
0.0
 11
-66.82369601494464
 21
-90.09786696763877
 31
0.0
 11
-66.7541496560451
 21
-90.27551632954204
 31
0.0
 11
-66.71410940369825
 21
-90.49830209489332
 31
0.0
  0
SPLINE
  5
9F
330
47
100
AcDbEntity
  8
0
  6
Continuous
 62
     7
100
AcDbSpline
210
0.0
220
0.0
230
1.0
 70
     8
 71
     3
 72
     9
 73
     5
 74
     3
 42
0.000000001
 43
0.0000000001
 44
0.00000001
 40
0.0
 40
0.0
 40
0.0
 40
0.0
 40
0.1582851776505189
 40
0.2950209999706961
 40
0.2950209999706961
 40
0.2950209999706961
 40
0.2950209999706961
 10
-67.32348440369822
 20
-89.95432988814119
 30
0.0
 10
-67.27487424324431
 20
-89.9304281851501
 30
0.0
 10
-67.18427183126752
 20
-89.88587883792253
 30
0.0
 10
-67.08464318162044
 20
-89.89942217163059
 30
0.0
 10
-67.03846746721175
 20
-89.90569922150017
 30
0.0
 11
-67.32348440369822
 21
-89.95432988814119
 31
0.0
 11
-67.17505566615455
 21
-89.89934709114168
 31
0.0
 11
-67.03846746721175
 21
-89.90569922150017
 31
0.0
  0
SPLINE
  5
A0
330
47
100
AcDbEntity
  8
0
  6
Continuous
 62
     7
100
AcDbSpline
210
0.0
220
0.0
230
1.0
 70
     8
 71
     3
 72
     9
 73
     5
 74
     3
 42
0.000000001
 43
0.0000000001
 44
0.00000001
 40
0.0
 40
0.0
 40
0.0
 40
0.0
 40
0.685639653599226
 40
1.275762625649793
 40
1.275762625649793
 40
1.275762625649793
 40
1.275762625649793
 10
-68.284211282036
 20
-90.78634377088021
 30
0.0
 10
-68.13105449966582
 20
-90.61511566275986
 30
0.0
 10
-67.84607724220767
 20
-90.29651330424554
 30
0.0
 10
-67.48876465808162
 20
-90.06255211002222
 30
0.0
 10
-67.32348440369822
 20
-89.95432988814119
 30
0.0
 11
-68.284211282036
 21
-90.78634377088021
 31
0.0
 11
-67.8038478428671
 21
-90.29710691403656
 31
0.0
 11
-67.32348440369822
 21
-89.95432988814119
 31
0.0
  0
SPLINE
  5
A1
330
47
100
AcDbEntity
  8
0
  6
Continuous
 62
     7
100
AcDbSpline
210
0.0
220
0.0
230
1.0
 70
     8
 71
     3
 72
    13
 73
     9
 74
     7
 42
0.000000001
 43
0.0000000001
 44
0.00000001
 40
0.0
 40
0.0
 40
0.0
 40
0.0
 40
0.2951582768103121
 40
0.6015716477190587
 40
0.9088101282071734
 40
1.206388358705978
 40
1.484483947008645
 40
1.734728628649782
 40
1.734728628649782
 40
1.734728628649782
 40
1.734728628649782
 10
-68.89358628203598
 20
-92.38578443849462
 30
0.0
 10
-68.88212355020566
 20
-92.28799259472106
 30
0.0
 10
-68.85876097034378
 20
-92.0886798712994
 30
0.0
 10
-68.7876646878925
 20
-91.79355338376355
 30
0.0
 10
-68.69321355308357
 20
-91.50448396212218
 30
0.0
 10
-68.5754128147847
 20
-91.23450011039857
 30
0.0
 10
-68.44332326077279
 20
-90.99182344276946
 30
0.0
 10
-68.33535140417159
 20
-90.85238690815319
 30
0.0
 10
-68.284211282036
 20
-90.78634377088021
 30
0.0
 11
-68.89358628203598
 21
-92.38578443849462
 31
0.0
 11
-68.85349309728241
 21
-92.09336189426188
 31
0.0
 11
-68.78383962119851
 21
-91.79497029451797
 31
0.0
 11
-68.68756587600822
 21
-91.50320523448374
 31
0.0
 11
-68.56873587612799
 21
-91.23038251585629
 31
0.0
 11
-68.43236551153477
 21
-90.98801857217109
 31
0.0
 11
-68.284211282036
 21
-90.78634377088021
 31
0.0
  0
SPLINE
  5
A2
330
47
100
AcDbEntity
  8
0
  6
Continuous
 62
     7
100
AcDbSpline
210
0.0
220
0.0
230
1.0
 70
     8
 71
     3
 72
     9
 73
     5
 74
     3
 42
0.000000001
 43
0.0000000001
 44
0.00000001
 40
0.0
 40
0.0
 40
0.0
 40
0.0
 40
0.9911988421478367
 40
2.122674167212761
 40
2.122674167212761
 40
2.122674167212761
 40
2.122674167212761
 10
-79.19343066031581
 20
-91.5007692971263
 30
0.0
 10
-79.24485440880744
 20
-91.1733654637709
 30
0.0
 10
-79.35497947970131
 20
-90.47222293662296
 30
0.0
 10
-79.30991331469704
 20
-89.76354162393777
 30
0.0
 10
-79.28589112744928
 20
-89.38578443849462
 30
0.0
 11
-79.19343066031581
 21
-91.5007692971263
 31
0.0
 11
-79.31386254076513
 21
-90.51691396817914
 31
0.0
 11
-79.28589112744928
 21
-89.38578443849462
 31
0.0
  0
SPLINE
  5
A3
330
47
100
AcDbEntity
  8
0
  6
Continuous
 62
     7
100
AcDbSpline
210
0.0
220
0.0
230
1.0
 70
     8
 71
     3
 72
     9
 73
     5
 74
     3
 42
0.000000001
 43
0.0000000001
 44
0.00000001
 40
0.0
 40
0.0
 40
0.0
 40
0.0
 40
0.685639653599226
 40
1.275762625649793
 40
1.275762625649793
 40
1.275762625649793
 40
1.275762625649793
 10
-78.67651612744928
 20
-87.78634377088021
 30
0.0
 10
-78.5233593450791
 20
-87.61511566275983
 30
0.0
 10
-78.23838208762096
 20
-87.29651330424556
 30
0.0
 10
-77.88106950349488
 20
-87.06255211002224
 30
0.0
 10
-77.7157892491115
 20
-86.95432988814119
 30
0.0
 11
-78.67651612744928
 21
-87.78634377088021
 31
0.0
 11
-78.19615268828038
 21
-87.29710691403656
 31
0.0
 11
-77.7157892491115
 21
-86.95432988814119
 31
0.0
  0
SPLINE
  5
A4
330
47
100
AcDbEntity
  8
0
  6
Continuous
 62
     7
100
AcDbSpline
210
0.0
220
0.0
230
1.0
 70
     8
 71
     3
 72
     9
 73
     5
 74
     3
 42
0.000000001
 43
0.0000000001
 44
0.00000001
 40
0.0
 40
0.0
 40
0.0
 40
0.0
 40
0.1582851776505189
 40
0.2950209999707244
 40
0.2950209999707244
 40
0.2950209999707244
 40
0.2950209999707244
 10
-77.7157892491115
 20
-86.95432988814119
 30
0.0
 10
-77.66717908865759
 20
-86.93042818515009
 30
0.0
 10
-77.57657667668082
 20
-86.88587883792258
 30
0.0
 10
-77.47694802703367
 20
-86.89942217163055
 30
0.0
 10
-77.430772312625
 20
-86.90569922150017
 30
0.0
 11
-77.7157892491115
 21
-86.95432988814119
 31
0.0
 11
-77.56736051156783
 21
-86.89934709114168
 31
0.0
 11
-77.430772312625
 21
-86.90569922150017
 31
0.0
  0
SPLINE
  5
A5
330
47
100
AcDbEntity
  8
0
  6
Continuous
 62
     7
100
AcDbSpline
210
0.0
220
0.0
230
1.0
 70
     8
 71
     3
 72
     9
 73
     5
 74
     3
 42
0.000000001
 43
0.0000000001
 44
0.00000001
 40
0.0
 40
0.0
 40
0.0
 40
0.0
 40
2.050658001773588
 40
4.153508036335913
 40
4.153508036335913
 40
4.153508036335913
 40
4.153508036335913
 10
-69.14000370711376
 20
-100.4609159197555
 30
0.0
 10
-69.08351773006824
 20
-101.1422093122764
 30
0.0
 10
-68.96910815105436
 20
-102.5221359413544
 30
0.0
 10
-68.91126219577595
 20
-103.9055933321807
 30
0.0
 10
-68.88197578871933
 20
-104.6060141328642
 30
0.0
 11
-69.14000370711376
 21
-100.4609159197555
 31
0.0
 11
-68.98433354167636
 21
-102.5056567445033
 31
0.0
 11
-68.88197578871933
 21
-104.6060141328642
 31
0.0
  0
SPLINE
  5
A6
330
47
100
AcDbEntity
  8
0
  6
Continuous
 62
     7
100
AcDbSpline
210
0.0
220
0.0
230
1.0
 70
     8
 71
     3
 72
     9
 73
     5
 74
     3
 42
0.000000001
 43
0.0000000001
 44
0.00000001
 40
0.0
 40
0.0
 40
0.0
 40
0.0
 40
0.023553441460331
 40
0.0470808799097813
 40
0.0470808799097813
 40
0.0470808799097813
 40
0.0470808799097813
 10
-70.41507701596558
 20
-104.8882192531843
 30
0.0
 10
-70.42274648533044
 20
-104.8865322639454
 30
0.0
 10
-70.43807695230764
 20
-104.8831601284598
 30
0.0
 10
-70.45319770126719
 20
-104.8789461840104
 30
0.0
 10
-70.46075389760875
 20
-104.8768403658048
 30
0.0
 11
-70.41507701596558
 21
-104.8882192531843
 31
0.0
 11
-70.43803293438582
 21
-104.8829475909427
 31
0.0
 11
-70.46075389760875
 21
-104.8768403658048
 31
0.0
  0
SPLINE
  5
A7
330
47
100
AcDbEntity
  8
0
  6
Continuous
 62
     7
100
AcDbSpline
210
0.0
220
0.0
230
1.0
 70
     8
 71
     3
 72
    11
 73
     7
 74
     5
 42
0.000000001
 43
0.0000000001
 44
0.00000001
 40
0.0
 40
0.0
 40
0.0
 40
0.0
 40
0.2858639007687611
 40
0.6110863848765572
 40
0.9989195135753441
 40
1.456339491609645
 40
1.456339491609645
 40
1.456339491609645
 40
1.456339491609645
 10
-70.46075389760875
 20
-104.8768403658048
 30
0.0
 10
-70.54904194027637
 20
-104.8374652890098
 30
0.0
 10
-70.73777377594872
 20
-104.7532938460648
 30
0.0
 10
-70.9433059830542
 20
-104.47719393186
 30
0.0
 10
-71.09868291282046
 20
-104.1178872956109
 30
0.0
 10
-71.14941416275137
 20
-103.8396096553537
 30
0.0
 10
-71.17686804800576
 20
-103.6890160018072
 30
0.0
 11
-70.46075389760875
 21
-104.8768403658048
 31
0.0
 11
-70.71183195520423
 21
-104.7401729568014
 31
0.0
 11
-70.9195941218512
 21
-104.4899639442882
 31
0.0
 11
-71.07650342098562
 21
-104.1352894313611
 31
0.0
 11
-71.17686804800576
 21
-103.6890160018072
 31
0.0
  0
SPLINE
  5
A8
330
47
100
AcDbEntity
  8
0
  6
Continuous
 62
     7
100
AcDbSpline
210
0.0
220
0.0
230
1.0
 70
     8
 71
     3
 72
     9
 73
     5
 74
     3
 42
0.000000001
 43
0.0000000001
 44
0.00000001
 40
0.0
 40
0.0
 40
0.0
 40
0.0
 40
2.060789478568195
 40
4.176127394628679
 40
4.176127394628679
 40
4.176127394628679
 40
4.176127394628679
 10
-69.48876684963841
 20
-100.2433384188149
 30
0.0
 10
-69.42672182139204
 20
-100.9275451851708
 30
0.0
 10
-69.300989472814
 20
-102.3140694533885
 30
0.0
 10
-69.23411754994358
 20
-103.7046813593917
 30
0.0
 10
-69.20024485920008
 20
-104.409069376318
 30
0.0
 11
-69.48876684963841
 21
-100.2433384188149
 31
0.0
 11
-69.31696497518463
 21
-102.2969541062048
 31
0.0
 11
-69.20024485920008
 21
-104.409069376318
 31
0.0
  0
SPLINE
  5
A9
330
47
100
AcDbEntity
  8
0
  6
Continuous
 62
     7
100
AcDbSpline
210
0.0
220
0.0
230
1.0
 70
     8
 71
     3
 72
    15
 73
    11
 74
     9
 42
0.000000001
 43
0.0000000001
 44
0.00000001
 40
0.0
 40
0.0
 40
0.0
 40
0.0
 40
1.114112616980671
 40
2.348695702045422
 40
3.67004360700124
 40
5.0384665923883
 40
6.411299784210524
 40
7.745607651446211
 40
9.000864667657082
 40
10.14187170351557
 40
10.14187170351557
 40
10.14187170351557
 40
10.14187170351557
 10
-71.46965119223749
 20
-104.0558612912707
 30
0.0
 10
-71.50650602004542
 20
-103.6858533814891
 30
0.0
 10
-71.5842008234383
 20
-102.9058281167928
 30
0.0
 10
-71.51614316196546
 20
-101.6802215039979
 30
0.0
 10
-71.33284803049051
 20
-100.3840392569927
 30
0.0
 10
-71.02221409536672
 20
-99.0640262960681
 30
0.0
 10
-70.60240937791248
 20
-97.77008595128807
 30
0.0
 10
-70.08389696647511
 20
-96.55424621386133
 30
0.0
 10
-69.50085479933966
 20
-95.45147724240536
 30
0.0
 10
-69.02683532014505
 20
-94.8074363345994
 30
0.0
 10
-68.80112581490255
 20
-94.5007692971263
 30
0.0
 11
-71.46965119223749
 21
-104.0558612912707
 31
0.0
 11
-71.55293319841633
 21
-102.9448657777643
 31
0.0
 11
-71.50095752813438
 21
-101.7113772595851
 31
0.0
 11
-71.31573265606377
 21
-100.4030760564625
 31
0.0
 11
-71.00441913056378
 21
-99.07053511682759
 31
0.0
 11
-70.57905026456027
 21
-97.7652641469081
 31
0.0
 11
-70.05606931498478
 21
-96.537718460924
 31
0.0
 11
-69.45569181081049
 21
-95.43534963723805
 31
0.0
 11
-68.80112581490255
 21
-94.5007692971263
 31
0.0
  0
SPLINE
  5
AA
330
47
100
AcDbEntity
  8
0
  6
Continuous
 62
     7
100
AcDbSpline
210
0.0
220
0.0
230
1.0
 70
     8
 71
     3
 72
    11
 73
     7
 74
     5
 42
0.000000001
 43
0.0000000001
 44
0.00000001
 40
0.0
 40
0.0
 40
0.0
 40
0.0
 40
0.4392490295930804
 40
0.9209928828368583
 40
1.474657288371404
 40
2.11426306813523
 40
2.11426306813523
 40
2.11426306813523
 40
2.11426306813523
 10
-65.77880721494638
 20
-93.19406577285612
 30
0.0
 10
-65.92461174495111
 20
-93.1689847939657
 30
0.0
 10
-66.230326558075
 20
-93.11639641007419
 30
0.0
 10
-66.71674280594333
 20
-93.24767921339246
 30
0.0
 10
-67.21309419768046
 20
-93.5096809288213
 30
0.0
 10
-67.51491204934949
 20
-93.77088540391605
 30
0.0
 10
-67.67668969153706
 20
-93.91089384546719
 30
0.0
 11
-65.77880721494638
 21
-93.19406577285612
 31
0.0
 11
-66.21578294969723
 21
-93.14943484503473
 31
0.0
 11
-66.68550577385591
 21
-93.25638161964224
 31
0.0
 11
-67.17647998241814
 21
-93.51228903164676
 31
0.0
 11
-67.67668969153706
 21
-93.91089384546719
 31
0.0
  0
SPLINE
  5
AB
330
47
100
AcDbEntity
  8
0
  6
Continuous
 62
     7
100
AcDbSpline
210
0.0
220
0.0
230
1.0
 70
     8
 71
     3
 72
     9
 73
     5
 74
     3
 42
0.000000001
 43
0.0000000001
 44
0.00000001
 40
0.0
 40
0.0
 40
0.0
 40
0.0
 40
0.9911988421478349
 40
2.12267416721276
 40
2.12267416721276
 40
2.12267416721276
 40
2.12267416721276
 10
-68.80112581490255
 20
-94.5007692971263
 30
0.0
 10
-68.85254956339415
 20
-94.17336546377089
 30
0.0
 10
-68.96267463428805
 20
-93.47222293662296
 30
0.0
 10
-68.91760846928376
 20
-92.76354162393778
 30
0.0
 10
-68.89358628203598
 20
-92.38578443849462
 30
0.0
 11
-68.80112581490255
 21
-94.5007692971263
 31
0.0
 11
-68.92155769535185
 21
-93.51691396817914
 31
0.0
 11
-68.89358628203598
 21
-92.38578443849462
 31
0.0
  0
SPLINE
  5
AC
330
47
100
AcDbEntity
  8
0
  6
Continuous
 62
     7
100
AcDbSpline
210
0.0
220
0.0
230
1.0
 70
     8
 71
     3
 72
     9
 73
     5
 74
     3
 42
0.000000001
 43
0.0000000001
 44
0.00000001
 40
0.0
 40
0.0
 40
0.0
 40
0.0
 40
0.5747280329665867
 40
1.225458350745706
 40
1.225458350745706
 40
1.225458350745706
 40
1.225458350745706
 10
-65.61239715607881
 20
-92.6176044191578
 30
0.0
 10
-65.80548693320415
 20
-92.58796715109294
 30
0.0
 10
-66.21720076323355
 20
-92.52477338926029
 30
0.0
 10
-66.60215527724911
 20
-92.68718893420375
 30
0.0
 10
-66.80656987083168
 20
-92.77343318029166
 30
0.0
 11
-65.61239715607881
 21
-92.6176044191578
 31
0.0
 11
-66.18578072691203
 21
-92.57831581130257
 31
0.0
 11
-66.80656987083168
 21
-92.77343318029166
 31
0.0
  0
SPLINE
  5
AD
330
47
100
AcDbEntity
  8
0
  6
Continuous
 62
     7
100
AcDbSpline
210
0.0
220
0.0
230
1.0
 70
     8
 71
     3
 72
    15
 73
    11
 74
     9
 42
0.000000001
 43
0.0000000001
 44
0.00000001
 40
0.0
 40
0.0
 40
0.0
 40
0.0
 40
1.11411261698067
 40
2.348695702045434
 40
3.670043607001241
 40
5.038466592388314
 40
6.411299784210524
 40
7.745607651446217
 40
9.00086466765708
 40
10.14187170351557
 40
10.14187170351557
 40
10.14187170351557
 40
10.14187170351557
 10
-81.86195603765077
 20
-101.0558612912707
 30
0.0
 10
-81.89881086545869
 20
-100.6858533814891
 30
0.0
 10
-81.97650566885153
 20
-99.9058281167928
 30
0.0
 10
-81.90844800737877
 20
-98.68022150399787
 30
0.0
 10
-81.72515287590377
 20
-97.38403925699268
 30
0.0
 10
-81.41451894077997
 20
-96.06402629606808
 30
0.0
 10
-80.99471422332574
 20
-94.77008595128808
 30
0.0
 10
-80.47620181188833
 20
-93.55424621386133
 30
0.0
 10
-79.89315964475296
 20
-92.45147724240536
 30
0.0
 10
-79.41914016555832
 20
-91.80743633459937
 30
0.0
 10
-79.19343066031581
 20
-91.5007692971263
 30
0.0
 11
-81.86195603765077
 21
-101.0558612912707
 31
0.0
 11
-81.94523804382959
 21
-99.9448657777643
 31
0.0
 11
-81.89326237354766
 21
-98.71137725958509
 31
0.0
 11
-81.70803750147704
 21
-97.40307605646251
 31
0.0
 11
-81.39672397597704
 21
-96.07053511682757
 31
0.0
 11
-80.97135510997353
 21
-94.7652641469081
 31
0.0
 11
-80.44837416039803
 21
-93.537718460924
 31
0.0
 11
-79.84799665622376
 21
-92.43534963723805
 31
0.0
 11
-79.19343066031581
 21
-91.5007692971263
 31
0.0
  0
SPLINE
  5
AE
330
47
100
AcDbEntity
  8
0
  6
Continuous
 62
     7
100
AcDbSpline
210
0.0
220
0.0
230
1.0
 70
     8
 71
     3
 72
    13
 73
     9
 74
     7
 42
0.000000001
 43
0.0000000001
 44
0.00000001
 40
0.0
 40
0.0
 40
0.0
 40
0.0
 40
1.169762972796736
 40
2.231649752529821
 40
3.160338529979948
 40
3.944534696108546
 40
4.595951748626899
 40
5.16236930151517
 40
5.16236930151517
 40
5.16236930151517
 40
5.16236930151517
 10
-64.43082763772848
 20
-97.84677363155072
 30
0.0
 10
-64.39610074909464
 20
-97.45798518908235
 30
0.0
 10
-64.3298495064292
 20
-96.71626259098164
 30
0.0
 10
-64.37931862322694
 20
-95.66123045719371
 30
0.0
 10
-64.54404007186274
 20
-94.74527912684023
 30
0.0
 10
-64.83132406166771
 20
-94.01073501491388
 30
0.0
 10
-65.2293104406208
 20
-93.44462287547064
 30
0.0
 10
-65.60436739621973
 20
-93.27360606259454
 30
0.0
 10
-65.77880721494638
 20
-93.19406577285612
 30
0.0
 11
-64.43082763772848
 21
-97.84677363155072
 31
0.0
 11
-64.35444752061366
 21
-96.67950696667877
 31
0.0
 11
-64.40616452390643
 21
-95.61888031951736
 31
0.0
 11
-64.58390867194147
 21
-94.70735968742962
 31
0.0
 11
-64.88056280849378
 21
-93.98143961629366
 31
0.0
 11
-65.28425010112471
 21
-93.47018551515727
 31
0.0
 11
-65.77880721494638
 21
-93.19406577285612
 31
0.0
  0
SPLINE
  5
AF
330
47
100
AcDbEntity
  8
0
  6
Continuous
 62
     7
100
AcDbSpline
210
0.0
220
0.0
230
1.0
 70
     8
 71
     3
 72
    13
 73
     9
 74
     7
 42
0.000000001
 43
0.0000000001
 44
0.00000001
 40
0.0
 40
0.0
 40
0.0
 40
0.0
 40
1.279428250562165
 40
2.440866915900807
 40
3.456620266212696
 40
4.314334822882419
 40
5.026822224783055
 40
5.646341423809099
 40
5.646341423809099
 40
5.646341423809099
 40
5.646341423809099
 10
-64.13804449349674
 20
-97.70650363960502
 30
0.0
 10
-64.10006195908122
 20
-97.28126628096575
 30
0.0
 10
-64.02759966229486
 20
-96.47000718959565
 30
0.0
 10
-64.08170650902449
 20
-95.31606579363199
 30
0.0
 10
-64.26187059324542
 20
-94.31424402593879
 30
0.0
 10
-64.57608745712012
 20
-93.51083640359752
 30
0.0
 10
-65.01138505780226
 20
-92.891651249192
 30
0.0
 10
-65.42160360417576
 20
-92.70460161113704
 30
0.0
 10
-65.61239715607881
 20
-92.6176044191578
 30
0.0
 11
-64.13804449349674
 21
-97.70650363960502
 31
0.0
 11
-64.0545037404024
 21
-96.42980572490133
 31
0.0
 11
-64.11106921275385
 21
-95.26974532956854
 31
0.0
 11
-64.30547687466719
 21
-94.27276963822256
 31
0.0
 11
-64.62994233652128
 21
-93.47879456041761
 31
0.0
 11
-65.07147531283636
 21
-92.9196103872997
 31
0.0
 11
-65.61239715607881
 21
-92.6176044191578
 31
0.0
  0
SPLINE
  5
B0
330
47
100
AcDbEntity
  8
0
  6
Continuous
 62
     7
100
AcDbSpline
210
0.0
220
0.0
230
1.0
 70
     8
 71
     3
 72
     9
 73
     5
 74
     3
 42
0.000000001
 43
0.0000000001
 44
0.00000001
 40
0.0
 40
0.0
 40
0.0
 40
0.0
 40
2.35745371607703
 40
4.674675661806219
 40
4.674675661806219
 40
4.674675661806219
 40
4.674675661806219
 10
-66.1189288360958
 20
-97.32497309244852
 30
0.0
 10
-66.18065544976868
 20
-98.1084261740467
 30
0.0
 10
-66.30305524477356
 20
-99.66196210601598
 30
0.0
 10
-66.3728525385727
 20
-101.2187459610496
 30
0.0
 10
-66.40745082653414
 20
-101.9904387964917
 30
0.0
 11
-66.1189288360958
 21
-97.32497309244852
 31
0.0
 11
-66.2907307105496
 21
-99.67615835522794
 31
0.0
 11
-66.40745082653414
 21
-101.9904387964917
 31
0.0
  0
SPLINE
  5
B1
330
47
100
AcDbEntity
  8
0
  6
Continuous
 62
     7
100
AcDbSpline
210
0.0
220
0.0
230
1.0
 70
     8
 71
     3
 72
     9
 73
     5
 74
     3
 42
0.000000001
 43
0.0000000001
 44
0.00000001
 40
0.0
 40
0.0
 40
0.0
 40
0.0
 40
2.319598930768757
 40
4.599543973755278
 40
4.599543973755278
 40
4.599543973755278
 40
4.599543973755278
 10
-66.46769197862046
 20
-98.14662607604922
 30
0.0
 10
-66.52391340294565
 20
-98.91783959758213
 30
0.0
 10
-66.63539511804652
 20
-100.4470826323343
 30
0.0
 10
-66.69578519023258
 20
-101.9791916187316
 30
0.0
 10
-66.7257198970149
 20
-102.7386417535883
 30
0.0
 11
-66.46769197862046
 21
-98.14662607604922
 31
0.0
 11
-66.62336214405788
 21
-100.4609955365573
 31
0.0
 11
-66.7257198970149
 21
-102.7386417535883
 31
0.0
  0
SPLINE
  5
B2
330
47
100
AcDbEntity
  8
0
  6
Continuous
 62
     7
100
AcDbSpline
210
0.0
220
0.0
230
1.0
 70
     8
 71
     3
 72
    11
 73
     7
 74
     5
 42
0.000000001
 43
0.0000000001
 44
0.00000001
 40
0.0
 40
0.0
 40
0.0
 40
0.0
 40
0.4393174257784192
 40
0.9294642248788745
 40
1.46574924785925
 40
2.041172874119289
 40
2.041172874119289
 40
2.041172874119289
 40
2.041172874119289
 10
-66.40745082653414
 20
-101.9904387964917
 30
0.0
 10
-66.29862034835797
 20
-101.8921561700118
 30
0.0
 10
-66.06836763032041
 20
-101.6842195284063
 30
0.0
 10
-65.7611311129402
 20
-101.3022642723886
 30
0.0
 10
-65.46002396340856
 20
-100.8606177205031
 30
0.0
 10
-65.28382154616465
 20
-100.5343267916236
 30
0.0
 10
-65.19261866976866
 20
-100.3654376551717
 30
0.0
 11
-66.40745082653414
 21
-101.9904387964917
 31
0.0
 11
-66.08887398368118
 21
-101.6879349178449
 31
0.0
 11
-65.77586636200711
 21
-101.3107478091806
 31
0.0
 11
-65.47500677409028
 21
-100.866805092915
 31
0.0
 11
-65.19261866976866
 21
-100.3654376551717
 31
0.0
  0
SPLINE
  5
B3
330
47
100
AcDbEntity
  8
0
  6
Continuous
 62
     7
100
AcDbSpline
210
0.0
220
0.0
230
1.0
 70
     8
 71
     3
 72
    11
 73
     7
 74
     5
 42
0.000000001
 43
0.0000000001
 44
0.00000001
 40
0.0
 40
0.0
 40
0.0
 40
0.0
 40
0.5519609327878382
 40
1.191352192182065
 40
1.911995649798982
 40
2.701029815551596
 40
2.701029815551596
 40
2.701029815551596
 40
2.701029815551596
 10
-66.7257198970149
 20
-102.7386417535883
 30
0.0
 10
-66.5750070569849
 20
-102.6322177794032
 30
0.0
 10
-66.24970855036946
 20
-102.4025123162259
 30
0.0
 10
-65.82251263821138
 20
-101.9238618507225
 30
0.0
 10
-65.40133376076494
 20
-101.3432518511602
 30
0.0
 10
-65.16026434518541
 20
-100.9008562096671
 30
0.0
 10
-65.03426923707343
 20
-100.6696377850415
 30
0.0
 11
-66.7257198970149
 21
-102.7386417535883
 31
0.0
 11
-66.28627067590615
 21
-102.4046578394501
 31
0.0
 11
-65.84891730784253
 21
-101.9382425553022
 31
0.0
 11
-65.427224015371
 21
-101.3538610341352
 31
0.0
 11
-65.03426923707343
 21
-100.6696377850415
 31
0.0
  0
SPLINE
  5
B4
330
47
100
AcDbEntity
  8
0
  6
Continuous
 62
     7
100
AcDbSpline
210
0.0
220
0.0
230
1.0
 70
     8
 71
     3
 72
    15
 73
    11
 74
     9
 42
0.000000001
 43
0.0000000001
 44
0.00000001
 40
0.0
 40
0.0
 40
0.0
 40
0.0
 40
1.193290238765284
 40
2.528782460985581
 40
3.955924363423644
 40
5.415890429067493
 40
6.847103631602868
 40
8.190392796993507
 40
9.39446119188987
 40
10.42271486422924
 40
10.42271486422924
 40
10.42271486422924
 40
10.42271486422924
 10
-71.17686804800576
 20
-103.6890160018072
 30
0.0
 10
-71.21342909071889
 20
-103.2922958067057
 30
0.0
 10
-71.29090806278627
 20
-102.4515790728229
 30
0.0
 10
-71.18148097449335
 20
-101.1318144378632
 30
0.0
 10
-70.9341052032218
 20
-99.74489161359195
 30
0.0
 10
-70.53724770669295
 20
-98.35866880733116
 30
0.0
 10
-70.01956773984617
 20
-97.04225405139016
 30
0.0
 10
-69.39939357199067
 20
-95.86909369660927
 30
0.0
 10
-68.72907190038208
 20
-94.87334497175584
 30
0.0
 10
-68.18268369785868
 20
-94.3652001997863
 30
0.0
 10
-67.93100599419718
 20
-94.13113822416737
 30
0.0
 11
-71.17686804800576
 21
-103.6890160018072
 31
0.0
 11
-71.25372256763367
 21
-102.4982032666032
 31
0.0
 11
-71.16405297673069
 21
-101.1657248143188
 31
0.0
 11
-70.91252432206738
 21
-99.76092327867174
 31
0.0
 11
-70.51222779399015
 21
-98.35690632618137
 31
0.0
 11
-69.98399402057709
 21
-97.02674080654046
 31
0.0
 11
-69.35531385376301
 21
-95.83964897302545
 31
0.0
 11
-68.65890372671387
 21
-94.85740987320317
 31
0.0
 11
-67.93100599419718
 21
-94.13113822416737
 31
0.0
  0
ENDBLK
  5
49
330
47
100
AcDbEntity
  8
0
100
AcDbBlockEnd
  0
BLOCK
  5
4C
330
4A
100
AcDbEntity
  8
0
100
AcDbBlockBegin
  2
Allg1
 70
     0
 10
-70.40192400000002
 20
-96.25
 30
0.0
  3
Allg1
  1

  0
INSERT
  5
4B
330
4A
100
AcDbEntity
  8
0
100
AcDbBlockReference
  2
0803312_PATG_5_12-select__1
 10
-81.97310056861264
 20
-105.5193361552518
 30
0.0
  0
MTEXT
  5
B6
330
4A
100
AcDbEntity
  8
1
 62
     6
100
AcDbMText
 10
-72.99999999999602
 20
-111.6943752196297
 30
0.0
 40
2.5
 41
0.0
 71
     2
 72
     1
  1
 
  7
CONVERTER_11
 73
     1
 44
1.32052821128451
  0
ENDBLK
  5
4D
330
4A
100
AcDbEntity
  8
0
100
AcDbBlockEnd
  0
BLOCK
  5
4F
330
4E
100
AcDbEntity
  8
0
100
AcDbBlockBegin
  2
0803312_PATG_5_12-select__2
 70
     0
 10
-142.499999999995
 20
-94.73277410844946
 30
0.0
  3
0803312_PATG_5_12-select__2
  1

  0
LINE
  5
B7
330
4E
100
AcDbEntity
  8
0
  6
Continuous
 62
     7
100
AcDbLine
 10
-142.499999999995
 20
-79.73277410844946
 30
0.0
 11
-130.499999999995
 21
-79.73277410844946
 31
0.0
  0
LINE
  5
B8
330
4E
100
AcDbEntity
  8
0
  6
Continuous
 62
     7
100
AcDbLine
 10
-130.499999999995
 20
-79.73277410844946
 30
0.0
 11
-130.499999999995
 21
-84.98277410844946
 31
0.0
  0
LINE
  5
B9
330
4E
100
AcDbEntity
  8
0
  6
Continuous
 62
     7
100
AcDbLine
 10
-130.499999999995
 20
-84.98277410844946
 30
0.0
 11
-130.499999999995
 21
-85.0532972301117
 31
0.0
  0
LINE
  5
BA
330
4E
100
AcDbEntity
  8
0
  6
Continuous
 62
     7
100
AcDbLine
 10
-130.499999999995
 20
-85.0532972301117
 30
0.0
 11
-130.499999999995
 21
-86.2720472301117
 31
0.0
  0
LINE
  5
BB
330
4E
100
AcDbEntity
  8
0
  6
Continuous
 62
     7
100
AcDbLine
 10
-130.499999999995
 20
-94.73277410844946
 30
0.0
 11
-130.499999999995
 21
-89.48277410844946
 31
0.0
  0
LINE
  5
BC
330
4E
100
AcDbEntity
  8
0
  6
Continuous
 62
     7
100
AcDbLine
 10
-130.499999999995
 20
-89.48277410844946
 30
0.0
 11
-130.499999999995
 21
-89.41225098678723
 31
0.0
  0
LINE
  5
BD
330
4E
100
AcDbEntity
  8
0
  6
Continuous
 62
     7
100
AcDbLine
 10
-142.499999999995
 20
-89.41225098678723
 30
0.0
 11
-142.499999999995
 21
-88.19350098678723
 31
0.0
  0
LINE
  5
BE
330
4E
100
AcDbEntity
  8
0
  6
Continuous
 62
     7
100
AcDbLine
 10
-130.499999999995
 20
-89.41225098678723
 30
0.0
 11
-130.499999999995
 21
-88.19350098678723
 31
0.0
  0
LINE
  5
BF
330
4E
100
AcDbEntity
  8
0
  6
Continuous
 62
     2
100
AcDbLine
 10
-142.499999999995
 20
-89.41225098678723
 30
0.0
 11
-130.499999999995
 21
-89.41225098678723
 31
0.0
  0
LINE
  5
C0
330
4E
100
AcDbEntity
  8
0
  6
Continuous
 62
     7
100
AcDbLine
 10
-130.499999999995
 20
-89.48277410844946
 30
0.0
 11
-142.499999999995
 21
-89.48277410844946
 31
0.0
  0
LINE
  5
C1
330
4E
100
AcDbEntity
  8
0
  6
Continuous
 62
     2
100
AcDbLine
 10
-142.499999999995
 20
-88.19350098678723
 30
0.0
 11
-130.499999999995
 21
-88.19350098678723
 31
0.0
  0
LINE
  5
C2
330
4E
100
AcDbEntity
  8
0
  6
Continuous
 62
     7
100
AcDbLine
 10
-142.499999999995
 20
-79.73277410844946
 30
0.0
 11
-142.499999999995
 21
-84.98277410844946
 31
0.0
  0
LINE
  5
C3
330
4E
100
AcDbEntity
  8
0
  6
Continuous
 62
     7
100
AcDbLine
 10
-142.499999999995
 20
-85.0532972301117
 30
0.0
 11
-142.499999999995
 21
-86.2720472301117
 31
0.0
  0
LINE
  5
C4
330
4E
100
AcDbEntity
  8
0
  6
Continuous
 62
     7
100
AcDbLine
 10
-142.499999999995
 20
-84.98277410844946
 30
0.0
 11
-142.499999999995
 21
-85.0532972301117
 31
0.0
  0
LINE
  5
C5
330
4E
100
AcDbEntity
  8
0
  6
Continuous
 62
     7
100
AcDbLine
 10
-142.499999999995
 20
-88.19350098678723
 30
0.0
 11
-142.499999999995
 21
-86.2720472301117
 31
0.0
  0
LINE
  5
C6
330
4E
100
AcDbEntity
  8
0
  6
Continuous
 62
     7
100
AcDbLine
 10
-130.499999999995
 20
-88.19350098678723
 30
0.0
 11
-130.499999999995
 21
-86.2720472301117
 31
0.0
  0
LINE
  5
C7
330
4E
100
AcDbEntity
  8
0
  6
Continuous
 62
     2
100
AcDbLine
 10
-142.499999999995
 20
-86.2720472301117
 30
0.0
 11
-130.499999999995
 21
-86.2720472301117
 31
0.0
  0
LINE
  5
C8
330
4E
100
AcDbEntity
  8
0
  6
Continuous
 62
     2
100
AcDbLine
 10
-142.499999999995
 20
-85.0532972301117
 30
0.0
 11
-130.499999999995
 21
-85.0532972301117
 31
0.0
  0
LINE
  5
C9
330
4E
100
AcDbEntity
  8
0
  6
Continuous
 62
     7
100
AcDbLine
 10
-142.499999999995
 20
-84.98277410844946
 30
0.0
 11
-130.499999999995
 21
-84.98277410844946
 31
0.0
  0
LINE
  5
CA
330
4E
100
AcDbEntity
  8
0
  6
Continuous
 62
     7
100
AcDbLine
 10
-130.499999999995
 20
-94.73277410844946
 30
0.0
 11
-142.499999999995
 21
-94.73277410844946
 31
0.0
  0
LINE
  5
CB
330
4E
100
AcDbEntity
  8
0
  6
Continuous
 62
     7
100
AcDbLine
 10
-142.499999999995
 20
-94.73277410844946
 30
0.0
 11
-142.499999999995
 21
-89.48277410844946
 31
0.0
  0
LINE
  5
CC
330
4E
100
AcDbEntity
  8
0
  6
Continuous
 62
     7
100
AcDbLine
 10
-142.499999999995
 20
-89.48277410844946
 30
0.0
 11
-142.499999999995
 21
-89.41225098678723
 31
0.0
  0
ENDBLK
  5
50
330
4E
100
AcDbEntity
  8
0
100
AcDbBlockEnd
  0
BLOCK
  5
53
330
51
100
AcDbEntity
  8
0
100
AcDbBlockBegin
  2
Drfsicht1
 70
     0
 10
-133.5
 20
-87.232774
 30
0.0
  3
Drfsicht1
  1

  0
INSERT
  5
52
330
51
100
AcDbEntity
  8
0
100
AcDbBlockReference
  2
0803312_PATG_5_12-select__2
 10
-142.499999999995
 20
-94.73277410844946
 30
0.0
  0
MTEXT
  5
CD
330
51
100
AcDbEntity
  8
1
 62
     6
100
AcDbMText
 10
-136.5000001788139
 20
-97.23277385517304
 30
0.0
 40
2.5
 41
0.0
 71
     2
 72
     1
  1
 
  7
CONVERTER_11
 73
     1
 44
1.32052821128451
  0
DIMENSION
  5
D8
330
51
100
AcDbEntity
  8
1
100
AcDbDimension
  2
*D16
 10
-147.499999999995
 20
-79.73277410844946
 30
0.0
 11
-149.124999999995
 21
-87.23277410844946
 31
0.0
 70
    32
  1
<>
 71
     5
 42
-1.0
 53
90.0
  3
ME10_DIM_10
100
AcDbAlignedDimension
 13
-142.499999999995
 23
-94.73277410844946
 33
0.0
 14
-142.499999999995
 24
-79.73277410844946
 34
0.0
 50
90.0
100
AcDbRotatedDimension
  0
ENDBLK
  5
54
330
51
100
AcDbEntity
  8
0
100
AcDbBlockEnd
  0
BLOCK
  5
56
330
55
100
AcDbEntity
  8
0
100
AcDbBlockBegin
  2
0803312_PATG_5_12-select__3
 70
     0
 10
-77.50000000000499
 20
-64.76016555735414
 30
0.0
  3
0803312_PATG_5_12-select__3
  1

  0
LINE
  5
D9
330
55
100
AcDbEntity
  8
0
  6
Continuous
 62
     7
100
AcDbLine
 10
-65.50000000000499
 20
-64.00691127761175
 30
0.0
 11
-65.50000000000499
 21
-61.48160342816298
 31
0.0
  0
LINE
  5
DA
330
55
100
AcDbEntity
  8
0
  6
Continuous
 62
     2
100
AcDbLine
 10
-65.50000000000499
 20
-64.00691127761175
 30
0.0
 11
-77.50000000000499
 21
-64.00691127761175
 31
0.0
  0
LINE
  5
DB
330
55
100
AcDbEntity
  8
0
  6
Continuous
 62
     7
100
AcDbLine
 10
-77.50000000000499
 20
-64.00691127761175
 30
0.0
 11
-77.50000000000499
 21
-61.48160342816298
 31
0.0
  0
LINE
  5
DC
330
55
100
AcDbEntity
  8
0
  6
Continuous
 62
     7
100
AcDbLine
 10
-65.50000000000499
 20
-61.48160342816298
 30
0.0
 11
-65.50000000000499
 21
-53.11685893559612
 31
0.0
  0
LINE
  5
DD
330
55
100
AcDbEntity
  8
0
  6
Continuous
 62
     7
100
AcDbLine
 10
-65.50000000000499
 20
-64.76016555735414
 30
0.0
 11
-65.50000000000499
 21
-64.00691127761175
 31
0.0
  0
LINE
  5
DE
330
55
100
AcDbEntity
  8
0
  6
Continuous
 62
     7
100
AcDbLine
 10
-65.50000000000499
 20
-64.76016555735414
 30
0.0
 11
-77.50000000000499
 21
-64.76016555735414
 31
0.0
  0
LINE
  5
DF
330
55
100
AcDbEntity
  8
0
  6
Continuous
 62
     7
100
AcDbLine
 10
-77.50000000000499
 20
-64.76016555735414
 30
0.0
 11
-77.50000000000499
 21
-64.00691127761175
 31
0.0
  0
LINE
  5
E0
330
55
100
AcDbEntity
  8
0
  6
Continuous
 62
     7
100
AcDbLine
 10
-77.50000000000499
 20
-61.48160342816298
 30
0.0
 11
-77.50000000000499
 21
-53.11685893559612
 31
0.0
  0
LINE
  5
E1
330
55
100
AcDbEntity
  8
0
  6
Continuous
 62
     7
100
AcDbLine
 10
-65.50000000000499
 20
-49.26016555735415
 30
0.0
 11
-65.50000000000499
 21
-49.3447243135367
 31
0.0
  0
LINE
  5
E2
330
55
100
AcDbEntity
  8
0
  6
Continuous
 62
     7
100
AcDbLine
 10
-77.50000000000499
 20
-49.26016555735415
 30
0.0
 11
-77.50000000000499
 21
-49.3447243135367
 31
0.0
  0
LINE
  5
E3
330
55
100
AcDbEntity
  8
0
  6
Continuous
 62
     7
100
AcDbLine
 10
-77.50000000000499
 20
-53.11685893559612
 30
0.0
 11
-77.50000000000499
 21
-50.58222431353672
 31
0.0
  0
LINE
  5
E4
330
55
100
AcDbEntity
  8
0
  6
Continuous
 62
     7
100
AcDbLine
 10
-65.50000000000499
 20
-53.11685893559612
 30
0.0
 11
-65.50000000000499
 21
-50.58222431353672
 31
0.0
  0
LINE
  5
E5
330
55
100
AcDbEntity
  8
0
  6
Continuous
 62
     7
100
AcDbLine
 10
-65.50000000000499
 20
-49.3447243135367
 30
0.0
 11
-65.50000000000499
 21
-50.58222431353672
 31
0.0
  0
LINE
  5
E6
330
55
100
AcDbEntity
  8
0
  6
Continuous
 62
     2
100
AcDbLine
 10
-65.50000000000499
 20
-50.58222431353672
 30
0.0
 11
-77.50000000000499
 21
-50.58222431353672
 31
0.0
  0
LINE
  5
E7
330
55
100
AcDbEntity
  8
0
  6
Continuous
 62
     7
100
AcDbLine
 10
-77.50000000000499
 20
-49.3447243135367
 30
0.0
 11
-77.50000000000499
 21
-50.58222431353672
 31
0.0
  0
LINE
  5
E8
330
55
100
AcDbEntity
  8
0
  6
Continuous
 62
     7
100
AcDbLine
 10
-77.50000000000499
 20
-53.11685893559612
 30
0.0
 11
-65.50000000000499
 21
-53.11685893559612
 31
0.0
  0
LINE
  5
E9
330
55
100
AcDbEntity
  8
0
  6
Continuous
 62
     2
100
AcDbLine
 10
-65.50000000000499
 20
-49.3447243135367
 30
0.0
 11
-77.50000000000499
 21
-49.3447243135367
 31
0.0
  0
LINE
  5
EA
330
55
100
AcDbEntity
  8
0
  6
Continuous
 62
     7
100
AcDbLine
 10
-77.50000000000499
 20
-49.26016555735415
 30
0.0
 11
-65.50000000000499
 21
-49.26016555735415
 31
0.0
  0
LINE
  5
EB
330
55
100
AcDbEntity
  8
0
  6
Continuous
 62
     2
100
AcDbLine
 10
-65.50000000000499
 20
-61.48160342816298
 30
0.0
 11
-77.50000000000499
 21
-61.48160342816298
 31
0.0
  0
ENDBLK
  5
57
330
55
100
AcDbEntity
  8
0
100
AcDbBlockEnd
  0
BLOCK
  5
5A
330
58
100
AcDbEntity
  8
0
100
AcDbBlockBegin
  2
Rckans1
 70
     0
 10
-74.5
 20
-56.99999999999995
 30
0.0
  3
Rckans1
  1

  0
INSERT
  5
59
330
58
100
AcDbEntity
  8
0
100
AcDbBlockReference
  2
0803312_PATG_5_12-select__3
 10
-77.50000000000499
 20
-64.76016555735414
 30
0.0
  0
MTEXT
  5
EC
330
58
100
AcDbEntity
  8
1
 62
     6
100
AcDbMText
 10
-71.5000000000125
 20
-67.23277544975281
 30
0.0
 40
2.5
 41
0.0
 71
     2
 72
     1
  1
 
  7
CONVERTER_11
 73
     1
 44
1.32052821128451
  0
ENDBLK
  5
5B
330
58
100
AcDbEntity
  8
0
100
AcDbBlockEnd
  0
BLOCK
  5
5D
330
5C
100
AcDbEntity
  8
0
100
AcDbBlockBegin
  2
0803312_PATG_5_12-select__4
 70
     0
 10
-111.4999999809579
 20
-64.7601655573542
 30
0.0
  3
0803312_PATG_5_12-select__4
  1

  0
LINE
  5
ED
330
5C
100
AcDbEntity
  8
0
  6
Continuous
 62
     7
100
AcDbLine
 10
-104.254316283618
 20
-53.56016555735419
 30
0.0
 11
-103.7456836782978
 21
-53.56016555735419
 31
0.0
  0
LINE
  5
EE
330
5C
100
AcDbEntity
  8
0
  6
Continuous
 62
     7
100
AcDbLine
 10
-107.3698379945005
 20
-59.06016555735422
 30
0.0
 11
-100.6301619674153
 21
-59.06016555735422
 31
0.0
  0
LINE
  5
EF
330
5C
100
AcDbEntity
  8
0
  6
Continuous
 62
     7
100
AcDbLine
 10
-101.3276882524646
 20
-59.66016555735422
 30
0.0
 11
-106.6723117094512
 21
-59.66016555735421
 31
0.0
  0
ARC
  5
F0
330
5C
100
AcDbEntity
  8
0
  6
Continuous
 62
     7
100
AcDbCircle
 10
-100.7499999809579
 20
-51.46016555735419
 30
0.0
 40
5.500000000000051
100
AcDbArc
 50
170.8148299342667
 51
197.5307122979055
  0
ARC
  5
F1
330
5C
100
AcDbEntity
  8
0
  6
Continuous
 62
     7
100
AcDbCircle
 10
-107.2499999809579
 20
-51.46016555735419
 30
0.0
 40
5.500000000000018
100
AcDbArc
 50
342.4692877020944
 51
9.18517006573337
  0
ARC
  5
F2
330
5C
100
AcDbEntity
  8
0
  6
Continuous
 62
     7
100
AcDbCircle
 10
-41.95056381702787
 20
-68.28322149934287
 30
0.0
 40
59.40000000000004
100
AcDbArc
 50
171.0675267830961
 51
176.0185381440991
  0
ARC
  5
F3
330
5C
100
AcDbEntity
  8
0
  6
Continuous
 62
     7
100
AcDbCircle
 10
-41.95056381702787
 20
-68.28322149934287
 30
0.0
 40
60.00000000000003
100
AcDbArc
 50
171.7369747592732
 51
176.5805820137683
  0
ARC
  5
F4
330
5C
100
AcDbEntity
  8
0
  6
Continuous
 62
     7
100
AcDbCircle
 10
-100.5721685386404
 20
-60.60951470140573
 30
0.0
 40
3.399999999999999
100
AcDbArc
 50
301.8590508797998
 51
347.4071072804782
  0
ARC
  5
F5
330
5C
100
AcDbEntity
  8
0
  6
Continuous
 62
     7
100
AcDbCircle
 10
-100.5721685386404
 20
-60.60951470140573
 30
0.0
 40
3.999999999999994
100
AcDbArc
 50
301.8590508797999
 51
347.4071072804782
  0
ARC
  5
F6
330
5C
100
AcDbEntity
  8
0
  6
Continuous
 62
     7
100
AcDbCircle
 10
-103.4999999809579
 20
-59.95544815633771
 30
0.0
 40
6.40000000000002
100
AcDbArc
 50
347.4071072804776
 51
92.20001540225051
  0
ARC
  5
F7
330
5C
100
AcDbEntity
  8
0
  6
Continuous
 62
     7
100
AcDbCircle
 10
-103.4999999809579
 20
-59.95544815633771
 30
0.0
 40
7.00000000000002
100
AcDbArc
 50
347.4071072804777
 51
77.67199081276654
  0
ARC
  5
F8
330
5C
100
AcDbEntity
  8
0
  6
Continuous
 62
     7
100
AcDbCircle
 10
-166.049436144888
 20
-68.28322149934247
 30
0.0
 40
60.0000000000001
100
AcDbArc
 50
3.41941798623128
 51
8.26302524072639
  0
ARC
  5
F9
330
5C
100
AcDbEntity
  8
0
  6
Continuous
 62
     7
100
AcDbCircle
 10
-107.4278314232754
 20
-60.60951470140573
 30
0.0
 40
3.999999999999984
100
AcDbArc
 50
192.5928927195222
 51
238.1409491202002
  0
ARC
  5
FA
330
5C
100
AcDbEntity
  8
0
  6
Continuous
 62
     7
100
AcDbCircle
 10
-166.049436144888
 20
-68.28322149934247
 30
0.0
 40
59.40000000000007
100
AcDbArc
 50
3.98146185590055
 51
8.93247321690353
  0
ARC
  5
FB
330
5C
100
AcDbEntity
  8
0
  6
Continuous
 62
     7
100
AcDbCircle
 10
-107.4278314232754
 20
-60.60951470140573
 30
0.0
 40
3.399999999999984
100
AcDbArc
 50
192.5928927195223
 51
238.1409491202007
  0
ARC
  5
FC
330
5C
100
AcDbEntity
  8
0
  6
Continuous
 62
     7
100
AcDbCircle
 10
-104.4999999809579
 20
-59.95544815633771
 30
0.0
 40
7.000000000000004
100
AcDbArc
 50
102.3280091872336
 51
192.5928927195225
  0
ARC
  5
FD
330
5C
100
AcDbEntity
  8
0
  6
Continuous
 62
     7
100
AcDbCircle
 10
-101.0999999809579
 20
-59.7601655573542
 30
0.0
 40
4.400000000000007
100
AcDbArc
 50
268.6038505962743
 51
301.8590508798001
  0
ARC
  5
FE
330
5C
100
AcDbEntity
  8
0
  6
Continuous
 62
     7
100
AcDbCircle
 10
-101.0999999809579
 20
-59.7601655573542
 30
0.0
 40
4.999999999999997
100
AcDbArc
 50
261.4455740908539
 51
301.8590508798001
  0
ARC
  5
FF
330
5C
100
AcDbEntity
  8
0
  6
Continuous
 62
     7
100
AcDbCircle
 10
-106.8999999809579
 20
-59.7601655573542
 30
0.0
 40
5.00000000000001
100
AcDbArc
 50
238.1409491202
 51
278.5544259091461
  0
ARC
  5
100
330
5C
100
AcDbEntity
  8
0
  6
Continuous
 62
     7
100
AcDbCircle
 10
-103.301289523985
 20
-50.82166283457788
 30
0.0
 40
1.50000000000006
100
AcDbArc
 50
9.18517006573286
 51
79.9401021992222
  0
ARC
  5
101
330
5C
100
AcDbEntity
  8
0
  6
Continuous
 62
     7
100
AcDbCircle
 10
-103.9999999809579
 20
-54.7601655573542
 30
0.0
 40
5.500000000000004
100
AcDbArc
 50
79.94010219922397
 51
100.0598978007762
  0
ARC
  5
102
330
5C
100
AcDbEntity
  8
0
  6
Continuous
 62
     7
100
AcDbCircle
 10
-104.6987104379308
 20
-50.82166283457788
 30
0.0
 40
1.500000000000008
100
AcDbArc
 50
100.059897800778
 51
170.8148299342672
  0
ARC
  5
103
330
5C
100
AcDbEntity
  8
0
  6
Continuous
 62
     7
100
AcDbCircle
 10
-106.8999999809579
 20
-59.7601655573542
 30
0.0
 40
4.400000000000007
100
AcDbArc
 50
238.1409491202002
 51
271.3961494037257
  0
ARC
  5
104
330
5C
100
AcDbEntity
  8
0
  6
Continuous
 62
     7
100
AcDbCircle
 10
-104.4999999809579
 20
-59.95544815633771
 30
0.0
 40
6.400000000000001
100
AcDbArc
 50
87.7999845977495
 51
192.5928927195226
  0
ENDBLK
  5
5E
330
5C
100
AcDbEntity
  8
0
100
AcDbBlockEnd
  0
BLOCK
  5
61
330
5F
100
AcDbEntity
  8
0
100
AcDbBlockBegin
  2
SA_Links1
 70
     0
 10
-104.0000000894074
 20
-57.0
 30
0.0
  3
SA_Links1
  1

  0
INSERT
  5
60
330
5F
100
AcDbEntity
  8
0
100
AcDbBlockReference
  2
0803312_PATG_5_12-select__4
 10
-111.4999999809579
 20
-64.7601655573542
 30
0.0
  0
MTEXT
  5
105
330
5F
100
AcDbEntity
  8
1
 62
     6
100
AcDbMText
 10
-104.000000089407
 20
-67.23277544975281
 30
0.0
 40
2.5
 41
0.0
 71
     2
 72
     1
  1
 
  7
CONVERTER_11
 73
     1
 44
1.32052821128451
  0
ENDBLK
  5
62
330
5F
100
AcDbEntity
  8
0
100
AcDbBlockEnd
  0
BLOCK
  5
64
330
63
100
AcDbEntity
  8
0
100
AcDbBlockBegin
  2
0803312_PATG_5_12-select__5
 70
     0
 10
-181.5000003468734
 20
-64.76016555735387
 30
0.0
  3
0803312_PATG_5_12-select__5
  1

  0
LINE
  5
106
330
63
100
AcDbEntity
  8
0
  6
Continuous
 62
     7
100
AcDbLine
 10
-173.7456840442133
 20
-53.56016555735386
 30
0.0
 11
-174.2543166495335
 21
-53.56016555735386
 31
0.0
  0
LINE
  5
107
330
63
100
AcDbEntity
  8
0
  6
Continuous
 62
     7
100
AcDbLine
 10
-170.6301623333308
 20
-59.06016555735389
 30
0.0
 11
-177.369838360416
 21
-59.06016555735389
 31
0.0
  0
LINE
  5
108
330
63
100
AcDbEntity
  8
0
  6
Continuous
 62
     7
100
AcDbLine
 10
-176.6723120753667
 20
-59.66016555735388
 30
0.0
 11
-171.3276886183801
 21
-59.66016555735388
 31
0.0
  0
ARC
  5
109
330
63
100
AcDbEntity
  8
0
  6
Continuous
 62
     7
100
AcDbCircle
 10
-177.2500003468734
 20
-51.46016555735386
 30
0.0
 40
5.500000000000018
100
AcDbArc
 50
342.4692877020944
 51
9.18517006573337
  0
ARC
  5
10A
330
63
100
AcDbEntity
  8
0
  6
Continuous
 62
     7
100
AcDbCircle
 10
-170.5721689045559
 20
-60.6095147014054
 30
0.0
 40
3.39999999999999
100
AcDbArc
 50
301.8590508797993
 51
347.4071072804779
  0
ARC
  5
10B
330
63
100
AcDbEntity
  8
0
  6
Continuous
 62
     7
100
AcDbCircle
 10
-170.5721689045559
 20
-60.6095147014054
 30
0.0
 40
3.999999999999968
100
AcDbArc
 50
301.8590508797997
 51
347.4071072804779
  0
ARC
  5
10C
330
63
100
AcDbEntity
  8
0
  6
Continuous
 62
     7
100
AcDbCircle
 10
-111.9505641829434
 20
-68.28322149934255
 30
0.0
 40
59.4
100
AcDbArc
 50
171.0675267830961
 51
176.0185381440991
  0
ARC
  5
10D
330
63
100
AcDbEntity
  8
0
  6
Continuous
 62
     7
100
AcDbCircle
 10
-111.9505641829434
 20
-68.28322149934255
 30
0.0
 40
60.00000000000001
100
AcDbArc
 50
171.7369747592732
 51
176.5805820137683
  0
ARC
  5
10E
330
63
100
AcDbEntity
  8
0
  6
Continuous
 62
     7
100
AcDbCircle
 10
-173.5000003468734
 20
-59.95544815633738
 30
0.0
 40
7.00000000000004
100
AcDbArc
 50
347.4071072804775
 51
77.67199081276654
  0
ARC
  5
10F
330
63
100
AcDbEntity
  8
0
  6
Continuous
 62
     7
100
AcDbCircle
 10
-173.3012898899004
 20
-50.82166283457755
 30
0.0
 40
1.499999999999948
100
AcDbArc
 50
9.18517006573355
 51
79.94010219922633
  0
ARC
  5
110
330
63
100
AcDbEntity
  8
0
  6
Continuous
 62
     7
100
AcDbCircle
 10
-171.1000003468733
 20
-59.76016555735387
 30
0.0
 40
4.400000000000049
100
AcDbArc
 50
268.6038505962739
 51
301.8590508797984
  0
ARC
  5
111
330
63
100
AcDbEntity
  8
0
  6
Continuous
 62
     7
100
AcDbCircle
 10
-171.1000003468733
 20
-59.76016555735387
 30
0.0
 40
5.000000000000014
100
AcDbArc
 50
261.4455740908526
 51
301.8590508797989
  0
ARC
  5
112
330
63
100
AcDbEntity
  8
0
  6
Continuous
 62
     7
100
AcDbCircle
 10
-174.6987108038463
 20
-50.82166283457755
 30
0.0
 40
1.500000000000023
100
AcDbArc
 50
100.0598978007735
 51
170.8148299342665
  0
ARC
  5
113
330
63
100
AcDbEntity
  8
0
  6
Continuous
 62
     7
100
AcDbCircle
 10
-170.7500003468734
 20
-51.46016555735386
 30
0.0
 40
5.499999999999925
100
AcDbArc
 50
170.8148299342664
 51
197.5307122979054
  0
ARC
  5
114
330
63
100
AcDbEntity
  8
0
  6
Continuous
 62
     7
100
AcDbCircle
 10
-177.4278317891908
 20
-60.6095147014054
 30
0.0
 40
3.999999999999991
100
AcDbArc
 50
192.5928927195218
 51
238.1409491202003
  0
ARC
  5
115
330
63
100
AcDbEntity
  8
0
  6
Continuous
 62
     7
100
AcDbCircle
 10
-177.4278317891908
 20
-60.6095147014054
 30
0.0
 40
3.399999999999988
100
AcDbArc
 50
192.5928927195216
 51
238.1409491201989
  0
ARC
  5
116
330
63
100
AcDbEntity
  8
0
  6
Continuous
 62
     7
100
AcDbCircle
 10
-236.0494365108034
 20
-68.28322149934255
 30
0.0
 40
59.4
100
AcDbArc
 50
3.98146185590095
 51
8.93247321690393
  0
ARC
  5
117
330
63
100
AcDbEntity
  8
0
  6
Continuous
 62
     7
100
AcDbCircle
 10
-174.5000003468734
 20
-59.95544815633738
 30
0.0
 40
6.400000000000001
100
AcDbArc
 50
87.7999845977495
 51
192.5928927195224
  0
ARC
  5
118
330
63
100
AcDbEntity
  8
0
  6
Continuous
 62
     7
100
AcDbCircle
 10
-174.5000003468734
 20
-59.95544815633738
 30
0.0
 40
7.000000000000016
100
AcDbArc
 50
102.3280091872334
 51
192.5928927195225
  0
ARC
  5
119
330
63
100
AcDbEntity
  8
0
  6
Continuous
 62
     7
100
AcDbCircle
 10
-176.9000003468734
 20
-59.76016555735387
 30
0.0
 40
4.399999999999994
100
AcDbArc
 50
238.1409491202001
 51
271.3961494037261
  0
ARC
  5
11A
330
63
100
AcDbEntity
  8
0
  6
Continuous
 62
     7
100
AcDbCircle
 10
-176.9000003468734
 20
-59.76016555735387
 30
0.0
 40
4.999999999999931
100
AcDbArc
 50
238.1409491202012
 51
278.5544259091461
  0
ARC
  5
11B
330
63
100
AcDbEntity
  8
0
  6
Continuous
 62
     7
100
AcDbCircle
 10
-236.0494365108034
 20
-68.28322149934255
 30
0.0
 40
59.99999999999999
100
AcDbArc
 50
3.41941798623167
 51
8.26302524072679
  0
ARC
  5
11C
330
63
100
AcDbEntity
  8
0
  6
Continuous
 62
     7
100
AcDbCircle
 10
-174.0000003468734
 20
-54.76016555735387
 30
0.0
 40
5.499999999999984
100
AcDbArc
 50
79.94010219922393
 51
100.0598978007748
  0
ARC
  5
11D
330
63
100
AcDbEntity
  8
0
  6
Continuous
 62
     7
100
AcDbCircle
 10
-173.5000003468734
 20
-59.95544815633738
 30
0.0
 40
6.400000000000039
100
AcDbArc
 50
347.4071072804775
 51
92.20001540225051
  0
ENDBLK
  5
65
330
63
100
AcDbEntity
  8
0
100
AcDbBlockEnd
  0
BLOCK
  5
68
330
66
100
AcDbEntity
  8
0
100
AcDbBlockBegin
  2
SA_Rechts1
 70
     0
 10
-174.0000002384239
 20
-56.99999999999967
 30
0.0
  3
SA_Rechts1
  1

  0
INSERT
  5
67
330
66
100
AcDbEntity
  8
0
100
AcDbBlockReference
  2
0803312_PATG_5_12-select__5
 10
-181.5000003468734
 20
-64.76016555735387
 30
0.0
  0
MTEXT
  5
11E
330
66
100
AcDbEntity
  8
1
 62
     6
100
AcDbMText
 10
-174.0000002384236
 20
-67.23277544975281
 30
0.0
 40
2.5
 41
0.0
 71
     2
 72
     1
  1
 
  7
CONVERTER_11
 73
     1
 44
1.32052821128451
  0
ENDBLK
  5
69
330
66
100
AcDbEntity
  8
0
100
AcDbBlockEnd
  0
BLOCK
  5
6B
330
6A
100
AcDbEntity
  8
0
100
AcDbBlockBegin
  2
0803312_PATG_5_12-select__6
 70
     0
 10
-142.499999999995
 20
-64.76016555735414
 30
0.0
  3
0803312_PATG_5_12-select__6
  1

  0
LINE
  5
11F
330
6A
100
AcDbEntity
  8
0
  6
Continuous
 62
     2
100
AcDbLine
 10
-142.499999999995
 20
-61.48160342816296
 30
0.0
 11
-130.499999999995
 21
-61.48160342816296
 31
0.0
  0
LINE
  5
120
330
6A
100
AcDbEntity
  8
0
  6
Continuous
 62
     7
100
AcDbLine
 10
-130.499999999995
 20
-53.11685893559611
 30
0.0
 11
-130.499999999995
 21
-50.58222431353672
 31
0.0
  0
LINE
  5
121
330
6A
100
AcDbEntity
  8
0
  6
Continuous
 62
     7
100
AcDbLine
 10
-130.499999999995
 20
-50.58222431353672
 30
0.0
 11
-130.499999999995
 21
-49.34472431353667
 31
0.0
  0
LINE
  5
122
330
6A
100
AcDbEntity
  8
0
  6
Continuous
 62
     7
100
AcDbLine
 10
-130.499999999995
 20
-49.34472431353667
 30
0.0
 11
-130.499999999995
 21
-49.26016555735415
 31
0.0
  0
LINE
  5
123
330
6A
100
AcDbEntity
  8
0
  6
Continuous
 62
     7
100
AcDbLine
 10
-142.499999999995
 20
-53.11685893559612
 30
0.0
 11
-142.499999999995
 21
-50.58222431353672
 31
0.0
  0
LINE
  5
124
330
6A
100
AcDbEntity
  8
0
  6
Continuous
 62
     7
100
AcDbLine
 10
-130.499999999995
 20
-53.11685893559611
 30
0.0
 11
-142.499999999995
 21
-53.11685893559612
 31
0.0
  0
LINE
  5
125
330
6A
100
AcDbEntity
  8
0
  6
Continuous
 62
     7
100
AcDbLine
 10
-130.499999999995
 20
-61.48160342816296
 30
0.0
 11
-130.499999999995
 21
-53.11685893559611
 31
0.0
  0
LINE
  5
126
330
6A
100
AcDbEntity
  8
0
  6
Continuous
 62
     7
100
AcDbLine
 10
-142.499999999995
 20
-61.48160342816296
 30
0.0
 11
-142.499999999995
 21
-53.11685893559612
 31
0.0
  0
LINE
  5
127
330
6A
100
AcDbEntity
  8
0
  6
Continuous
 62
     7
100
AcDbLine
 10
-142.499999999995
 20
-64.00691127761176
 30
0.0
 11
-142.499999999995
 21
-64.76016555735414
 31
0.0
  0
LINE
  5
128
330
6A
100
AcDbEntity
  8
0
  6
Continuous
 62
     7
100
AcDbLine
 10
-130.499999999995
 20
-64.00691127761175
 30
0.0
 11
-130.499999999995
 21
-64.76016555735414
 31
0.0
  0
LINE
  5
129
330
6A
100
AcDbEntity
  8
0
  6
Continuous
 62
     2
100
AcDbLine
 10
-142.499999999995
 20
-64.00691127761176
 30
0.0
 11
-130.499999999995
 21
-64.00691127761175
 31
0.0
  0
LINE
  5
12A
330
6A
100
AcDbEntity
  8
0
  6
Continuous
 62
     7
100
AcDbLine
 10
-142.499999999995
 20
-64.76016555735414
 30
0.0
 11
-130.499999999995
 21
-64.76016555735414
 31
0.0
  0
LINE
  5
12B
330
6A
100
AcDbEntity
  8
0
  6
Continuous
 62
     7
100
AcDbLine
 10
-142.499999999995
 20
-49.34472431353667
 30
0.0
 11
-142.499999999995
 21
-49.26016555735415
 31
0.0
  0
LINE
  5
12C
330
6A
100
AcDbEntity
  8
0
  6
Continuous
 62
     7
100
AcDbLine
 10
-142.499999999995
 20
-50.58222431353672
 30
0.0
 11
-142.499999999995
 21
-49.34472431353667
 31
0.0
  0
LINE
  5
12D
330
6A
100
AcDbEntity
  8
0
  6
Continuous
 62
     2
100
AcDbLine
 10
-142.499999999995
 20
-50.58222431353672
 30
0.0
 11
-130.499999999995
 21
-50.58222431353672
 31
0.0
  0
LINE
  5
12E
330
6A
100
AcDbEntity
  8
0
  6
Continuous
 62
     2
100
AcDbLine
 10
-142.499999999995
 20
-49.34472431353667
 30
0.0
 11
-130.499999999995
 21
-49.34472431353667
 31
0.0
  0
LINE
  5
12F
330
6A
100
AcDbEntity
  8
0
  6
Continuous
 62
     7
100
AcDbLine
 10
-130.499999999995
 20
-49.26016555735415
 30
0.0
 11
-142.499999999995
 21
-49.26016555735415
 31
0.0
  0
LINE
  5
130
330
6A
100
AcDbEntity
  8
0
  6
Continuous
 62
     7
100
AcDbLine
 10
-142.499999999995
 20
-61.48160342816296
 30
0.0
 11
-142.499999999995
 21
-64.00691127761176
 31
0.0
  0
LINE
  5
131
330
6A
100
AcDbEntity
  8
0
  6
Continuous
 62
     7
100
AcDbLine
 10
-130.499999999995
 20
-61.48160342816296
 30
0.0
 11
-130.499999999995
 21
-64.00691127761175
 31
0.0
  0
ENDBLK
  5
6C
330
6A
100
AcDbEntity
  8
0
100
AcDbBlockEnd
  0
BLOCK
  5
6F
330
6D
100
AcDbEntity
  8
0
100
AcDbBlockBegin
  2
Vordans1
 70
     0
 10
-133.5
 20
-56.99999999999995
 30
0.0
  3
Vordans1
  1

  0
INSERT
  5
6E
330
6D
100
AcDbEntity
  8
0
100
AcDbBlockReference
  2
0803312_PATG_5_12-select__6
 10
-142.499999999995
 20
-64.76016555735414
 30
0.0
  0
MTEXT
  5
132
330
6D
100
AcDbEntity
  8
1
 62
     6
100
AcDbMText
 10
-136.5
 20
-67.23277544975281
 30
0.0
 40
2.5
 41
0.0
 71
     2
 72
     1
  1
 
  7
CONVERTER_11
 73
     1
 44
1.32052821128451
  0
DIMENSION
  5
13D
330
6D
100
AcDbEntity
  8
1
100
AcDbDimension
  2
*D17
 10
-142.499999999995
 20
-69.76016555735414
 30
0.0
 11
-136.499999999995
 21
-68.13516555735414
 31
0.0
 70
    33
  1
<>
 71
     5
 42
-1.0
 53
0.00013888888889
  3
ME10_DIM_11
100
AcDbAlignedDimension
 13
-130.499999999995
 23
-64.76016555735414
 33
0.0
 14
-142.499999999995
 24
-64.76016555735414
 34
0.0
  0
DIMENSION
  5
148
330
6D
100
AcDbEntity
  8
1
100
AcDbDimension
  2
*D18
 10
-147.499999999995
 20
-64.76016555735416
 30
0.0
 11
-149.212499999995
 21
-57.16962412934213
 31
0.0
 70
    32
  1
<>
 71
     5
 42
-1.0
 53
90.0
  3
ME10_DIM_12
100
AcDbAlignedDimension
 13
-142.499999999995
 23
-49.26016555735415
 33
0.0
 14
-142.499999999995
 24
-64.76016555735414
 34
0.0
 50
90.0
100
AcDbRotatedDimension
  0
ENDBLK
  5
70
330
6D
100
AcDbEntity
  8
0
100
AcDbBlockEnd
  0
BLOCK
  5
72
330
71
100
AcDbEntity
  8
0
100
AcDbBlockBegin
  2
_punkt
 70
     0
 10
-94.50000034689056
 20
-259.9545407769838
 30
0.0
  3
_punkt
  1

  0
LINE
  5
149
330
71
100
AcDbEntity
  8
1
  6
Continuous
 62
     2
100
AcDbLine
 10
-94.50000034689056
 20
-259.9545407769838
 30
0.0
 11
-89.50000034689157
 21
-259.9545407769838
 31
0.0
  0
LINE
  5
14A
330
71
100
AcDbEntity
  8
1
  6
Continuous
 62
     2
100
AcDbLine
 10
-94.50000034689056
 20
-259.9545407769838
 30
0.0
 11
-94.50000034689056
 21
-264.9545407769839
 31
0.0
  0
ENDBLK
  5
73
330
71
100
AcDbEntity
  8
0
100
AcDbBlockEnd
  0
BLOCK
  5
75
330
74
100
AcDbEntity
  8
0
100
AcDbBlockBegin
  2
_rahmen
 70
     0
 10
-94.50000034689056
 20
-264.9545407769839
 30
0.0
  3
_rahmen
  1

  0
LINE
  5
14B
330
74
100
AcDbEntity
  8
1
  6
Continuous
 62
     6
100
AcDbLine
 10
-224.0448048736406
 20
-234.4545407769838
 30
0.0
 11
-94.50000034688887
 21
-234.4545407769838
 31
0.0
  0
LINE
  5
14C
330
74
100
AcDbEntity
  8
1
  6
Continuous
 62
     7
100
AcDbLine
 10
-205.8448048736406
 20
-255.7045407769838
 30
0.0
 11
-187.6448048736407
 21
-255.7045407769838
 31
0.0
  0
LINE
  5
14D
330
74
100
AcDbEntity
  8
1
  6
Continuous
 62
     6
100
AcDbLine
 10
-205.8448048736406
 20
-259.9545407769838
 30
0.0
 11
-224.0448048736406
 21
-259.9545407769839
 31
0.0
  0
LINE
  5
14E
330
74
100
AcDbEntity
  8
1
  6
Continuous
 62
     7
100
AcDbLine
 10
-205.8448048736406
 20
-255.7045407769838
 30
0.0
 11
-205.8448048736406
 21
-259.9545407769838
 31
0.0
  0
LINE
  5
14F
330
74
100
AcDbEntity
  8
1
  6
Continuous
 62
     7
100
AcDbLine
 10
-187.6448048736407
 20
-255.7045407769838
 30
0.0
 11
-187.6448048736407
 21
-259.9545407769839
 31
0.0
  0
LINE
  5
150
330
74
100
AcDbEntity
  8
1
  6
Continuous
 62
     7
100
AcDbLine
 10
-224.0448048736406
 20
-255.7045407769839
 30
0.0
 11
-224.0448048736406
 21
-259.9545407769839
 31
0.0
  0
LINE
  5
151
330
74
100
AcDbEntity
  8
1
  6
Continuous
 62
     7
100
AcDbLine
 10
-224.0448048736406
 20
-255.7045407769839
 30
0.0
 11
-205.8448048736406
 21
-255.7045407769838
 31
0.0
  0
LINE
  5
152
330
74
100
AcDbEntity
  8
1
  6
Continuous
 62
     2
100
AcDbLine
 10
-214.808149987078
 20
-236.3295407769839
 30
0.0
 11
-214.808149987078
 21
-241.3295407769839
 31
0.0
  0
LINE
  5
153
330
74
100
AcDbEntity
  8
1
  6
Continuous
 62
     2
100
AcDbLine
 10
-214.808149987078
 20
-241.3295407769839
 30
0.0
 11
-219.808149987078
 21
-240.0795407769839
 31
0.0
  0
LINE
  5
154
330
74
100
AcDbEntity
  8
1
  6
Continuous
 62
     2
100
AcDbLine
 10
-219.808149987078
 20
-240.0795407769839
 30
0.0
 11
-219.808149987078
 21
-237.5795407769839
 31
0.0
  0
LINE
  5
155
330
74
100
AcDbEntity
  8
1
  6
Continuous
 62
     2
100
AcDbLine
 10
-219.808149987078
 20
-237.5795407769839
 30
0.0
 11
-214.808149987078
 21
-236.3295407769839
 31
0.0
  0
LINE
  5
156
330
74
100
AcDbEntity
  8
1
  6
Continuous
 62
     6
100
AcDbLine
 10
-346.5000003468888
 20
-259.9545407769838
 30
0.0
 11
-381.5000003468887
 21
-259.9545407769838
 31
0.0
  0
LINE
  5
157
330
74
100
AcDbEntity
  8
1
  6
Continuous
 62
     6
100
AcDbLine
 10
-94.50000034688887
 20
-242.9545407769838
 30
0.0
 11
-94.50000034688927
 21
-251.4545407769838
 31
0.0
  0
LINE
  5
158
330
74
100
AcDbEntity
  8
1
  6
Continuous
 62
     6
100
AcDbLine
 10
-187.6448048736407
 20
-259.9545407769839
 30
0.0
 11
-188.0000003468906
 21
-259.9545407769838
 31
0.0
  0
LINE
  5
159
330
74
100
AcDbEntity
  8
1
  6
Continuous
 62
     6
100
AcDbLine
 10
-340.3000003468908
 20
-259.9545407769839
 30
0.0
 11
-346.5000003468888
 21
-259.9545407769838
 31
0.0
  0
LINE
  5
15A
330
74
100
AcDbEntity
  8
1
  6
Continuous
 62
     7
100
AcDbLine
 10
-187.6448048736407
 20
-242.9545407769838
 30
0.0
 11
-187.6448048736407
 21
-255.7045407769838
 31
0.0
  0
LINE
  5
15B
330
74
100
AcDbEntity
  8
1
  6
Continuous
 62
     7
100
AcDbLine
 10
-224.0448048736406
 20
-242.9545407769838
 30
0.0
 11
-224.0448048736406
 21
-255.7045407769839
 31
0.0
  0
LINE
  5
15C
330
74
100
AcDbEntity
  8
1
  6
Continuous
 62
     6
100
AcDbLine
 10
-238.0000003468905
 20
-259.9545407769838
 30
0.0
 11
-288.0000003468908
 21
-259.9545407769838
 31
0.0
  0
LINE
  5
15D
330
74
100
AcDbEntity
  8
1
  6
Continuous
 62
     6
100
AcDbLine
 10
-340.3000003468908
 20
-259.9545407769839
 30
0.0
 11
-338.0000003468905
 21
-259.9545407769838
 31
0.0
  0
LINE
  5
15E
330
74
100
AcDbEntity
  8
1
  6
Continuous
 62
     6
100
AcDbLine
 10
-187.6448048736407
 20
-259.9545407769839
 30
0.0
 11
-138.0000003468906
 21
-259.9545407769838
 31
0.0
  0
LINE
  5
15F
330
74
100
AcDbEntity
  8
1
  6
Continuous
 62
     6
100
AcDbLine
 10
-94.50000034689056
 20
-259.9545407769838
 30
0.0
 11
-94.50000034688927
 21
-251.4545407769838
 31
0.0
  0
LINE
  5
160
330
74
100
AcDbEntity
  8
1
  6
Continuous
 62
     2
100
AcDbLine
 10
-386.5000003468896
 20
-259.9545407769838
 30
0.0
 11
-386.5000003468896
 21
-264.9545407769839
 31
0.0
  0
LINE
  5
161
330
74
100
AcDbEntity
  8
1
  6
Continuous
 62
     2
100
AcDbLine
 10
-381.5000003468887
 20
-259.9545407769838
 30
0.0
 11
-386.5000003468896
 21
-259.9545407769838
 31
0.0
  0
LINE
  5
162
330
74
100
AcDbEntity
  8
1
  6
Continuous
 62
     2
100
AcDbLine
 10
-381.5000003468887
 20
-264.9545407769839
 30
0.0
 11
-338.0000003468905
 21
-264.9545407769839
 31
0.0
  0
LINE
  5
163
330
74
100
AcDbEntity
  8
1
  6
Continuous
 62
     2
100
AcDbLine
 10
-381.5000003468887
 20
-259.9545407769838
 30
0.0
 11
-381.5000003468887
 21
-264.9545407769839
 31
0.0
  0
LINE
  5
164
330
74
100
AcDbEntity
  8
1
  6
Continuous
 62
     2
100
AcDbLine
 10
-138.0000003468906
 20
-264.9545407769839
 30
0.0
 11
-188.0000003468906
 21
-264.9545407769839
 31
0.0
  0
LINE
  5
165
330
74
100
AcDbEntity
  8
1
  6
Continuous
 62
     2
100
AcDbLine
 10
-138.0000003468906
 20
-264.9545407769839
 30
0.0
 11
-138.0000003468906
 21
-259.9545407769838
 31
0.0
  0
LINE
  5
166
330
74
100
AcDbEntity
  8
1
  6
Continuous
 62
     2
100
AcDbLine
 10
-188.0000003468906
 20
-264.9545407769839
 30
0.0
 11
-188.0000003468906
 21
-259.9545407769838
 31
0.0
  0
LINE
  5
167
330
74
100
AcDbEntity
  8
1
  6
Continuous
 62
     2
100
AcDbLine
 10
-238.0000003468905
 20
-264.9545407769839
 30
0.0
 11
-188.0000003468906
 21
-264.9545407769839
 31
0.0
  0
LINE
  5
168
330
74
100
AcDbEntity
  8
1
  6
Continuous
 62
     2
100
AcDbLine
 10
-238.0000003468905
 20
-264.9545407769839
 30
0.0
 11
-238.0000003468905
 21
-259.9545407769838
 31
0.0
  0
LINE
  5
169
330
74
100
AcDbEntity
  8
1
  6
Continuous
 62
     2
100
AcDbLine
 10
-288.0000003468908
 20
-264.9545407769839
 30
0.0
 11
-238.0000003468905
 21
-264.9545407769839
 31
0.0
  0
LINE
  5
16A
330
74
100
AcDbEntity
  8
1
  6
Continuous
 62
     2
100
AcDbLine
 10
-288.0000003468908
 20
-264.9545407769839
 30
0.0
 11
-288.0000003468908
 21
-259.9545407769838
 31
0.0
  0
LINE
  5
16B
330
74
100
AcDbEntity
  8
1
  6
Continuous
 62
     2
100
AcDbLine
 10
-338.0000003468905
 20
-264.9545407769839
 30
0.0
 11
-288.0000003468908
 21
-264.9545407769839
 31
0.0
  0
LINE
  5
16C
330
74
100
AcDbEntity
  8
1
  6
Continuous
 62
     2
100
AcDbLine
 10
-338.0000003468905
 20
-264.9545407769839
 30
0.0
 11
-338.0000003468905
 21
-259.9545407769838
 31
0.0
  0
LINE
  5
16D
330
74
100
AcDbEntity
  8
1
  6
Continuous
 62
     6
100
AcDbLine
 10
-381.5000003468888
 20
-209.9545407769837
 30
0.0
 11
-381.5000003468887
 21
-259.9545407769838
 31
0.0
  0
LINE
  5
16E
330
74
100
AcDbEntity
  8
1
  6
Continuous
 62
     2
100
AcDbLine
 10
-386.5000003468896
 20
-209.9545407769837
 30
0.0
 11
-386.5000003468896
 21
-259.9545407769838
 31
0.0
  0
LINE
  5
16F
330
74
100
AcDbEntity
  8
1
  6
Continuous
 62
     2
100
AcDbLine
 10
-386.5000003468896
 20
-209.9545407769837
 30
0.0
 11
-381.5000003468888
 21
-209.9545407769837
 31
0.0
  0
LINE
  5
170
330
74
100
AcDbEntity
  8
1
  6
Continuous
 62
     6
100
AcDbLine
 10
-381.5000003468891
 20
-159.9545407769839
 30
0.0
 11
-381.5000003468888
 21
-209.9545407769837
 31
0.0
  0
LINE
  5
171
330
74
100
AcDbEntity
  8
1
  6
Continuous
 62
     2
100
AcDbLine
 10
-386.5000003468896
 20
-159.9545407769839
 30
0.0
 11
-386.5000003468896
 21
-209.9545407769837
 31
0.0
  0
LINE
  5
172
330
74
100
AcDbEntity
  8
1
  6
Continuous
 62
     2
100
AcDbLine
 10
-386.5000003468896
 20
-159.9545407769839
 30
0.0
 11
-381.5000003468891
 21
-159.9545407769839
 31
0.0
  0
LINE
  5
173
330
74
100
AcDbEntity
  8
1
  6
Continuous
 62
     6
100
AcDbLine
 10
-381.5000003468896
 20
-109.9545407769838
 30
0.0
 11
-381.5000003468891
 21
-159.9545407769839
 31
0.0
  0
LINE
  5
174
330
74
100
AcDbEntity
  8
1
  6
Continuous
 62
     2
100
AcDbLine
 10
-386.5000003468896
 20
-109.9545407769838
 30
0.0
 11
-386.5000003468896
 21
-159.9545407769839
 31
0.0
  0
LINE
  5
175
330
74
100
AcDbEntity
  8
1
  6
Continuous
 62
     2
100
AcDbLine
 10
-386.5000003468896
 20
-109.9545407769838
 30
0.0
 11
-381.5000003468896
 21
-109.9545407769838
 31
0.0
  0
LINE
  5
176
330
74
100
AcDbEntity
  8
1
  6
Continuous
 62
     6
100
AcDbLine
 10
-381.5000003468896
 20
-74.9545407769838
 30
0.0
 11
-381.5000003468896
 21
-109.9545407769838
 31
0.0
  0
LINE
  5
177
330
74
100
AcDbEntity
  8
1
  6
Continuous
 62
     2
100
AcDbLine
 10
-386.5000003468896
 20
-54.95454077698381
 30
0.0
 11
-386.5000003468896
 21
-109.9545407769838
 31
0.0
  0
LINE
  5
178
330
74
100
AcDbEntity
  8
1
  6
Continuous
 62
     2
100
AcDbLine
 10
-386.5000003468896
 20
-264.9545407769839
 30
0.0
 11
-381.5000003468887
 21
-264.9545407769839
 31
0.0
  0
LINE
  5
179
330
74
100
AcDbEntity
  8
1
  6
Continuous
 62
     2
100
AcDbLine
 10
-238.0000003468905
 20
-54.95454077698381
 30
0.0
 11
-238.0000003468905
 21
-64.16323262168513
 31
0.0
  0
LINE
  5
17A
330
74
100
AcDbEntity
  8
1
  6
Continuous
 62
     2
100
AcDbLine
 10
-238.0000003468905
 20
-54.95454077698381
 30
0.0
 11
-386.5000003468896
 21
-54.95454077698381
 31
0.0
  0
LINE
  5
17B
330
74
100
AcDbEntity
  8
1
  6
Continuous
 62
     2
100
AcDbLine
 10
-89.50000034689157
 20
-259.9545407769838
 30
0.0
 11
-89.50000034689157
 21
-209.9545407769837
 31
0.0
  0
LINE
  5
17C
330
74
100
AcDbEntity
  8
1
  6
Continuous
 62
     2
100
AcDbLine
 10
-89.50000034689157
 20
-109.9545407769838
 30
0.0
 11
-89.50000034689157
 21
-54.95454077698381
 31
0.0
  0
LINE
  5
17D
330
74
100
AcDbEntity
  8
1
  6
Continuous
 62
     6
100
AcDbLine
 10
-94.50000034689137
 20
-109.9545407769838
 30
0.0
 11
-94.50000034689157
 21
-74.9545407769838
 31
0.0
  0
LINE
  5
17E
330
74
100
AcDbEntity
  8
1
  6
Continuous
 62
     2
100
AcDbLine
 10
-94.50000034689137
 20
-109.9545407769838
 30
0.0
 11
-89.50000034689157
 21
-109.9545407769838
 31
0.0
  0
LINE
  5
17F
330
74
100
AcDbEntity
  8
1
  6
Continuous
 62
     2
100
AcDbLine
 10
-89.50000034689157
 20
-159.9545407769839
 30
0.0
 11
-89.50000034689157
 21
-109.9545407769838
 31
0.0
  0
LINE
  5
180
330
74
100
AcDbEntity
  8
1
  6
Continuous
 62
     6
100
AcDbLine
 10
-94.50000034689016
 20
-159.9545407769839
 30
0.0
 11
-94.50000034689137
 21
-109.9545407769838
 31
0.0
  0
LINE
  5
181
330
74
100
AcDbEntity
  8
1
  6
Continuous
 62
     2
100
AcDbLine
 10
-94.50000034689016
 20
-159.9545407769839
 30
0.0
 11
-89.50000034689157
 21
-159.9545407769839
 31
0.0
  0
LINE
  5
182
330
74
100
AcDbEntity
  8
1
  6
Continuous
 62
     2
100
AcDbLine
 10
-89.50000034689157
 20
-209.9545407769837
 30
0.0
 11
-89.50000034689157
 21
-159.9545407769839
 31
0.0
  0
LINE
  5
183
330
74
100
AcDbEntity
  8
1
  6
Continuous
 62
     6
100
AcDbLine
 10
-94.50000034688966
 20
-209.9545407769837
 30
0.0
 11
-94.50000034689016
 21
-159.9545407769839
 31
0.0
  0
LINE
  5
184
330
74
100
AcDbEntity
  8
1
  6
Continuous
 62
     2
100
AcDbLine
 10
-94.50000034688966
 20
-209.9545407769837
 30
0.0
 11
-89.50000034689157
 21
-209.9545407769837
 31
0.0
  0
LINE
  5
185
330
74
100
AcDbEntity
  8
1
  6
Continuous
 62
     6
100
AcDbLine
 10
-94.50000034689157
 20
-74.9545407769838
 30
0.0
 11
-381.5000003468896
 21
-74.9545407769838
 31
0.0
  0
LINE
  5
186
330
74
100
AcDbEntity
  8
1
  6
Continuous
 62
     2
100
AcDbLine
 10
-89.50000034689157
 20
-54.95454077698381
 30
0.0
 11
-238.0000003468905
 21
-54.95454077698381
 31
0.0
  0
LINE
  5
187
330
74
100
AcDbEntity
  8
1
  6
Continuous
 62
     6
100
AcDbLine
 10
-94.50000034688887
 20
-242.9545407769838
 30
0.0
 11
-94.50000034688966
 21
-209.9545407769837
 31
0.0
  0
LINE
  5
188
330
74
100
AcDbEntity
  8
1
  6
Continuous
 62
     2
100
AcDbLine
 10
-94.50000034689056
 20
-264.9545407769839
 30
0.0
 11
-138.0000003468906
 21
-264.9545407769839
 31
0.0
  0
LINE
  5
189
330
74
100
AcDbEntity
  8
1
  6
Continuous
 62
     2
100
AcDbLine
 10
-89.50000034689157
 20
-264.9545407769839
 30
0.0
 11
-94.50000034689056
 21
-264.9545407769839
 31
0.0
  0
LINE
  5
18A
330
74
100
AcDbEntity
  8
1
  6
Continuous
 62
     2
100
AcDbLine
 10
-89.50000034689157
 20
-264.9545407769839
 30
0.0
 11
-89.50000034689157
 21
-259.9545407769838
 31
0.0
  0
LINE
  5
18B
330
74
100
AcDbEntity
  8
1
  6
Continuous
 62
     6
100
AcDbLine
 10
-224.0448048736406
 20
-242.9545407769838
 30
0.0
 11
-187.6448048736407
 21
-242.9545407769838
 31
0.0
  0
LINE
  5
18C
330
74
100
AcDbEntity
  8
1
  6
Continuous
 62
     2
100
AcDbLine
 10
-94.50000034689056
 20
-259.9545407769838
 30
0.0
 11
-94.50000034689056
 21
-264.9545407769839
 31
0.0
  0
LINE
  5
18D
330
74
100
AcDbEntity
  8
1
  6
Continuous
 62
     2
100
AcDbLine
 10
-94.50000034689056
 20
-259.9545407769838
 30
0.0
 11
-89.50000034689157
 21
-259.9545407769838
 31
0.0
  0
LINE
  5
18E
330
74
100
AcDbEntity
  8
1
  6
Continuous
 62
     6
100
AcDbLine
 10
-188.0000003468906
 20
-259.9545407769838
 30
0.0
 11
-205.8448048736406
 21
-259.9545407769838
 31
0.0
  0
LINE
  5
18F
330
74
100
AcDbEntity
  8
1
  6
Continuous
 62
     6
100
AcDbLine
 10
-138.0000003468906
 20
-259.9545407769838
 30
0.0
 11
-94.50000034689056
 21
-259.9545407769838
 31
0.0
  0
LINE
  5
190
330
74
100
AcDbEntity
  8
1
  6
Continuous
 62
     6
100
AcDbLine
 10
-288.0000003468908
 20
-259.9545407769838
 30
0.0
 11
-293.0448048736405
 21
-259.9545407769838
 31
0.0
  0
LINE
  5
191
330
74
100
AcDbEntity
  8
1
  6
Continuous
 62
     6
100
AcDbLine
 10
-238.0000003468905
 20
-259.9545407769838
 30
0.0
 11
-224.0448048736406
 21
-259.9545407769839
 31
0.0
  0
LINE
  5
192
102
{ACAD_REACTORS
330
27C
330
27D
102
}
330
74
100
AcDbEntity
  8
0
  6
Continuous
 62
     2
100
AcDbLine
 10
-216.5301789314938
 20
-247.8820260207717
 30
0.0
 11
-216.5301789314938
 21
-247.2764907322649
 31
0.0
  0
LINE
  5
193
102
{ACAD_REACTORS
330
27C
330
27D
102
}
330
74
100
AcDbEntity
  8
0
  6
Continuous
 62
     2
100
AcDbLine
 10
-216.5301789314938
 20
-250.682160627403
 30
0.0
 11
-216.5301789314938
 21
-250.1003092207079
 31
0.0
  0
LINE
  5
194
102
{ACAD_REACTORS
330
27E
330
27F
102
}
330
74
100
AcDbEntity
  8
0
  6
Continuous
 62
     2
100
AcDbLine
 10
-193.9006924960146
 20
-250.39249655928
 30
0.0
 11
-193.9006924960146
 21
-252.6610407769675
 31
0.0
  0
LINE
  5
195
102
{ACAD_REACTORS
330
27E
330
27F
102
}
330
74
100
AcDbEntity
  8
0
  6
Continuous
 62
     2
100
AcDbLine
 10
-195.2817462750022
 20
-249.6072312531569
 30
0.0
 11
-191.8968007563735
 21
-249.6072312531564
 31
0.0
  0
LINE
  5
196
102
{ACAD_REACTORS
330
27E
330
27F
102
}
330
74
100
AcDbEntity
  8
0
  6
Continuous
 62
     2
100
AcDbLine
 10
-191.8968007563735
 20
-250.39249655928
 30
0.0
 11
-191.8968007563735
 21
-249.6072312531564
 31
0.0
  0
LINE
  5
197
102
{ACAD_REACTORS
330
27E
330
27F
102
}
330
74
100
AcDbEntity
  8
0
  6
Continuous
 62
     2
100
AcDbLine
 10
-192.7078997938469
 20
-250.39249655928
 30
0.0
 11
-191.8968007563735
 21
-250.39249655928
 31
0.0
  0
LINE
  5
198
102
{ACAD_REACTORS
330
27E
330
27F
102
}
330
74
100
AcDbEntity
  8
0
  6
Continuous
 62
     2
100
AcDbLine
 10
-192.7078997938469
 20
-252.6610407769675
 30
0.0
 11
-192.7078997938469
 21
-250.39249655928
 31
0.0
  0
LINE
  5
199
102
{ACAD_REACTORS
330
27E
330
27F
102
}
330
74
100
AcDbEntity
  8
0
  6
Continuous
 62
     2
100
AcDbLine
 10
-193.9006924960146
 20
-252.6610407769675
 30
0.0
 11
-192.7078997938469
 21
-252.6610407769675
 31
0.0
  0
LINE
  5
19A
102
{ACAD_REACTORS
330
274
330
275
102
}
330
74
100
AcDbEntity
  8
0
  6
Continuous
 62
     2
100
AcDbLine
 10
-194.5972834340791
 20
-246.248040776982
 30
0.0
 11
-196.0000076518284
 21
-246.248040776982
 31
0.0
  0
LINE
  5
19B
102
{ACAD_REACTORS
330
274
330
275
102
}
330
74
100
AcDbEntity
  8
0
  6
Continuous
 62
     2
100
AcDbLine
 10
-194.5972834340791
 20
-246.248040776982
 30
0.0
 11
-193.9961159121873
 21
-246.9278640985375
 31
0.0
  0
LINE
  5
19C
102
{ACAD_REACTORS
330
274
330
275
102
}
330
74
100
AcDbEntity
  8
0
  6
Continuous
 62
     2
100
AcDbLine
 10
-193.9961159121873
 20
-246.9278640985375
 30
0.0
 11
-193.3949483902945
 21
-246.248040776982
 31
0.0
  0
LINE
  5
19D
102
{ACAD_REACTORS
330
274
330
275
102
}
330
74
100
AcDbEntity
  8
0
  6
Continuous
 62
     2
100
AcDbLine
 10
-193.2947538033138
 20
-247.7209913070182
 30
0.0
 11
-191.9922241725473
 21
-246.248040776982
 31
0.0
  0
LINE
  5
19E
102
{ACAD_REACTORS
330
274
330
275
102
}
330
74
100
AcDbEntity
  8
0
  6
Continuous
 62
     2
100
AcDbLine
 10
-193.2947538033138
 20
-247.7209913070182
 30
0.0
 11
-191.8968007563735
 21
-249.3018503007932
 31
0.0
  0
LINE
  5
19F
102
{ACAD_REACTORS
330
274
330
275
102
}
330
74
100
AcDbEntity
  8
0
  6
Continuous
 62
     2
100
AcDbLine
 10
-193.2995249741218
 20
-249.3018503007932
 30
0.0
 11
-191.8968007563735
 21
-249.3018503007932
 31
0.0
  0
LINE
  5
1A0
102
{ACAD_REACTORS
330
274
330
275
102
}
330
74
100
AcDbEntity
  8
0
  6
Continuous
 62
     2
100
AcDbLine
 10
-193.9961159121873
 20
-248.5141185154995
 30
0.0
 11
-193.2995249741218
 21
-249.3018503007932
 31
0.0
  0
LINE
  5
1A1
102
{ACAD_REACTORS
330
272
330
273
102
}
330
74
100
AcDbEntity
  8
0
  6
Continuous
 62
     2
100
AcDbLine
 10
-197.455214748471
 20
-246.248040776982
 30
0.0
 11
-196.2147103382181
 21
-246.248040776982
 31
0.0
  0
LINE
  5
1A2
102
{ACAD_REACTORS
330
272
330
273
102
}
330
74
100
AcDbEntity
  8
0
  6
Continuous
 62
     2
100
AcDbLine
 10
-196.2147103382181
 20
-246.248040776982
 30
0.0
 11
-196.2147103382181
 21
-249.3018503007932
 31
0.0
  0
LINE
  5
1A3
102
{ACAD_REACTORS
330
272
330
273
102
}
330
74
100
AcDbEntity
  8
0
  6
Continuous
 62
     2
100
AcDbLine
 10
-197.455214748471
 20
-249.3018503007932
 30
0.0
 11
-197.455214748471
 21
-246.248040776982
 31
0.0
  0
LINE
  5
1A4
102
{ACAD_REACTORS
330
270
330
271
102
}
330
74
100
AcDbEntity
  8
0
  6
Continuous
 62
     2
100
AcDbLine
 10
-198.9235248310086
 20
-251.439516967443
 30
0.0
 11
-198.6233595938162
 21
-250.6717020014563
 31
0.0
  0
LINE
  5
1A5
102
{ACAD_REACTORS
330
270
330
271
102
}
330
74
100
AcDbEntity
  8
0
  6
Continuous
 62
     2
100
AcDbLine
 10
-199.4010604356294
 20
-252.6610407769675
 30
0.0
 11
-199.1895803821536
 21
-252.1200802327496
 31
0.0
  0
LINE
  5
1A6
102
{ACAD_REACTORS
330
270
330
271
102
}
330
74
100
AcDbEntity
  8
0
  6
Continuous
 62
     2
100
AcDbLine
 10
-199.2436117989431
 20
-249.6072312531564
 30
0.0
 11
-200.6415648458824
 21
-252.6610407769675
 31
0.0
  0
LINE
  5
1A7
102
{ACAD_REACTORS
330
270
330
271
102
}
330
74
100
AcDbEntity
  8
0
  6
Continuous
 62
     2
100
AcDbLine
 10
-196.6051543417501
 20
-252.6610407769675
 30
0.0
 11
-197.845658752004
 21
-252.6610407769675
 31
0.0
  0
LINE
  5
1A8
102
{ACAD_REACTORS
330
270
330
271
102
}
330
74
100
AcDbEntity
  8
0
  6
Continuous
 62
     2
100
AcDbLine
 10
-199.1895803821536
 20
-252.1200802327496
 30
0.0
 11
-198.0571388054798
 21
-252.1200802327496
 31
0.0
  0
LINE
  5
1A9
102
{ACAD_REACTORS
330
26E
330
26F
102
}
330
74
100
AcDbEntity
  8
0
  6
Continuous
 62
     2
100
AcDbLine
 10
-202.7990769850646
 20
-250.39249655928
 30
0.0
 11
-201.98797794759
 21
-250.39249655928
 31
0.0
  0
LINE
  5
1AA
102
{ACAD_REACTORS
330
26E
330
26F
102
}
330
74
100
AcDbEntity
  8
0
  6
Continuous
 62
     2
100
AcDbLine
 10
-199.984086207951
 20
-249.6072312531564
 30
0.0
 11
-202.7990769850646
 21
-249.6072312531564
 31
0.0
  0
LINE
  5
1AB
102
{ACAD_REACTORS
330
26E
330
26F
102
}
330
74
100
AcDbEntity
  8
0
  6
Continuous
 62
     2
100
AcDbLine
 10
-199.984086207951
 20
-250.39249655928
 30
0.0
 11
-199.984086207951
 21
-249.6072312531564
 31
0.0
  0
LINE
  5
1AC
102
{ACAD_REACTORS
330
26E
330
26F
102
}
330
74
100
AcDbEntity
  8
0
  6
Continuous
 62
     2
100
AcDbLine
 10
-200.7951852454235
 20
-250.39249655928
 30
0.0
 11
-199.984086207951
 21
-250.39249655928
 31
0.0
  0
LINE
  5
1AD
102
{ACAD_REACTORS
330
26E
330
26F
102
}
330
74
100
AcDbEntity
  8
0
  6
Continuous
 62
     2
100
AcDbLine
 10
-200.7951852454235
 20
-252.6610407769675
 30
0.0
 11
-200.7951852454235
 21
-250.39249655928
 31
0.0
  0
LINE
  5
1AE
102
{ACAD_REACTORS
330
26C
330
26D
102
}
330
74
100
AcDbEntity
  8
0
  6
Continuous
 62
     2
100
AcDbLine
 10
-200.1270704013255
 20
-249.3018503007932
 30
0.0
 11
-200.1270704013255
 21
-247.9930747905885
 31
0.0
  0
LINE
  5
1AF
102
{ACAD_REACTORS
330
26C
330
26D
102
}
330
74
100
AcDbEntity
  8
0
  6
Continuous
 62
     2
100
AcDbLine
 10
-201.319863103492
 20
-246.248040776982
 30
0.0
 11
-201.319863103492
 21
-249.3018503007932
 31
0.0
  0
LINE
  5
1B0
102
{ACAD_REACTORS
330
26C
330
26D
102
}
330
74
100
AcDbEntity
  8
0
  6
Continuous
 62
     2
100
AcDbLine
 10
-200.1270704013255
 20
-246.248040776982
 30
0.0
 11
-201.319863103492
 21
-246.248040776982
 31
0.0
  0
LINE
  5
1B1
102
{ACAD_REACTORS
330
26C
330
26D
102
}
330
74
100
AcDbEntity
  8
0
  6
Continuous
 62
     2
100
AcDbLine
 10
-198.8865659910715
 20
-246.248040776982
 30
0.0
 11
-198.8865659910715
 21
-247.5568162871872
 31
0.0
  0
LINE
  5
1B2
102
{ACAD_REACTORS
330
26A
330
26B
102
}
330
74
100
AcDbEntity
  8
0
  6
Continuous
 62
     2
100
AcDbLine
 10
-206.5683019239117
 20
-249.6072312531564
 30
0.0
 11
-206.5683019239117
 21
-252.6610407769675
 31
0.0
  0
LINE
  5
1B3
102
{ACAD_REACTORS
330
26A
330
26B
102
}
330
74
100
AcDbEntity
  8
0
  6
Continuous
 62
     2
100
AcDbLine
 10
-205.3755092217441
 20
-249.6072312531564
 30
0.0
 11
-206.5683019239117
 21
-249.6072312531564
 31
0.0
  0
LINE
  5
1B4
102
{ACAD_REACTORS
330
26A
330
26B
102
}
330
74
100
AcDbEntity
  8
0
  6
Continuous
 62
     2
100
AcDbLine
 10
-204.1350048114912
 20
-252.6610407769675
 30
0.0
 11
-202.9422121093248
 21
-252.6610407769675
 31
0.0
  0
LINE
  5
1B5
102
{ACAD_REACTORS
330
26A
330
26B
102
}
330
74
100
AcDbEntity
  8
0
  6
Continuous
 62
     2
100
AcDbLine
 10
-206.5683019239117
 20
-252.6610407769675
 30
0.0
 11
-205.3755092217441
 21
-252.6610407769675
 31
0.0
  0
LINE
  5
1B6
102
{ACAD_REACTORS
330
27A
330
27B
102
}
330
74
100
AcDbEntity
  8
0
  6
Continuous
 62
     2
100
AcDbLine
 10
-202.8943494703526
 20
-247.4259387361667
 30
0.0
 11
-202.8943494703526
 21
-246.946054382425
 31
0.0
  0
LINE
  5
1B7
102
{ACAD_REACTORS
330
27A
330
27B
102
}
330
74
100
AcDbEntity
  8
0
  6
Continuous
 62
     2
100
AcDbLine
 10
-201.5584216439249
 20
-247.4259387361667
 30
0.0
 11
-202.8943494703526
 21
-247.4259387361667
 31
0.0
  0
LINE
  5
1B8
102
{ACAD_REACTORS
330
27A
330
27B
102
}
330
74
100
AcDbEntity
  8
0
  6
Continuous
 62
     2
100
AcDbLine
 10
-201.5584216439249
 20
-248.123952341609
 30
0.0
 11
-201.5584216439249
 21
-247.4259387361667
 31
0.0
  0
LINE
  5
1B9
102
{ACAD_REACTORS
330
27A
330
27B
102
}
330
74
100
AcDbEntity
  8
0
  6
Continuous
 62
     2
100
AcDbLine
 10
-202.8943494703526
 20
-248.123952341609
 30
0.0
 11
-201.5584216439249
 21
-248.123952341609
 31
0.0
  0
LINE
  5
1BA
102
{ACAD_REACTORS
330
268
330
269
102
}
330
74
100
AcDbEntity
  8
0
  6
Continuous
 62
     2
100
AcDbLine
 10
-206.3773041606795
 20
-246.248040776982
 30
0.0
 11
-206.3773041606795
 21
-249.3018503007932
 31
0.0
  0
LINE
  5
1BB
102
{ACAD_REACTORS
330
268
330
269
102
}
330
74
100
AcDbEntity
  8
0
  6
Continuous
 62
     2
100
AcDbLine
 10
-206.3773041606795
 20
-249.3018503007932
 30
0.0
 11
-207.5700968628459
 21
-249.3018503007932
 31
0.0
  0
LINE
  5
1BC
102
{ACAD_REACTORS
330
268
330
269
102
}
330
74
100
AcDbEntity
  8
0
  6
Continuous
 62
     2
100
AcDbLine
 10
-207.5700968628459
 20
-249.3018503007932
 30
0.0
 11
-207.5700968628459
 21
-248.1675781919494
 31
0.0
  0
LINE
  5
1BD
102
{ACAD_REACTORS
330
268
330
269
102
}
330
74
100
AcDbEntity
  8
0
  6
Continuous
 62
     2
100
AcDbLine
 10
-208.6197544407534
 20
-249.3018503007932
 30
0.0
 11
-209.81254714292
 21
-249.3018503007932
 31
0.0
  0
LINE
  5
1BE
102
{ACAD_REACTORS
330
268
330
269
102
}
330
74
100
AcDbEntity
  8
0
  6
Continuous
 62
     2
100
AcDbLine
 10
-209.81254714292
 20
-246.248040776982
 30
0.0
 11
-208.6197544407534
 21
-246.248040776982
 31
0.0
  0
LINE
  5
1BF
102
{ACAD_REACTORS
330
268
330
269
102
}
330
74
100
AcDbEntity
  8
0
  6
Continuous
 62
     2
100
AcDbLine
 10
-208.6197544407534
 20
-246.248040776982
 30
0.0
 11
-208.6197544407534
 21
-247.3168741103166
 31
0.0
  0
LINE
  5
1C0
102
{ACAD_REACTORS
330
268
330
269
102
}
330
74
100
AcDbEntity
  8
0
  6
Continuous
 62
     2
100
AcDbLine
 10
-208.6197544407534
 20
-247.3168741103166
 30
0.0
 11
-207.5700968628459
 21
-247.3168741103166
 31
0.0
  0
LINE
  5
1C1
102
{ACAD_REACTORS
330
276
330
277
102
}
330
74
100
AcDbEntity
  8
0
  6
Continuous
 62
     2
100
AcDbLine
 10
-211.7687271744736
 20
-246.9111466224221
 30
0.0
 11
-211.4514321129317
 21
-246.9111466224221
 31
0.0
  0
LINE
  5
1C2
102
{ACAD_REACTORS
330
276
330
277
102
}
330
74
100
AcDbEntity
  8
0
  6
Continuous
 62
     2
100
AcDbLine
 10
-211.7687271744736
 20
-247.6168742717643
 30
0.0
 11
-211.4514321129317
 21
-247.6168742717643
 31
0.0
  0
LINE
  5
1C3
102
{ACAD_REACTORS
330
276
330
277
102
}
330
74
100
AcDbEntity
  8
0
  6
Continuous
 62
     2
100
AcDbLine
 10
-213.0092315847277
 20
-246.248040776982
 30
0.0
 11
-213.0092315847277
 21
-249.3018503007932
 31
0.0
  0
LINE
  5
1C4
102
{ACAD_REACTORS
330
276
330
277
102
}
330
74
100
AcDbEntity
  8
0
  6
Continuous
 62
     2
100
AcDbLine
 10
-213.0092315847277
 20
-246.248040776982
 30
0.0
 11
-211.0099595866933
 21
-246.248040776982
 31
0.0
  0
LINE
  5
1C5
102
{ACAD_REACTORS
330
276
330
277
102
}
330
74
100
AcDbEntity
  8
0
  6
Continuous
 62
     2
100
AcDbLine
 10
-211.7687271744736
 20
-248.3587720596494
 30
0.0
 11
-211.0099595866933
 21
-248.3587720596494
 31
0.0
  0
LINE
  5
1C6
102
{ACAD_REACTORS
330
27C
330
27D
102
}
330
74
100
AcDbEntity
  8
0
  6
Continuous
 62
     2
100
AcDbLine
 10
-219.1057276180244
 20
-247.2763132556168
 30
0.0
 11
-219.1057276180244
 21
-251.6327682983339
 31
0.0
  0
LINE
  5
1C7
102
{ACAD_REACTORS
330
27C
330
27D
102
}
330
74
100
AcDbEntity
  8
0
  6
Continuous
 62
     2
100
AcDbLine
 10
-218.7900106949487
 20
-246.9605963325406
 30
0.0
 11
-217.3141774339391
 21
-246.9605963325406
 31
0.0
  0
LINE
  5
1C8
102
{ACAD_REACTORS
330
27C
330
27D
102
}
330
74
100
AcDbEntity
  8
0
  6
Continuous
 62
     2
100
AcDbLine
 10
-216.9984605108625
 20
-247.8803378746773
 30
0.0
 11
-216.9984605108625
 21
-247.2763132556168
 31
0.0
  0
LINE
  5
1C9
102
{ACAD_REACTORS
330
27C
330
27D
102
}
330
74
100
AcDbEntity
  8
0
  6
Continuous
 62
     2
100
AcDbLine
 10
-216.9984605108625
 20
-251.6327682983339
 30
0.0
 11
-216.9984605108625
 21
-250.1019973668023
 31
0.0
  0
LINE
  5
1CA
102
{ACAD_REACTORS
330
27C
330
27D
102
}
330
74
100
AcDbEntity
  8
0
  6
Continuous
 62
     2
100
AcDbLine
 10
-213.9105932809784
 20
-252.6610407769675
 30
0.0
 11
-219.3839053716952
 21
-252.6610407769675
 31
0.0
  0
LINE
  5
1CB
102
{ACAD_REACTORS
330
27C
330
27D
102
}
330
74
100
AcDbEntity
  8
0
  6
Continuous
 62
     2
100
AcDbLine
 10
-213.4863486655945
 20
-246.672285392384
 30
0.0
 11
-213.4863486655945
 21
-252.2367961615842
 31
0.0
  0
LINE
  5
1CC
102
{ACAD_REACTORS
330
27C
330
27D
102
}
330
74
100
AcDbEntity
  8
0
  6
Continuous
 62
     2
100
AcDbLine
 10
-219.3839053716952
 20
-246.2480407770002
 30
0.0
 11
-213.9105932809784
 21
-246.2480407770002
 31
0.0
  0
LINE
  5
1CD
102
{ACAD_REACTORS
330
27C
330
27D
102
}
330
74
100
AcDbEntity
  8
0
  6
Continuous
 62
     2
100
AcDbLine
 10
-219.808149987078
 20
-246.672285392384
 30
0.0
 11
-219.808149987078
 21
-252.2367961615842
 31
0.0
  0
LINE
  5
1CE
102
{ACAD_REACTORS
330
27C
330
27D
102
}
330
74
100
AcDbEntity
  8
0
  6
Continuous
 62
     2
100
AcDbLine
 10
-217.3141774339391
 20
-251.9484852214106
 30
0.0
 11
-218.7900106949487
 21
-251.9484852214106
 31
0.0
  0
LINE
  5
1CF
102
{ACAD_REACTORS
330
276
330
277
102
}
330
74
100
AcDbEntity
  8
0
  6
Continuous
 62
     2
100
AcDbLine
 10
-211.7687271744736
 20
-249.3018503007932
 30
0.0
 11
-211.7687271744736
 21
-248.3587720596494
 31
0.0
  0
LINE
  5
1D0
102
{ACAD_REACTORS
330
276
330
277
102
}
330
74
100
AcDbEntity
  8
0
  6
Continuous
 62
     2
100
AcDbLine
 10
-213.0092315847277
 20
-249.3018503007932
 30
0.0
 11
-211.7687271744736
 21
-249.3018503007932
 31
0.0
  0
LINE
  5
1D1
102
{ACAD_REACTORS
330
276
330
277
102
}
330
74
100
AcDbEntity
  8
0
  6
Continuous
 62
     2
100
AcDbLine
 10
-211.7687271744736
 20
-247.6168742717643
 30
0.0
 11
-211.7687271744736
 21
-246.9111466224221
 31
0.0
  0
LINE
  5
1D2
102
{ACAD_REACTORS
330
268
330
269
102
}
330
74
100
AcDbEntity
  8
0
  6
Continuous
 62
     2
100
AcDbLine
 10
-209.81254714292
 20
-246.248040776982
 30
0.0
 11
-209.81254714292
 21
-249.3018503007932
 31
0.0
  0
LINE
  5
1D3
102
{ACAD_REACTORS
330
268
330
269
102
}
330
74
100
AcDbEntity
  8
0
  6
Continuous
 62
     2
100
AcDbLine
 10
-208.6197544407534
 20
-248.1675781919494
 30
0.0
 11
-208.6197544407534
 21
-249.3018503007932
 31
0.0
  0
LINE
  5
1D4
102
{ACAD_REACTORS
330
268
330
269
102
}
330
74
100
AcDbEntity
  8
0
  6
Continuous
 62
     2
100
AcDbLine
 10
-207.5700968628459
 20
-248.1675781919494
 30
0.0
 11
-208.6197544407534
 21
-248.1675781919494
 31
0.0
  0
LINE
  5
1D5
102
{ACAD_REACTORS
330
268
330
269
102
}
330
74
100
AcDbEntity
  8
0
  6
Continuous
 62
     2
100
AcDbLine
 10
-207.5700968628459
 20
-246.248040776982
 30
0.0
 11
-206.3773041606795
 21
-246.248040776982
 31
0.0
  0
LINE
  5
1D6
102
{ACAD_REACTORS
330
268
330
269
102
}
330
74
100
AcDbEntity
  8
0
  6
Continuous
 62
     2
100
AcDbLine
 10
-207.5700968628459
 20
-247.3168741103166
 30
0.0
 11
-207.5700968628459
 21
-246.248040776982
 31
0.0
  0
LINE
  5
1D7
102
{ACAD_REACTORS
330
27A
330
27B
102
}
330
74
100
AcDbEntity
  8
0
  6
Continuous
 62
     2
100
AcDbLine
 10
-201.5584216439249
 20
-246.946054382425
 30
0.0
 11
-201.5584216439249
 21
-246.248040776982
 31
0.0
  0
LINE
  5
1D8
102
{ACAD_REACTORS
330
27A
330
27B
102
}
330
74
100
AcDbEntity
  8
0
  6
Continuous
 62
     2
100
AcDbLine
 10
-204.7087413677059
 20
-246.248040776982
 30
0.0
 11
-201.5584216439249
 21
-246.248040776982
 31
0.0
  0
LINE
  5
1D9
102
{ACAD_REACTORS
330
27A
330
27B
102
}
330
74
100
AcDbEntity
  8
0
  6
Continuous
 62
     2
100
AcDbLine
 10
-204.7087413677059
 20
-249.3018503007932
 30
0.0
 11
-201.5584216439249
 21
-249.3018503007932
 31
0.0
  0
LINE
  5
1DA
102
{ACAD_REACTORS
330
27A
330
27B
102
}
330
74
100
AcDbEntity
  8
0
  6
Continuous
 62
     2
100
AcDbLine
 10
-201.5584216439249
 20
-249.3018503007932
 30
0.0
 11
-201.5584216439249
 21
-248.6038366953507
 31
0.0
  0
LINE
  5
1DB
102
{ACAD_REACTORS
330
27A
330
27B
102
}
330
74
100
AcDbEntity
  8
0
  6
Continuous
 62
     2
100
AcDbLine
 10
-201.5584216439249
 20
-248.6038366953507
 30
0.0
 11
-202.8943494703526
 21
-248.6038366953507
 31
0.0
  0
LINE
  5
1DC
102
{ACAD_REACTORS
330
27A
330
27B
102
}
330
74
100
AcDbEntity
  8
0
  6
Continuous
 62
     2
100
AcDbLine
 10
-202.8943494703526
 20
-248.6038366953507
 30
0.0
 11
-202.8943494703526
 21
-248.123952341609
 31
0.0
  0
LINE
  5
1DD
102
{ACAD_REACTORS
330
27A
330
27B
102
}
330
74
100
AcDbEntity
  8
0
  6
Continuous
 62
     2
100
AcDbLine
 10
-202.8943494703526
 20
-246.946054382425
 30
0.0
 11
-201.5584216439249
 21
-246.946054382425
 31
0.0
  0
LINE
  5
1DE
102
{ACAD_REACTORS
330
26A
330
26B
102
}
330
74
100
AcDbEntity
  8
0
  6
Continuous
 62
     2
100
AcDbLine
 10
-205.3755092217441
 20
-252.6610407769675
 30
0.0
 11
-205.3755092217441
 21
-251.3522652667629
 31
0.0
  0
LINE
  5
1DF
102
{ACAD_REACTORS
330
26A
330
26B
102
}
330
74
100
AcDbEntity
  8
0
  6
Continuous
 62
     2
100
AcDbLine
 10
-205.3755092217441
 20
-251.3522652667629
 30
0.0
 11
-204.1350048114912
 21
-252.6610407769675
 31
0.0
  0
LINE
  5
1E0
102
{ACAD_REACTORS
330
26A
330
26B
102
}
330
74
100
AcDbEntity
  8
0
  6
Continuous
 62
     2
100
AcDbLine
 10
-202.9422121093248
 20
-252.6610407769675
 30
0.0
 11
-202.9422121093248
 21
-249.6072312531564
 31
0.0
  0
LINE
  5
1E1
102
{ACAD_REACTORS
330
26A
330
26B
102
}
330
74
100
AcDbEntity
  8
0
  6
Continuous
 62
     2
100
AcDbLine
 10
-202.9422121093248
 20
-249.6072312531564
 30
0.0
 11
-204.1350048114912
 21
-249.6072312531564
 31
0.0
  0
LINE
  5
1E2
102
{ACAD_REACTORS
330
26A
330
26B
102
}
330
74
100
AcDbEntity
  8
0
  6
Continuous
 62
     2
100
AcDbLine
 10
-204.1350048114912
 20
-249.6072312531564
 30
0.0
 11
-204.1350048114912
 21
-250.9160067633615
 31
0.0
  0
LINE
  5
1E3
102
{ACAD_REACTORS
330
26A
330
26B
102
}
330
74
100
AcDbEntity
  8
0
  6
Continuous
 62
     2
100
AcDbLine
 10
-204.1350048114912
 20
-250.9160067633615
 30
0.0
 11
-205.3755092217441
 21
-249.6072312531564
 31
0.0
  0
LINE
  5
1E4
102
{ACAD_REACTORS
330
26C
330
26D
102
}
330
74
100
AcDbEntity
  8
0
  6
Continuous
 62
     2
100
AcDbLine
 10
-200.1270704013255
 20
-247.9930747905885
 30
0.0
 11
-198.8865659910715
 21
-249.3018503007932
 31
0.0
  0
LINE
  5
1E5
102
{ACAD_REACTORS
330
26C
330
26D
102
}
330
74
100
AcDbEntity
  8
0
  6
Continuous
 62
     2
100
AcDbLine
 10
-198.8865659910715
 20
-249.3018503007932
 30
0.0
 11
-197.6937732889049
 21
-249.3018503007932
 31
0.0
  0
LINE
  5
1E6
102
{ACAD_REACTORS
330
26C
330
26D
102
}
330
74
100
AcDbEntity
  8
0
  6
Continuous
 62
     2
100
AcDbLine
 10
-197.6937732889049
 20
-249.3018503007932
 30
0.0
 11
-197.6937732889049
 21
-246.248040776982
 31
0.0
  0
LINE
  5
1E7
102
{ACAD_REACTORS
330
26C
330
26D
102
}
330
74
100
AcDbEntity
  8
0
  6
Continuous
 62
     2
100
AcDbLine
 10
-197.6937732889049
 20
-246.248040776982
 30
0.0
 11
-198.8865659910715
 21
-246.248040776982
 31
0.0
  0
LINE
  5
1E8
102
{ACAD_REACTORS
330
26C
330
26D
102
}
330
74
100
AcDbEntity
  8
0
  6
Continuous
 62
     2
100
AcDbLine
 10
-198.8865659910715
 20
-247.5568162871872
 30
0.0
 11
-200.1270704013255
 21
-246.248040776982
 31
0.0
  0
LINE
  5
1E9
102
{ACAD_REACTORS
330
26C
330
26D
102
}
330
74
100
AcDbEntity
  8
0
  6
Continuous
 62
     2
100
AcDbLine
 10
-201.319863103492
 20
-249.3018503007932
 30
0.0
 11
-200.1270704013255
 21
-249.3018503007932
 31
0.0
  0
LINE
  5
1EA
102
{ACAD_REACTORS
330
26E
330
26F
102
}
330
74
100
AcDbEntity
  8
0
  6
Continuous
 62
     2
100
AcDbLine
 10
-202.7990769850646
 20
-249.6072312531564
 30
0.0
 11
-202.7990769850646
 21
-250.39249655928
 31
0.0
  0
LINE
  5
1EB
102
{ACAD_REACTORS
330
26E
330
26F
102
}
330
74
100
AcDbEntity
  8
0
  6
Continuous
 62
     2
100
AcDbLine
 10
-201.98797794759
 20
-250.39249655928
 30
0.0
 11
-201.98797794759
 21
-252.6610407769675
 31
0.0
  0
LINE
  5
1EC
102
{ACAD_REACTORS
330
26E
330
26F
102
}
330
74
100
AcDbEntity
  8
0
  6
Continuous
 62
     2
100
AcDbLine
 10
-201.98797794759
 20
-252.6610407769675
 30
0.0
 11
-200.7951852454235
 21
-252.6610407769675
 31
0.0
  0
LINE
  5
1ED
102
{ACAD_REACTORS
330
270
330
271
102
}
330
74
100
AcDbEntity
  8
0
  6
Continuous
 62
     2
100
AcDbLine
 10
-197.845658752004
 20
-252.6610407769675
 30
0.0
 11
-198.0571388054798
 21
-252.1200802327496
 31
0.0
  0
LINE
  5
1EE
102
{ACAD_REACTORS
330
270
330
271
102
}
330
74
100
AcDbEntity
  8
0
  6
Continuous
 62
     2
100
AcDbLine
 10
-198.0031073886904
 20
-249.6072312531564
 30
0.0
 11
-196.6051543417501
 21
-252.6610407769675
 31
0.0
  0
LINE
  5
1EF
102
{ACAD_REACTORS
330
270
330
271
102
}
330
74
100
AcDbEntity
  8
0
  6
Continuous
 62
     2
100
AcDbLine
 10
-199.2436117989431
 20
-249.6072312531564
 30
0.0
 11
-198.0031073886904
 21
-249.6072312531564
 31
0.0
  0
LINE
  5
1F0
102
{ACAD_REACTORS
330
270
330
271
102
}
330
74
100
AcDbEntity
  8
0
  6
Continuous
 62
     2
100
AcDbLine
 10
-200.6415648458824
 20
-252.6610407769675
 30
0.0
 11
-199.4010604356294
 21
-252.6610407769675
 31
0.0
  0
LINE
  5
1F1
102
{ACAD_REACTORS
330
270
330
271
102
}
330
74
100
AcDbEntity
  8
0
  6
Continuous
 62
     2
100
AcDbLine
 10
-198.9235248310086
 20
-251.439516967443
 30
0.0
 11
-198.3231943566261
 21
-251.439516967443
 31
0.0
  0
LINE
  5
1F2
102
{ACAD_REACTORS
330
270
330
271
102
}
330
74
100
AcDbEntity
  8
0
  6
Continuous
 62
     2
100
AcDbLine
 10
-198.3231943566261
 20
-251.439516967443
 30
0.0
 11
-198.6233595938162
 21
-250.6717020014563
 31
0.0
  0
LINE
  5
1F3
102
{ACAD_REACTORS
330
272
330
273
102
}
330
74
100
AcDbEntity
  8
0
  6
Continuous
 62
     2
100
AcDbLine
 10
-196.2147103382181
 20
-249.3018503007932
 30
0.0
 11
-197.455214748471
 21
-249.3018503007932
 31
0.0
  0
LINE
  5
1F4
102
{ACAD_REACTORS
330
274
330
275
102
}
330
74
100
AcDbEntity
  8
0
  6
Continuous
 62
     2
100
AcDbLine
 10
-194.692706850253
 20
-249.3018503007932
 30
0.0
 11
-196.0954310680012
 21
-249.3018503007932
 31
0.0
  0
LINE
  5
1F5
102
{ACAD_REACTORS
330
274
330
275
102
}
330
74
100
AcDbEntity
  8
0
  6
Continuous
 62
     2
100
AcDbLine
 10
-194.692706850253
 20
-249.3018503007932
 30
0.0
 11
-193.9961159121873
 21
-248.5141185154995
 31
0.0
  0
LINE
  5
1F6
102
{ACAD_REACTORS
330
274
330
275
102
}
330
74
100
AcDbEntity
  8
0
  6
Continuous
 62
     2
100
AcDbLine
 10
-193.3949483902945
 20
-246.248040776982
 30
0.0
 11
-191.9922241725473
 21
-246.248040776982
 31
0.0
  0
LINE
  5
1F7
102
{ACAD_REACTORS
330
274
330
275
102
}
330
74
100
AcDbEntity
  8
0
  6
Continuous
 62
     2
100
AcDbLine
 10
-196.0000076518284
 20
-246.248040776982
 30
0.0
 11
-194.6974780210609
 21
-247.7209913070182
 31
0.0
  0
LINE
  5
1F8
102
{ACAD_REACTORS
330
274
330
275
102
}
330
74
100
AcDbEntity
  8
0
  6
Continuous
 62
     2
100
AcDbLine
 10
-196.0954310680012
 20
-249.3018503007932
 30
0.0
 11
-194.6974780210609
 21
-247.7209913070182
 31
0.0
  0
LINE
  5
1F9
102
{ACAD_REACTORS
330
27E
330
27F
102
}
330
74
100
AcDbEntity
  8
0
  6
Continuous
 62
     2
100
AcDbLine
 10
-194.2346744526213
 20
-251.6140203688039
 30
0.0
 11
-194.2346744526213
 21
-252.4865373756072
 31
0.0
  0
LINE
  5
1FA
102
{ACAD_REACTORS
330
27E
330
27F
102
}
330
74
100
AcDbEntity
  8
0
  6
Continuous
 62
     2
100
AcDbLine
 10
-195.0043317955827
 20
-250.39249655928
 30
0.0
 11
-193.9006924960146
 21
-250.39249655928
 31
0.0
  0
LINE
  5
1FB
102
{ACAD_REACTORS
330
280
330
281
102
}
330
74
100
AcDbEntity
  8
0
  6
Continuous
 62
     2
100
AcDbLine
 10
-210.3373759318732
 20
-251.6140203688034
 30
0.0
 11
-210.3373759318732
 21
-252.4865373756066
 31
0.0
  0
LINE
  5
1FC
102
{ACAD_REACTORS
330
280
330
281
102
}
330
74
100
AcDbEntity
  8
0
  6
Continuous
 62
     2
100
AcDbLine
 10
-210.3373759318732
 20
-250.6542516613205
 30
0.0
 11
-210.3373759318732
 21
-249.7817346545172
 31
0.0
  0
LINE
  5
1FD
330
74
100
AcDbEntity
  8
1
  6
Continuous
 62
     7
100
AcDbLine
 10
-94.50000034688927
 20
-251.4545407769838
 30
0.0
 11
-187.6448048736407
 21
-251.4545407769838
 31
0.0
  0
LINE
  5
1FE
330
74
100
AcDbEntity
  8
1
  6
Continuous
 62
     6
100
AcDbLine
 10
-293.0448048736405
 20
-259.9545407769838
 30
0.0
 11
-338.0000003468905
 21
-259.9545407769838
 31
0.0
  0
LINE
  5
1FF
330
74
100
AcDbEntity
  8
1
  6
Continuous
 62
     7
100
AcDbLine
 10
-103.4184086285681
 20
-234.4545407769838
 30
0.0
 11
-103.4184086285681
 21
-242.9545407769838
 31
0.0
  0
LINE
  5
200
330
74
100
AcDbEntity
  8
1
  6
Continuous
 62
     7
100
AcDbLine
 10
-129.9184086285677
 20
-234.4545407769838
 30
0.0
 11
-129.9184086285677
 21
-242.9545407769838
 31
0.0
  0
LINE
  5
201
330
74
100
AcDbEntity
  8
1
  6
Continuous
 62
     7
100
AcDbLine
 10
-187.6448048736407
 20
-242.9545407769838
 30
0.0
 11
-187.6448048736407
 21
-234.4545407769838
 31
0.0
  0
LINE
  5
202
330
74
100
AcDbEntity
  8
1
  6
Continuous
 62
     7
100
AcDbLine
 10
-224.0448048736406
 20
-242.9545407769838
 30
0.0
 11
-224.0448048736406
 21
-234.4545407769838
 31
0.0
  0
LINE
  5
203
330
74
100
AcDbEntity
  8
1
  6
Continuous
 62
     6
100
AcDbLine
 10
-187.6448048736407
 20
-242.9545407769838
 30
0.0
 11
-94.50000034688887
 21
-242.9545407769838
 31
0.0
  0
LINE
  5
204
330
74
100
AcDbEntity
  8
1
  6
Continuous
 62
     7
100
AcDbLine
 10
-159.7448048736406
 20
-251.4545407769839
 30
0.0
 11
-159.7448048736406
 21
-242.9545407769838
 31
0.0
  0
LINE
  5
205
330
74
100
AcDbEntity
  8
1
  6
PHANTOM
 62
     2
100
AcDbLine
 10
-208.558149987078
 20
-238.8295407769839
 30
0.0
 11
-214.058149987078
 21
-238.8295407769839
 31
0.0
  0
LINE
  5
206
330
74
100
AcDbEntity
  8
1
  6
PHANTOM
 62
     2
100
AcDbLine
 10
-211.308149987078
 20
-236.0795407769839
 30
0.0
 11
-211.308149987078
 21
-241.5795407769839
 31
0.0
  0
LINE
  5
207
330
74
100
AcDbEntity
  8
1
  6
DOT_CENTER
 62
     2
100
AcDbLine
 10
-220.058149987078
 20
-238.8295407769839
 30
0.0
 11
-214.558149987078
 21
-238.8295407769839
 31
0.0
  0
ARC
  5
208
102
{ACAD_REACTORS
330
280
330
281
102
}
330
74
100
AcDbEntity
  8
0
  6
Continuous
 62
     2
100
AcDbCircle
 10
-211.673303848991
 20
-254.4468169603181
 30
0.0
 40
4.852596863498068
100
AcDbArc
 50
74.02000874164739
 51
84.84185523037506
  0
ARC
  5
209
102
{ACAD_REACTORS
330
280
330
281
102
}
330
74
100
AcDbEntity
  8
0
  6
Continuous
 62
     2
100
AcDbCircle
 10
-211.0972632402373
 20
-251.2910566044338
 30
0.0
 40
0.9059297849853588
100
AcDbArc
 50
71.55192388185235
 51
113.372277888129
  0
ARC
  5
20A
102
{ACAD_REACTORS
330
280
330
281
102
}
330
74
100
AcDbEntity
  8
0
  6
Continuous
 62
     2
100
AcDbCircle
 10
-211.2537032729393
 20
-251.3392074444007
 30
0.0
 40
0.5115800601948034
100
AcDbArc
 50
208.5214732576956
 51
246.6277221118245
  0
ARC
  5
20B
102
{ACAD_REACTORS
330
280
330
281
102
}
330
74
100
AcDbEntity
  8
0
  6
Continuous
 62
     2
100
AcDbCircle
 10
-211.0972632402373
 20
-250.9772154256907
 30
0.0
 40
0.9059297849849192
100
AcDbArc
 50
246.627722111871
 51
288.4480761181601
  0
ARC
  5
20C
102
{ACAD_REACTORS
330
280
330
281
102
}
330
74
100
AcDbEntity
  8
0
  6
Continuous
 62
     2
100
AcDbCircle
 10
-211.5154309738981
 20
-249.7236696496535
 30
0.0
 40
2.227384008972773
100
AcDbArc
 50
288.4480761181333
 51
301.9309089499595
  0
ARC
  5
20D
102
{ACAD_REACTORS
330
27C
330
27D
102
}
330
74
100
AcDbEntity
  8
0
  6
Continuous
 62
     2
100
AcDbCircle
 10
-216.7405047065049
 20
-248.9911676207395
 30
0.0
 40
0.9118481501444712
100
AcDbArc
 50
295.3740086781781
 51
64.62599132180586
  0
ARC
  5
20E
102
{ACAD_REACTORS
330
27C
330
27D
102
}
330
74
100
AcDbEntity
  8
0
  6
Continuous
 62
     2
100
AcDbCircle
 10
-216.214462008417
 20
-247.2764907322649
 30
0.0
 40
0.3157169230760711
100
AcDbArc
 50
90.18896704254594
 51
180.0
  0
ARC
  5
20F
102
{ACAD_REACTORS
330
27E
330
27F
102
}
330
74
100
AcDbEntity
  8
0
  6
Continuous
 62
     2
100
AcDbCircle
 10
-195.0043317955827
 20
-251.3470195661061
 30
0.0
 40
0.9545230068260935
100
AcDbArc
 50
90.0
 51
109.3371432194314
  0
ARC
  5
210
102
{ACAD_REACTORS
330
27E
330
27F
102
}
330
74
100
AcDbEntity
  8
0
  6
Continuous
 62
     2
100
AcDbCircle
 10
-194.773644535605
 20
-251.1341360150622
 30
0.0
 40
0.9410597353348924
100
AcDbArc
 50
151.4785267423624
 51
208.5214732576695
  0
ARC
  5
211
102
{ACAD_REACTORS
330
27E
330
27F
102
}
330
74
100
AcDbEntity
  8
0
  6
Continuous
 62
     2
100
AcDbCircle
 10
-194.9945617609833
 20
-250.9772154256907
 30
0.0
 40
0.9059297849852801
100
AcDbArc
 50
246.6277221118183
 51
288.4480761180817
  0
ARC
  5
212
102
{ACAD_REACTORS
330
27E
330
27F
102
}
330
74
100
AcDbEntity
  8
0
  6
Continuous
 62
     2
100
AcDbCircle
 10
-195.4127294946452
 20
-249.7236696496541
 30
0.0
 40
2.227384008972746
100
AcDbArc
 50
288.4480761181335
 51
301.9309089499391
  0
ARC
  5
213
102
{ACAD_REACTORS
330
27E
330
27F
102
}
330
74
100
AcDbEntity
  8
0
  6
Continuous
 62
     2
100
AcDbCircle
 10
-195.570602369738
 20
-247.8214550698058
 30
0.0
 40
4.852596863498822
100
AcDbArc
 50
275.158144769636
 51
285.9799912583383
  0
ARC
  5
214
102
{ACAD_REACTORS
330
27E
330
27F
102
}
330
74
100
AcDbEntity
  8
0
  6
Continuous
 62
     2
100
AcDbCircle
 10
-195.2817462750022
 20
-251.0213456530274
 30
0.0
 40
1.639695123940421
100
AcDbArc
 50
195.0618917771015
 51
275.1581447696762
  0
ARC
  5
215
102
{ACAD_REACTORS
330
276
330
277
102
}
330
74
100
AcDbEntity
  8
0
  6
Continuous
 62
     2
100
AcDbCircle
 10
-211.0099595866933
 20
-247.3034064183157
 30
0.0
 40
1.055365641333708
100
AcDbArc
 50
270.0
 51
90.0
  0
ARC
  5
216
102
{ACAD_REACTORS
330
27C
330
27D
102
}
330
74
100
AcDbEntity
  8
0
  6
Continuous
 62
     2
100
AcDbCircle
 10
-218.7900106949487
 20
-251.6327682983339
 30
0.0
 40
0.3157169230756836
100
AcDbArc
 50
180.0
 51
270.0
  0
ARC
  5
217
102
{ACAD_REACTORS
330
27C
330
27D
102
}
330
74
100
AcDbEntity
  8
0
  6
Continuous
 62
     2
100
AcDbCircle
 10
-217.3141774339391
 20
-247.2763132556168
 30
0.0
 40
0.3157169230766215
100
AcDbArc
 50
0.0
 51
90.0
  0
ARC
  5
218
102
{ACAD_REACTORS
330
27C
330
27D
102
}
330
74
100
AcDbEntity
  8
0
  6
Continuous
 62
     2
100
AcDbCircle
 10
-217.3141774339391
 20
-247.8803378746773
 30
0.0
 40
0.3157169230761203
100
AcDbArc
 50
295.1944106485397
 51
0.0
  0
ARC
  5
219
102
{ACAD_REACTORS
330
27C
330
27D
102
}
330
74
100
AcDbEntity
  8
0
  6
Continuous
 62
     2
100
AcDbCircle
 10
-217.3141774339391
 20
-251.6327682983339
 30
0.0
 40
0.3157169230767067
100
AcDbArc
 50
270.0
 51
0.0
  0
ARC
  5
21A
102
{ACAD_REACTORS
330
27C
330
27D
102
}
330
74
100
AcDbEntity
  8
0
  6
Continuous
 62
     2
100
AcDbCircle
 10
-219.3839053716952
 20
-246.672285392384
 30
0.0
 40
0.4242446153837989
100
AcDbArc
 50
90.0
 51
180.0
  0
ARC
  5
21B
102
{ACAD_REACTORS
330
27C
330
27D
102
}
330
74
100
AcDbEntity
  8
0
  6
Continuous
 62
     2
100
AcDbCircle
 10
-213.9105932809784
 20
-246.672285392384
 30
0.0
 40
0.4242446153838841
100
AcDbArc
 50
0.0
 51
90.0
  0
ARC
  5
21C
102
{ACAD_REACTORS
330
27C
330
27D
102
}
330
74
100
AcDbEntity
  8
0
  6
Continuous
 62
     2
100
AcDbCircle
 10
-213.9105932809784
 20
-252.2367961615842
 30
0.0
 40
0.4242446153832873
100
AcDbArc
 50
270.0
 51
0.0
  0
ARC
  5
21D
102
{ACAD_REACTORS
330
27A
330
27B
102
}
330
74
100
AcDbEntity
  8
0
  6
Continuous
 62
     2
100
AcDbCircle
 10
-204.6922093938869
 20
-247.7749455388879
 30
0.0
 40
0.7717997786796597
100
AcDbArc
 50
321.879580202845
 51
38.12041979715826
  0
ARC
  5
21E
102
{ACAD_REACTORS
330
27A
330
27B
102
}
330
74
100
AcDbEntity
  8
0
  6
Continuous
 62
     2
100
AcDbCircle
 10
-204.4924693575407
 20
-247.9316767170083
 30
0.0
 40
0.5179085730134546
100
AcDbArc
 50
218.1204197971536
 51
321.8795802028542
  0
ARC
  5
21F
102
{ACAD_REACTORS
330
278
330
279
102
}
330
74
100
AcDbEntity
  8
0
  6
Continuous
 62
     2
100
AcDbCircle
 10
-208.1724769465009
 20
-251.1341360150622
 30
0.0
 40
1.458034083652003
100
AcDbArc
 50
297.548148175701
 51
62.45185182429896
  0
ARC
  5
220
102
{ACAD_REACTORS
330
278
330
279
102
}
330
74
100
AcDbEntity
  8
0
  6
Continuous
 62
     2
100
AcDbCircle
 10
-208.7343567301675
 20
-251.1341360150622
 30
0.0
 40
1.458034083651503
100
AcDbArc
 50
117.5481481756634
 51
242.4518518243366
  0
ARC
  5
221
102
{ACAD_REACTORS
330
278
330
279
102
}
330
74
100
AcDbEntity
  8
0
  6
Continuous
 62
     2
100
AcDbCircle
 10
-208.4534168383342
 20
-251.672711025365
 30
0.0
 40
2.065479772208568
100
AcDbArc
 50
62.45185182430637
 51
117.5481481756671
  0
ARC
  5
222
102
{ACAD_REACTORS
330
278
330
279
102
}
330
74
100
AcDbEntity
  8
0
  6
Continuous
 62
     2
100
AcDbCircle
 10
-208.4534168383342
 20
-250.5955610047589
 30
0.0
 40
2.065479772208522
100
AcDbArc
 50
242.4518518243395
 51
297.5481481756871
  0
ARC
  5
223
102
{ACAD_REACTORS
330
27A
330
27B
102
}
330
74
100
AcDbEntity
  8
0
  6
Continuous
 62
     2
100
AcDbCircle
 10
-204.2927293211944
 20
-247.7749455388879
 30
0.0
 40
0.7717997786796724
100
AcDbArc
 50
141.8795802028404
 51
218.1204197971562
  0
ARC
  5
224
102
{ACAD_REACTORS
330
27A
330
27B
102
}
330
74
100
AcDbEntity
  8
0
  6
Continuous
 62
     2
100
AcDbCircle
 10
-204.4924693575407
 20
-247.6182143607674
 30
0.0
 40
0.5179085730135266
100
AcDbArc
 50
38.12041979714334
 51
141.8795802028489
  0
ARC
  5
225
102
{ACAD_REACTORS
330
27C
330
27D
102
}
330
74
100
AcDbEntity
  8
0
  6
Continuous
 62
     2
100
AcDbCircle
 10
-219.3839053716952
 20
-252.2367961615842
 30
0.0
 40
0.4242446153828041
100
AcDbArc
 50
180.0
 51
270.0
  0
ARC
  5
226
102
{ACAD_REACTORS
330
27C
330
27D
102
}
330
74
100
AcDbEntity
  8
0
  6
Continuous
 62
     2
100
AcDbCircle
 10
-217.3141774339391
 20
-250.1019973668023
 30
0.0
 40
0.3157169230766215
100
AcDbArc
 50
0.0
 51
64.80558935146249
  0
ARC
  5
227
102
{ACAD_REACTORS
330
27C
330
27D
102
}
330
74
100
AcDbEntity
  8
0
  6
Continuous
 62
     2
100
AcDbCircle
 10
-216.7915929863641
 20
-248.9911676207395
 30
0.0
 40
0.9118975235576268
100
AcDbArc
 50
115.1944106485298
 51
244.8055893514854
  0
ARC
  5
228
102
{ACAD_REACTORS
330
27C
330
27D
102
}
330
74
100
AcDbEntity
  8
0
  6
Continuous
 62
     2
100
AcDbCircle
 10
-218.7900106949487
 20
-247.2763132556168
 30
0.0
 40
0.3157169230761951
100
AcDbArc
 50
90.0
 51
180.0
  0
ARC
  5
229
102
{ACAD_REACTORS
330
276
330
277
102
}
330
74
100
AcDbEntity
  8
0
  6
Continuous
 62
     2
100
AcDbCircle
 10
-211.4514321129317
 20
-247.2640104470932
 30
0.0
 40
0.3528638246710898
100
AcDbArc
 50
270.0
 51
90.0
  0
ARC
  5
22A
102
{ACAD_REACTORS
330
27A
330
27B
102
}
330
74
100
AcDbEntity
  8
0
  6
Continuous
 62
     2
100
AcDbCircle
 10
-204.7087413677059
 20
-247.7749455388879
 30
0.0
 40
1.526904761905882
100
AcDbArc
 50
90.0
 51
270.0
  0
ARC
  5
22B
102
{ACAD_REACTORS
330
27E
330
27F
102
}
330
74
100
AcDbEntity
  8
0
  6
Continuous
 62
     2
100
AcDbCircle
 10
-195.2817462750022
 20
-251.2469263770971
 30
0.0
 40
1.639695123940214
100
AcDbArc
 50
90.0
 51
164.9381082228947
  0
ARC
  5
22C
102
{ACAD_REACTORS
330
27E
330
27F
102
}
330
74
100
AcDbEntity
  8
0
  6
Continuous
 62
     2
100
AcDbCircle
 10
-195.7008741184638
 20
-251.1341360150622
 30
0.0
 40
1.205656168393002
100
AcDbArc
 50
164.9381082229028
 51
195.0618917770959
  0
ARC
  5
22D
102
{ACAD_REACTORS
330
27E
330
27F
102
}
330
74
100
AcDbEntity
  8
0
  6
Continuous
 62
     2
100
AcDbCircle
 10
-195.1510017936864
 20
-251.3392074444007
 30
0.0
 40
0.5115800601960215
100
AcDbArc
 50
208.5214732576866
 51
246.6277221118449
  0
ARC
  5
22E
102
{ACAD_REACTORS
330
27E
330
27F
102
}
330
74
100
AcDbEntity
  8
0
  6
Continuous
 62
     2
100
AcDbCircle
 10
-195.1510017936864
 20
-250.9290645857232
 30
0.0
 40
0.5115800601944411
100
AcDbArc
 50
109.3371432194842
 51
151.4785267424225
  0
ARC
  5
22F
102
{ACAD_REACTORS
330
27C
330
27D
102
}
330
74
100
AcDbEntity
  8
0
  6
Continuous
 62
     2
100
AcDbCircle
 10
-216.214462008417
 20
-250.682160627403
 30
0.0
 40
0.315716923076792
100
AcDbArc
 50
180.0
 51
269.8110329574541
  0
ARC
  5
230
102
{ACAD_REACTORS
330
27C
330
27D
102
}
330
74
100
AcDbEntity
  8
0
  6
Continuous
 62
     2
100
AcDbCircle
 10
-216.208845873107
 20
-248.979325679834
 30
0.0
 40
2.018561131933237
100
AcDbArc
 50
269.8110329575866
 51
90.18896704241334
  0
ARC
  5
231
102
{ACAD_REACTORS
330
27C
330
27D
102
}
330
74
100
AcDbEntity
  8
0
  6
Continuous
 62
     2
100
AcDbCircle
 10
-216.214462008417
 20
-247.8820260207717
 30
0.0
 40
0.315716923076792
100
AcDbArc
 50
180.0
 51
244.6259913216482
  0
ARC
  5
232
102
{ACAD_REACTORS
330
27C
330
27D
102
}
330
74
100
AcDbEntity
  8
0
  6
Continuous
 62
     2
100
AcDbCircle
 10
-216.214462008417
 20
-250.1003092207079
 30
0.0
 40
0.3157169230765328
100
AcDbArc
 50
115.3740086783519
 51
180.0
  0
ARC
  5
233
102
{ACAD_REACTORS
330
280
330
281
102
}
330
74
100
AcDbEntity
  8
0
  6
Continuous
 62
     2
100
AcDbCircle
 10
-211.3844477542551
 20
-251.2469263770971
 30
0.0
 40
1.639695123940507
100
AcDbArc
 50
84.84185523036236
 51
164.9381082228867
  0
ARC
  5
234
102
{ACAD_REACTORS
330
280
330
281
102
}
330
74
100
AcDbEntity
  8
0
  6
Continuous
 62
     2
100
AcDbCircle
 10
-211.8035755977179
 20
-251.1341360150622
 30
0.0
 40
1.205656168390971
100
AcDbArc
 50
164.9381082228768
 51
195.0618917770945
  0
ARC
  5
235
102
{ACAD_REACTORS
330
280
330
281
102
}
330
74
100
AcDbEntity
  8
0
  6
Continuous
 62
     2
100
AcDbCircle
 10
-211.3844477542551
 20
-251.0213456530274
 30
0.0
 40
1.639695123939415
100
AcDbArc
 50
195.0618917770893
 51
275.1581447696395
  0
ARC
  5
236
102
{ACAD_REACTORS
330
280
330
281
102
}
330
74
100
AcDbEntity
  8
0
  6
Continuous
 62
     2
100
AcDbCircle
 10
-211.673303848991
 20
-247.8214550698058
 30
0.0
 40
4.852596863498138
100
AcDbArc
 50
275.1581447696249
 51
285.979991258353
  0
ARC
  5
237
102
{ACAD_REACTORS
330
280
330
281
102
}
330
74
100
AcDbEntity
  8
0
  6
Continuous
 62
     2
100
AcDbCircle
 10
-210.876346014859
 20
-251.1341360150622
 30
0.0
 40
0.9410597353332545
100
AcDbArc
 50
151.4785267422669
 51
208.5214732577057
  0
ARC
  5
238
102
{ACAD_REACTORS
330
280
330
281
102
}
330
74
100
AcDbEntity
  8
0
  6
Continuous
 62
     2
100
AcDbCircle
 10
-211.2537032729393
 20
-250.9290645857232
 30
0.0
 40
0.5115800601948891
100
AcDbArc
 50
113.3722778882021
 51
151.4785267423044
  0
ARC
  5
239
102
{ACAD_REACTORS
330
280
330
281
102
}
330
74
100
AcDbEntity
  8
0
  6
Continuous
 62
     2
100
AcDbCircle
 10
-211.5154309738981
 20
-252.5446023804704
 30
0.0
 40
2.227384008973492
100
AcDbArc
 50
58.0690910500401
 51
71.55192388186676
  0
ARC
  5
23A
102
{ACAD_REACTORS
330
278
330
279
102
}
330
74
100
AcDbEntity
  8
0
  6
Continuous
 62
     2
100
AcDbCircle
 10
-208.4534168383342
 20
-250.9774048369417
 30
0.0
 40
0.517908573013295
100
AcDbArc
 50
38.12041979715146
 51
141.8795802028583
  0
ARC
  5
23B
102
{ACAD_REACTORS
330
278
330
279
102
}
330
74
100
AcDbEntity
  8
0
  6
Continuous
 62
     2
100
AcDbCircle
 10
-208.2536768019881
 20
-251.1341360150622
 30
0.0
 40
0.7717997786795031
100
AcDbArc
 50
141.879580202836
 51
218.1204197971674
  0
ARC
  5
23C
102
{ACAD_REACTORS
330
278
330
279
102
}
330
74
100
AcDbEntity
  8
0
  6
Continuous
 62
     2
100
AcDbCircle
 10
-208.4534168383342
 20
-251.2908671931822
 30
0.0
 40
0.5179085730137577
100
AcDbArc
 50
218.1204197971912
 51
321.879580202799
  0
ARC
  5
23D
102
{ACAD_REACTORS
330
278
330
279
102
}
330
74
100
AcDbEntity
  8
0
  6
Continuous
 62
     2
100
AcDbCircle
 10
-208.6531568746806
 20
-251.1341360150622
 30
0.0
 40
0.7717997786796724
100
AcDbArc
 50
321.8795802028404
 51
38.12041979715625
  0
CIRCLE
  5
23E
330
74
100
AcDbEntity
  8
1
  6
Continuous
 62
     2
100
AcDbCircle
 10
-211.308149987078
 20
-238.8295407769839
 30
0.0
 40
2.5
  0
CIRCLE
  5
23F
330
74
100
AcDbEntity
  8
1
  6
Continuous
 62
     2
100
AcDbCircle
 10
-211.308149987078
 20
-238.8295407769839
 30
0.0
 40
1.249999999999886
  0
CIRCLE
  5
240
102
{ACAD_REACTORS
330
27C
330
27D
102
}
330
74
100
AcDbEntity
  8
0
  6
Continuous
 62
     2
100
AcDbCircle
 10
-216.7643197211777
 20
-248.9911676207395
 30
0.0
 40
0.4709789327785074
  0
MTEXT
  5
241
330
74
100
AcDbEntity
  8
1
 62
     3
100
AcDbMText
 10
-381.4949325608188
 20
-73.16323262168501
 30
0.0
 40
1.8
 41
0.0
 71
     7
 72
     1
  3
Weitergabe sowie Vervielf\U+00e4ltigung dieses Dokuments, Verwertung und \PMitteilung seines Inhalts sind verboten, soweit nicht ausdr\U+00fccklich gestattet. \PZuwiderhandlungen verpflichten zu Schadenersatz. Alle Rechte f\U+00fcr den Fall\Pder Pat
  1
ent-, Gebrauchsmuster- oder Designeintragung vorbehalten.
  7
CONVERTER_11
 73
     1
 44
0.99639855942377
  0
MTEXT
  5
242
330
74
100
AcDbEntity
  8
1
 62
     3
100
AcDbMText
 10
-198.6418227220307
 20
-73.16323262168501
 30
0.0
 40
1.8
 41
0.0
 71
     7
 72
     1
  3
Transfer or duplication of this document as well as the utilisation or\Pcommunication of its content are not permitted unless express consen\Pis granted. Violations give rise to claims for damages. All rights reserved\Pin case of patent, utility mod
  1
el or design patent registrations.
  7
CONVERTER_11
 73
     1
 44
0.99639855942377
  0
TEXT
  5
243
330
74
100
AcDbEntity
  8
1
 62
     2
100
AcDbText
 10
-204.8448048736408
 20
-258.7135579919755
 30
0.0
 40
1.8
  1
of
 41
0.9
  7
CONVERTER_11
100
AcDbText
  0
TEXT
  5
244
330
74
100
AcDbEntity
  8
1
 62
     2
100
AcDbText
 10
-223.0448048736406
 20
-258.7135579919755
 30
0.0
 40
1.8
  1
page
 41
0.9
  7
CONVERTER_11
100
AcDbText
  0
TEXT
  5
245
330
74
100
AcDbEntity
  8
1
 62
     2
100
AcDbText
 10
-214.3985399032986
 20
-258.7537894307858
 30
0.0
 40
1.8
  1
1
 41
0.9
  7
CONVERTER_11
100
AcDbText
  0
TEXT
  5
246
330
74
100
AcDbEntity
  8
1
 62
     2
100
AcDbText
 10
-199.6094960638271
 20
-258.7045407769839
 30
0.0
 40
1.8
  1
1
 41
0.9
  7
CONVERTER_11
100
AcDbText
  0
MTEXT
  5
248
330
74
100
AcDbEntity
  8
1
 62
     7
100
AcDbMText
 10
-141.0724026102651
 20
-256.7045407769836
 30
0.0
 40
3.0
 41
0.0
 71
     5
 72
     1
  1
PATG 5/12
  7
CONVERTER_12
 73
     1
 44
1.20048019207683
  0
MTEXT
  5
249
330
74
100
AcDbEntity
  8
1
 62
     2
100
AcDbMText
 10
-186.6448048736407
 20
-252.4545407769838
 30
0.0
 40
1.8
 41
0.0
 71
     1
 72
     1
  1
description
  7
CONVERTER_11
 73
     1
 44
1.20048019207683
  0
MTEXT
  5
24A
330
74
100
AcDbEntity
  8
1
 62
     3
100
AcDbMText
 10
-197.8448048736407
 20
-238.8295407769838
 30
0.0
 40
2.5
 41
0.0
 71
     5
 72
     1
  1
DIN A4
  7
CONVERTER_11
 73
     1
 44
1.20048019207683
  0
MTEXT
  5
24B
330
74
100
AcDbEntity
  8
1
 62
     7
100
AcDbMText
 10
-384.0000003468896
 20
-237.4545407769838
 30
0.0
 40
3.5
 41
0.0
 71
     5
 72
     1
  1
D
  7
CONVERTER_11
 73
     1
 44
1.20048019207683
  0
MTEXT
  5
24C
330
74
100
AcDbEntity
  8
1
 62
     7
100
AcDbMText
 10
-384.0000003468896
 20
-184.9545407769838
 30
0.0
 40
3.5
 41
0.0
 71
     5
 72
     1
  1
C
  7
CONVERTER_11
 73
     1
 44
1.20048019207683
  0
MTEXT
  5
24D
330
74
100
AcDbEntity
  8
1
 62
     7
100
AcDbMText
 10
-384.0000003468896
 20
-134.9545407769838
 30
0.0
 40
3.5
 41
0.0
 71
     5
 72
     1
  1
B
  7
CONVERTER_11
 73
     1
 44
1.20048019207683
  0
MTEXT
  5
24E
330
74
100
AcDbEntity
  8
1
 62
     7
100
AcDbMText
 10
-384.0000003468896
 20
-82.4545407769838
 30
0.0
 40
3.5
 41
0.0
 71
     5
 72
     1
  1
A
  7
CONVERTER_11
 73
     1
 44
1.20048019207683
  0
MTEXT
  5
24F
330
74
100
AcDbEntity
  8
1
 62
     7
100
AcDbMText
 10
-113.7500003468914
 20
-262.4545407769839
 30
0.0
 40
3.5
 41
0.0
 71
     5
 72
     1
  1
6
  7
CONVERTER_11
 73
     1
 44
1.20048019207683
  0
MTEXT
  5
250
330
74
100
AcDbEntity
  8
1
 62
     7
100
AcDbMText
 10
-163.0000003468906
 20
-262.4545407769839
 30
0.0
 40
3.5
 41
0.0
 71
     5
 72
     1
  1
5
  7
CONVERTER_11
 73
     1
 44
1.20048019207683
  0
MTEXT
  5
251
330
74
100
AcDbEntity
  8
1
 62
     7
100
AcDbMText
 10
-213.0000003468907
 20
-262.4545407769839
 30
0.0
 40
3.5
 41
0.0
 71
     5
 72
     1
  1
4
  7
CONVERTER_11
 73
     1
 44
1.20048019207683
  0
MTEXT
  5
252
330
74
100
AcDbEntity
  8
1
 62
     7
100
AcDbMText
 10
-263.0000003468905
 20
-262.4545407769839
 30
0.0
 40
3.5
 41
0.0
 71
     5
 72
     1
  1
3
  7
CONVERTER_11
 73
     1
 44
1.20048019207683
  0
MTEXT
  5
253
330
74
100
AcDbEntity
  8
1
 62
     7
100
AcDbMText
 10
-313.0000003468905
 20
-262.4545407769839
 30
0.0
 40
3.5
 41
0.0
 71
     5
 72
     1
  1
2
  7
CONVERTER_11
 73
     1
 44
1.20048019207683
  0
MTEXT
  5
254
330
74
100
AcDbEntity
  8
1
 62
     7
100
AcDbMText
 10
-362.2500003468902
 20
-262.4545407769839
 30
0.0
 40
3.5
 41
0.0
 71
     5
 72
     1
  1
1
  7
CONVERTER_11
 73
     1
 44
1.20048019207683
  0
MTEXT
  5
255
330
74
100
AcDbEntity
  8
1
 62
     7
100
AcDbMText
 10
-92.00000034689157
 20
-237.4545407769838
 30
0.0
 40
3.5
 41
0.0
 71
     5
 72
     1
  1
D
  7
CONVERTER_11
 73
     1
 44
1.20048019207683
  0
MTEXT
  5
256
330
74
100
AcDbEntity
  8
1
 62
     7
100
AcDbMText
 10
-92.00000034689157
 20
-134.9545407769819
 30
0.0
 40
3.5
 41
0.0
 71
     5
 72
     1
  1
B
  7
CONVERTER_11
 73
     1
 44
1.20048019207683
  0
MTEXT
  5
257
330
74
100
AcDbEntity
  8
1
 62
     7
100
AcDbMText
 10
-92.00000034689157
 20
-82.4545407769838
 30
0.0
 40
3.5
 41
0.0
 71
     5
 72
     1
  1
A
  7
CONVERTER_11
 73
     1
 44
1.20048019207683
  0
MTEXT
  5
258
330
74
100
AcDbEntity
  8
1
 62
     7
100
AcDbMText
 10
-92.00000034689157
 20
-184.9545407769819
 30
0.0
 40
3.5
 41
0.0
 71
     5
 72
     1
  1
C
  7
CONVERTER_11
 73
     1
 44
1.20048019207683
  0
MTEXT
  5
259
330
74
100
AcDbEntity
  8
1
 62
     2
100
AcDbMText
 10
-258.4828195986881
 20
-247.2045407769839
 30
0.0
 40
2.0
 41
0.0
 71
     5
 72
     1
  1
General Information\P- Simplified representation\P- Document excluded from change process\P- Linear dimensions [mm]
  7
CONVERTER_11
 73
     1
 44
1.20048019207683
  0
TEXT
  5
25A
330
74
100
AcDbEntity
  8
1
 62
     7
100
AcDbText
 10
-186.1448048736409
 20
-250.1545407769839
 30
0.0
 40
2.5
  1
0803312
 41
0.81
  7
CONVERTER_12
100
AcDbText
  0
MTEXT
  5
25B
330
74
100
AcDbEntity
  8
1
 62
     2
100
AcDbMText
 10
-186.5448048736406
 20
-243.9545407769838
 30
0.0
 40
1.8
 41
0.0
 71
     1
 72
     1
  1
ident.-No.
  7
CONVERTER_11
 73
     1
 44
1.20048019207683
  0
MTEXT
  5
25C
330
74
100
AcDbEntity
  8
1
 62
     2
100
AcDbMText
 10
-102.3184086285679
 20
-235.4545407769838
 30
0.0
 40
1.8
 41
0.0
 71
     1
 72
     1
  1
scale
  7
CONVERTER_11
 73
     1
 44
1.20048019207683
  0
MTEXT
  5
25E
330
74
100
AcDbEntity
  8
1
 62
     3
100
AcDbMText
 10
-98.95920448772826
 20
-241.6545407769837
 30
0.0
 40
2.5
 41
0.0
 71
     8
 72
     1
  1
2:1
  7
CONVERTER_13
 73
     1
 44
1.32052821128451
  0
TEXT
  5
25F
330
74
100
AcDbEntity
  8
1
 62
     7
100
AcDbText
 10
-186.5448048736406
 20
-241.6545407769839
 30
0.0
 40
2.5
  1
00882644
 41
0.81
  7
CONVERTER_12
100
AcDbText
  0
MTEXT
  5
261
330
74
100
AcDbEntity
  8
1
 62
     2
100
AcDbMText
 10
-186.5448048736406
 20
-235.4545407769838
 30
0.0
 40
1.8
 41
0.0
 71
     1
 72
     1
  1
document-No. / RI
  7
CONVERTER_14
 73
     1
 44
1.32052821128451
  0
TEXT
  5
262
330
74
100
AcDbEntity
  8
1
 62
     3
100
AcDbText
 10
-158.7448048736406
 20
-250.1545407769839
 30
0.0
 40
2.5
  1
Customer drawing select
 41
0.81
  7
CONVERTER_12
100
AcDbText
  0
MTEXT
  5
263
330
74
100
AcDbEntity
  8
1
 62
     2
100
AcDbMText
 10
-158.7448048736406
 20
-243.9545407769839
 30
0.0
 40
1.8
 41
0.0
 71
     1
 72
     1
  1
document-type
  7
CONVERTER_11
 73
     1
 44
1.20048019207683
  0
MTEXT
  5
264
330
74
100
AcDbEntity
  8
1
 62
     2
100
AcDbMText
 10
-128.9184086285677
 20
-235.4545407769839
 30
0.0
 40
1.8
 41
0.0
 71
     1
 72
     1
  1
date
  7
CONVERTER_11
 73
     1
 44
1.32052821128451
  0
TEXT
  5
265
330
74
100
AcDbEntity
  8
1
 62
     3
100
AcDbText
 10
-128.9184086285677
 20
-241.6545407769839
 30
0.0
 40
2.5
  1
08.07.2015
 41
0.81
  7
CONVERTER_12
100
AcDbText
  0
TEXT
  5
266
330
74
100
AcDbEntity
  8
1
 62
     7
100
AcDbText
 10
-166.5148926545848
 20
-241.6545407769839
 30
0.0
 40
2.5
  1
00
 41
0.81
  7
CONVERTER_12
100
AcDbText
  0
TEXT
  5
267
330
74
100
AcDbEntity
  8
1
 62
     7
100
AcDbText
 10
-168.6712571516268
 20
-241.6545407769839
 30
0.0
 40
2.5
  1
/
 41
0.9
  7
CONVERTER_11
100
AcDbText
  0
HATCH
  5
268
330
74
100
AcDbEntity
  8
1
  6
Continuous
 62
     2
100
AcDbHatch
 10
0.0
 20
0.0
 30
0.0
210
0.0
220
0.0
230
1.0
  2
_USER
 70
     0
 71
     1
 91
        1
 92
        1
 93
       12
 72
     1
 10
-206.3773041606795
 20
-249.3018503007932
 11
-207.5700968628459
 21
-249.3018503007932
 72
     1
 10
-207.5700968628459
 20
-249.3018503007932
 11
-207.5700968628459
 21
-248.1675781919494
 72
     1
 10
-207.5700968628459
 20
-248.1675781919494
 11
-208.6197544407534
 21
-248.1675781919494
 72
     1
 10
-208.6197544407534
 20
-248.1675781919494
 11
-208.6197544407534
 21
-249.3018503007932
 72
     1
 10
-208.6197544407534
 20
-249.3018503007932
 11
-209.81254714292
 21
-249.3018503007932
 72
     1
 10
-209.81254714292
 20
-249.3018503007932
 11
-209.81254714292
 21
-246.248040776982
 72
     1
 10
-209.81254714292
 20
-246.248040776982
 11
-208.6197544407534
 21
-246.248040776982
 72
     1
 10
-208.6197544407534
 20
-246.248040776982
 11
-208.6197544407534
 21
-247.3168741103166
 72
     1
 10
-208.6197544407534
 20
-247.3168741103166
 11
-207.5700968628459
 21
-247.3168741103166
 72
     1
 10
-207.5700968628459
 20
-247.3168741103166
 11
-207.5700968628459
 21
-246.248040776982
 72
     1
 10
-207.5700968628459
 20
-246.248040776982
 11
-206.3773041606795
 21
-246.248040776982
 72
     1
 10
-206.3773041606795
 20
-246.248040776982
 11
-206.3773041606795
 21
-249.3018503007932
 97
       12
330
1D5
330
1D6
330
1C0
330
1BF
330
1BE
330
1D2
330
1BD
330
1D3
330
1D4
330
1BC
330
1BB
330
1BA
 75
     1
 76
     0
 52
45.0
 41
0.1
 77
     0
 78
     1
 53
45.0
 43
0.0
 44
0.0
 45
-0.0707106781186548
 46
0.0707106781186548
 79
     0
 98
        1
 10
0.0
 20
0.0
  0
HATCH
  5
269
330
74
100
AcDbEntity
  8
1
  6
Continuous
 62
     2
100
AcDbHatch
 10
0.0
 20
0.0
 30
0.0
210
0.0
220
0.0
230
1.0
  2
_USER
 70
     0
 71
     1
 91
        1
 92
        1
 93
       12
 72
     1
 10
-206.3773041606795
 20
-249.3018503007932
 11
-207.5700968628459
 21
-249.3018503007932
 72
     1
 10
-207.5700968628459
 20
-249.3018503007932
 11
-207.5700968628459
 21
-248.1675781919494
 72
     1
 10
-207.5700968628459
 20
-248.1675781919494
 11
-208.6197544407534
 21
-248.1675781919494
 72
     1
 10
-208.6197544407534
 20
-248.1675781919494
 11
-208.6197544407534
 21
-249.3018503007932
 72
     1
 10
-208.6197544407534
 20
-249.3018503007932
 11
-209.81254714292
 21
-249.3018503007932
 72
     1
 10
-209.81254714292
 20
-249.3018503007932
 11
-209.81254714292
 21
-246.248040776982
 72
     1
 10
-209.81254714292
 20
-246.248040776982
 11
-208.6197544407534
 21
-246.248040776982
 72
     1
 10
-208.6197544407534
 20
-246.248040776982
 11
-208.6197544407534
 21
-247.3168741103166
 72
     1
 10
-208.6197544407534
 20
-247.3168741103166
 11
-207.5700968628459
 21
-247.3168741103166
 72
     1
 10
-207.5700968628459
 20
-247.3168741103166
 11
-207.5700968628459
 21
-246.248040776982
 72
     1
 10
-207.5700968628459
 20
-246.248040776982
 11
-206.3773041606795
 21
-246.248040776982
 72
     1
 10
-206.3773041606795
 20
-246.248040776982
 11
-206.3773041606795
 21
-249.3018503007932
 97
       12
330
1D5
330
1D6
330
1C0
330
1BF
330
1BE
330
1D2
330
1BD
330
1D3
330
1D4
330
1BC
330
1BB
330
1BA
 75
     1
 76
     0
 52
45.0
 41
0.1
 77
     0
 78
     1
 53
45.0
 43
0.0
 44
0.0
 45
-0.0707106781186548
 46
0.0707106781186548
 79
     0
 98
        1
 10
0.0
 20
0.0
  0
HATCH
  5
26A
330
74
100
AcDbEntity
  8
1
  6
Continuous
 62
     2
100
AcDbHatch
 10
0.0
 20
0.0
 30
0.0
210
0.0
220
0.0
230
1.0
  2
_USER
 70
     0
 71
     1
 91
        1
 92
        1
 93
       10
 72
     1
 10
-204.1350048114912
 20
-250.9160067633615
 11
-205.3755092217441
 21
-249.6072312531564
 72
     1
 10
-205.3755092217441
 20
-249.6072312531564
 11
-206.5683019239117
 21
-249.6072312531564
 72
     1
 10
-206.5683019239117
 20
-249.6072312531564
 11
-206.5683019239117
 21
-252.6610407769675
 72
     1
 10
-206.5683019239117
 20
-252.6610407769675
 11
-205.3755092217441
 21
-252.6610407769675
 72
     1
 10
-205.3755092217441
 20
-252.6610407769675
 11
-205.3755092217441
 21
-251.3522652667629
 72
     1
 10
-205.3755092217441
 20
-251.3522652667629
 11
-204.1350048114912
 21
-252.6610407769675
 72
     1
 10
-204.1350048114912
 20
-252.6610407769675
 11
-202.9422121093248
 21
-252.6610407769675
 72
     1
 10
-202.9422121093248
 20
-252.6610407769675
 11
-202.9422121093248
 21
-249.6072312531564
 72
     1
 10
-202.9422121093248
 20
-249.6072312531564
 11
-204.1350048114912
 21
-249.6072312531564
 72
     1
 10
-204.1350048114912
 20
-249.6072312531564
 11
-204.1350048114912
 21
-250.9160067633615
 97
       10
330
1E3
330
1B3
330
1B2
330
1B5
330
1DE
330
1DF
330
1B4
330
1E0
330
1E1
330
1E2
 75
     1
 76
     0
 52
45.0
 41
0.1
 77
     0
 78
     1
 53
45.0
 43
0.0
 44
0.0
 45
-0.0707106781186548
 46
0.0707106781186548
 79
     0
 98
        1
 10
0.0
 20
0.0
  0
HATCH
  5
26B
330
74
100
AcDbEntity
  8
1
  6
Continuous
 62
     2
100
AcDbHatch
 10
0.0
 20
0.0
 30
0.0
210
0.0
220
0.0
230
1.0
  2
_USER
 70
     0
 71
     1
 91
        1
 92
        1
 93
       10
 72
     1
 10
-204.1350048114912
 20
-250.9160067633615
 11
-205.3755092217441
 21
-249.6072312531564
 72
     1
 10
-205.3755092217441
 20
-249.6072312531564
 11
-206.5683019239117
 21
-249.6072312531564
 72
     1
 10
-206.5683019239117
 20
-249.6072312531564
 11
-206.5683019239117
 21
-252.6610407769675
 72
     1
 10
-206.5683019239117
 20
-252.6610407769675
 11
-205.3755092217441
 21
-252.6610407769675
 72
     1
 10
-205.3755092217441
 20
-252.6610407769675
 11
-205.3755092217441
 21
-251.3522652667629
 72
     1
 10
-205.3755092217441
 20
-251.3522652667629
 11
-204.1350048114912
 21
-252.6610407769675
 72
     1
 10
-204.1350048114912
 20
-252.6610407769675
 11
-202.9422121093248
 21
-252.6610407769675
 72
     1
 10
-202.9422121093248
 20
-252.6610407769675
 11
-202.9422121093248
 21
-249.6072312531564
 72
     1
 10
-202.9422121093248
 20
-249.6072312531564
 11
-204.1350048114912
 21
-249.6072312531564
 72
     1
 10
-204.1350048114912
 20
-249.6072312531564
 11
-204.1350048114912
 21
-250.9160067633615
 97
       10
330
1E3
330
1B3
330
1B2
330
1B5
330
1DE
330
1DF
330
1B4
330
1E0
330
1E1
330
1E2
 75
     1
 76
     0
 52
45.0
 41
0.1
 77
     0
 78
     1
 53
45.0
 43
0.0
 44
0.0
 45
-0.0707106781186548
 46
0.0707106781186548
 79
     0
 98
        1
 10
0.0
 20
0.0
  0
HATCH
  5
26C
330
74
100
AcDbEntity
  8
1
  6
Continuous
 62
     2
100
AcDbHatch
 10
0.0
 20
0.0
 30
0.0
210
0.0
220
0.0
230
1.0
  2
_USER
 70
     0
 71
     1
 91
        1
 92
        1
 93
       10
 72
     1
 10
-198.8865659910715
 20
-247.5568162871872
 11
-200.1270704013255
 21
-246.248040776982
 72
     1
 10
-200.1270704013255
 20
-246.248040776982
 11
-201.319863103492
 21
-246.248040776982
 72
     1
 10
-201.319863103492
 20
-246.248040776982
 11
-201.319863103492
 21
-249.3018503007932
 72
     1
 10
-201.319863103492
 20
-249.3018503007932
 11
-200.1270704013255
 21
-249.3018503007932
 72
     1
 10
-200.1270704013255
 20
-249.3018503007932
 11
-200.1270704013255
 21
-247.9930747905885
 72
     1
 10
-200.1270704013255
 20
-247.9930747905885
 11
-198.8865659910715
 21
-249.3018503007932
 72
     1
 10
-198.8865659910715
 20
-249.3018503007932
 11
-197.6937732889049
 21
-249.3018503007932
 72
     1
 10
-197.6937732889049
 20
-249.3018503007932
 11
-197.6937732889049
 21
-246.248040776982
 72
     1
 10
-197.6937732889049
 20
-246.248040776982
 11
-198.8865659910715
 21
-246.248040776982
 72
     1
 10
-198.8865659910715
 20
-246.248040776982
 11
-198.8865659910715
 21
-247.5568162871872
 97
       10
330
1E8
330
1B0
330
1AF
330
1E9
330
1AE
330
1E4
330
1E5
330
1E6
330
1E7
330
1B1
 75
     1
 76
     0
 52
45.0
 41
0.1
 77
     0
 78
     1
 53
45.0
 43
0.0
 44
0.0
 45
-0.0707106781186548
 46
0.0707106781186548
 79
     0
 98
        1
 10
0.0
 20
0.0
  0
HATCH
  5
26D
330
74
100
AcDbEntity
  8
1
  6
Continuous
 62
     2
100
AcDbHatch
 10
0.0
 20
0.0
 30
0.0
210
0.0
220
0.0
230
1.0
  2
_USER
 70
     0
 71
     1
 91
        1
 92
        1
 93
       10
 72
     1
 10
-198.8865659910715
 20
-247.5568162871872
 11
-200.1270704013255
 21
-246.248040776982
 72
     1
 10
-200.1270704013255
 20
-246.248040776982
 11
-201.319863103492
 21
-246.248040776982
 72
     1
 10
-201.319863103492
 20
-246.248040776982
 11
-201.319863103492
 21
-249.3018503007932
 72
     1
 10
-201.319863103492
 20
-249.3018503007932
 11
-200.1270704013255
 21
-249.3018503007932
 72
     1
 10
-200.1270704013255
 20
-249.3018503007932
 11
-200.1270704013255
 21
-247.9930747905885
 72
     1
 10
-200.1270704013255
 20
-247.9930747905885
 11
-198.8865659910715
 21
-249.3018503007932
 72
     1
 10
-198.8865659910715
 20
-249.3018503007932
 11
-197.6937732889049
 21
-249.3018503007932
 72
     1
 10
-197.6937732889049
 20
-249.3018503007932
 11
-197.6937732889049
 21
-246.248040776982
 72
     1
 10
-197.6937732889049
 20
-246.248040776982
 11
-198.8865659910715
 21
-246.248040776982
 72
     1
 10
-198.8865659910715
 20
-246.248040776982
 11
-198.8865659910715
 21
-247.5568162871872
 97
       10
330
1E8
330
1B0
330
1AF
330
1E9
330
1AE
330
1E4
330
1E5
330
1E6
330
1E7
330
1B1
 75
     1
 76
     0
 52
45.0
 41
0.1
 77
     0
 78
     1
 53
45.0
 43
0.0
 44
0.0
 45
-0.0707106781186548
 46
0.0707106781186548
 79
     0
 98
        1
 10
0.0
 20
0.0
  0
HATCH
  5
26E
330
74
100
AcDbEntity
  8
1
  6
Continuous
 62
     2
100
AcDbHatch
 10
0.0
 20
0.0
 30
0.0
210
0.0
220
0.0
230
1.0
  2
_USER
 70
     0
 71
     1
 91
        1
 92
        1
 93
        8
 72
     1
 10
-199.984086207951
 20
-249.6072312531564
 11
-202.7990769850646
 21
-249.6072312531564
 72
     1
 10
-202.7990769850646
 20
-249.6072312531564
 11
-202.7990769850646
 21
-250.39249655928
 72
     1
 10
-202.7990769850646
 20
-250.39249655928
 11
-201.98797794759
 21
-250.39249655928
 72
     1
 10
-201.98797794759
 20
-250.39249655928
 11
-201.98797794759
 21
-252.6610407769675
 72
     1
 10
-201.98797794759
 20
-252.6610407769675
 11
-200.7951852454235
 21
-252.6610407769675
 72
     1
 10
-200.7951852454235
 20
-252.6610407769675
 11
-200.7951852454235
 21
-250.39249655928
 72
     1
 10
-200.7951852454235
 20
-250.39249655928
 11
-199.984086207951
 21
-250.39249655928
 72
     1
 10
-199.984086207951
 20
-250.39249655928
 11
-199.984086207951
 21
-249.6072312531564
 97
        8
330
1AA
330
1EA
330
1A9
330
1EB
330
1EC
330
1AD
330
1AC
330
1AB
 75
     1
 76
     0
 52
45.0
 41
0.1
 77
     0
 78
     1
 53
45.0
 43
0.0
 44
0.0
 45
-0.0707106781186548
 46
0.0707106781186548
 79
     0
 98
        1
 10
0.0
 20
0.0
  0
HATCH
  5
26F
330
74
100
AcDbEntity
  8
1
  6
Continuous
 62
     2
100
AcDbHatch
 10
0.0
 20
0.0
 30
0.0
210
0.0
220
0.0
230
1.0
  2
_USER
 70
     0
 71
     1
 91
        1
 92
        1
 93
        8
 72
     1
 10
-199.984086207951
 20
-249.6072312531564
 11
-202.7990769850646
 21
-249.6072312531564
 72
     1
 10
-202.7990769850646
 20
-249.6072312531564
 11
-202.7990769850646
 21
-250.39249655928
 72
     1
 10
-202.7990769850646
 20
-250.39249655928
 11
-201.98797794759
 21
-250.39249655928
 72
     1
 10
-201.98797794759
 20
-250.39249655928
 11
-201.98797794759
 21
-252.6610407769675
 72
     1
 10
-201.98797794759
 20
-252.6610407769675
 11
-200.7951852454235
 21
-252.6610407769675
 72
     1
 10
-200.7951852454235
 20
-252.6610407769675
 11
-200.7951852454235
 21
-250.39249655928
 72
     1
 10
-200.7951852454235
 20
-250.39249655928
 11
-199.984086207951
 21
-250.39249655928
 72
     1
 10
-199.984086207951
 20
-250.39249655928
 11
-199.984086207951
 21
-249.6072312531564
 97
        8
330
1AA
330
1EA
330
1A9
330
1EB
330
1EC
330
1AD
330
1AC
330
1AB
 75
     1
 76
     0
 52
45.0
 41
0.1
 77
     0
 78
     1
 53
45.0
 43
0.0
 44
0.0
 45
-0.0707106781186548
 46
0.0707106781186548
 79
     0
 98
        1
 10
0.0
 20
0.0
  0
HATCH
  5
270
330
74
100
AcDbEntity
  8
1
  6
Continuous
 62
     2
100
AcDbHatch
 10
0.0
 20
0.0
 30
0.0
210
0.0
220
0.0
230
1.0
  2
_USER
 70
     0
 71
     1
 91
        2
 92
        1
 93
        8
 72
     1
 10
-197.845658752004
 20
-252.6610407769675
 11
-198.0571388054798
 21
-252.1200802327496
 72
     1
 10
-198.0571388054798
 20
-252.1200802327496
 11
-199.1895803821536
 21
-252.1200802327496
 72
     1
 10
-199.1895803821536
 20
-252.1200802327496
 11
-199.4010604356294
 21
-252.6610407769675
 72
     1
 10
-199.4010604356294
 20
-252.6610407769675
 11
-200.6415648458824
 21
-252.6610407769675
 72
     1
 10
-200.6415648458824
 20
-252.6610407769675
 11
-199.2436117989431
 21
-249.6072312531564
 72
     1
 10
-199.2436117989431
 20
-249.6072312531564
 11
-198.0031073886904
 21
-249.6072312531564
 72
     1
 10
-198.0031073886904
 20
-249.6072312531564
 11
-196.6051543417501
 21
-252.6610407769675
 72
     1
 10
-196.6051543417501
 20
-252.6610407769675
 11
-197.845658752004
 21
-252.6610407769675
 97
        8
330
1EE
330
1EF
330
1A6
330
1F0
330
1A5
330
1A8
330
1ED
330
1A7
 92
       16
 93
        3
 72
     1
 10
-198.9235248310086
 20
-251.439516967443
 11
-198.6233595938162
 21
-250.6717020014563
 72
     1
 10
-198.6233595938162
 20
-250.6717020014563
 11
-198.3231943566261
 21
-251.439516967443
 72
     1
 10
-198.3231943566261
 20
-251.439516967443
 11
-198.9235248310086
 21
-251.439516967443
 97
        3
330
1A4
330
1F2
330
1F1
 75
     1
 76
     0
 52
45.0
 41
0.1
 77
     0
 78
     1
 53
45.0
 43
0.0
 44
0.0
 45
-0.0707106781186548
 46
0.0707106781186548
 79
     0
 98
        1
 10
0.0
 20
0.0
  0
HATCH
  5
271
330
74
100
AcDbEntity
  8
1
  6
Continuous
 62
     2
100
AcDbHatch
 10
0.0
 20
0.0
 30
0.0
210
0.0
220
0.0
230
1.0
  2
_USER
 70
     0
 71
     1
 91
        2
 92
        1
 93
        8
 72
     1
 10
-197.845658752004
 20
-252.6610407769675
 11
-198.0571388054798
 21
-252.1200802327496
 72
     1
 10
-198.0571388054798
 20
-252.1200802327496
 11
-199.1895803821536
 21
-252.1200802327496
 72
     1
 10
-199.1895803821536
 20
-252.1200802327496
 11
-199.4010604356294
 21
-252.6610407769675
 72
     1
 10
-199.4010604356294
 20
-252.6610407769675
 11
-200.6415648458824
 21
-252.6610407769675
 72
     1
 10
-200.6415648458824
 20
-252.6610407769675
 11
-199.2436117989431
 21
-249.6072312531564
 72
     1
 10
-199.2436117989431
 20
-249.6072312531564
 11
-198.0031073886904
 21
-249.6072312531564
 72
     1
 10
-198.0031073886904
 20
-249.6072312531564
 11
-196.6051543417501
 21
-252.6610407769675
 72
     1
 10
-196.6051543417501
 20
-252.6610407769675
 11
-197.845658752004
 21
-252.6610407769675
 97
        8
330
1EE
330
1EF
330
1A6
330
1F0
330
1A5
330
1A8
330
1ED
330
1A7
 92
       16
 93
        3
 72
     1
 10
-198.9235248310086
 20
-251.439516967443
 11
-198.6233595938162
 21
-250.6717020014563
 72
     1
 10
-198.6233595938162
 20
-250.6717020014563
 11
-198.3231943566261
 21
-251.439516967443
 72
     1
 10
-198.3231943566261
 20
-251.439516967443
 11
-198.9235248310086
 21
-251.439516967443
 97
        3
330
1A4
330
1F2
330
1F1
 75
     1
 76
     0
 52
45.0
 41
0.1
 77
     0
 78
     1
 53
45.0
 43
0.0
 44
0.0
 45
-0.0707106781186548
 46
0.0707106781186548
 79
     0
 98
        1
 10
0.0
 20
0.0
  0
HATCH
  5
272
330
74
100
AcDbEntity
  8
1
  6
Continuous
 62
     2
100
AcDbHatch
 10
0.0
 20
0.0
 30
0.0
210
0.0
220
0.0
230
1.0
  2
_USER
 70
     0
 71
     1
 91
        1
 92
        1
 93
        4
 72
     1
 10
-196.2147103382181
 20
-249.3018503007932
 11
-197.455214748471
 21
-249.3018503007932
 72
     1
 10
-197.455214748471
 20
-249.3018503007932
 11
-197.455214748471
 21
-246.248040776982
 72
     1
 10
-197.455214748471
 20
-246.248040776982
 11
-196.2147103382181
 21
-246.248040776982
 72
     1
 10
-196.2147103382181
 20
-246.248040776982
 11
-196.2147103382181
 21
-249.3018503007932
 97
        4
330
1A1
330
1A3
330
1F3
330
1A2
 75
     1
 76
     0
 52
45.0
 41
0.1
 77
     0
 78
     1
 53
45.0
 43
0.0
 44
0.0
 45
-0.0707106781186548
 46
0.0707106781186548
 79
     0
 98
        1
 10
0.0
 20
0.0
  0
HATCH
  5
273
330
74
100
AcDbEntity
  8
1
  6
Continuous
 62
     2
100
AcDbHatch
 10
0.0
 20
0.0
 30
0.0
210
0.0
220
0.0
230
1.0
  2
_USER
 70
     0
 71
     1
 91
        1
 92
        1
 93
        4
 72
     1
 10
-196.2147103382181
 20
-249.3018503007932
 11
-197.455214748471
 21
-249.3018503007932
 72
     1
 10
-197.455214748471
 20
-249.3018503007932
 11
-197.455214748471
 21
-246.248040776982
 72
     1
 10
-197.455214748471
 20
-246.248040776982
 11
-196.2147103382181
 21
-246.248040776982
 72
     1
 10
-196.2147103382181
 20
-246.248040776982
 11
-196.2147103382181
 21
-249.3018503007932
 97
        4
330
1A1
330
1A3
330
1F3
330
1A2
 75
     1
 76
     0
 52
45.0
 41
0.1
 77
     0
 78
     1
 53
45.0
 43
0.0
 44
0.0
 45
-0.0707106781186548
 46
0.0707106781186548
 79
     0
 98
        1
 10
0.0
 20
0.0
  0
HATCH
  5
274
330
74
100
AcDbEntity
  8
1
  6
Continuous
 62
     2
100
AcDbHatch
 10
0.0
 20
0.0
 30
0.0
210
0.0
220
0.0
230
1.0
  2
_USER
 70
     0
 71
     1
 91
        1
 92
        1
 93
       12
 72
     1
 10
-191.9922241725473
 20
-246.248040776982
 11
-193.2947538033138
 21
-247.7209913070182
 72
     1
 10
-193.2947538033138
 20
-247.7209913070182
 11
-191.8968007563735
 21
-249.3018503007932
 72
     1
 10
-191.8968007563735
 20
-249.3018503007932
 11
-193.2995249741218
 21
-249.3018503007932
 72
     1
 10
-193.2995249741218
 20
-249.3018503007932
 11
-193.9961159121873
 21
-248.5141185154995
 72
     1
 10
-193.9961159121873
 20
-248.5141185154995
 11
-194.692706850253
 21
-249.3018503007932
 72
     1
 10
-194.692706850253
 20
-249.3018503007932
 11
-196.0954310680012
 21
-249.3018503007932
 72
     1
 10
-196.0954310680012
 20
-249.3018503007932
 11
-194.6974780210609
 21
-247.7209913070182
 72
     1
 10
-194.6974780210609
 20
-247.7209913070182
 11
-196.0000076518284
 21
-246.248040776982
 72
     1
 10
-196.0000076518284
 20
-246.248040776982
 11
-194.5972834340791
 21
-246.248040776982
 72
     1
 10
-194.5972834340791
 20
-246.248040776982
 11
-193.9961159121873
 21
-246.9278640985375
 72
     1
 10
-193.9961159121873
 20
-246.9278640985375
 11
-193.3949483902945
 21
-246.248040776982
 72
     1
 10
-193.3949483902945
 20
-246.248040776982
 11
-191.9922241725473
 21
-246.248040776982
 97
       12
330
19C
330
19B
330
19A
330
1F7
330
1F8
330
1F4
330
1F5
330
1A0
330
19F
330
19E
330
19D
330
1F6
 75
     1
 76
     0
 52
45.0
 41
0.1
 77
     0
 78
     1
 53
45.0
 43
0.0
 44
0.0
 45
-0.0707106781186548
 46
0.0707106781186548
 79
     0
 98
        1
 10
0.0
 20
0.0
  0
HATCH
  5
275
330
74
100
AcDbEntity
  8
1
  6
Continuous
 62
     2
100
AcDbHatch
 10
0.0
 20
0.0
 30
0.0
210
0.0
220
0.0
230
1.0
  2
_USER
 70
     0
 71
     1
 91
        1
 92
        1
 93
       12
 72
     1
 10
-191.9922241725473
 20
-246.248040776982
 11
-193.2947538033138
 21
-247.7209913070182
 72
     1
 10
-193.2947538033138
 20
-247.7209913070182
 11
-191.8968007563735
 21
-249.3018503007932
 72
     1
 10
-191.8968007563735
 20
-249.3018503007932
 11
-193.2995249741218
 21
-249.3018503007932
 72
     1
 10
-193.2995249741218
 20
-249.3018503007932
 11
-193.9961159121873
 21
-248.5141185154995
 72
     1
 10
-193.9961159121873
 20
-248.5141185154995
 11
-194.692706850253
 21
-249.3018503007932
 72
     1
 10
-194.692706850253
 20
-249.3018503007932
 11
-196.0954310680012
 21
-249.3018503007932
 72
     1
 10
-196.0954310680012
 20
-249.3018503007932
 11
-194.6974780210609
 21
-247.7209913070182
 72
     1
 10
-194.6974780210609
 20
-247.7209913070182
 11
-196.0000076518284
 21
-246.248040776982
 72
     1
 10
-196.0000076518284
 20
-246.248040776982
 11
-194.5972834340791
 21
-246.248040776982
 72
     1
 10
-194.5972834340791
 20
-246.248040776982
 11
-193.9961159121873
 21
-246.9278640985375
 72
     1
 10
-193.9961159121873
 20
-246.9278640985375
 11
-193.3949483902945
 21
-246.248040776982
 72
     1
 10
-193.3949483902945
 20
-246.248040776982
 11
-191.9922241725473
 21
-246.248040776982
 97
       12
330
19C
330
19B
330
19A
330
1F7
330
1F8
330
1F4
330
1F5
330
1A0
330
19F
330
19E
330
19D
330
1F6
 75
     1
 76
     0
 52
45.0
 41
0.1
 77
     0
 78
     1
 53
45.0
 43
0.0
 44
0.0
 45
-0.0707106781186548
 46
0.0707106781186548
 79
     0
 98
        1
 10
0.0
 20
0.0
  0
HATCH
  5
276
330
74
100
AcDbEntity
  8
1
  6
Continuous
 62
     2
100
AcDbHatch
 10
0.0
 20
0.0
 30
0.0
210
0.0
220
0.0
230
1.0
  2
_USER
 70
     0
 71
     1
 91
        2
 92
        1
 93
        6
 72
     1
 10
-211.0099595866933
 20
-248.3587720596494
 11
-211.7687271744736
 21
-248.3587720596494
 72
     1
 10
-211.7687271744736
 20
-248.3587720596494
 11
-211.7687271744736
 21
-249.3018503007932
 72
     1
 10
-211.7687271744736
 20
-249.3018503007932
 11
-213.0092315847277
 21
-249.3018503007932
 72
     1
 10
-213.0092315847277
 20
-249.3018503007932
 11
-213.0092315847277
 21
-246.248040776982
 72
     1
 10
-213.0092315847277
 20
-246.248040776982
 11
-211.0099595866933
 21
-246.248040776982
 72
     2
 10
-211.0099595866933
 20
-247.3034064183157
 40
1.055365641333708
 50
270.0
 51
450.0
 73
     0
 97
        6
330
1C4
330
1C3
330
1D0
330
1CF
330
1C5
330
215
 92
       16
 93
        4
 72
     2
 10
-211.4514321129317
 20
-247.2640104470932
 40
0.3528638246710898
 50
270.0
 51
450.0
 73
     1
 72
     1
 10
-211.4514321129317
 20
-246.9111466224221
 11
-211.7687271744736
 21
-246.9111466224221
 72
     1
 10
-211.7687271744736
 20
-246.9111466224221
 11
-211.7687271744736
 21
-247.6168742717643
 72
     1
 10
-211.7687271744736
 20
-247.6168742717643
 11
-211.4514321129317
 21
-247.6168742717643
 97
        4
330
229
330
1C1
330
1D1
330
1C2
 75
     1
 76
     0
 52
45.0
 41
0.1
 77
     0
 78
     1
 53
45.0
 43
0.0
 44
0.0
 45
-0.0707106781186548
 46
0.0707106781186548
 79
     0
 98
        1
 10
0.0
 20
0.0
  0
HATCH
  5
277
330
74
100
AcDbEntity
  8
1
  6
Continuous
 62
     2
100
AcDbHatch
 10
0.0
 20
0.0
 30
0.0
210
0.0
220
0.0
230
1.0
  2
_USER
 70
     0
 71
     1
 91
        2
 92
        1
 93
        6
 72
     1
 10
-211.0099595866933
 20
-248.3587720596494
 11
-211.7687271744736
 21
-248.3587720596494
 72
     1
 10
-211.7687271744736
 20
-248.3587720596494
 11
-211.7687271744736
 21
-249.3018503007932
 72
     1
 10
-211.7687271744736
 20
-249.3018503007932
 11
-213.0092315847277
 21
-249.3018503007932
 72
     1
 10
-213.0092315847277
 20
-249.3018503007932
 11
-213.0092315847277
 21
-246.248040776982
 72
     1
 10
-213.0092315847277
 20
-246.248040776982
 11
-211.0099595866933
 21
-246.248040776982
 72
     2
 10
-211.0099595866933
 20
-247.3034064183157
 40
1.055365641333708
 50
270.0
 51
450.0
 73
     0
 97
        6
330
1C4
330
1C3
330
1D0
330
1CF
330
1C5
330
215
 92
       16
 93
        4
 72
     2
 10
-211.4514321129317
 20
-247.2640104470932
 40
0.3528638246710898
 50
270.0
 51
450.0
 73
     1
 72
     1
 10
-211.4514321129317
 20
-246.9111466224221
 11
-211.7687271744736
 21
-246.9111466224221
 72
     1
 10
-211.7687271744736
 20
-246.9111466224221
 11
-211.7687271744736
 21
-247.6168742717643
 72
     1
 10
-211.7687271744736
 20
-247.6168742717643
 11
-211.4514321129317
 21
-247.6168742717643
 97
        4
330
229
330
1C1
330
1D1
330
1C2
 75
     1
 76
     0
 52
45.0
 41
0.1
 77
     0
 78
     1
 53
45.0
 43
0.0
 44
0.0
 45
-0.0707106781186548
 46
0.0707106781186548
 79
     0
 98
        1
 10
0.0
 20
0.0
  0
HATCH
  5
278
330
74
100
AcDbEntity
  8
1
  6
Continuous
 62
     2
100
AcDbHatch
 10
0.0
 20
0.0
 30
0.0
210
0.0
220
0.0
230
1.0
  2
_USER
 70
     0
 71
     1
 91
        2
 92
        1
 93
        4
 72
     2
 10
-208.4534168383342
 20
-251.672711025365
 40
2.065479772208568
 50
62.45185182430637
 51
117.5481481756671
 73
     1
 72
     2
 10
-208.7343567301675
 20
-251.1341360150622
 40
1.458034083651503
 50
117.5481481756634
 51
242.4518518243366
 73
     1
 72
     2
 10
-208.4534168383342
 20
-250.5955610047589
 40
2.065479772208522
 50
242.4518518243395
 51
297.5481481756871
 73
     1
 72
     2
 10
-208.1724769465009
 20
-251.1341360150622
 40
1.458034083652003
 50
297.548148175701
 51
422.451851824299
 73
     1
 97
        4
330
221
330
220
330
222
330
21F
 92
       16
 93
        4
 72
     2
 10
-208.6531568746806
 20
-251.1341360150622
 40
0.7717997786796724
 50
321.8795802028404
 51
398.1204197971563
 73
     1
 72
     2
 10
-208.4534168383342
 20
-250.9774048369417
 40
0.517908573013295
 50
38.12041979715146
 51
141.8795802028583
 73
     1
 72
     2
 10
-208.2536768019881
 20
-251.1341360150622
 40
0.7717997786795031
 50
141.879580202836
 51
218.1204197971674
 73
     1
 72
     2
 10
-208.4534168383342
 20
-251.2908671931822
 40
0.5179085730137577
 50
218.1204197971912
 51
321.879580202799
 73
     1
 97
        4
330
23D
330
23A
330
23B
330
23C
 75
     1
 76
     0
 52
45.0
 41
0.1
 77
     0
 78
     1
 53
45.0
 43
0.0
 44
0.0
 45
-0.0707106781186548
 46
0.0707106781186548
 79
     0
 98
        1
 10
0.0
 20
0.0
  0
HATCH
  5
279
330
74
100
AcDbEntity
  8
1
  6
Continuous
 62
     2
100
AcDbHatch
 10
0.0
 20
0.0
 30
0.0
210
0.0
220
0.0
230
1.0
  2
_USER
 70
     0
 71
     1
 91
        2
 92
        1
 93
        4
 72
     2
 10
-208.4534168383342
 20
-251.672711025365
 40
2.065479772208568
 50
62.45185182430637
 51
117.5481481756671
 73
     1
 72
     2
 10
-208.7343567301675
 20
-251.1341360150622
 40
1.458034083651503
 50
117.5481481756634
 51
242.4518518243366
 73
     1
 72
     2
 10
-208.4534168383342
 20
-250.5955610047589
 40
2.065479772208522
 50
242.4518518243395
 51
297.5481481756871
 73
     1
 72
     2
 10
-208.1724769465009
 20
-251.1341360150622
 40
1.458034083652003
 50
297.548148175701
 51
422.451851824299
 73
     1
 97
        4
330
221
330
220
330
222
330
21F
 92
       16
 93
        4
 72
     2
 10
-208.6531568746806
 20
-251.1341360150622
 40
0.7717997786796724
 50
321.8795802028404
 51
398.1204197971563
 73
     1
 72
     2
 10
-208.4534168383342
 20
-250.9774048369417
 40
0.517908573013295
 50
38.12041979715146
 51
141.8795802028583
 73
     1
 72
     2
 10
-208.2536768019881
 20
-251.1341360150622
 40
0.7717997786795031
 50
141.879580202836
 51
218.1204197971674
 73
     1
 72
     2
 10
-208.4534168383342
 20
-251.2908671931822
 40
0.5179085730137577
 50
218.1204197971912
 51
321.879580202799
 73
     1
 97
        4
330
23D
330
23A
330
23B
330
23C
 75
     1
 76
     0
 52
45.0
 41
0.1
 77
     0
 78
     1
 53
45.0
 43
0.0
 44
0.0
 45
-0.0707106781186548
 46
0.0707106781186548
 79
     0
 98
        1
 10
0.0
 20
0.0
  0
HATCH
  5
27A
330
74
100
AcDbEntity
  8
1
  6
Continuous
 62
     2
100
AcDbHatch
 10
0.0
 20
0.0
 30
0.0
210
0.0
220
0.0
230
1.0
  2
_USER
 70
     0
 71
     1
 91
        2
 92
        1
 93
       12
 72
     1
 10
-201.5584216439249
 20
-246.946054382425
 11
-202.8943494703526
 21
-246.946054382425
 72
     1
 10
-202.8943494703526
 20
-246.946054382425
 11
-202.8943494703526
 21
-247.4259387361667
 72
     1
 10
-202.8943494703526
 20
-247.4259387361667
 11
-201.5584216439249
 21
-247.4259387361667
 72
     1
 10
-201.5584216439249
 20
-247.4259387361667
 11
-201.5584216439249
 21
-248.123952341609
 72
     1
 10
-201.5584216439249
 20
-248.123952341609
 11
-202.8943494703526
 21
-248.123952341609
 72
     1
 10
-202.8943494703526
 20
-248.123952341609
 11
-202.8943494703526
 21
-248.6038366953507
 72
     1
 10
-202.8943494703526
 20
-248.6038366953507
 11
-201.5584216439249
 21
-248.6038366953507
 72
     1
 10
-201.5584216439249
 20
-248.6038366953507
 11
-201.5584216439249
 21
-249.3018503007932
 72
     1
 10
-201.5584216439249
 20
-249.3018503007932
 11
-204.7087413677059
 21
-249.3018503007932
 72
     2
 10
-204.7087413677059
 20
-247.7749455388879
 40
1.526904761905882
 50
90.0
 51
270.0
 73
     0
 72
     1
 10
-204.7087413677059
 20
-246.248040776982
 11
-201.5584216439249
 21
-246.248040776982
 72
     1
 10
-201.5584216439249
 20
-246.248040776982
 11
-201.5584216439249
 21
-246.946054382425
 97
       12
330
1D8
330
22A
330
1D9
330
1DA
330
1DB
330
1DC
330
1B9
330
1B8
330
1B7
330
1B6
330
1DD
330
1D7
 92
       16
 93
        4
 72
     2
 10
-204.4924693575407
 20
-247.6182143607674
 40
0.5179085730135266
 50
38.12041979714334
 51
141.8795802028489
 73
     1
 72
     2
 10
-204.2927293211944
 20
-247.7749455388879
 40
0.7717997786796724
 50
141.8795802028404
 51
218.1204197971562
 73
     1
 72
     2
 10
-204.4924693575407
 20
-247.9316767170083
 40
0.5179085730134546
 50
218.1204197971536
 51
321.8795802028542
 73
     1
 72
     2
 10
-204.6922093938869
 20
-247.7749455388879
 40
0.7717997786796597
 50
321.879580202845
 51
398.1204197971583
 73
     1
 97
        4
330
224
330
223
330
21E
330
21D
 75
     1
 76
     0
 52
45.0
 41
0.1
 77
     0
 78
     1
 53
45.0
 43
0.0
 44
0.0
 45
-0.0707106781186548
 46
0.0707106781186548
 79
     0
 98
        1
 10
0.0
 20
0.0
  0
HATCH
  5
27B
330
74
100
AcDbEntity
  8
1
  6
Continuous
 62
     2
100
AcDbHatch
 10
0.0
 20
0.0
 30
0.0
210
0.0
220
0.0
230
1.0
  2
_USER
 70
     0
 71
     1
 91
        2
 92
        1
 93
       12
 72
     1
 10
-201.5584216439249
 20
-246.946054382425
 11
-202.8943494703526
 21
-246.946054382425
 72
     1
 10
-202.8943494703526
 20
-246.946054382425
 11
-202.8943494703526
 21
-247.4259387361667
 72
     1
 10
-202.8943494703526
 20
-247.4259387361667
 11
-201.5584216439249
 21
-247.4259387361667
 72
     1
 10
-201.5584216439249
 20
-247.4259387361667
 11
-201.5584216439249
 21
-248.123952341609
 72
     1
 10
-201.5584216439249
 20
-248.123952341609
 11
-202.8943494703526
 21
-248.123952341609
 72
     1
 10
-202.8943494703526
 20
-248.123952341609
 11
-202.8943494703526
 21
-248.6038366953507
 72
     1
 10
-202.8943494703526
 20
-248.6038366953507
 11
-201.5584216439249
 21
-248.6038366953507
 72
     1
 10
-201.5584216439249
 20
-248.6038366953507
 11
-201.5584216439249
 21
-249.3018503007932
 72
     1
 10
-201.5584216439249
 20
-249.3018503007932
 11
-204.7087413677059
 21
-249.3018503007932
 72
     2
 10
-204.7087413677059
 20
-247.7749455388879
 40
1.526904761905882
 50
90.0
 51
270.0
 73
     0
 72
     1
 10
-204.7087413677059
 20
-246.248040776982
 11
-201.5584216439249
 21
-246.248040776982
 72
     1
 10
-201.5584216439249
 20
-246.248040776982
 11
-201.5584216439249
 21
-246.946054382425
 97
       12
330
1D8
330
22A
330
1D9
330
1DA
330
1DB
330
1DC
330
1B9
330
1B8
330
1B7
330
1B6
330
1DD
330
1D7
 92
       16
 93
        4
 72
     2
 10
-204.4924693575407
 20
-247.6182143607674
 40
0.5179085730135266
 50
38.12041979714334
 51
141.8795802028489
 73
     1
 72
     2
 10
-204.2927293211944
 20
-247.7749455388879
 40
0.7717997786796724
 50
141.8795802028404
 51
218.1204197971562
 73
     1
 72
     2
 10
-204.4924693575407
 20
-247.9316767170083
 40
0.5179085730134546
 50
218.1204197971536
 51
321.8795802028542
 73
     1
 72
     2
 10
-204.6922093938869
 20
-247.7749455388879
 40
0.7717997786796597
 50
321.879580202845
 51
398.1204197971583
 73
     1
 97
        4
330
224
330
223
330
21E
330
21D
 75
     1
 76
     0
 52
45.0
 41
0.1
 77
     0
 78
     1
 53
45.0
 43
0.0
 44
0.0
 45
-0.0707106781186548
 46
0.0707106781186548
 79
     0
 98
        1
 10
0.0
 20
0.0
  0
HATCH
  5
27C
330
74
100
AcDbEntity
  8
1
  6
Continuous
 62
     2
100
AcDbHatch
 10
0.0
 20
0.0
 30
0.0
210
0.0
220
0.0
230
1.0
  2
_USER
 70
     0
 71
     1
 91
        4
 92
        1
 93
        8
 72
     1
 10
-213.4863486655945
 20
-246.672285392384
 11
-213.4863486655945
 21
-252.2367961615842
 72
     2
 10
-213.9105932809784
 20
-252.2367961615842
 40
0.4242446153832873
 50
0.0
 51
90.0
 73
     0
 72
     1
 10
-213.9105932809784
 20
-252.6610407769675
 11
-219.3839053716952
 21
-252.6610407769675
 72
     2
 10
-219.3839053716952
 20
-252.2367961615842
 40
0.4242446153828041
 50
90.0
 51
180.0
 73
     0
 72
     1
 10
-219.808149987078
 20
-252.2367961615842
 11
-219.808149987078
 21
-246.672285392384
 72
     2
 10
-219.3839053716952
 20
-246.672285392384
 40
0.4242446153837989
 50
180.0
 51
270.0
 73
     0
 72
     1
 10
-219.3839053716952
 20
-246.2480407770002
 11
-213.9105932809784
 21
-246.2480407770002
 72
     2
 10
-213.9105932809784
 20
-246.672285392384
 40
0.4242446153838841
 50
270.0
 51
360.0
 73
     0
 97
        8
330
1CC
330
21A
330
1CD
330
225
330
1CA
330
21C
330
1CB
330
21B
 92
       16
 93
        1
 72
     2
 10
-216.7643197211777
 20
-248.9911676207395
 40
0.4709789327785074
 50
0.0
 51
360.0
 73
     1
 97
        1
330
240
 92
       16
 93
        8
 72
     2
 10
-216.214462008417
 20
-250.1003092207079
 40
0.3157169230765328
 50
115.3740086783519
 51
180.0
 73
     1
 72
     1
 10
-216.5301789314938
 20
-250.1003092207079
 11
-216.5301789314938
 21
-250.682160627403
 72
     2
 10
-216.214462008417
 20
-250.682160627403
 40
0.315716923076792
 50
180.0
 51
269.8110329574541
 73
     1
 72
     2
 10
-216.208845873107
 20
-248.979325679834
 40
2.018561131933237
 50
269.8110329575866
 51
450.1889670424133
 73
     1
 72
     2
 10
-216.214462008417
 20
-247.2764907322649
 40
0.3157169230760711
 50
90.18896704254594
 51
180.0
 73
     1
 72
     1
 10
-216.5301789314938
 20
-247.2764907322649
 11
-216.5301789314938
 21
-247.8820260207717
 72
     2
 10
-216.214462008417
 20
-247.8820260207717
 40
0.315716923076792
 50
180.0
 51
244.6259913216482
 73
     1
 72
     2
 10
-216.7405047065049
 20
-248.9911676207395
 40
0.9118481501444712
 50
295.3740086781942
 51
424.6259913218219
 73
     0
 97
        8
330
232
330
193
330
22F
330
230
330
20E
330
192
330
231
330
20D
 92
       16
 93
       12
 72
     2
 10
-218.7900106949487
 20
-251.6327682983339
 40
0.3157169230756836
 50
180.0
 51
270.0
 73
     1
 72
     1
 10
-218.7900106949487
 20
-251.9484852214106
 11
-217.3141774339391
 21
-251.9484852214106
 72
     2
 10
-217.3141774339391
 20
-251.6327682983339
 40
0.3157169230767067
 50
270.0
 51
360.0
 73
     1
 72
     1
 10
-216.9984605108625
 20
-251.6327682983339
 11
-216.9984605108625
 21
-250.1019973668023
 72
     2
 10
-217.3141774339391
 20
-250.1019973668023
 40
0.3157169230766215
 50
0.0
 51
64.80558935146249
 73
     1
 72
     2
 10
-216.7915929863641
 20
-248.9911676207395
 40
0.9118975235576268
 50
115.1944106485146
 51
244.8055893514702
 73
     0
 72
     2
 10
-217.3141774339391
 20
-247.8803378746773
 40
0.3157169230761203
 50
295.1944106485397
 51
360.0
 73
     1
 72
     1
 10
-216.9984605108625
 20
-247.8803378746773
 11
-216.9984605108625
 21
-247.2763132556168
 72
     2
 10
-217.3141774339391
 20
-247.2763132556168
 40
0.3157169230766215
 50
0.0
 51
90.0
 73
     1
 72
     1
 10
-217.3141774339391
 20
-246.9605963325406
 11
-218.7900106949487
 21
-246.9605963325406
 72
     2
 10
-218.7900106949487
 20
-247.2763132556168
 40
0.3157169230761951
 50
90.0
 51
180.0
 73
     1
 72
     1
 10
-219.1057276180244
 20
-247.2763132556168
 11
-219.1057276180244
 21
-251.6327682983339
 97
       12
330
216
330
1CE
330
219
330
1C9
330
226
330
227
330
218
330
1C8
330
217
330
1C7
330
228
330
1C6
 75
     1
 76
     0
 52
45.0
 41
0.1
 77
     0
 78
     1
 53
45.0
 43
0.0
 44
0.0
 45
-0.0707106781186548
 46
0.0707106781186548
 79
     0
 98
        1
 10
0.0
 20
0.0
  0
HATCH
  5
27D
330
74
100
AcDbEntity
  8
1
  6
Continuous
 62
     2
100
AcDbHatch
 10
0.0
 20
0.0
 30
0.0
210
0.0
220
0.0
230
1.0
  2
_USER
 70
     0
 71
     1
 91
        4
 92
        1
 93
        8
 72
     1
 10
-213.4863486655945
 20
-246.672285392384
 11
-213.4863486655945
 21
-252.2367961615842
 72
     2
 10
-213.9105932809784
 20
-252.2367961615842
 40
0.4242446153832873
 50
0.0
 51
90.0
 73
     0
 72
     1
 10
-213.9105932809784
 20
-252.6610407769675
 11
-219.3839053716952
 21
-252.6610407769675
 72
     2
 10
-219.3839053716952
 20
-252.2367961615842
 40
0.4242446153828041
 50
90.0
 51
180.0
 73
     0
 72
     1
 10
-219.808149987078
 20
-252.2367961615842
 11
-219.808149987078
 21
-246.672285392384
 72
     2
 10
-219.3839053716952
 20
-246.672285392384
 40
0.4242446153837989
 50
180.0
 51
270.0
 73
     0
 72
     1
 10
-219.3839053716952
 20
-246.2480407770002
 11
-213.9105932809784
 21
-246.2480407770002
 72
     2
 10
-213.9105932809784
 20
-246.672285392384
 40
0.4242446153838841
 50
270.0
 51
360.0
 73
     0
 97
        8
330
1CC
330
21A
330
1CD
330
225
330
1CA
330
21C
330
1CB
330
21B
 92
       16
 93
        1
 72
     2
 10
-216.7643197211777
 20
-248.9911676207395
 40
0.4709789327785074
 50
0.0
 51
360.0
 73
     1
 97
        1
330
240
 92
       16
 93
        8
 72
     2
 10
-216.214462008417
 20
-250.1003092207079
 40
0.3157169230765328
 50
115.3740086783519
 51
180.0
 73
     1
 72
     1
 10
-216.5301789314938
 20
-250.1003092207079
 11
-216.5301789314938
 21
-250.682160627403
 72
     2
 10
-216.214462008417
 20
-250.682160627403
 40
0.315716923076792
 50
180.0
 51
269.8110329574541
 73
     1
 72
     2
 10
-216.208845873107
 20
-248.979325679834
 40
2.018561131933237
 50
269.8110329575866
 51
450.1889670424133
 73
     1
 72
     2
 10
-216.214462008417
 20
-247.2764907322649
 40
0.3157169230760711
 50
90.18896704254594
 51
180.0
 73
     1
 72
     1
 10
-216.5301789314938
 20
-247.2764907322649
 11
-216.5301789314938
 21
-247.8820260207717
 72
     2
 10
-216.214462008417
 20
-247.8820260207717
 40
0.315716923076792
 50
180.0
 51
244.6259913216482
 73
     1
 72
     2
 10
-216.7405047065049
 20
-248.9911676207395
 40
0.9118481501444712
 50
295.3740086781942
 51
424.6259913218219
 73
     0
 97
        8
330
232
330
193
330
22F
330
230
330
20E
330
192
330
231
330
20D
 92
       16
 93
       12
 72
     2
 10
-218.7900106949487
 20
-251.6327682983339
 40
0.3157169230756836
 50
180.0
 51
270.0
 73
     1
 72
     1
 10
-218.7900106949487
 20
-251.9484852214106
 11
-217.3141774339391
 21
-251.9484852214106
 72
     2
 10
-217.3141774339391
 20
-251.6327682983339
 40
0.3157169230767067
 50
270.0
 51
360.0
 73
     1
 72
     1
 10
-216.9984605108625
 20
-251.6327682983339
 11
-216.9984605108625
 21
-250.1019973668023
 72
     2
 10
-217.3141774339391
 20
-250.1019973668023
 40
0.3157169230766215
 50
0.0
 51
64.80558935146249
 73
     1
 72
     2
 10
-216.7915929863641
 20
-248.9911676207395
 40
0.9118975235576268
 50
115.1944106485146
 51
244.8055893514702
 73
     0
 72
     2
 10
-217.3141774339391
 20
-247.8803378746773
 40
0.3157169230761203
 50
295.1944106485397
 51
360.0
 73
     1
 72
     1
 10
-216.9984605108625
 20
-247.8803378746773
 11
-216.9984605108625
 21
-247.2763132556168
 72
     2
 10
-217.3141774339391
 20
-247.2763132556168
 40
0.3157169230766215
 50
0.0
 51
90.0
 73
     1
 72
     1
 10
-217.3141774339391
 20
-246.9605963325406
 11
-218.7900106949487
 21
-246.9605963325406
 72
     2
 10
-218.7900106949487
 20
-247.2763132556168
 40
0.3157169230761951
 50
90.0
 51
180.0
 73
     1
 72
     1
 10
-219.1057276180244
 20
-247.2763132556168
 11
-219.1057276180244
 21
-251.6327682983339
 97
       12
330
216
330
1CE
330
219
330
1C9
330
226
330
227
330
218
330
1C8
330
217
330
1C7
330
228
330
1C6
 75
     1
 76
     0
 52
45.0
 41
0.1
 77
     0
 78
     1
 53
45.0
 43
0.0
 44
0.0
 45
-0.0707106781186548
 46
0.0707106781186548
 79
     0
 98
        1
 10
0.0
 20
0.0
  0
HATCH
  5
27E
330
74
100
AcDbEntity
  8
1
  6
Continuous
 62
     2
100
AcDbHatch
 10
0.0
 20
0.0
 30
0.0
210
0.0
220
0.0
230
1.0
  2
_USER
 70
     0
 71
     1
 91
        1
 92
        1
 93
       18
 72
     1
 10
-191.8968007563735
 20
-250.39249655928
 11
-192.7078997938469
 21
-250.39249655928
 72
     1
 10
-192.7078997938469
 20
-250.39249655928
 11
-192.7078997938469
 21
-252.6610407769675
 72
     1
 10
-192.7078997938469
 20
-252.6610407769675
 11
-193.9006924960146
 21
-252.6610407769675
 72
     1
 10
-193.9006924960146
 20
-252.6610407769675
 11
-193.9006924960146
 21
-250.39249655928
 72
     1
 10
-193.9006924960146
 20
-250.39249655928
 11
-195.0043317955827
 21
-250.39249655928
 72
     2
 10
-195.0043317955827
 20
-251.3470195661061
 40
0.9545230068260935
 50
90.0
 51
109.3371432194314
 73
     1
 72
     2
 10
-195.1510017936864
 20
-250.9290645857232
 40
0.5115800601944411
 50
109.3371432194842
 51
151.4785267424225
 73
     1
 72
     2
 10
-194.773644535605
 20
-251.1341360150622
 40
0.9410597353348924
 50
151.4785267423624
 51
208.5214732576695
 73
     1
 72
     2
 10
-195.1510017936864
 20
-251.3392074444007
 40
0.5115800601960215
 50
208.5214732576866
 51
246.6277221118449
 73
     1
 72
     2
 10
-194.9945617609833
 20
-250.9772154256907
 40
0.9059297849852801
 50
246.6277221118183
 51
288.4480761180817
 73
     1
 72
     2
 10
-195.4127294946452
 20
-249.7236696496541
 40
2.227384008972746
 50
288.4480761181335
 51
301.9309089499391
 73
     1
 72
     1
 10
-194.2346744526213
 20
-251.6140203688039
 11
-194.2346744526213
 21
-252.4865373756072
 72
     2
 10
-195.570602369738
 20
-247.8214550698058
 40
4.852596863498822
 50
74.02000874166164
 51
84.84185523036402
 73
     0
 72
     2
 10
-195.2817462750022
 20
-251.0213456530274
 40
1.639695123940421
 50
84.8418552303238
 51
164.9381082228985
 73
     0
 72
     2
 10
-195.7008741184638
 20
-251.1341360150622
 40
1.205656168393002
 50
164.9381082229041
 51
195.0618917770972
 73
     0
 72
     2
 10
-195.2817462750022
 20
-251.2469263770971
 40
1.639695123940214
 50
195.0618917771053
 51
270.0
 73
     0
 72
     1
 10
-195.2817462750022
 20
-249.6072312531569
 11
-191.8968007563735
 21
-249.6072312531564
 72
     1
 10
-191.8968007563735
 20
-249.6072312531564
 11
-191.8968007563735
 21
-250.39249655928
 97
       18
330
195
330
22B
330
22C
330
214
330
213
330
1F9
330
212
330
211
330
22D
330
210
330
22E
330
20F
330
1FA
330
194
330
199
330
198
330
197
330
196
 75
     1
 76
     0
 52
45.0
 41
0.1
 77
     0
 78
     1
 53
45.0
 43
0.0
 44
0.0
 45
-0.0707106781186548
 46
0.0707106781186548
 79
     0
 98
        1
 10
0.0
 20
0.0
  0
HATCH
  5
27F
330
74
100
AcDbEntity
  8
1
  6
Continuous
 62
     2
100
AcDbHatch
 10
0.0
 20
0.0
 30
0.0
210
0.0
220
0.0
230
1.0
  2
_USER
 70
     0
 71
     1
 91
        1
 92
        1
 93
       18
 72
     1
 10
-191.8968007563735
 20
-250.39249655928
 11
-192.7078997938469
 21
-250.39249655928
 72
     1
 10
-192.7078997938469
 20
-250.39249655928
 11
-192.7078997938469
 21
-252.6610407769675
 72
     1
 10
-192.7078997938469
 20
-252.6610407769675
 11
-193.9006924960146
 21
-252.6610407769675
 72
     1
 10
-193.9006924960146
 20
-252.6610407769675
 11
-193.9006924960146
 21
-250.39249655928
 72
     1
 10
-193.9006924960146
 20
-250.39249655928
 11
-195.0043317955827
 21
-250.39249655928
 72
     2
 10
-195.0043317955827
 20
-251.3470195661061
 40
0.9545230068260935
 50
90.0
 51
109.3371432194314
 73
     1
 72
     2
 10
-195.1510017936864
 20
-250.9290645857232
 40
0.5115800601944411
 50
109.3371432194842
 51
151.4785267424225
 73
     1
 72
     2
 10
-194.773644535605
 20
-251.1341360150622
 40
0.9410597353348924
 50
151.4785267423624
 51
208.5214732576695
 73
     1
 72
     2
 10
-195.1510017936864
 20
-251.3392074444007
 40
0.5115800601960215
 50
208.5214732576866
 51
246.6277221118449
 73
     1
 72
     2
 10
-194.9945617609833
 20
-250.9772154256907
 40
0.9059297849852801
 50
246.6277221118183
 51
288.4480761180817
 73
     1
 72
     2
 10
-195.4127294946452
 20
-249.7236696496541
 40
2.227384008972746
 50
288.4480761181335
 51
301.9309089499391
 73
     1
 72
     1
 10
-194.2346744526213
 20
-251.6140203688039
 11
-194.2346744526213
 21
-252.4865373756072
 72
     2
 10
-195.570602369738
 20
-247.8214550698058
 40
4.852596863498822
 50
74.02000874166164
 51
84.84185523036402
 73
     0
 72
     2
 10
-195.2817462750022
 20
-251.0213456530274
 40
1.639695123940421
 50
84.8418552303238
 51
164.9381082228985
 73
     0
 72
     2
 10
-195.7008741184638
 20
-251.1341360150622
 40
1.205656168393002
 50
164.9381082229041
 51
195.0618917770972
 73
     0
 72
     2
 10
-195.2817462750022
 20
-251.2469263770971
 40
1.639695123940214
 50
195.0618917771053
 51
270.0
 73
     0
 72
     1
 10
-195.2817462750022
 20
-249.6072312531569
 11
-191.8968007563735
 21
-249.6072312531564
 72
     1
 10
-191.8968007563735
 20
-249.6072312531564
 11
-191.8968007563735
 21
-250.39249655928
 97
       18
330
195
330
22B
330
22C
330
214
330
213
330
1F9
330
212
330
211
330
22D
330
210
330
22E
330
20F
330
1FA
330
194
330
199
330
198
330
197
330
196
 75
     1
 76
     0
 52
45.0
 41
0.1
 77
     0
 78
     1
 53
45.0
 43
0.0
 44
0.0
 45
-0.0707106781186548
 46
0.0707106781186548
 79
     0
 98
        1
 10
0.0
 20
0.0
  0
HATCH
  5
280
330
74
100
AcDbEntity
  8
1
  6
Continuous
 62
     2
100
AcDbHatch
 10
0.0
 20
0.0
 30
0.0
210
0.0
220
0.0
230
1.0
  2
_USER
 70
     0
 71
     1
 91
        1
 92
        1
 93
       14
 72
     2
 10
-211.3844477542551
 20
-251.2469263770971
 40
1.639695123940507
 50
84.84185523036236
 51
164.9381082228867
 73
     1
 72
     2
 10
-211.8035755977179
 20
-251.1341360150622
 40
1.205656168390971
 50
164.9381082228768
 51
195.0618917770945
 73
     1
 72
     2
 10
-211.3844477542551
 20
-251.0213456530274
 40
1.639695123939415
 50
195.0618917770893
 51
275.1581447696395
 73
     1
 72
     2
 10
-211.673303848991
 20
-247.8214550698058
 40
4.852596863498138
 50
275.1581447696249
 51
285.979991258353
 73
     1
 72
     1
 10
-210.3373759318732
 20
-252.4865373756066
 11
-210.3373759318732
 21
-251.6140203688034
 72
     2
 10
-211.5154309738981
 20
-249.7236696496535
 40
2.227384008972773
 50
58.06909105004051
 51
71.55192388186677
 73
     0
 72
     2
 10
-211.0972632402373
 20
-250.9772154256907
 40
0.9059297849849192
 50
71.55192388183985
 51
113.372277888129
 73
     0
 72
     2
 10
-211.2537032729393
 20
-251.3392074444007
 40
0.5115800601948034
 50
113.3722778881755
 51
151.4785267423044
 73
     0
 72
     2
 10
-210.876346014859
 20
-251.1341360150622
 40
0.9410597353332545
 50
151.4785267422943
 51
208.5214732577331
 73
     0
 72
     2
 10
-211.2537032729393
 20
-250.9290645857232
 40
0.5115800601948891
 50
208.5214732576956
 51
246.627722111798
 73
     0
 72
     2
 10
-211.0972632402373
 20
-251.2910566044338
 40
0.9059297849853588
 50
246.627722111871
 51
288.4480761181476
 73
     0
 72
     2
 10
-211.5154309738981
 20
-252.5446023804704
 40
2.227384008973492
 50
288.4480761181333
 51
301.9309089499599
 73
     0
 72
     1
 10
-210.3373759318732
 20
-250.6542516613205
 11
-210.3373759318732
 21
-249.7817346545172
 72
     2
 10
-211.673303848991
 20
-254.4468169603181
 40
4.852596863498068
 50
74.02000874164739
 51
84.84185523037506
 73
     1
 97
       14
330
233
330
234
330
235
330
236
330
1FB
330
20C
330
20B
330
20A
330
237
330
238
330
209
330
239
330
1FC
330
208
 75
     1
 76
     0
 52
45.0
 41
0.1
 77
     0
 78
     1
 53
45.0
 43
0.0
 44
0.0
 45
-0.0707106781186548
 46
0.0707106781186548
 79
     0
 98
        1
 10
0.0
 20
0.0
  0
HATCH
  5
281
330
74
100
AcDbEntity
  8
1
  6
Continuous
 62
     2
100
AcDbHatch
 10
0.0
 20
0.0
 30
0.0
210
0.0
220
0.0
230
1.0
  2
_USER
 70
     0
 71
     1
 91
        1
 92
        1
 93
       14
 72
     2
 10
-211.3844477542551
 20
-251.2469263770971
 40
1.639695123940507
 50
84.84185523036236
 51
164.9381082228867
 73
     1
 72
     2
 10
-211.8035755977179
 20
-251.1341360150622
 40
1.205656168390971
 50
164.9381082228768
 51
195.0618917770945
 73
     1
 72
     2
 10
-211.3844477542551
 20
-251.0213456530274
 40
1.639695123939415
 50
195.0618917770893
 51
275.1581447696395
 73
     1
 72
     2
 10
-211.673303848991
 20
-247.8214550698058
 40
4.852596863498138
 50
275.1581447696249
 51
285.979991258353
 73
     1
 72
     1
 10
-210.3373759318732
 20
-252.4865373756066
 11
-210.3373759318732
 21
-251.6140203688034
 72
     2
 10
-211.5154309738981
 20
-249.7236696496535
 40
2.227384008972773
 50
58.06909105004051
 51
71.55192388186677
 73
     0
 72
     2
 10
-211.0972632402373
 20
-250.9772154256907
 40
0.9059297849849192
 50
71.55192388183985
 51
113.372277888129
 73
     0
 72
     2
 10
-211.2537032729393
 20
-251.3392074444007
 40
0.5115800601948034
 50
113.3722778881755
 51
151.4785267423044
 73
     0
 72
     2
 10
-210.876346014859
 20
-251.1341360150622
 40
0.9410597353332545
 50
151.4785267422943
 51
208.5214732577331
 73
     0
 72
     2
 10
-211.2537032729393
 20
-250.9290645857232
 40
0.5115800601948891
 50
208.5214732576956
 51
246.627722111798
 73
     0
 72
     2
 10
-211.0972632402373
 20
-251.2910566044338
 40
0.9059297849853588
 50
246.627722111871
 51
288.4480761181476
 73
     0
 72
     2
 10
-211.5154309738981
 20
-252.5446023804704
 40
2.227384008973492
 50
288.4480761181333
 51
301.9309089499599
 73
     0
 72
     1
 10
-210.3373759318732
 20
-250.6542516613205
 11
-210.3373759318732
 21
-249.7817346545172
 72
     2
 10
-211.673303848991
 20
-254.4468169603181
 40
4.852596863498068
 50
74.02000874164739
 51
84.84185523037506
 73
     1
 97
       14
330
233
330
234
330
235
330
236
330
1FB
330
20C
330
20B
330
20A
330
237
330
238
330
209
330
239
330
1FC
330
208
 75
     1
 76
     0
 52
45.0
 41
0.1
 77
     0
 78
     1
 53
45.0
 43
0.0
 44
0.0
 45
-0.0707106781186548
 46
0.0707106781186548
 79
     0
 98
        1
 10
0.0
 20
0.0
  0
ENDBLK
  5
76
330
74
100
AcDbEntity
  8
0
100
AcDbBlockEnd
  0
BLOCK
  5
7A
330
77
100
AcDbEntity
  8
0
100
AcDbBlockBegin
  2
A4I_CS
 70
     0
 10
-94.50000034689056
 20
-264.9545407769839
 30
0.0
  3
A4I_CS
  1

  0
INSERT
  5
78
330
77
100
AcDbEntity
  8
1
100
AcDbBlockReference
  2
_punkt
 10
-94.50000034689056
 20
-259.9545407769838
 30
0.0
  0
INSERT
  5
79
330
77
100
AcDbEntity
  8
1
100
AcDbBlockReference
  2
_rahmen
 10
-94.50000034689056
 20
-264.9545407769839
 30
0.0
  0
ENDBLK
  5
7B
330
77
100
AcDbEntity
  8
0
100
AcDbBlockEnd
  0
BLOCK
  5
D5
330
CE
100
AcDbEntity
  8
0
100
AcDbBlockBegin
  2
*D16
 70
     1
 10
0.0
 20
0.0
 30
0.0
  3
*D16
  1

  0
LINE
  5
CF
330
CE
100
AcDbEntity
  8
1
  6
Continuous
 62
     2
100
AcDbLine
 10
-147.499999999995
 20
-79.73277410844946
 30
0.0
 11
-147.499999999995
 21
-94.73277410844946
 31
0.0
  0
LINE
  5
D0
330
CE
100
AcDbEntity
  8
1
  6
Continuous
 62
     2
100
AcDbLine
 10
-142.499999999995
 20
-79.73277410844946
 30
0.0
 11
-148.249999999995
 21
-79.73277410844946
 31
0.0
  0
LINE
  5
D1
330
CE
100
AcDbEntity
  8
1
  6
Continuous
 62
     2
100
AcDbLine
 10
-142.499999999995
 20
-94.73277410844946
 30
0.0
 11
-148.249999999995
 21
-94.73277410844946
 31
0.0
  0
SOLID
  5
D2
330
CE
100
AcDbEntity
  8
1
 62
     2
100
AcDbTrace
 10
-147.2696081292171
 20
-81.48277410844946
 30
0.0
 11
-147.7303918707729
 21
-81.48277410844946
 31
0.0
 12
-147.499999999995
 22
-79.73277410844946
 32
0.0
 13
-147.499999999995
 23
-79.73277410844946
 33
0.0
  0
SOLID
  5
D3
330
CE
100
AcDbEntity
  8
1
 62
     2
100
AcDbTrace
 10
-147.7303918707729
 20
-92.98277410844946
 30
0.0
 11
-147.2696081292171
 21
-92.98277410844946
 31
0.0
 12
-147.499999999995
 22
-94.73277410844946
 32
0.0
 13
-147.499999999995
 23
-94.73277410844946
 33
0.0
  0
MTEXT
  5
D4
330
CE
100
AcDbEntity
  8
1
 62
     3
100
AcDbMText
 10
-148.249999999995
 20
-88.28277410844946
 30
0.0
 40
1.75
 41
0.0
 71
     7
 72
     1
  1
15
  7
CONVERTER_11
 11
0.0
 21
1.0
 31
0.0
 73
     1
 44
0.60024009603842
  0
ENDBLK
  5
D6
330
CE
100
AcDbEntity
  8
0
100
AcDbBlockEnd
  0
BLOCK
  5
13A
330
133
100
AcDbEntity
  8
0
100
AcDbBlockBegin
  2
*D17
 70
     1
 10
0.0
 20
0.0
 30
0.0
  3
*D17
  1

  0
LINE
  5
134
330
133
100
AcDbEntity
  8
1
  6
Continuous
 62
     2
100
AcDbLine
 10
-142.499999999995
 20
-69.76016555735414
 30
0.0
 11
-130.499999999995
 21
-69.76016555735414
 31
0.0
  0
LINE
  5
135
330
133
100
AcDbEntity
  8
1
  6
Continuous
 62
     2
100
AcDbLine
 10
-142.499999999995
 20
-64.76016555735414
 30
0.0
 11
-142.499999999995
 21
-70.51016555735414
 31
0.0
  0
LINE
  5
136
330
133
100
AcDbEntity
  8
1
  6
Continuous
 62
     2
100
AcDbLine
 10
-130.499999999995
 20
-64.76016555735414
 30
0.0
 11
-130.499999999995
 21
-70.51016555735414
 31
0.0
  0
SOLID
  5
137
330
133
100
AcDbEntity
  8
1
 62
     2
100
AcDbTrace
 10
-140.749999999995
 20
-69.5297736865762
 30
0.0
 11
-140.749999999995
 21
-69.99055742813208
 31
0.0
 12
-142.499999999995
 22
-69.76016555735414
 32
0.0
 13
-142.499999999995
 23
-69.76016555735414
 33
0.0
  0
SOLID
  5
138
330
133
100
AcDbEntity
  8
1
 62
     2
100
AcDbTrace
 10
-132.249999999995
 20
-69.99055742813208
 30
0.0
 11
-132.249999999995
 21
-69.5297736865762
 31
0.0
 12
-130.499999999995
 22
-69.76016555735414
 32
0.0
 13
-130.499999999995
 23
-69.76016555735414
 33
0.0
  0
MTEXT
  5
139
330
133
100
AcDbEntity
  8
1
 62
     3
100
AcDbMText
 10
-137.549999999995
 20
-69.01016555735414
 30
0.0
 40
1.75
 41
0.0
 71
     7
 72
     1
  1
12
  7
CONVERTER_11
 11
0.9999999999970619
 21
2.424068405545306E-6
 31
0.0
 73
     1
 44
0.60024009603842
  0
ENDBLK
  5
13B
330
133
100
AcDbEntity
  8
0
100
AcDbBlockEnd
  0
BLOCK
  5
145
330
13E
100
AcDbEntity
  8
0
100
AcDbBlockBegin
  2
*D18
 70
     1
 10
0.0
 20
0.0
 30
0.0
  3
*D18
  1

  0
LINE
  5
13F
330
13E
100
AcDbEntity
  8
1
  6
Continuous
 62
     2
100
AcDbLine
 10
-147.499999999995
 20
-64.76016555735416
 30
0.0
 11
-147.499999999995
 21
-49.26016555735416
 31
0.0
  0
LINE
  5
140
330
13E
100
AcDbEntity
  8
1
  6
Continuous
 62
     2
100
AcDbLine
 10
-142.499999999995
 20
-64.76016555735416
 30
0.0
 11
-148.249999999995
 21
-64.76016555735416
 31
0.0
  0
LINE
  5
141
330
13E
100
AcDbEntity
  8
1
  6
Continuous
 62
     2
100
AcDbLine
 10
-142.499999999995
 20
-49.26016555735416
 30
0.0
 11
-148.249999999995
 21
-49.26016555735416
 31
0.0
  0
SOLID
  5
142
330
13E
100
AcDbEntity
  8
1
 62
     2
100
AcDbTrace
 10
-147.7303918707729
 20
-63.01016555735416
 30
0.0
 11
-147.2696081292171
 21
-63.01016555735416
 31
0.0
 12
-147.499999999995
 22
-64.76016555735416
 32
0.0
 13
-147.499999999995
 23
-64.76016555735416
 33
0.0
  0
SOLID
  5
143
330
13E
100
AcDbEntity
  8
1
 62
     2
100
AcDbTrace
 10
-147.2696081292171
 20
-51.01016555735416
 30
0.0
 11
-147.7303918707729
 21
-51.01016555735416
 31
0.0
 12
-147.499999999995
 22
-49.26016555735416
 32
0.0
 13
-147.499999999995
 23
-49.26016555735416
 33
0.0
  0
MTEXT
  5
144
330
13E
100
AcDbEntity
  8
1
 62
     3
100
AcDbMText
 10
-148.424999999995
 20
-59.31337412934213
 30
0.0
 40
1.75
 41
0.0
 71
     7
 72
     1
  1
15,5
  7
CONVERTER_11
 11
0.0
 21
1.0
 31
0.0
 73
     1
 44
0.60024009603842
  0
ENDBLK
  5
146
330
13E
100
AcDbEntity
  8
0
100
AcDbBlockEnd
  0
ENDSEC
  0
SECTION
  2
ENTITIES
  0
INSERT
  5
7C
330
1F
100
AcDbEntity
  8
0
100
AcDbBlockReference
  2
Allg1
 10
-140.803848
 20
-192.5
 30
0.0
 41
2.0
 42
2.0
 43
2.0
  0
INSERT
  5
7D
330
1F
100
AcDbEntity
  8
0
100
AcDbBlockReference
  2
Drfsicht1
 10
-267.0
 20
-174.465548
 30
0.0
 41
2.0
 42
2.0
 43
2.0
  0
INSERT
  5
7E
330
1F
100
AcDbEntity
  8
0
100
AcDbBlockReference
  2
Rckans1
 10
-149.0
 20
-113.9999999999999
 30
0.0
 41
2.0
 42
2.0
 43
2.0
  0
INSERT
  5
7F
330
1F
100
AcDbEntity
  8
0
100
AcDbBlockReference
  2
SA_Links1
 10
-208.0000001788148
 20
-114.0
 30
0.0
 41
2.0
 42
2.0
 43
2.0
  0
INSERT
  5
80
330
1F
100
AcDbEntity
  8
0
100
AcDbBlockReference
  2
SA_Rechts1
 10
-348.0000004768478
 20
-113.9999999999993
 30
0.0
 41
2.0
 42
2.0
 43
2.0
  0
INSERT
  5
81
330
1F
100
AcDbEntity
  8
0
100
AcDbBlockReference
  2
Vordans1
 10
-267.0
 20
-113.9999999999999
 30
0.0
 41
2.0
 42
2.0
 43
2.0
  0
INSERT
  5
82
330
1F
100
AcDbEntity
  8
0
100
AcDbBlockReference
  2
A4I_CS
 10
-94.50000034689056
 20
-264.9545407769839
 30
0.0
  0
ENDSEC
  0
SECTION
  2
OBJECTS
  0
DICTIONARY
  5
C
330
0
100
AcDbDictionary
281
     1
  3
ACAD_GROUP
350
D
  3
ACAD_LAYOUT
350
1A
  3
ACAD_MATERIAL
350
3B
  3
ACAD_MLEADERSTYLE
350
284
  3
ACAD_MLINESTYLE
350
17
  3
ACAD_PLOTSETTINGS
350
19
  3
ACAD_PLOTSTYLENAME
350
E
  3
ACAD_VISUALSTYLE
350
2A
  3
AcDbVariableDictionary
350
282
  0
DICTIONARY
  5
D
102
{ACAD_REACTORS
330
C
102
}
330
C
100
AcDbDictionary
281
     1
  0
DICTIONARY
  5
1A
102
{ACAD_REACTORS
330
C
102
}
330
C
100
AcDbDictionary
281
     1
  3
Layout1
350
1E
  3
Layout2
350
26
  3
Model
350
22
  0
DICTIONARY
  5
3B
102
{ACAD_REACTORS
330
C
102
}
330
C
100
AcDbDictionary
281
     1
  3
ByBlock
350
3D
  3
ByLayer
350
3C
  3
Global
350
3E
  0
DICTIONARY
  5
284
102
{ACAD_REACTORS
330
C
102
}
330
C
100
AcDbDictionary
281
     1
  0
DICTIONARY
  5
17
102
{ACAD_REACTORS
330
C
102
}
330
C
100
AcDbDictionary
281
     1
  3
Standard
350
18
  0
DICTIONARY
  5
19
102
{ACAD_REACTORS
330
C
102
}
330
C
100
AcDbDictionary
281
     1
  0
ACDBDICTIONARYWDFLT
  5
E
102
{ACAD_REACTORS
330
C
102
}
330
C
100
AcDbDictionary
281
     1
  3
Normal
350
F
100
AcDbDictionaryWithDefault
340
F
  0
DICTIONARY
  5
2A
102
{ACAD_REACTORS
330
C
102
}
330
C
100
AcDbDictionary
281
     1
  3
2dWireframe
350
2F
  3
3D Hidden
350
31
  3
3dWireframe
350
30
  3
Basic
350
32
  3
Brighten
350
36
  3
ColorChange
350
3A
  3
Conceptual
350
34
  3
Dim
350
35
  3
Facepattern
350
39
  3
Flat
350
2B
  3
FlatWithEdges
350
2C
  3
Gouraud
350
2D
  3
GouraudWithEdges
350
2E
  3
Linepattern
350
38
  3
Realistic
350
33
  3
Thicken
350
37
  0
DICTIONARY
  5
282
102
{ACAD_REACTORS
330
C
102
}
330
C
100
AcDbDictionary
281
     1
  3
DIMASSOC
350
285
  3
HIDETEXT
350
286
  0
LAYOUT
  5
1E
102
{ACAD_REACTORS
330
1A
102
}
330
1A
100
AcDbPlotSettings
  1

  2
none_device
  4

  6

 40
0.0
 41
0.0
 42
0.0
 43
0.0
 44
0.0
 45
0.0
 46
0.0
 47
0.0
 48
0.0
 49
0.0
140
0.0
141
0.0
142
1.0
143
1.0
 70
   688
 72
     0
 73
     0
 74
     5
  7

 75
    16
147
1.0
148
0.0
149
0.0
100
AcDbLayout
  1
Layout1
 70
     1
 71
     1
 10
0.0
 20
0.0
 11
12.0
 21
9.0
 12
0.0
 22
0.0
 32
0.0
 14
1.00000000000000E+20
 24
1.00000000000000E+20
 34
1.00000000000000E+20
 15
-1.00000000000000E+20
 25
-1.00000000000000E+20
 35
-1.00000000000000E+20
146
0.0
 13
0.0
 23
0.0
 33
0.0
 16
1.0
 26
0.0
 36
0.0
 17
0.0
 27
1.0
 37
0.0
 76
     0
330
1B
  0
LAYOUT
  5
26
102
{ACAD_REACTORS
330
1A
102
}
330
1A
100
AcDbPlotSettings
  1

  2
none_device
  4

  6

 40
0.0
 41
0.0
 42
0.0
 43
0.0
 44
0.0
 45
0.0
 46
0.0
 47
0.0
 48
0.0
 49
0.0
140
0.0
141
0.0
142
1.0
143
1.0
 70
   688
 72
     0
 73
     0
 74
     5
  7

 75
    16
147
1.0
148
0.0
149
0.0
100
AcDbLayout
  1
Layout2
 70
     1
 71
     2
 10
0.0
 20
0.0
 11
0.0
 21
0.0
 12
0.0
 22
0.0
 32
0.0
 14
0.0
 24
0.0
 34
0.0
 15
0.0
 25
0.0
 35
0.0
146
0.0
 13
0.0
 23
0.0
 33
0.0
 16
1.0
 26
0.0
 36
0.0
 17
0.0
 27
1.0
 37
0.0
 76
     0
330
23
  0
LAYOUT
  5
22
102
{ACAD_REACTORS
330
1A
102
}
330
1A
100
AcDbPlotSettings
  1

  2
none_device
  4

  6

 40
0.0
 41
0.0
 42
0.0
 43
0.0
 44
0.0
 45
0.0
 46
0.0
 47
0.0
 48
0.0
 49
0.0
140
0.0
141
0.0
142
1.0
143
1.0
 70
  1712
 72
     0
 73
     0
 74
     0
  7

 75
     0
147
1.0
148
0.0
149
0.0
100
AcDbLayout
  1
Model
 70
     1
 71
     0
 10
0.0
 20
0.0
 11
12.0
 21
9.0
 12
0.0
 22
0.0
 32
0.0
 14
-386.5000003468896
 24
-264.9545407769839
 34
0.0
 15
-89.50000034689157
 25
-54.95454077698381
 35
0.0
146
0.0
 13
0.0
 23
0.0
 33
0.0
 16
1.0
 26
0.0
 36
0.0
 17
0.0
 27
1.0
 37
0.0
 76
     0
330
1F
331
29
  0
MATERIAL
  5
3D
102
{ACAD_REACTORS
330
3B
102
}
102
{ACAD_XDICTIONARY
360
2A9
102
}
330
3B
100
AcDbMaterial
  1
ByBlock
  0
MATERIAL
  5
3C
102
{ACAD_REACTORS
330
3B
102
}
102
{ACAD_XDICTIONARY
360
2A7
102
}
330
3B
100
AcDbMaterial
  1
ByLayer
  0
MATERIAL
  5
3E
102
{ACAD_REACTORS
330
3B
102
}
102
{ACAD_XDICTIONARY
360
2AB
102
}
330
3B
100
AcDbMaterial
  1
Global
  0
MLINESTYLE
  5
18
102
{ACAD_REACTORS
330
17
102
}
330
17
100
AcDbMlineStyle
  2
Standard
 70
     0
  3

 62
   256
 51
90.0
 52
90.0
 71
     2
 49
0.5
 62
   256
  6
BYLAYER
 49
-0.5
 62
   256
  6
BYLAYER
  0
ACDBPLACEHOLDER
  5
F
102
{ACAD_REACTORS
330
E
102
}
330
E
  0
VISUALSTYLE
  5
2F
102
{ACAD_REACTORS
330
2A
102
}
102
{ACAD_XDICTIONARY
360
28F
102
}
330
2A
100
AcDbVisualStyle
  2
2dWireframe
 70
     4
 71
     0
 72
     2
 73
     0
 90
        0
 40
-0.6
 41
-30.0
 62
     5
 63
     7
 74
     1
 91
        4
 64
     7
 65
   257
 75
     1
175
     1
 42
1.0
 92
        0
 66
   257
 43
1.0
 76
     1
 77
     6
 78
     2
 67
     7
 79
     5
170
     0
171
     0
290
     0
174
     0
 93
        1
 44
0.0
173
     0
291
     0
 45
0.0
1001
ACAD
1000
AcDbSavedByObjectVersion
1070
     0
  0
VISUALSTYLE
  5
31
102
{ACAD_REACTORS
330
2A
102
}
102
{ACAD_XDICTIONARY
360
293
102
}
330
2A
100
AcDbVisualStyle
  2
3D Hidden
 70
     6
 71
     1
 72
     2
 73
     2
 90
        0
 40
-0.6
 41
-30.0
 62
     5
 63
     7
 74
     2
 91
        2
 64
     7
 65
   257
 75
     2
175
     1
 42
40.0
 92
        0
 66
   257
 43
1.0
 76
     1
 77
     6
 78
     2
 67
     7
 79
     3
170
     0
171
     0
290
     0
174
     0
 93
        1
 44
0.0
173
     0
291
     0
 45
0.0
1001
ACAD
1000
AcDbSavedByObjectVersion
1070
     0
  0
VISUALSTYLE
  5
30
102
{ACAD_REACTORS
330
2A
102
}
102
{ACAD_XDICTIONARY
360
291
102
}
330
2A
100
AcDbVisualStyle
  2
3dWireframe
 70
     5
 71
     0
 72
     2
 73
     0
 90
        0
 40
-0.6
 41
-30.0
 62
     5
 63
     7
 74
     1
 91
        4
 64
     7
 65
   257
 75
     1
175
     1
 42
1.0
 92
        0
 66
   257
 43
1.0
 76
     1
 77
     6
 78
     2
 67
     7
 79
     5
170
     0
171
     0
290
     0
174
     0
 93
        1
 44
0.0
173
     0
291
     0
 45
0.0
1001
ACAD
1000
AcDbSavedByObjectVersion
1070
     0
  0
VISUALSTYLE
  5
32
102
{ACAD_REACTORS
330
2A
102
}
102
{ACAD_XDICTIONARY
360
295
102
}
330
2A
100
AcDbVisualStyle
  2
Basic
 70
     7
 71
     1
 72
     0
 73
     1
 90
        0
 40
-0.6
 41
-30.0
 62
     5
 63
     7
 74
     0
 91
        4
 64
     7
 65
   257
 75
     1
175
     1
 42
1.0
 92
        8
 66
     7
 43
1.0
 76
     1
 77
     6
 78
     2
 67
     7
 79
     5
170
     0
171
     0
290
     0
174
     0
 93
        1
 44
0.0
173
     0
291
     1
 45
0.0
1001
ACAD
1000
AcDbSavedByObjectVersion
1070
     0
  0
VISUALSTYLE
  5
36
102
{ACAD_REACTORS
330
2A
102
}
102
{ACAD_XDICTIONARY
360
29D
102
}
330
2A
100
AcDbVisualStyle
  2
Brighten
 70
    12
 71
     2
 72
     2
 73
     0
 90
        0
 40
-0.6
 41
-30.0
 62
     5
 63
     7
 74
     1
 91
        4
 64
     7
 65
   257
 75
     1
175
     1
 42
1.0
 92
        8
 66
     7
 43
1.0
 76
     1
 77
     6
 78
     2
 67
     7
 79
     5
170
     0
171
     0
290
     0
174
     0
 93
        1
 44
50.0
173
     0
291
     1
 45
0.0
1001
ACAD
1000
AcDbSavedByObjectVersion
1070
     0
  0
VISUALSTYLE
  5
3A
102
{ACAD_REACTORS
330
2A
102
}
102
{ACAD_XDICTIONARY
360
2A5
102
}
330
2A
100
AcDbVisualStyle
  2
ColorChange
 70
    16
 71
     2
 72
     2
 73
     3
 90
        0
 40
-0.6
 41
-30.0
 62
     5
 63
     8
 74
     1
 91
        4
 64
     7
 65
   257
 75
     1
175
     1
 42
1.0
 92
        8
 66
     8
 43
1.0
 76
     1
 77
     6
 78
     2
 67
     7
 79
     5
170
     0
171
     0
290
     0
174
     0
 93
        1
 44
0.0
173
     0
291
     1
 45
0.0
1001
ACAD
1000
AcDbSavedByObjectVersion
1070
     0
  0
VISUALSTYLE
  5
34
102
{ACAD_REACTORS
330
2A
102
}
102
{ACAD_XDICTIONARY
360
299
102
}
330
2A
100
AcDbVisualStyle
  2
Conceptual
 70
     9
 71
     3
 72
     2
 73
     0
 90
        0
 40
-0.6
 41
-30.0
 62
     5
 63
     7
 74
     2
 91
        2
 64
     7
 65
   257
 75
     1
175
     1
 42
40.0
 92
        8
 66
     7
 43
1.0
 76
     1
 77
     6
 78
     2
 67
     7
 79
     3
170
     0
171
     0
290
     0
174
     0
 93
        1
 44
0.0
173
     0
291
     0
 45
0.0
1001
ACAD
1000
AcDbSavedByObjectVersion
1070
     0
  0
VISUALSTYLE
  5
35
102
{ACAD_REACTORS
330
2A
102
}
102
{ACAD_XDICTIONARY
360
29B
102
}
330
2A
100
AcDbVisualStyle
  2
Dim
 70
    11
 71
     2
 72
     2
 73
     0
 90
        0
 40
-0.6
 41
-30.0
 62
     5
 63
     7
 74
     1
 91
        4
 64
     7
 65
   257
 75
     1
175
     1
 42
1.0
 92
        8
 66
     7
 43
1.0
 76
     1
 77
     6
 78
     2
 67
     7
 79
     5
170
     0
171
     0
290
     0
174
     0
 93
        1
 44
-50.0
173
     0
291
     1
 45
0.0
1001
ACAD
1000
AcDbSavedByObjectVersion
1070
     0
  0
VISUALSTYLE
  5
39
102
{ACAD_REACTORS
330
2A
102
}
102
{ACAD_XDICTIONARY
360
2A3
102
}
330
2A
100
AcDbVisualStyle
  2
Facepattern
 70
    15
 71
     2
 72
     2
 73
     0
 90
        0
 40
-0.6
 41
-30.0
 62
     5
 63
     7
 74
     1
 91
        4
 64
     7
 65
   257
 75
     1
175
     1
 42
1.0
 92
        8
 66
     7
 43
1.0
 76
     1
 77
     6
 78
     2
 67
     7
 79
     5
170
     0
171
     0
290
     0
174
     0
 93
        1
 44
0.0
173
     0
291
     1
 45
0.0
1001
ACAD
1000
AcDbSavedByObjectVersion
1070
     0
  0
VISUALSTYLE
  5
2B
102
{ACAD_REACTORS
330
2A
102
}
102
{ACAD_XDICTIONARY
360
287
102
}
330
2A
100
AcDbVisualStyle
  2
Flat
 70
     0
 71
     2
 72
     1
 73
     1
 90
        2
 40
-0.6
 41
30.0
 62
     5
 63
     7
 74
     0
 91
        4
 64
     7
 65
   257
 75
     1
175
     1
 42
1.0
 92
        8
 66
     7
 43
1.0
 76
     1
 77
     6
 78
     2
 67
     7
 79
     5
170
     0
171
     0
290
     0
174
     0
 93
       13
 44
0.0
173
     0
291
     1
 45
0.0
1001
ACAD
1000
AcDbSavedByObjectVersion
1070
     0
  0
VISUALSTYLE
  5
2C
102
{ACAD_REACTORS
330
2A
102
}
102
{ACAD_XDICTIONARY
360
289
102
}
330
2A
100
AcDbVisualStyle
  2
FlatWithEdges
 70
     1
 71
     2
 72
     1
 73
     1
 90
        2
 40
-0.6
 41
30.0
 62
     5
 63
     7
 74
     1
 91
        4
 64
     7
 65
   257
 75
     1
175
     1
 42
1.0
 92
        0
 66
   257
 43
1.0
 76
     1
 77
     6
 78
     2
 67
     7
 79
     5
170
     0
171
     0
290
     0
174
     0
 93
       13
 44
0.0
173
     0
291
     1
 45
0.0
1001
ACAD
1000
AcDbSavedByObjectVersion
1070
     0
  0
VISUALSTYLE
  5
2D
102
{ACAD_REACTORS
330
2A
102
}
102
{ACAD_XDICTIONARY
360
28B
102
}
330
2A
100
AcDbVisualStyle
  2
Gouraud
 70
     2
 71
     2
 72
     2
 73
     1
 90
        2
 40
-0.6
 41
30.0
 62
     5
 63
     7
 74
     0
 91
        4
 64
     7
 65
   257
 75
     1
175
     1
 42
1.0
 92
        0
 66
     7
 43
1.0
 76
     1
 77
     6
 78
     2
 67
     7
 79
     5
170
     0
171
     0
290
     0
174
     0
 93
       13
 44
0.0
173
     0
291
     1
 45
0.0
1001
ACAD
1000
AcDbSavedByObjectVersion
1070
     0
  0
VISUALSTYLE
  5
2E
102
{ACAD_REACTORS
330
2A
102
}
102
{ACAD_XDICTIONARY
360
28D
102
}
330
2A
100
AcDbVisualStyle
  2
GouraudWithEdges
 70
     3
 71
     2
 72
     2
 73
     1
 90
        2
 40
-0.6
 41
30.0
 62
     5
 63
     7
 74
     1
 91
        4
 64
     7
 65
   257
 75
     1
175
     1
 42
1.0
 92
        0
 66
   257
 43
1.0
 76
     1
 77
     6
 78
     2
 67
     7
 79
     5
170
     0
171
     0
290
     0
174
     0
 93
       13
 44
0.0
173
     0
291
     1
 45
0.0
1001
ACAD
1000
AcDbSavedByObjectVersion
1070
     0
  0
VISUALSTYLE
  5
38
102
{ACAD_REACTORS
330
2A
102
}
102
{ACAD_XDICTIONARY
360
2A1
102
}
330
2A
100
AcDbVisualStyle
  2
Linepattern
 70
    14
 71
     2
 72
     2
 73
     0
 90
        0
 40
-0.6
 41
-30.0
 62
     5
 63
     7
 74
     1
 91
        4
 64
     7
 65
   257
 75
     7
175
     7
 42
1.0
 92
        8
 66
     7
 43
1.0
 76
     1
 77
     6
 78
     2
 67
     7
 79
     5
170
     0
171
     0
290
     0
174
     0
 93
        1
 44
0.0
173
     0
291
     1
 45
0.0
1001
ACAD
1000
AcDbSavedByObjectVersion
1070
     0
  0
VISUALSTYLE
  5
33
102
{ACAD_REACTORS
330
2A
102
}
102
{ACAD_XDICTIONARY
360
297
102
}
330
2A
100
AcDbVisualStyle
  2
Realistic
 70
     8
 71
     2
 72
     2
 73
     0
 90
        0
 40
-0.6
 41
-30.0
 62
     5
 63
     7
 74
     1
 91
        0
 64
     7
 65
   257
 75
     1
175
     1
 42
1.0
 92
        8
 66
     8
 43
1.0
 76
     1
 77
     6
 78
     2
 67
     7
 79
     5
170
     0
171
     0
290
     0
174
     0
 93
       13
 44
0.0
173
     0
291
     0
 45
0.0
1001
ACAD
1000
AcDbSavedByObjectVersion
1070
     0
  0
VISUALSTYLE
  5
37
102
{ACAD_REACTORS
330
2A
102
}
102
{ACAD_XDICTIONARY
360
29F
102
}
330
2A
100
AcDbVisualStyle
  2
Thicken
 70
    13
 71
     2
 72
     2
 73
     0
 90
        0
 40
-0.6
 41
-30.0
 62
     5
 63
     7
 74
     1
 91
        4
 64
     7
 65
   257
 75
     1
175
     1
 42
1.0
 92
       12
 66
     7
 43
1.0
 76
     1
 77
     6
 78
     2
 67
     7
 79
     5
170
     0
171
     0
290
     0
174
     0
 93
        1
 44
0.0
173
     0
291
     1
 45
0.0
1001
ACAD
1000
AcDbSavedByObjectVersion
1070
     0
  0
DICTIONARYVAR
  5
285
102
{ACAD_REACTORS
330
282
102
}
330
282
100
DictionaryVariables
280
     0
  1
2
  0
DICTIONARYVAR
  5
286
102
{ACAD_REACTORS
330
282
102
}
330
282
100
DictionaryVariables
280
     0
  1
1
  0
DICTIONARY
  5
2A9
330
3D
100
AcDbDictionary
280
     1
281
     1
  3
ACAD_XREC_ROUNDTRIP
360
2AA
  0
DICTIONARY
  5
2A7
330
3C
100
AcDbDictionary
280
     1
281
     1
  3
ACAD_XREC_ROUNDTRIP
360
2A8
  0
DICTIONARY
  5
2AB
330
3E
100
AcDbDictionary
280
     1
281
     1
  3
ACAD_XREC_ROUNDTRIP
360
2AC
  0
DICTIONARY
  5
28F
330
2F
100
AcDbDictionary
280
     1
281
     1
  3
ACAD_XREC_ROUNDTRIP
360
290
  0
DICTIONARY
  5
293
330
31
100
AcDbDictionary
280
     1
281
     1
  3
ACAD_XREC_ROUNDTRIP
360
294
  0
DICTIONARY
  5
291
330
30
100
AcDbDictionary
280
     1
281
     1
  3
ACAD_XREC_ROUNDTRIP
360
292
  0
DICTIONARY
  5
295
330
32
100
AcDbDictionary
280
     1
281
     1
  3
ACAD_XREC_ROUNDTRIP
360
296
  0
DICTIONARY
  5
29D
330
36
100
AcDbDictionary
280
     1
281
     1
  3
ACAD_XREC_ROUNDTRIP
360
29E
  0
DICTIONARY
  5
2A5
330
3A
100
AcDbDictionary
280
     1
281
     1
  3
ACAD_XREC_ROUNDTRIP
360
2A6
  0
DICTIONARY
  5
299
330
34
100
AcDbDictionary
280
     1
281
     1
  3
ACAD_XREC_ROUNDTRIP
360
29A
  0
DICTIONARY
  5
29B
330
35
100
AcDbDictionary
280
     1
281
     1
  3
ACAD_XREC_ROUNDTRIP
360
29C
  0
DICTIONARY
  5
2A3
330
39
100
AcDbDictionary
280
     1
281
     1
  3
ACAD_XREC_ROUNDTRIP
360
2A4
  0
DICTIONARY
  5
287
330
2B
100
AcDbDictionary
280
     1
281
     1
  3
ACAD_XREC_ROUNDTRIP
360
288
  0
DICTIONARY
  5
289
330
2C
100
AcDbDictionary
280
     1
281
     1
  3
ACAD_XREC_ROUNDTRIP
360
28A
  0
DICTIONARY
  5
28B
330
2D
100
AcDbDictionary
280
     1
281
     1
  3
ACAD_XREC_ROUNDTRIP
360
28C
  0
DICTIONARY
  5
28D
330
2E
100
AcDbDictionary
280
     1
281
     1
  3
ACAD_XREC_ROUNDTRIP
360
28E
  0
DICTIONARY
  5
2A1
330
38
100
AcDbDictionary
280
     1
281
     1
  3
ACAD_XREC_ROUNDTRIP
360
2A2
  0
DICTIONARY
  5
297
330
33
100
AcDbDictionary
280
     1
281
     1
  3
ACAD_XREC_ROUNDTRIP
360
298
  0
DICTIONARY
  5
29F
330
37
100
AcDbDictionary
280
     1
281
     1
  3
ACAD_XREC_ROUNDTRIP
360
2A0
  0
XRECORD
  5
2AA
102
{ACAD_REACTORS
330
2A9
102
}
330
2A9
100
AcDbXrecord
280
     1
102
MATERIAL
148
0.0
149
0.0
149
0.0
 93
        0
 94
      127
282
     0
 72
     1
 77
     1
171
     1
175
     1
179
     1
273
     0
  0
XRECORD
  5
2A8
102
{ACAD_REACTORS
330
2A7
102
}
330
2A7
100
AcDbXrecord
280
     1
102
MATERIAL
148
0.0
149
0.0
149
0.0
 93
        0
 94
      127
282
     0
 72
     1
 77
     1
171
     1
175
     1
179
     1
273
     0
  0
XRECORD
  5
2AC
102
{ACAD_REACTORS
330
2AB
102
}
330
2AB
100
AcDbXrecord
280
     1
102
MATERIAL
148
0.0
149
0.0
149
0.0
 93
        0
 94
      127
282
     0
 72
     1
 77
     1
171
     1
175
     1
179
     1
273
     0
  0
XRECORD
  5
290
102
{ACAD_REACTORS
330
28F
102
}
330
28F
100
AcDbXrecord
280
     1
102
RTVSPropertyOp0
 70
     1
102
RTVSPropertyOp1
 70
     1
102
RTVSPropertyOp2
 70
     1
102
RTVSPropertyOp3
 70
     1
102
RTVSPropertyOp4
 70
     1
102
RTVSPropertyOp5
 70
     1
102
RTVSPropertyOp6
 70
     1
102
RTVSPropertyOp7
 70
     1
102
RTVSPropertyOp8
 70
     1
102
RTVSPropertyOp9
 70
     1
102
RTVSPropertyOp10
 70
     1
102
RTVSPropertyOp11
 70
     1
102
RTVSPropertyOp12
 70
     1
102
RTVSPropertyOp13
 70
     1
102
RTVSPropertyOp14
 70
     1
102
RTVSPropertyOp15
 70
     1
102
RTVSPropertyOp16
 70
     1
102
RTVSPropertyOp17
 70
     1
102
RTVSPropertyOp18
 70
     1
102
RTVSPropertyOp19
 70
     1
102
RTVSPropertyOp20
 70
     1
102
RTVSPropertyOp21
 70
     1
102
RTVSPropertyOp22
 70
     1
102
RTVSPropertyOp23
 70
     1
102
RTVSPropertyOp24
 70
     1
102
RTVSPropertyOp25
 70
     1
102
RTVSPropertyOp26
 70
     1
102
RTVSPropertyOp27
 70
     1
102
RTVSPropertyOp28
 70
     1
102
RTVSPropertyOp29
 70
     1
102
RTVSPropertyOp30
 70
     1
102
RTVSPropertyOp31
 70
     1
102
RTVSPropertyOp32
 70
     1
  0
XRECORD
  5
294
102
{ACAD_REACTORS
330
293
102
}
330
293
100
AcDbXrecord
280
     1
102
RTVSPropertyOp0
 70
     1
102
RTVSPropertyOp1
 70
     1
102
RTVSPropertyOp2
 70
     1
102
RTVSPropertyOp3
 70
     1
102
RTVSPropertyOp4
 70
     1
102
RTVSPropertyOp5
 70
     1
102
RTVSPropertyOp6
 70
     1
102
RTVSPropertyOp7
 70
     1
102
RTVSPropertyOp8
 70
     1
102
RTVSPropertyOp9
 70
     1
102
RTVSPropertyOp10
 70
     1
102
RTVSPropertyOp11
 70
     1
102
RTVSPropertyOp12
 70
     1
102
RTVSPropertyOp13
 70
     1
102
RTVSPropertyOp14
 70
     1
102
RTVSPropertyOp15
 70
     1
102
RTVSPropertyOp16
 70
     1
102
RTVSPropertyOp17
 70
     1
102
RTVSPropertyOp18
 70
     1
102
RTVSPropertyOp19
 70
     1
102
RTVSPropertyOp20
 70
     1
102
RTVSPropertyOp21
 70
     1
102
RTVSPropertyOp22
 70
     1
102
RTVSPropertyOp23
 70
     1
102
RTVSPropertyOp24
 70
     1
102
RTVSPropertyOp25
 70
     1
102
RTVSPropertyOp26
 70
     1
102
RTVSPropertyOp27
 70
     1
102
RTVSPropertyOp28
 70
     1
102
RTVSPropertyOp29
 70
     1
102
RTVSPropertyOp30
 70
     1
102
RTVSPropertyOp31
 70
     1
102
RTVSPropertyOp32
 70
     1
  0
XRECORD
  5
292
102
{ACAD_REACTORS
330
291
102
}
330
291
100
AcDbXrecord
280
     1
102
RTVSPropertyOp0
 70
     1
102
RTVSPropertyOp1
 70
     1
102
RTVSPropertyOp2
 70
     1
102
RTVSPropertyOp3
 70
     1
102
RTVSPropertyOp4
 70
     1
102
RTVSPropertyOp5
 70
     1
102
RTVSPropertyOp6
 70
     1
102
RTVSPropertyOp7
 70
     1
102
RTVSPropertyOp8
 70
     1
102
RTVSPropertyOp9
 70
     1
102
RTVSPropertyOp10
 70
     1
102
RTVSPropertyOp11
 70
     1
102
RTVSPropertyOp12
 70
     1
102
RTVSPropertyOp13
 70
     1
102
RTVSPropertyOp14
 70
     1
102
RTVSPropertyOp15
 70
     1
102
RTVSPropertyOp16
 70
     1
102
RTVSPropertyOp17
 70
     1
102
RTVSPropertyOp18
 70
     1
102
RTVSPropertyOp19
 70
     1
102
RTVSPropertyOp20
 70
     1
102
RTVSPropertyOp21
 70
     1
102
RTVSPropertyOp22
 70
     1
102
RTVSPropertyOp23
 70
     1
102
RTVSPropertyOp24
 70
     1
102
RTVSPropertyOp25
 70
     1
102
RTVSPropertyOp26
 70
     1
102
RTVSPropertyOp27
 70
     1
102
RTVSPropertyOp28
 70
     1
102
RTVSPropertyOp29
 70
     1
102
RTVSPropertyOp30
 70
     1
102
RTVSPropertyOp31
 70
     1
102
RTVSPropertyOp32
 70
     1
  0
XRECORD
  5
296
102
{ACAD_REACTORS
330
295
102
}
330
295
100
AcDbXrecord
280
     1
102
RTVSPropertyOp0
 70
     1
102
RTVSPropertyOp1
 70
     1
102
RTVSPropertyOp2
 70
     1
102
RTVSPropertyOp3
 70
     1
102
RTVSPropertyOp4
 70
     1
102
RTVSPropertyOp5
 70
     1
102
RTVSPropertyOp6
 70
     1
102
RTVSPropertyOp7
 70
     1
102
RTVSPropertyOp8
 70
     1
102
RTVSPropertyOp9
 70
     1
102
RTVSPropertyOp10
 70
     1
102
RTVSPropertyOp11
 70
     1
102
RTVSPropertyOp12
 70
     1
102
RTVSPropertyOp13
 70
     1
102
RTVSPropertyOp14
 70
     1
102
RTVSPropertyOp15
 70
     1
102
RTVSPropertyOp16
 70
     1
102
RTVSPropertyOp17
 70
     1
102
RTVSPropertyOp18
 70
     1
102
RTVSPropertyOp19
 70
     1
102
RTVSPropertyOp20
 70
     1
102
RTVSPropertyOp21
 70
     1
102
RTVSPropertyOp22
 70
     1
102
RTVSPropertyOp23
 70
     1
102
RTVSPropertyOp24
 70
     1
102
RTVSPropertyOp25
 70
     1
102
RTVSPropertyOp26
 70
     1
102
RTVSPropertyOp27
 70
     1
102
RTVSPropertyOp28
 70
     1
102
RTVSPropertyOp29
 70
     1
102
RTVSPropertyOp30
 70
     1
102
RTVSPropertyOp31
 70
     1
102
RTVSPropertyOp32
 70
     1
  0
XRECORD
  5
29E
102
{ACAD_REACTORS
330
29D
102
}
330
29D
100
AcDbXrecord
280
     1
102
RTVSPropertyOp0
 70
     1
102
RTVSPropertyOp1
 70
     1
102
RTVSPropertyOp2
 70
     1
102
RTVSPropertyOp3
 70
     1
102
RTVSPropertyOp4
 70
     1
102
RTVSPropertyOp5
 70
     1
102
RTVSPropertyOp6
 70
     1
102
RTVSPropertyOp7
 70
     1
102
RTVSPropertyOp8
 70
     1
102
RTVSPropertyOp9
 70
     1
102
RTVSPropertyOp10
 70
     1
102
RTVSPropertyOp11
 70
     1
102
RTVSPropertyOp12
 70
     1
102
RTVSPropertyOp13
 70
     1
102
RTVSPropertyOp14
 70
     1
102
RTVSPropertyOp15
 70
     1
102
RTVSPropertyOp16
 70
     1
102
RTVSPropertyOp17
 70
     1
102
RTVSPropertyOp18
 70
     1
102
RTVSPropertyOp19
 70
     1
102
RTVSPropertyOp20
 70
     1
102
RTVSPropertyOp21
 70
     1
102
RTVSPropertyOp22
 70
     1
102
RTVSPropertyOp23
 70
     1
102
RTVSPropertyOp24
 70
     1
102
RTVSPropertyOp25
 70
     1
102
RTVSPropertyOp26
 70
     1
102
RTVSPropertyOp27
 70
     1
102
RTVSPropertyOp28
 70
     1
102
RTVSPropertyOp29
 70
     1
102
RTVSPropertyOp30
 70
     1
102
RTVSPropertyOp31
 70
     1
102
RTVSPropertyOp32
 70
     1
  0
XRECORD
  5
2A6
102
{ACAD_REACTORS
330
2A5
102
}
330
2A5
100
AcDbXrecord
280
     1
102
RTVSPropertyOp0
 70
     1
102
RTVSPropertyOp1
 70
     1
102
RTVSPropertyOp2
 70
     1
102
RTVSPropertyOp3
 70
     1
102
RTVSPropertyOp4
 70
     1
102
RTVSPropertyOp5
 70
     1
102
RTVSPropertyOp6
 70
     1
102
RTVSPropertyOp7
 70
     1
102
RTVSPropertyOp8
 70
     1
102
RTVSPropertyOp9
 70
     1
102
RTVSPropertyOp10
 70
     1
102
RTVSPropertyOp11
 70
     1
102
RTVSPropertyOp12
 70
     1
102
RTVSPropertyOp13
 70
     1
102
RTVSPropertyOp14
 70
     1
102
RTVSPropertyOp15
 70
     1
102
RTVSPropertyOp16
 70
     1
102
RTVSPropertyOp17
 70
     1
102
RTVSPropertyOp18
 70
     1
102
RTVSPropertyOp19
 70
     1
102
RTVSPropertyOp20
 70
     1
102
RTVSPropertyOp21
 70
     1
102
RTVSPropertyOp22
 70
     1
102
RTVSPropertyOp23
 70
     1
102
RTVSPropertyOp24
 70
     1
102
RTVSPropertyOp25
 70
     1
102
RTVSPropertyOp26
 70
     1
102
RTVSPropertyOp27
 70
     1
102
RTVSPropertyOp28
 70
     1
102
RTVSPropertyOp29
 70
     1
102
RTVSPropertyOp30
 70
     1
102
RTVSPropertyOp31
 70
     1
102
RTVSPropertyOp32
 70
     1
  0
XRECORD
  5
29A
102
{ACAD_REACTORS
330
299
102
}
330
299
100
AcDbXrecord
280
     1
102
RTVSPropertyOp0
 70
     1
102
RTVSPropertyOp1
 70
     1
102
RTVSPropertyOp2
 70
     1
102
RTVSPropertyOp3
 70
     1
102
RTVSPropertyOp4
 70
     1
102
RTVSPropertyOp5
 70
     1
102
RTVSPropertyOp6
 70
     1
102
RTVSPropertyOp7
 70
     1
102
RTVSPropertyOp8
 70
     1
102
RTVSPropertyOp9
 70
     1
102
RTVSPropertyOp10
 70
     1
102
RTVSPropertyOp11
 70
     1
102
RTVSPropertyOp12
 70
     1
102
RTVSPropertyOp13
 70
     1
102
RTVSPropertyOp14
 70
     1
102
RTVSPropertyOp15
 70
     1
102
RTVSPropertyOp16
 70
     1
102
RTVSPropertyOp17
 70
     1
102
RTVSPropertyOp18
 70
     1
102
RTVSPropertyOp19
 70
     1
102
RTVSPropertyOp20
 70
     1
102
RTVSPropertyOp21
 70
     1
102
RTVSPropertyOp22
 70
     1
102
RTVSPropertyOp23
 70
     1
102
RTVSPropertyOp24
 70
     1
102
RTVSPropertyOp25
 70
     1
102
RTVSPropertyOp26
 70
     1
102
RTVSPropertyOp27
 70
     1
102
RTVSPropertyOp28
 70
     1
102
RTVSPropertyOp29
 70
     1
102
RTVSPropertyOp30
 70
     1
102
RTVSPropertyOp31
 70
     1
102
RTVSPropertyOp32
 70
     1
  0
XRECORD
  5
29C
102
{ACAD_REACTORS
330
29B
102
}
330
29B
100
AcDbXrecord
280
     1
102
RTVSPropertyOp0
 70
     1
102
RTVSPropertyOp1
 70
     1
102
RTVSPropertyOp2
 70
     1
102
RTVSPropertyOp3
 70
     1
102
RTVSPropertyOp4
 70
     1
102
RTVSPropertyOp5
 70
     1
102
RTVSPropertyOp6
 70
     1
102
RTVSPropertyOp7
 70
     1
102
RTVSPropertyOp8
 70
     1
102
RTVSPropertyOp9
 70
     1
102
RTVSPropertyOp10
 70
     1
102
RTVSPropertyOp11
 70
     1
102
RTVSPropertyOp12
 70
     1
102
RTVSPropertyOp13
 70
     1
102
RTVSPropertyOp14
 70
     1
102
RTVSPropertyOp15
 70
     1
102
RTVSPropertyOp16
 70
     1
102
RTVSPropertyOp17
 70
     1
102
RTVSPropertyOp18
 70
     1
102
RTVSPropertyOp19
 70
     1
102
RTVSPropertyOp20
 70
     1
102
RTVSPropertyOp21
 70
     1
102
RTVSPropertyOp22
 70
     1
102
RTVSPropertyOp23
 70
     1
102
RTVSPropertyOp24
 70
     1
102
RTVSPropertyOp25
 70
     1
102
RTVSPropertyOp26
 70
     1
102
RTVSPropertyOp27
 70
     1
102
RTVSPropertyOp28
 70
     1
102
RTVSPropertyOp29
 70
     1
102
RTVSPropertyOp30
 70
     1
102
RTVSPropertyOp31
 70
     1
102
RTVSPropertyOp32
 70
     1
  0
XRECORD
  5
2A4
102
{ACAD_REACTORS
330
2A3
102
}
330
2A3
100
AcDbXrecord
280
     1
102
RTVSPropertyOp0
 70
     1
102
RTVSPropertyOp1
 70
     1
102
RTVSPropertyOp2
 70
     1
102
RTVSPropertyOp3
 70
     1
102
RTVSPropertyOp4
 70
     1
102
RTVSPropertyOp5
 70
     1
102
RTVSPropertyOp6
 70
     1
102
RTVSPropertyOp7
 70
     1
102
RTVSPropertyOp8
 70
     1
102
RTVSPropertyOp9
 70
     1
102
RTVSPropertyOp10
 70
     1
102
RTVSPropertyOp11
 70
     1
102
RTVSPropertyOp12
 70
     1
102
RTVSPropertyOp13
 70
     1
102
RTVSPropertyOp14
 70
     1
102
RTVSPropertyOp15
 70
     1
102
RTVSPropertyOp16
 70
     1
102
RTVSPropertyOp17
 70
     1
102
RTVSPropertyOp18
 70
     1
102
RTVSPropertyOp19
 70
     1
102
RTVSPropertyOp20
 70
     1
102
RTVSPropertyOp21
 70
     1
102
RTVSPropertyOp22
 70
     1
102
RTVSPropertyOp23
 70
     1
102
RTVSPropertyOp24
 70
     1
102
RTVSPropertyOp25
 70
     1
102
RTVSPropertyOp26
 70
     1
102
RTVSPropertyOp27
 70
     1
102
RTVSPropertyOp28
 70
     1
102
RTVSPropertyOp29
 70
     1
102
RTVSPropertyOp30
 70
     1
102
RTVSPropertyOp31
 70
     1
102
RTVSPropertyOp32
 70
     1
  0
XRECORD
  5
288
102
{ACAD_REACTORS
330
287
102
}
330
287
100
AcDbXrecord
280
     1
102
RTVSPropertyOp0
 70
     1
102
RTVSPropertyOp1
 70
     1
102
RTVSPropertyOp2
 70
     1
102
RTVSPropertyOp3
 70
     1
102
RTVSPropertyOp4
 70
     1
102
RTVSPropertyOp5
 70
     1
102
RTVSPropertyOp6
 70
     1
102
RTVSPropertyOp7
 70
     1
102
RTVSPropertyOp8
 70
     1
102
RTVSPropertyOp9
 70
     1
102
RTVSPropertyOp10
 70
     1
102
RTVSPropertyOp11
 70
     1
102
RTVSPropertyOp12
 70
     1
102
RTVSPropertyOp13
 70
     1
102
RTVSPropertyOp14
 70
     1
102
RTVSPropertyOp15
 70
     1
102
RTVSPropertyOp16
 70
     1
102
RTVSPropertyOp17
 70
     1
102
RTVSPropertyOp18
 70
     1
102
RTVSPropertyOp19
 70
     1
102
RTVSPropertyOp20
 70
     1
102
RTVSPropertyOp21
 70
     1
102
RTVSPropertyOp22
 70
     1
102
RTVSPropertyOp23
 70
     1
102
RTVSPropertyOp24
 70
     1
102
RTVSPropertyOp25
 70
     1
102
RTVSPropertyOp26
 70
     1
102
RTVSPropertyOp27
 70
     1
102
RTVSPropertyOp28
 70
     1
102
RTVSPropertyOp29
 70
     1
102
RTVSPropertyOp30
 70
     1
102
RTVSPropertyOp31
 70
     1
102
RTVSPropertyOp32
 70
     1
  0
XRECORD
  5
28A
102
{ACAD_REACTORS
330
289
102
}
330
289
100
AcDbXrecord
280
     1
102
RTVSPropertyOp0
 70
     1
102
RTVSPropertyOp1
 70
     1
102
RTVSPropertyOp2
 70
     1
102
RTVSPropertyOp3
 70
     1
102
RTVSPropertyOp4
 70
     1
102
RTVSPropertyOp5
 70
     1
102
RTVSPropertyOp6
 70
     1
102
RTVSPropertyOp7
 70
     1
102
RTVSPropertyOp8
 70
     1
102
RTVSPropertyOp9
 70
     1
102
RTVSPropertyOp10
 70
     1
102
RTVSPropertyOp11
 70
     1
102
RTVSPropertyOp12
 70
     1
102
RTVSPropertyOp13
 70
     1
102
RTVSPropertyOp14
 70
     1
102
RTVSPropertyOp15
 70
     1
102
RTVSPropertyOp16
 70
     1
102
RTVSPropertyOp17
 70
     1
102
RTVSPropertyOp18
 70
     1
102
RTVSPropertyOp19
 70
     1
102
RTVSPropertyOp20
 70
     1
102
RTVSPropertyOp21
 70
     1
102
RTVSPropertyOp22
 70
     1
102
RTVSPropertyOp23
 70
     1
102
RTVSPropertyOp24
 70
     1
102
RTVSPropertyOp25
 70
     1
102
RTVSPropertyOp26
 70
     1
102
RTVSPropertyOp27
 70
     1
102
RTVSPropertyOp28
 70
     1
102
RTVSPropertyOp29
 70
     1
102
RTVSPropertyOp30
 70
     1
102
RTVSPropertyOp31
 70
     1
102
RTVSPropertyOp32
 70
     1
  0
XRECORD
  5
28C
102
{ACAD_REACTORS
330
28B
102
}
330
28B
100
AcDbXrecord
280
     1
102
RTVSPropertyOp0
 70
     1
102
RTVSPropertyOp1
 70
     1
102
RTVSPropertyOp2
 70
     1
102
RTVSPropertyOp3
 70
     1
102
RTVSPropertyOp4
 70
     1
102
RTVSPropertyOp5
 70
     1
102
RTVSPropertyOp6
 70
     1
102
RTVSPropertyOp7
 70
     1
102
RTVSPropertyOp8
 70
     1
102
RTVSPropertyOp9
 70
     1
102
RTVSPropertyOp10
 70
     1
102
RTVSPropertyOp11
 70
     1
102
RTVSPropertyOp12
 70
     1
102
RTVSPropertyOp13
 70
     1
102
RTVSPropertyOp14
 70
     1
102
RTVSPropertyOp15
 70
     1
102
RTVSPropertyOp16
 70
     1
102
RTVSPropertyOp17
 70
     1
102
RTVSPropertyOp18
 70
     1
102
RTVSPropertyOp19
 70
     1
102
RTVSPropertyOp20
 70
     1
102
RTVSPropertyOp21
 70
     1
102
RTVSPropertyOp22
 70
     1
102
RTVSPropertyOp23
 70
     1
102
RTVSPropertyOp24
 70
     1
102
RTVSPropertyOp25
 70
     1
102
RTVSPropertyOp26
 70
     1
102
RTVSPropertyOp27
 70
     1
102
RTVSPropertyOp28
 70
     1
102
RTVSPropertyOp29
 70
     1
102
RTVSPropertyOp30
 70
     1
102
RTVSPropertyOp31
 70
     1
102
RTVSPropertyOp32
 70
     1
  0
XRECORD
  5
28E
102
{ACAD_REACTORS
330
28D
102
}
330
28D
100
AcDbXrecord
280
     1
102
RTVSPropertyOp0
 70
     1
102
RTVSPropertyOp1
 70
     1
102
RTVSPropertyOp2
 70
     1
102
RTVSPropertyOp3
 70
     1
102
RTVSPropertyOp4
 70
     1
102
RTVSPropertyOp5
 70
     1
102
RTVSPropertyOp6
 70
     1
102
RTVSPropertyOp7
 70
     1
102
RTVSPropertyOp8
 70
     1
102
RTVSPropertyOp9
 70
     1
102
RTVSPropertyOp10
 70
     1
102
RTVSPropertyOp11
 70
     1
102
RTVSPropertyOp12
 70
     1
102
RTVSPropertyOp13
 70
     1
102
RTVSPropertyOp14
 70
     1
102
RTVSPropertyOp15
 70
     1
102
RTVSPropertyOp16
 70
     1
102
RTVSPropertyOp17
 70
     1
102
RTVSPropertyOp18
 70
     1
102
RTVSPropertyOp19
 70
     1
102
RTVSPropertyOp20
 70
     1
102
RTVSPropertyOp21
 70
     1
102
RTVSPropertyOp22
 70
     1
102
RTVSPropertyOp23
 70
     1
102
RTVSPropertyOp24
 70
     1
102
RTVSPropertyOp25
 70
     1
102
RTVSPropertyOp26
 70
     1
102
RTVSPropertyOp27
 70
     1
102
RTVSPropertyOp28
 70
     1
102
RTVSPropertyOp29
 70
     1
102
RTVSPropertyOp30
 70
     1
102
RTVSPropertyOp31
 70
     1
102
RTVSPropertyOp32
 70
     1
  0
XRECORD
  5
2A2
102
{ACAD_REACTORS
330
2A1
102
}
330
2A1
100
AcDbXrecord
280
     1
102
RTVSPropertyOp0
 70
     1
102
RTVSPropertyOp1
 70
     1
102
RTVSPropertyOp2
 70
     1
102
RTVSPropertyOp3
 70
     1
102
RTVSPropertyOp4
 70
     1
102
RTVSPropertyOp5
 70
     1
102
RTVSPropertyOp6
 70
     1
102
RTVSPropertyOp7
 70
     1
102
RTVSPropertyOp8
 70
     1
102
RTVSPropertyOp9
 70
     1
102
RTVSPropertyOp10
 70
     1
102
RTVSPropertyOp11
 70
     1
102
RTVSPropertyOp12
 70
     1
102
RTVSPropertyOp13
 70
     1
102
RTVSPropertyOp14
 70
     1
102
RTVSPropertyOp15
 70
     1
102
RTVSPropertyOp16
 70
     1
102
RTVSPropertyOp17
 70
     1
102
RTVSPropertyOp18
 70
     1
102
RTVSPropertyOp19
 70
     1
102
RTVSPropertyOp20
 70
     1
102
RTVSPropertyOp21
 70
     1
102
RTVSPropertyOp22
 70
     1
102
RTVSPropertyOp23
 70
     1
102
RTVSPropertyOp24
 70
     1
102
RTVSPropertyOp25
 70
     1
102
RTVSPropertyOp26
 70
     1
102
RTVSPropertyOp27
 70
     1
102
RTVSPropertyOp28
 70
     1
102
RTVSPropertyOp29
 70
     1
102
RTVSPropertyOp30
 70
     1
102
RTVSPropertyOp31
 70
     1
102
RTVSPropertyOp32
 70
     1
  0
XRECORD
  5
298
102
{ACAD_REACTORS
330
297
102
}
330
297
100
AcDbXrecord
280
     1
102
RTVSPropertyOp0
 70
     1
102
RTVSPropertyOp1
 70
     1
102
RTVSPropertyOp2
 70
     1
102
RTVSPropertyOp3
 70
     1
102
RTVSPropertyOp4
 70
     1
102
RTVSPropertyOp5
 70
     1
102
RTVSPropertyOp6
 70
     1
102
RTVSPropertyOp7
 70
     1
102
RTVSPropertyOp8
 70
     1
102
RTVSPropertyOp9
 70
     1
102
RTVSPropertyOp10
 70
     1
102
RTVSPropertyOp11
 70
     1
102
RTVSPropertyOp12
 70
     1
102
RTVSPropertyOp13
 70
     1
102
RTVSPropertyOp14
 70
     1
102
RTVSPropertyOp15
 70
     1
102
RTVSPropertyOp16
 70
     1
102
RTVSPropertyOp17
 70
     1
102
RTVSPropertyOp18
 70
     1
102
RTVSPropertyOp19
 70
     1
102
RTVSPropertyOp20
 70
     1
102
RTVSPropertyOp21
 70
     1
102
RTVSPropertyOp22
 70
     1
102
RTVSPropertyOp23
 70
     1
102
RTVSPropertyOp24
 70
     1
102
RTVSPropertyOp25
 70
     1
102
RTVSPropertyOp26
 70
     1
102
RTVSPropertyOp27
 70
     1
102
RTVSPropertyOp28
 70
     1
102
RTVSPropertyOp29
 70
     1
102
RTVSPropertyOp30
 70
     1
102
RTVSPropertyOp31
 70
     1
102
RTVSPropertyOp32
 70
     1
  0
XRECORD
  5
2A0
102
{ACAD_REACTORS
330
29F
102
}
330
29F
100
AcDbXrecord
280
     1
102
RTVSPropertyOp0
 70
     1
102
RTVSPropertyOp1
 70
     1
102
RTVSPropertyOp2
 70
     1
102
RTVSPropertyOp3
 70
     1
102
RTVSPropertyOp4
 70
     1
102
RTVSPropertyOp5
 70
     1
102
RTVSPropertyOp6
 70
     1
102
RTVSPropertyOp7
 70
     1
102
RTVSPropertyOp8
 70
     1
102
RTVSPropertyOp9
 70
     1
102
RTVSPropertyOp10
 70
     1
102
RTVSPropertyOp11
 70
     1
102
RTVSPropertyOp12
 70
     1
102
RTVSPropertyOp13
 70
     1
102
RTVSPropertyOp14
 70
     1
102
RTVSPropertyOp15
 70
     1
102
RTVSPropertyOp16
 70
     1
102
RTVSPropertyOp17
 70
     1
102
RTVSPropertyOp18
 70
     1
102
RTVSPropertyOp19
 70
     1
102
RTVSPropertyOp20
 70
     1
102
RTVSPropertyOp21
 70
     1
102
RTVSPropertyOp22
 70
     1
102
RTVSPropertyOp23
 70
     1
102
RTVSPropertyOp24
 70
     1
102
RTVSPropertyOp25
 70
     1
102
RTVSPropertyOp26
 70
     1
102
RTVSPropertyOp27
 70
     1
102
RTVSPropertyOp28
 70
     1
102
RTVSPropertyOp29
 70
     1
102
RTVSPropertyOp30
 70
     1
102
RTVSPropertyOp31
 70
     1
102
RTVSPropertyOp32
 70
     1
  0
ENDSEC
  0
EOF
