  0
SECTION
  2
HEADER
  9
$ACADVER
  1
AC1015
  9
$ACADMAINTVER
 70
     6
  9
$DWGCODEPAGE
  3
ANSI_1252
  9
$INSBASE
 10
0.0
 20
0.0
 30
0.0
  9
$EXTMIN
 10
-383.4999990192101
 20
-254.0277395134249
 30
0.0
  9
$EXTMAX
 10
-86.499999019212
 20
-44.02773951342476
 30
0.0
  9
$LIMMIN
 10
0.0
 20
0.0
  9
$LIMMAX
 10
12.0
 20
9.0
  9
$ORTHOMODE
 70
     0
  9
$REGENMODE
 70
     1
  9
$FILLMODE
 70
     1
  9
$QTEXTMODE
 70
     0
  9
$MIRRTEXT
 70
     1
  9
$LTSCALE
 40
1.0
  9
$ATTMODE
 70
     1
  9
$TEXTSIZE
 40
0.2
  9
$TRACEWID
 40
0.05
  9
$TEXTSTYLE
  7
Standard
  9
$CLAYER
  8
0
  9
$CELTYPE
  6
ByLayer
  9
$CECOLOR
 62
   256
  9
$CELTSCALE
 40
1.0
  9
$DISPSILH
 70
     0
  9
$DIMSCALE
 40
1.0
  9
$DIMASZ
 40
0.18
  9
$DIMEXO
 40
0.0625
  9
$DIMDLI
 40
0.38
  9
$DIMRND
 40
0.0
  9
$DIMDLE
 40
0.0
  9
$DIMEXE
 40
0.18
  9
$DIMTP
 40
0.0
  9
$DIMTM
 40
0.0
  9
$DIMTXT
 40
0.18
  9
$DIMCEN
 40
0.09
  9
$DIMTSZ
 40
0.0
  9
$DIMTOL
 70
     0
  9
$DIMLIM
 70
     0
  9
$DIMTIH
 70
     1
  9
$DIMTOH
 70
     1
  9
$DIMSE1
 70
     0
  9
$DIMSE2
 70
     0
  9
$DIMTAD
 70
     0
  9
$DIMZIN
 70
     0
  9
$DIMBLK
  1

  9
$DIMASO
 70
     1
  9
$DIMSHO
 70
     1
  9
$DIMPOST
  1

  9
$DIMAPOST
  1

  9
$DIMALT
 70
     0
  9
$DIMALTD
 70
     2
  9
$DIMALTF
 40
25.4
  9
$DIMLFAC
 40
1.0
  9
$DIMTOFL
 70
     0
  9
$DIMTVP
 40
0.0
  9
$DIMTIX
 70
     0
  9
$DIMSOXD
 70
     0
  9
$DIMSAH
 70
     0
  9
$DIMBLK1
  1

  9
$DIMBLK2
  1

  9
$DIMSTYLE
  2
Standard
  9
$DIMCLRD
 70
     0
  9
$DIMCLRE
 70
     0
  9
$DIMCLRT
 70
     0
  9
$DIMTFAC
 40
1.0
  9
$DIMGAP
 40
0.09
  9
$DIMJUST
 70
     0
  9
$DIMSD1
 70
     0
  9
$DIMSD2
 70
     0
  9
$DIMTOLJ
 70
     1
  9
$DIMTZIN
 70
     0
  9
$DIMALTZ
 70
     0
  9
$DIMALTTZ
 70
     0
  9
$DIMUPT
 70
     0
  9
$DIMDEC
 70
     4
  9
$DIMTDEC
 70
     4
  9
$DIMALTU
 70
     2
  9
$DIMALTTD
 70
     2
  9
$DIMTXSTY
  7
Standard
  9
$DIMAUNIT
 70
     0
  9
$DIMADEC
 70
     0
  9
$DIMALTRND
 40
0.0
  9
$DIMAZIN
 70
     0
  9
$DIMDSEP
 70
    46
  9
$DIMATFIT
 70
     3
  9
$DIMFRAC
 70
     0
  9
$DIMLDRBLK
  1

  9
$DIMLUNIT
 70
     2
  9
$DIMLWD
 70
    -2
  9
$DIMLWE
 70
    -2
  9
$DIMTMOVE
 70
     0
  9
$LUNITS
 70
     2
  9
$LUPREC
 70
     4
  9
$SKETCHINC
 40
0.1
  9
$FILLETRAD
 40
0.5
  9
$AUNITS
 70
     0
  9
$AUPREC
 70
     0
  9
$MENU
  1
.
  9
$ELEVATION
 40
0.0
  9
$PELEVATION
 40
0.0
  9
$THICKNESS
 40
0.0
  9
$LIMCHECK
 70
     0
  9
$CHAMFERA
 40
0.5
  9
$CHAMFERB
 40
0.5
  9
$CHAMFERC
 40
1.0
  9
$CHAMFERD
 40
0.0
  9
$SKPOLY
 70
     0
  9
$TDCREATE
 40
2457864.599083229
  9
$TDUCREATE
 40
2457864.515749896
  9
$TDUPDATE
 40
2457864.599084849
  9
$TDUUPDATE
 40
2457864.515751516
  9
$TDINDWG
 40
0.0000000116
  9
$TDUSRTIMER
 40
0.0000000116
  9
$USRTIMER
 70
     1
  9
$ANGBASE
 50
0.0
  9
$ANGDIR
 70
     0
  9
$PDMODE
 70
     0
  9
$PDSIZE
 40
0.0
  9
$PLINEWID
 40
0.0
  9
$SPLFRAME
 70
     0
  9
$SPLINETYPE
 70
     6
  9
$SPLINESEGS
 70
     8
  9
$HANDSEED
  5
322
  9
$SURFTAB1
 70
     6
  9
$SURFTAB2
 70
     6
  9
$SURFTYPE
 70
     6
  9
$SURFU
 70
     6
  9
$SURFV
 70
     6
  9
$UCSBASE
  2

  9
$UCSNAME
  2

  9
$UCSORG
 10
0.0
 20
0.0
 30
0.0
  9
$UCSXDIR
 10
1.0
 20
0.0
 30
0.0
  9
$UCSYDIR
 10
0.0
 20
1.0
 30
0.0
  9
$UCSORTHOREF
  2

  9
$UCSORTHOVIEW
 70
     0
  9
$UCSORGTOP
 10
0.0
 20
0.0
 30
0.0
  9
$UCSORGBOTTOM
 10
0.0
 20
0.0
 30
0.0
  9
$UCSORGLEFT
 10
0.0
 20
0.0
 30
0.0
  9
$UCSORGRIGHT
 10
0.0
 20
0.0
 30
0.0
  9
$UCSORGFRONT
 10
0.0
 20
0.0
 30
0.0
  9
$UCSORGBACK
 10
0.0
 20
0.0
 30
0.0
  9
$PUCSBASE
  2

  9
$PUCSNAME
  2

  9
$PUCSORG
 10
0.0
 20
0.0
 30
0.0
  9
$PUCSXDIR
 10
1.0
 20
0.0
 30
0.0
  9
$PUCSYDIR
 10
0.0
 20
1.0
 30
0.0
  9
$PUCSORTHOREF
  2

  9
$PUCSORTHOVIEW
 70
     0
  9
$PUCSORGTOP
 10
0.0
 20
0.0
 30
0.0
  9
$PUCSORGBOTTOM
 10
0.0
 20
0.0
 30
0.0
  9
$PUCSORGLEFT
 10
0.0
 20
0.0
 30
0.0
  9
$PUCSORGRIGHT
 10
0.0
 20
0.0
 30
0.0
  9
$PUCSORGFRONT
 10
0.0
 20
0.0
 30
0.0
  9
$PUCSORGBACK
 10
0.0
 20
0.0
 30
0.0
  9
$USERI1
 70
     0
  9
$USERI2
 70
     0
  9
$USERI3
 70
     0
  9
$USERI4
 70
     0
  9
$USERI5
 70
     0
  9
$USERR1
 40
18.1
  9
$USERR2
 40
0.0
  9
$USERR3
 40
0.0
  9
$USERR4
 40
0.0
  9
$USERR5
 40
0.0
  9
$WORLDVIEW
 70
     1
  9
$SHADEDGE
 70
     3
  9
$SHADEDIF
 70
    70
  9
$TILEMODE
 70
     1
  9
$MAXACTVP
 70
    64
  9
$PINSBASE
 10
0.0
 20
0.0
 30
0.0
  9
$PLIMCHECK
 70
     0
  9
$PEXTMIN
 10
1.00000000000000E+20
 20
1.00000000000000E+20
 30
1.00000000000000E+20
  9
$PEXTMAX
 10
-1.00000000000000E+20
 20
-1.00000000000000E+20
 30
-1.00000000000000E+20
  9
$PLIMMIN
 10
0.0
 20
0.0
  9
$PLIMMAX
 10
12.0
 20
9.0
  9
$UNITMODE
 70
     0
  9
$VISRETAIN
 70
     1
  9
$PLINEGEN
 70
     0
  9
$PSLTSCALE
 70
     1
  9
$TREEDEPTH
 70
  3020
  9
$CMLSTYLE
  2
Standard
  9
$CMLJUST
 70
     0
  9
$CMLSCALE
 40
1.0
  9
$PROXYGRAPHICS
 70
     1
  9
$MEASUREMENT
 70
     1
  9
$CELWEIGHT
370
    -1
  9
$ENDCAPS
280
     0
  9
$JOINSTYLE
280
     0
  9
$LWDISPLAY
290
     0
  9
$INSUNITS
 70
     4
  9
$HYPERLINKBASE
  1

  9
$STYLESHEET
  1

  9
$XEDIT
290
     1
  9
$CEPSNTYPE
380
     0
  9
$PSTYLEMODE
290
     1
  9
$FINGERPRINTGUID
  2
{1D3C6F10-D2DB-4303-9461-C078B6795B62}
  9
$VERSIONGUID
  2
{FAEB1C32-E019-11D5-929B-00C0DF256EC4}
  9
$EXTNAMES
290
     1
  9
$PSVPSCALE
 40
0.0
  9
$OLESTARTUP
290
     0
  0
ENDSEC
  0
SECTION
  2
CLASSES
  0
CLASS
  1
ACDBDICTIONARYWDFLT
  2
AcDbDictionaryWithDefault
  3
ObjectDBX Classes
 90
        0
280
     0
281
     0
  0
CLASS
  1
VISUALSTYLE
  2
AcDbVisualStyle
  3
ObjectDBX Classes
 90
     4095
280
     0
281
     0
  0
CLASS
  1
MATERIAL
  2
AcDbMaterial
  3
ObjectDBX Classes
 90
     1153
280
     0
281
     0
  0
CLASS
  1
DICTIONARYVAR
  2
AcDbDictionaryVar
  3
ObjectDBX Classes
 90
        0
280
     0
281
     0
  0
CLASS
  1
ACDBPLACEHOLDER
  2
AcDbPlaceHolder
  3
ObjectDBX Classes
 90
        0
280
     0
281
     0
  0
CLASS
  1
LAYOUT
  2
AcDbLayout
  3
ObjectDBX Classes
 90
        0
280
     0
281
     0
  0
ENDSEC
  0
SECTION
  2
TABLES
  0
TABLE
  2
VPORT
  5
8
330
0
100
AcDbSymbolTable
 70
     1
  0
VPORT
  5
29
330
8
100
AcDbSymbolTableRecord
100
AcDbViewportTableRecord
  2
*Active
 70
     0
 10
0.0
 20
0.0
 11
1.0
 21
1.0
 12
-234.9999990192111
 22
-149.0277395134248
 13
0.0
 23
0.0
 14
0.5
 24
0.5
 15
0.5
 25
0.5
 16
0.0
 26
0.0
 36
1.0
 17
0.0
 27
0.0
 37
0.0
 40
231.0000000000002
 41
1.60267857142857
 42
50.0
 43
0.0
 44
0.0
 50
0.0
 51
0.0
 71
     0
 72
   100
 73
     1
 74
     3
 75
     0
 76
     0
 77
     0
 78
     0
281
     0
 65
     1
110
0.0
120
0.0
130
0.0
111
1.0
121
0.0
131
0.0
112
0.0
122
1.0
132
0.0
 79
     0
146
0.0
  0
ENDTAB
  0
TABLE
  2
LTYPE
  5
5
330
0
100
AcDbSymbolTable
 70
     8
  0
LTYPE
  5
14
330
5
100
AcDbSymbolTableRecord
100
AcDbLinetypeTableRecord
  2
ByBlock
 70
     0
  3

 72
    65
 73
     0
 40
0.0
  0
LTYPE
  5
15
330
5
100
AcDbSymbolTableRecord
100
AcDbLinetypeTableRecord
  2
ByLayer
 70
     0
  3

 72
    65
 73
     0
 40
0.0
  0
LTYPE
  5
16
330
5
100
AcDbSymbolTableRecord
100
AcDbLinetypeTableRecord
  2
Continuous
 70
     0
  3
Solid line
 72
    65
 73
     0
 40
0.0
  0
LTYPE
  5
3F
330
5
100
AcDbSymbolTableRecord
100
AcDbLinetypeTableRecord
  2
DASHED
 70
     0
  3
Dashed
 72
    65
 73
     2
 40
15.0
 49
7.0
 74
     0
 49
-8.0
 74
     0
  0
LTYPE
  5
40
330
5
100
AcDbSymbolTableRecord
100
AcDbLinetypeTableRecord
  2
DOTTED
 70
     0
  3
Dotted
 72
    65
 73
     2
 40
1.0
 49
0.0
 74
     0
 49
-1.0
 74
     0
  0
LTYPE
  5
41
330
5
100
AcDbSymbolTableRecord
100
AcDbLinetypeTableRecord
  2
DOT_CENTER
 70
     0
  3
Dot_Center
 72
    65
 73
     4
 40
14.0
 49
12.0
 74
     0
 49
-1.0
 74
     0
 49
0.0
 74
     0
 49
-1.0
 74
     0
  0
LTYPE
  5
42
330
5
100
AcDbSymbolTableRecord
100
AcDbLinetypeTableRecord
  2
LONG_DASHED
 70
     0
  3
Long_Dashed
 72
    65
 73
     2
 40
15.0
 49
10.0
 74
     0
 49
-5.0
 74
     0
  0
LTYPE
  5
43
330
5
100
AcDbSymbolTableRecord
100
AcDbLinetypeTableRecord
  2
DASH_CENTER
 70
     0
  3
Dash_Center
 72
    65
 73
     4
 40
14.0
 49
11.0
 74
     0
 49
-1.0
 74
     0
 49
1.0
 74
     0
 49
-1.0
 74
     0
  0
LTYPE
  5
44
330
5
100
AcDbSymbolTableRecord
100
AcDbLinetypeTableRecord
  2
PHANTOM
 70
     0
  3
Phantom
 72
    65
 73
     6
 40
13.0
 49
10.0
 74
     0
 49
-1.0
 74
     0
 49
0.0
 74
     0
 49
-1.0
 74
     0
 49
0.0
 74
     0
 49
-1.0
 74
     0
  0
LTYPE
  5
45
330
5
100
AcDbSymbolTableRecord
100
AcDbLinetypeTableRecord
  2
CENTER_DASH_DASH
 70
     0
  3
Center_Dash_Dash
 72
    65
 73
     6
 40
14.0
 49
9.0
 74
     0
 49
-1.0
 74
     0
 49
1.0
 74
     0
 49
-1.0
 74
     0
 49
1.0
 74
     0
 49
-1.0
 74
     0
  0
ENDTAB
  0
TABLE
  2
LAYER
  5
2
330
0
100
AcDbSymbolTable
 70
     2
  0
LAYER
  5
10
330
2
100
AcDbSymbolTableRecord
100
AcDbLayerTableRecord
  2
0
 70
     0
 62
     7
  6
Continuous
370
    -3
390
F
  0
LAYER
  5
46
330
2
100
AcDbSymbolTableRecord
100
AcDbLayerTableRecord
  2
1
 70
     0
 62
     7
  6
Continuous
370
    -3
390
F
  0
ENDTAB
  0
TABLE
  2
STYLE
  5
3
330
0
100
AcDbSymbolTable
 70
     5
  0
STYLE
  5
11
330
3
100
AcDbSymbolTableRecord
100
AcDbTextStyleTableRecord
  2
Standard
 70
     0
 40
0.0
 41
1.0
 50
0.0
 71
     0
 42
0.2
  3
txt
  4

  0
STYLE
  5
CA
330
3
100
AcDbSymbolTableRecord
100
AcDbTextStyleTableRecord
  2
CONVERTER_11
 70
     0
 40
0.0
 41
0.9
 50
0.0
 71
     0
 42
0.2
  3
txt.shx
  4

  0
STYLE
  5
2B5
330
3
100
AcDbSymbolTableRecord
100
AcDbTextStyleTableRecord
  2
CONVERTER_12
 70
     0
 40
0.0
 41
0.81
 50
0.0
 71
     0
 42
0.2
  3
txt.shx
  4

  0
STYLE
  5
2BB
330
3
100
AcDbSymbolTableRecord
100
AcDbTextStyleTableRecord
  2
CONVERTER_13
 70
     0
 40
0.0
 41
0.855
 50
0.0
 71
     0
 42
0.2
  3
txt.shx
  4

  0
STYLE
  5
2BE
330
3
100
AcDbSymbolTableRecord
100
AcDbTextStyleTableRecord
  2
CONVERTER_14
 70
     0
 40
0.0
 41
0.72
 50
0.0
 71
     0
 42
0.2
  3
txt.shx
  4

  0
ENDTAB
  0
TABLE
  2
VIEW
  5
6
330
0
100
AcDbSymbolTable
 70
     0
  0
ENDTAB
  0
TABLE
  2
UCS
  5
7
330
0
100
AcDbSymbolTable
 70
     0
  0
ENDTAB
  0
TABLE
  2
APPID
  5
9
330
0
100
AcDbSymbolTable
 70
     1
  0
APPID
  5
12
330
9
100
AcDbSymbolTableRecord
100
AcDbRegAppTableRecord
  2
ACAD
 70
     0
  0
ENDTAB
  0
TABLE
  2
DIMSTYLE
  5
A
330
0
100
AcDbSymbolTable
 70
     4
100
AcDbDimStyleTable
  0
DIMSTYLE
105
27
330
A
100
AcDbSymbolTableRecord
100
AcDbDimStyleTableRecord
  2
Standard
 70
     0
178
     0
340
11
  0
DIMSTYLE
105
153
102
{ACAD_REACTORS
330
154
102
}
330
A
100
AcDbSymbolTableRecord
100
AcDbDimStyleTableRecord
  2
ME10_DIM_10
 70
     0
 41
1.75
 42
0.0
 44
0.75
 73
     0
 74
     0
 77
     1
 78
     8
140
1.75
147
0.75
172
     1
173
     1
174
     1
175
     1
176
     2
177
     2
271
     1
178
     3
271
     1
340
CA
  0
DIMSTYLE
105
15E
102
{ACAD_REACTORS
330
15F
102
}
330
A
100
AcDbSymbolTableRecord
100
AcDbDimStyleTableRecord
  2
ME10_DIM_11
 70
     0
 41
1.75
 42
0.0
 44
0.75
 73
     0
 74
     0
 77
     1
 78
     8
140
1.75
147
0.75
172
     1
173
     1
174
     1
175
     1
176
     2
177
     2
271
     1
178
     3
271
     1
340
CA
  0
DIMSTYLE
105
1BC
102
{ACAD_REACTORS
330
1BD
102
}
330
A
100
AcDbSymbolTableRecord
100
AcDbDimStyleTableRecord
  2
ME10_DIM_12
 70
     0
 41
1.75
 42
0.0
 44
0.75
 73
     0
 74
     0
 77
     1
 78
     8
140
1.75
147
0.75
172
     1
173
     1
174
     1
175
     1
176
     2
177
     2
271
     1
178
     3
271
     1
340
CA
  0
ENDTAB
  0
TABLE
  2
BLOCK_RECORD
  5
1
330
0
100
AcDbSymbolTable
 70
    19
  0
BLOCK_RECORD
  5
1F
330
1
100
AcDbSymbolTableRecord
100
AcDbBlockTableRecord
  2
*Model_Space
340
22
  0
BLOCK_RECORD
  5
1B
330
1
100
AcDbSymbolTableRecord
100
AcDbBlockTableRecord
  2
*Paper_Space
340
1E
  0
BLOCK_RECORD
  5
23
330
1
100
AcDbSymbolTableRecord
100
AcDbBlockTableRecord
  2
*Paper_Space0
340
26
  0
BLOCK_RECORD
  5
47
330
1
100
AcDbSymbolTableRecord
100
AcDbBlockTableRecord
  2
0801505_UCT_EM_30X5-select__1
340
0
102
{BLKREFS
331
4B
102
}
  0
BLOCK_RECORD
  5
4A
330
1
100
AcDbSymbolTableRecord
100
AcDbBlockTableRecord
  2
Allg1
340
0
102
{BLKREFS
331
7C
102
}
  0
BLOCK_RECORD
  5
4E
330
1
100
AcDbSymbolTableRecord
100
AcDbBlockTableRecord
  2
0801505_UCT_EM_30X5-select__2
340
0
102
{BLKREFS
331
52
102
}
  0
BLOCK_RECORD
  5
51
330
1
100
AcDbSymbolTableRecord
100
AcDbBlockTableRecord
  2
Rckans1
340
0
102
{BLKREFS
331
7D
102
}
  0
BLOCK_RECORD
  5
55
330
1
100
AcDbSymbolTableRecord
100
AcDbBlockTableRecord
  2
0801505_UCT_EM_30X5-select__3
340
0
102
{BLKREFS
331
59
102
}
  0
BLOCK_RECORD
  5
58
330
1
100
AcDbSymbolTableRecord
100
AcDbBlockTableRecord
  2
SA_Rechts1
340
0
102
{BLKREFS
331
7E
102
}
  0
BLOCK_RECORD
  5
5C
330
1
100
AcDbSymbolTableRecord
100
AcDbBlockTableRecord
  2
0801505_UCT_EM_30X5-select__4
340
0
102
{BLKREFS
331
60
102
}
  0
BLOCK_RECORD
  5
5F
330
1
100
AcDbSymbolTableRecord
100
AcDbBlockTableRecord
  2
SA_Links1
340
0
102
{BLKREFS
331
7F
102
}
  0
BLOCK_RECORD
  5
63
330
1
100
AcDbSymbolTableRecord
100
AcDbBlockTableRecord
  2
0801505_UCT_EM_30X5-select__5
340
0
102
{BLKREFS
331
67
102
}
  0
BLOCK_RECORD
  5
66
330
1
100
AcDbSymbolTableRecord
100
AcDbBlockTableRecord
  2
Drfsicht1
340
0
102
{BLKREFS
331
80
102
}
  0
BLOCK_RECORD
  5
6A
330
1
100
AcDbSymbolTableRecord
100
AcDbBlockTableRecord
  2
0801505_UCT_EM_30X5-select__6
340
0
102
{BLKREFS
331
6E
102
}
  0
BLOCK_RECORD
  5
6D
330
1
100
AcDbSymbolTableRecord
100
AcDbBlockTableRecord
  2
Vordans1
340
0
102
{BLKREFS
331
81
102
}
  0
BLOCK_RECORD
  5
71
330
1
100
AcDbSymbolTableRecord
100
AcDbBlockTableRecord
  2
_rahmen
340
0
102
{BLKREFS
331
78
102
}
  0
BLOCK_RECORD
  5
74
330
1
100
AcDbSymbolTableRecord
100
AcDbBlockTableRecord
  2
_punkt
340
0
102
{BLKREFS
331
79
102
}
  0
BLOCK_RECORD
  5
77
330
1
100
AcDbSymbolTableRecord
100
AcDbBlockTableRecord
  2
A4I_CS
340
0
102
{BLKREFS
331
82
102
}
  0
BLOCK_RECORD
  5
14A
330
1
100
AcDbSymbolTableRecord
100
AcDbBlockTableRecord
  2
*D16
340
0
  0
BLOCK_RECORD
  5
155
330
1
100
AcDbSymbolTableRecord
100
AcDbBlockTableRecord
  2
*D17
340
0
  0
BLOCK_RECORD
  5
1B1
330
1
100
AcDbSymbolTableRecord
100
AcDbBlockTableRecord
  2
*D18
340
0
  0
ENDTAB
  0
ENDSEC
  0
SECTION
  2
BLOCKS
  0
BLOCK
  5
20
330
1F
100
AcDbEntity
  8
0
100
AcDbBlockBegin
  2
*Model_Space
 70
     0
 10
0.0
 20
0.0
 30
0.0
  3
*Model_Space
  1

  0
ENDBLK
  5
21
330
1F
100
AcDbEntity
  8
0
100
AcDbBlockEnd
  0
BLOCK
  5
1C
330
1B
100
AcDbEntity
 67
     1
  8
0
100
AcDbBlockBegin
  2
*Paper_Space
 70
     0
 10
0.0
 20
0.0
 30
0.0
  3
*Paper_Space
  1

  0
ENDBLK
  5
1D
330
1B
100
AcDbEntity
 67
     1
  8
0
100
AcDbBlockEnd
  0
BLOCK
  5
24
330
23
100
AcDbEntity
  8
0
100
AcDbBlockBegin
  2
*Paper_Space0
 70
     0
 10
0.0
 20
0.0
 30
0.0
  3
*Paper_Space0
  1

  0
ENDBLK
  5
25
330
23
100
AcDbEntity
  8
0
100
AcDbBlockEnd
  0
BLOCK
  5
48
330
47
100
AcDbEntity
  8
0
100
AcDbBlockBegin
  2
0801505_UCT_EM_30X5-select__1
 70
     0
 10
-86.74038196798668
 20
-96.36661769899115
 30
0.0
  3
0801505_UCT_EM_30X5-select__1
  1

  0
LINE
  5
83
330
47
100
AcDbEntity
  8
0
  6
Continuous
 62
     7
100
AcDbLine
 10
-86.74038196798668
 20
-86.85825292620252
 30
0.0
 11
-60.75961987418232
 21
-94.3582529205041
 31
0.0
  0
LINE
  5
84
330
47
100
AcDbEntity
  8
0
  6
Continuous
 62
     7
100
AcDbLine
 10
-60.60244019515387
 20
-96.36661769899115
 30
0.0
 11
-61.19134532392428
 21
-96.19661543167985
 31
0.0
  0
LINE
  5
85
330
47
100
AcDbEntity
  8
0
  6
Continuous
 62
     7
100
AcDbLine
 10
-62.52500873735855
 20
-95.8116199663027
 30
0.0
 11
-62.06439481366897
 21
-95.48270753780514
 31
0.0
  0
LINE
  5
86
330
47
100
AcDbEntity
  8
0
  6
Continuous
 62
     7
100
AcDbLine
 10
-63.11391386612897
 20
-94.63408594425792
 30
0.0
 11
-62.98401005502915
 21
-94.18677832128999
 31
0.0
  0
LINE
  5
87
330
47
100
AcDbEntity
  8
0
  6
Continuous
 62
     7
100
AcDbLine
 10
-63.11391386612897
 20
-95.6416176989914
 30
0.0
 11
-62.52500873735855
 21
-95.8116199663027
 31
0.0
  0
LINE
  5
88
330
47
100
AcDbEntity
  8
0
  6
Continuous
 62
     7
100
AcDbLine
 10
-63.11391386612897
 20
-95.6416176989914
 30
0.0
 11
-63.11391386612897
 21
-94.63408594425792
 31
0.0
  0
LINE
  5
89
330
47
100
AcDbEntity
  8
0
  6
Continuous
 62
     7
100
AcDbLine
 10
-62.52500873735852
 20
-94.88161904261372
 30
0.0
 11
-62.52500873735855
 21
-95.8116199663027
 31
0.0
  0
LINE
  5
8A
330
47
100
AcDbEntity
  8
0
  6
Continuous
 62
     7
100
AcDbLine
 10
-60.60244019515387
 20
-95.35908594425777
 30
0.0
 11
-60.60244019515387
 21
-96.36661769899115
 31
0.0
  0
LINE
  5
8B
330
47
100
AcDbEntity
  8
0
  6
Continuous
 62
     7
100
AcDbLine
 10
-61.72500873811536
 20
-95.11879964393025
 30
0.0
 11
-62.06439481366897
 21
-95.48270753780514
 31
0.0
  0
LINE
  5
8C
330
47
100
AcDbEntity
  8
0
  6
Continuous
 62
     7
100
AcDbLine
 10
-61.19134532392425
 20
-95.2666145079911
 30
0.0
 11
-61.19134532392428
 21
-96.19661543167985
 31
0.0
  0
LINE
  5
8D
330
47
100
AcDbEntity
  8
0
  6
Continuous
 62
     7
100
AcDbLine
 10
-59.80244019591067
 20
-94.66626562188532
 30
0.0
 11
-60.60244019515387
 21
-95.35908594425777
 31
0.0
  0
LINE
  5
8E
330
47
100
AcDbEntity
  8
0
  6
Continuous
 62
     7
100
AcDbLine
 10
-62.06439481366897
 20
-94.56068658860822
 30
0.0
 11
-62.06439481366897
 21
-95.48270753780514
 31
0.0
  0
LINE
  5
8F
330
47
100
AcDbEntity
  8
0
  6
Continuous
 62
     7
100
AcDbLine
 10
-61.32124913502416
 20
-94.74430688471585
 30
0.0
 11
-61.19134532392425
 21
-95.2666145079911
 31
0.0
  0
LINE
  5
90
330
47
100
AcDbEntity
  8
0
  6
Continuous
 62
     7
100
AcDbLine
 10
-61.72500873811533
 20
-94.18879872024124
 30
0.0
 11
-61.72500873811536
 21
-95.11879964393025
 31
0.0
  0
LINE
  5
91
330
47
100
AcDbEntity
  8
0
  6
Continuous
 62
     7
100
AcDbLine
 10
-60.73234400625369
 20
-94.33463132596808
 30
0.0
 11
-60.73234400625373
 21
-94.83677832098273
 31
0.0
  0
LINE
  5
92
330
47
100
AcDbEntity
  8
0
  6
Continuous
 62
     7
100
AcDbLine
 10
-60.73234400625373
 20
-94.83677832098273
 30
0.0
 11
-60.60244019515387
 21
-95.35908594425777
 31
0.0
  0
LINE
  5
93
330
47
100
AcDbEntity
  8
0
  6
Continuous
 62
     7
100
AcDbLine
 10
-61.32124913502416
 20
-94.74430688471585
 30
0.0
 11
-61.32124913502415
 21
-94.19612451803827
 31
0.0
  0
LINE
  5
94
330
47
100
AcDbEntity
  8
0
  6
Continuous
 62
     7
100
AcDbLine
 10
-86.6029434705292
 20
-85.84391044464907
 30
0.0
 11
-60.79644640858503
 21
-93.29360445742326
 31
0.0
  0
LINE
  5
95
330
47
100
AcDbEntity
  8
0
  6
Continuous
 62
     7
100
AcDbLine
 10
-61.72500873811533
 20
-94.18879872024124
 30
0.0
 11
-62.06439481366897
 21
-94.56068658860822
 31
0.0
  0
LINE
  5
96
330
47
100
AcDbEntity
  8
0
  6
Continuous
 62
     7
100
AcDbLine
 10
-61.93449100256915
 20
-94.11337896564045
 30
0.0
 11
-61.86638980662649
 21
-94.03875596129043
 31
0.0
  0
LINE
  5
97
330
47
100
AcDbEntity
  8
0
  6
Continuous
 62
     7
100
AcDbLine
 10
-86.6029434705292
 20
-85.84391044464907
 30
0.0
 11
-86.74038196798668
 21
-86.85825292620252
 31
0.0
  0
LINE
  5
98
330
47
100
AcDbEntity
  8
0
  6
Continuous
 62
     7
100
AcDbLine
 10
-85.28416420301299
 20
-88.23408594426056
 30
0.0
 11
-85.06765785153465
 21
-87.4885732405357
 31
0.0
  0
LINE
  5
99
330
47
100
AcDbEntity
  8
0
  6
Continuous
 62
     7
100
AcDbLine
 10
-84.4787527227642
 20
-87.73040561852265
 30
0.0
 11
-84.69525907424256
 21
-88.47591832224737
 31
0.0
  0
LINE
  5
9A
330
47
100
AcDbEntity
  8
0
  6
Continuous
 62
     7
100
AcDbLine
 10
-84.234645150553
 20
-88.15498586824192
 30
0.0
 11
-84.69525907424256
 21
-88.47591832224737
 31
0.0
  0
LINE
  5
9B
330
47
100
AcDbEntity
  8
0
  6
Continuous
 62
     7
100
AcDbLine
 10
-86.6029434705292
 20
-85.84391044464907
 30
0.0
 11
-84.20355543129304
 21
-83.76597944913313
 31
0.0
  0
LINE
  5
9C
330
47
100
AcDbEntity
  8
0
  6
Continuous
 62
     7
100
AcDbLine
 10
-85.06765785153465
 20
-87.3411267856591
 30
0.0
 11
-85.06765785153465
 21
-87.4885732405357
 31
0.0
  0
LINE
  5
9D
330
47
100
AcDbEntity
  8
0
  6
Continuous
 62
     7
100
AcDbLine
 10
-84.4787527227642
 20
-87.73040561852265
 30
0.0
 11
-84.47875272276421
 21
-87.51112905297042
 31
0.0
  0
LINE
  5
9E
330
47
100
AcDbEntity
  8
0
  6
Continuous
 62
     7
100
AcDbLine
 10
-84.69525907424256
 20
-88.47591832224737
 30
0.0
 11
-84.69525907424256
 21
-89.41161996630477
 31
0.0
  0
LINE
  5
9F
330
47
100
AcDbEntity
  8
0
  6
Continuous
 62
     7
100
AcDbLine
 10
-85.28416420301299
 20
-89.24161769899347
 30
0.0
 11
-85.28416420301299
 21
-88.23408594426056
 31
0.0
  0
LINE
  5
A0
330
47
100
AcDbEntity
  8
0
  6
Continuous
 62
     7
100
AcDbLine
 10
-85.28416420301299
 20
-89.24161769899347
 30
0.0
 11
-84.69525907424256
 21
-89.41161996630477
 31
0.0
  0
LINE
  5
A1
330
47
100
AcDbEntity
  8
0
  6
Continuous
 62
     7
100
AcDbLine
 10
-84.69525907424256
 20
-89.41161996630477
 30
0.0
 11
-84.23464515055309
 21
-89.08270753780724
 31
0.0
  0
LINE
  5
A2
330
47
100
AcDbEntity
  8
0
  6
Continuous
 62
     7
100
AcDbLine
 10
-62.39510492625866
 20
-94.43431141964591
 30
0.0
 11
-62.52500873735852
 21
-94.88161904261372
 31
0.0
  0
LINE
  5
A3
330
47
100
AcDbEntity
  8
0
  6
Continuous
 62
     7
100
AcDbLine
 10
-62.39510492625866
 20
-94.43431141964591
 30
0.0
 11
-62.39510492625866
 21
-93.88612905296837
 31
0.0
  0
LINE
  5
A4
330
47
100
AcDbEntity
  8
0
  6
Continuous
 62
     7
100
AcDbLine
 10
-59.93234400701053
 20
-94.14395799861029
 30
0.0
 11
-59.80244019591067
 21
-94.66626562188532
 31
0.0
  0
LINE
  5
A5
330
47
100
AcDbEntity
  8
0
  6
Continuous
 62
     7
100
AcDbLine
 10
-59.93234400701053
 20
-94.14395799861029
 30
0.0
 11
-60.73234400625373
 21
-94.83677832098273
 31
0.0
  0
LINE
  5
A6
330
47
100
AcDbEntity
  8
0
  6
Continuous
 62
     7
100
AcDbLine
 10
-62.06439481366897
 20
-94.56068658860822
 30
0.0
 11
-62.52500873735852
 21
-94.88161904261372
 31
0.0
  0
LINE
  5
A7
330
47
100
AcDbEntity
  8
0
  6
Continuous
 62
     7
100
AcDbLine
 10
-62.39510492625866
 20
-94.43431141964591
 30
0.0
 11
-61.93449100256915
 21
-94.11337896564045
 31
0.0
  0
LINE
  5
A8
330
47
100
AcDbEntity
  8
0
  6
Continuous
 62
     7
100
AcDbLine
 10
-61.93449100256915
 20
-94.11337896564045
 30
0.0
 11
-62.06439481366897
 21
-94.56068658860822
 31
0.0
  0
LINE
  5
A9
330
47
100
AcDbEntity
  8
0
  6
Continuous
 62
     7
100
AcDbLine
 10
-84.20355543129304
 20
-83.76597944913313
 30
0.0
 11
-58.39705836934888
 21
-91.21567346190729
 31
0.0
  0
LINE
  5
AA
330
47
100
AcDbEntity
  8
0
  6
Continuous
 62
     7
100
AcDbLine
 10
-81.98118418161131
 20
-88.2321149877472
 30
0.0
 11
-81.9726905327947
 21
-88.26626562188774
 31
0.0
  0
LINE
  5
AB
330
47
100
AcDbEntity
  8
0
  6
Continuous
 62
     7
100
AcDbLine
 10
-81.9726905327947
 20
-88.26626562188774
 30
0.0
 11
-81.9726905327947
 21
-89.27379737662075
 31
0.0
  0
LINE
  5
AC
330
47
100
AcDbEntity
  8
0
  6
Continuous
 62
     7
100
AcDbLine
 10
-60.75961987418232
 20
-94.3582529205041
 30
0.0
 11
-58.25961987189137
 21
-92.19318940905805
 31
0.0
  0
LINE
  5
AD
330
47
100
AcDbEntity
  8
0
  6
Continuous
 62
     7
100
AcDbLine
 10
-60.79644640858503
 20
-93.29360445742326
 30
0.0
 11
-58.39705836934888
 21
-91.21567346190729
 31
0.0
  0
LINE
  5
AE
330
47
100
AcDbEntity
  8
0
  6
Continuous
 62
     7
100
AcDbLine
 10
-58.39705836934888
 20
-91.21567346190729
 30
0.0
 11
-58.25961987189137
 21
-92.19318940905805
 31
0.0
  0
LINE
  5
AF
330
47
100
AcDbEntity
  8
0
  6
Continuous
 62
     7
100
AcDbLine
 10
-61.93449100256922
 20
-94.01909683938561
 30
0.0
 11
-61.93449100256915
 21
-94.11337896564045
 31
0.0
  0
LINE
  5
B0
330
47
100
AcDbEntity
  8
0
  6
Continuous
 62
     7
100
AcDbLine
 10
-61.69574076573197
 20
-94.08801809613911
 30
0.0
 11
-61.72500873811533
 21
-94.18879872024124
 31
0.0
  0
LINE
  5
B1
330
47
100
AcDbEntity
  8
0
  6
Continuous
 62
     7
100
AcDbLine
 10
-59.93234400701053
 20
-93.64181100359548
 30
0.0
 11
-59.93234400701053
 21
-94.14395799861029
 31
0.0
  0
LINE
  5
B2
330
47
100
AcDbEntity
  8
0
  6
Continuous
 62
     2
100
AcDbLine
 10
-62.13600959622545
 20
-94.01865845915748
 30
0.0
 11
-62.07843285570981
 21
-93.97754440555644
 31
0.0
  0
LINE
  5
B3
330
47
100
AcDbEntity
  8
0
  6
Continuous
 62
     7
100
AcDbLine
 10
-60.79644640858503
 20
-93.29360445742326
 30
0.0
 11
-60.75961987418232
 21
-94.3582529205041
 31
0.0
  0
LINE
  5
B4
330
47
100
AcDbEntity
  8
0
  6
Continuous
 62
     7
100
AcDbLine
 10
-83.86751860603495
 20
-87.6875771438861
 30
0.0
 11
-83.89525907499936
 21
-87.78309799987495
 31
0.0
  0
LINE
  5
B5
330
47
100
AcDbEntity
  8
0
  6
Continuous
 62
     7
100
AcDbLine
 10
-84.25623281588311
 20
-87.5753650170393
 30
0.0
 11
-84.4787527227642
 21
-87.73040561852265
 31
0.0
  0
LINE
  5
B6
330
47
100
AcDbEntity
  8
0
  6
Continuous
 62
     7
100
AcDbLine
 10
-82.98919688351624
 20
-88.08857324022833
 30
0.0
 11
-82.86150450789506
 21
-87.9779883990708
 31
0.0
  0
LINE
  5
B7
330
47
100
AcDbEntity
  8
0
  6
Continuous
 62
     7
100
AcDbLine
 10
-82.98919688351624
 20
-88.08857324022833
 30
0.0
 11
-82.98919688351616
 21
-87.94112678535166
 31
0.0
  0
LINE
  5
B8
330
47
100
AcDbEntity
  8
0
  6
Continuous
 62
     7
100
AcDbLine
 10
-83.57810201228662
 20
-87.9904010835927
 30
0.0
 11
-83.36159566080832
 21
-88.86091378762464
 31
0.0
  0
LINE
  5
B9
330
47
100
AcDbEntity
  8
0
  6
Continuous
 62
     7
100
AcDbLine
 10
-83.57810201228665
 20
-87.77112451804032
 30
0.0
 11
-83.57810201228662
 21
-87.9904010835927
 31
0.0
  0
LINE
  5
BA
330
47
100
AcDbEntity
  8
0
  6
Continuous
 62
     7
100
AcDbLine
 10
-83.36159566080832
 20
-88.86091378762464
 30
0.0
 11
-83.36159566080832
 21
-89.79661543168191
 31
0.0
  0
LINE
  5
BB
330
47
100
AcDbEntity
  8
0
  6
Continuous
 62
     7
100
AcDbLine
 10
-84.234645150553
 20
-88.15498586824192
 30
0.0
 11
-84.08100602328142
 21
-87.6259486349782
 31
0.0
  0
LINE
  5
BC
330
47
100
AcDbEntity
  8
0
  6
Continuous
 62
     7
100
AcDbLine
 10
-83.89525907499936
 20
-88.7187996439323
 30
0.0
 11
-84.23464515055309
 21
-89.08270753780724
 31
0.0
  0
LINE
  5
BD
330
47
100
AcDbEntity
  8
0
  6
Continuous
 62
     7
100
AcDbLine
 10
-83.89525907499936
 20
-87.78309799987495
 30
0.0
 11
-84.234645150553
 21
-88.15498586824192
 31
0.0
  0
LINE
  5
BE
330
47
100
AcDbEntity
  8
0
  6
Continuous
 62
     7
100
AcDbLine
 10
-83.89525907499936
 20
-87.78309799987495
 30
0.0
 11
-83.89525907499936
 21
-88.7187996439323
 31
0.0
  0
LINE
  5
BF
330
47
100
AcDbEntity
  8
0
  6
Continuous
 62
     7
100
AcDbLine
 10
-84.234645150553
 20
-88.15498586824192
 30
0.0
 11
-84.23464515055309
 21
-89.08270753780724
 31
0.0
  0
LINE
  5
C0
330
47
100
AcDbEntity
  8
0
  6
Continuous
 62
     7
100
AcDbLine
 10
-81.9726905327947
 20
-88.26626562188774
 30
0.0
 11
-82.77269053203793
 21
-88.95908594426022
 31
0.0
  0
LINE
  5
C1
330
47
100
AcDbEntity
  8
0
  6
Continuous
 62
     7
100
AcDbLine
 10
-82.98919688351624
 20
-88.08857324022833
 30
0.0
 11
-82.77269053203793
 21
-88.95908594426022
 31
0.0
  0
LINE
  5
C2
330
47
100
AcDbEntity
  8
0
  6
Continuous
 62
     7
100
AcDbLine
 10
-83.36159566080832
 20
-89.79661543168191
 30
0.0
 11
-82.77269053203791
 21
-89.96661769899322
 31
0.0
  0
LINE
  5
C3
330
47
100
AcDbEntity
  8
0
  6
Continuous
 62
     7
100
AcDbLine
 10
-82.77269053203791
 20
-89.96661769899322
 30
0.0
 11
-81.9726905327947
 21
-89.27379737662075
 31
0.0
  0
LINE
  5
C4
330
47
100
AcDbEntity
  8
0
  6
Continuous
 62
     7
100
AcDbLine
 10
-82.77269053203793
 20
-88.95908594426022
 30
0.0
 11
-82.77269053203791
 21
-89.96661769899322
 31
0.0
  0
LINE
  5
C5
330
47
100
AcDbEntity
  8
0
  6
Continuous
 62
     7
100
AcDbLine
 10
-62.13600959569337
 20
-93.96092343239216
 30
0.0
 11
-62.13600959622545
 21
-94.01865845915748
 31
0.0
  0
LINE
  5
C6
330
47
100
AcDbEntity
  8
0
  6
Continuous
 62
     7
100
AcDbLine
 10
-62.98401005502915
 20
-94.18677832128999
 30
0.0
 11
-62.98401005502909
 21
-93.71612678565707
 31
0.0
  0
LINE
  5
C7
330
47
100
AcDbEntity
  8
0
  6
Continuous
 62
     7
100
AcDbLine
 10
-59.80244019591067
 20
-95.67379737661871
 30
0.0
 11
-60.60244019515387
 21
-96.36661769899115
 31
0.0
  0
LINE
  5
C8
330
47
100
AcDbEntity
  8
0
  6
Continuous
 62
     7
100
AcDbLine
 10
-59.80244019591067
 20
-94.66626562188532
 30
0.0
 11
-59.80244019591067
 21
-95.67379737661871
 31
0.0
  0
SPLINE
  5
C9
330
47
100
AcDbEntity
  8
0
  6
Continuous
 62
     7
100
AcDbSpline
210
0.0
220
0.0
230
1.0
 70
     8
 71
     3
 72
     9
 73
     5
 74
     3
 42
0.000000001
 43
0.0000000001
 44
0.00000001
 40
0.0
 40
0.0
 40
0.0
 40
0.0
 40
0.0287170402982219
 40
0.0568975106638149
 40
0.0568975106638149
 40
0.0568975106638149
 40
0.0568975106638149
 10
-62.13600959622545
 20
-94.01865845915748
 30
0.0
 10
-62.13587512113415
 20
-94.00908170488665
 30
0.0
 10
-62.13560866361469
 20
-93.99010713622516
 30
0.0
 10
-62.13365278517253
 20
-93.9712319993465
 30
0.0
 10
-62.13268405850026
 20
-93.96188343228899
 30
0.0
 11
-62.13600959622545
 21
-94.01865845915748
 31
0.0
 11
-62.13517580197538
 21
-93.98995352564909
 31
0.0
 11
-62.13268405850026
 21
-93.96188343228899
 31
0.0
  0
ENDBLK
  5
49
330
47
100
AcDbEntity
  8
0
100
AcDbBlockEnd
  0
BLOCK
  5
4C
330
4A
100
AcDbEntity
  8
0
100
AcDbBlockBegin
  2
Allg1
 70
     0
 10
-72.500000000022
 20
-90.50000000000699
 30
0.0
  3
Allg1
  1

  0
INSERT
  5
4B
330
4A
100
AcDbEntity
  8
0
100
AcDbBlockReference
  2
0801505_UCT_EM_30X5-select__1
 10
-86.74038196798668
 20
-96.36661769899115
 30
0.0
  0
MTEXT
  5
CB
330
4A
100
AcDbEntity
  8
1
 62
     6
100
AcDbMText
 10
-72.50000000002194
 20
-99.80273952769915
 30
0.0
 40
2.5
 41
0.0
 71
     2
 72
     1
  1
 
  7
CONVERTER_11
 73
     1
 44
1.32052821128451
  0
ENDBLK
  5
4D
330
4A
100
AcDbEntity
  8
0
100
AcDbBlockEnd
  0
BLOCK
  5
4F
330
4E
100
AcDbEntity
  8
0
100
AcDbBlockBegin
  2
0801505_UCT_EM_30X5-select__2
 70
     0
 10
-94.9999989511291
 20
-59.27499998575186
 30
0.0
  3
0801505_UCT_EM_30X5-select__2
  1

  0
LINE
  5
CC
330
4E
100
AcDbEntity
  8
0
  6
Continuous
 62
     7
100
AcDbLine
 10
-65.100610936968
 20
-54.72499998574833
 30
0.0
 11
-64.99999897391316
 21
-55.87499998574833
 31
0.0
  0
LINE
  5
CD
330
4E
100
AcDbEntity
  8
0
  6
Continuous
 62
     7
100
AcDbLine
 10
-66.69999895235865
 20
-57.27074657025322
 30
0.0
 11
-66.63000802160397
 21
-57.26153208941088
 31
0.0
  0
LINE
  5
CE
330
4E
100
AcDbEntity
  8
0
  6
Continuous
 62
     7
100
AcDbLine
 10
-66.669377919924
 20
-57.16477490844235
 30
0.0
 11
-66.669377919924
 21
-55.87499998574833
 31
0.0
  0
LINE
  5
CF
330
4E
100
AcDbEntity
  8
0
  6
Continuous
 62
     7
100
AcDbLine
 10
-64.99999897391316
 20
-55.87499998574833
 30
0.0
 11
-65.94999895235856
 21
-55.87499998574833
 31
0.0
  0
LINE
  5
D0
330
4E
100
AcDbEntity
  8
0
  6
Continuous
 62
     7
100
AcDbLine
 10
-66.63000802160397
 20
-55.87499998574833
 30
0.0
 11
-66.669377919924
 21
-55.87499998574833
 31
0.0
  0
LINE
  5
D1
330
4E
100
AcDbEntity
  8
0
  6
Continuous
 62
     7
100
AcDbLine
 10
-65.94999895235856
 20
-55.87499998574833
 30
0.0
 11
-66.63000802160397
 21
-55.87499998574833
 31
0.0
  0
LINE
  5
D2
330
4E
100
AcDbEntity
  8
0
  6
Continuous
 62
     7
100
AcDbLine
 10
-66.63000802160397
 20
-57.26153208941088
 30
0.0
 11
-66.63000802160397
 21
-55.87499998574833
 31
0.0
  0
LINE
  5
D3
330
4E
100
AcDbEntity
  8
0
  6
Continuous
 62
     7
100
AcDbLine
 10
-66.6999989524084
 20
-57.16880512952933
 30
0.0
 11
-66.69999895235865
 21
-57.27074657025322
 31
0.0
  0
LINE
  5
D4
330
4E
100
AcDbEntity
  8
0
  6
Continuous
 62
     7
100
AcDbLine
 10
-65.94999895235856
 20
-55.87499998574833
 30
0.0
 11
-65.94999895235856
 21
-57.17858982194185
 31
0.0
  0
LINE
  5
D5
330
4E
100
AcDbEntity
  8
0
  6
Continuous
 62
     7
100
AcDbLine
 10
-68.34999895112945
 20
-55.87499998574833
 30
0.0
 11
-91.44999895235853
 21
-55.87499998574833
 31
0.0
  0
LINE
  5
D6
330
4E
100
AcDbEntity
  8
0
  6
Continuous
 62
     7
100
AcDbLine
 10
-93.33061998356408
 20
-55.87499998574833
 30
0.0
 11
-93.33061998417877
 21
-57.37499998574815
 31
0.0
  0
LINE
  5
D7
330
4E
100
AcDbEntity
  8
0
  6
Continuous
 62
     7
100
AcDbLine
 10
-67.63061998356406
 20
-55.87499998574833
 30
0.0
 11
-67.66998988188395
 21
-55.87499998574833
 31
0.0
  0
LINE
  5
D8
330
4E
100
AcDbEntity
  8
0
  6
Continuous
 62
     7
100
AcDbLine
 10
-67.66998988188395
 20
-55.87499998574833
 30
0.0
 11
-67.66998988188398
 21
-57.26153208941105
 31
0.0
  0
LINE
  5
D9
330
4E
100
AcDbEntity
  8
0
  6
Continuous
 62
     7
100
AcDbLine
 10
-92.16937791992402
 20
-55.87499998574833
 30
0.0
 11
-92.1693779193096
 21
-57.37499998574815
 31
0.0
  0
LINE
  5
DA
330
4E
100
AcDbEntity
  8
0
  6
Continuous
 62
     7
100
AcDbLine
 10
-68.34999895112944
 20
-57.17858982194197
 30
0.0
 11
-68.34999895112945
 21
-55.87499998574833
 31
0.0
  0
LINE
  5
DB
330
4E
100
AcDbEntity
  8
0
  6
Continuous
 62
     7
100
AcDbLine
 10
-67.66998988188395
 20
-55.87499998574833
 30
0.0
 11
-68.34999895112945
 21
-55.87499998574833
 31
0.0
  0
LINE
  5
DC
330
4E
100
AcDbEntity
  8
0
  6
Continuous
 62
     7
100
AcDbLine
 10
-91.4499989523585
 20
-57.55179490269813
 30
0.0
 11
-91.44999895235853
 21
-55.87499998574833
 31
0.0
  0
LINE
  5
DD
330
4E
100
AcDbEntity
  8
0
  6
Continuous
 62
     7
100
AcDbLine
 10
-93.36998988188394
 20
-57.64131979504622
 30
0.0
 11
-93.36998988188394
 21
-55.87499998574833
 31
0.0
  0
LINE
  5
DE
330
4E
100
AcDbEntity
  8
0
  6
Continuous
 62
     7
100
AcDbLine
 10
-94.04999895112944
 20
-55.87499998574833
 30
0.0
 11
-94.04999895112944
 21
-57.55179490269836
 31
0.0
  0
LINE
  5
DF
330
4E
100
AcDbEntity
  8
0
  6
Continuous
 62
     7
100
AcDbLine
 10
-94.04999895112944
 20
-57.55179490269836
 30
0.0
 11
-94.19999895174396
 21
-58.11160252612703
 31
0.0
  0
LINE
  5
E0
330
4E
100
AcDbEntity
  8
0
  6
Continuous
 62
     7
100
AcDbLine
 10
-92.19999895235863
 20
-57.65053427588862
 30
0.0
 11
-92.13000802160397
 21
-57.64131979504627
 31
0.0
  0
LINE
  5
E1
330
4E
100
AcDbEntity
  8
0
  6
Continuous
 62
     7
100
AcDbLine
 10
-93.29999895112958
 20
-57.65053427588859
 30
0.0
 11
-93.2999989514369
 21
-57.37499998574815
 31
0.0
  0
LINE
  5
E2
330
4E
100
AcDbEntity
  8
0
  6
Continuous
 62
     7
100
AcDbLine
 10
-67.59999895112652
 20
-57.16880512989024
 30
0.0
 11
-67.59999895112956
 21
-57.27074657025329
 31
0.0
  0
LINE
  5
E3
330
4E
100
AcDbEntity
  8
0
  6
Continuous
 62
     2
100
AcDbLine
 10
-92.1693779193096
 20
-57.37499998574815
 30
0.0
 11
-92.19999895205144
 21
-57.37499998574815
 31
0.0
  0
LINE
  5
E4
330
4E
100
AcDbEntity
  8
0
  6
Continuous
 62
     7
100
AcDbLine
 10
-93.36998988188394
 20
-57.64131979504622
 30
0.0
 11
-93.29999895112958
 21
-57.65053427588859
 31
0.0
  0
LINE
  5
E5
330
4E
100
AcDbEntity
  8
0
  6
Continuous
 62
     7
100
AcDbLine
 10
-91.29999895174402
 20
-58.11160252612692
 30
0.0
 11
-91.4499989523585
 21
-57.55179490269813
 31
0.0
  0
LINE
  5
E6
330
4E
100
AcDbEntity
  8
0
  6
Continuous
 62
     7
100
AcDbLine
 10
-91.44999895235853
 20
-55.87499998574833
 30
0.0
 11
-92.13000802160397
 21
-55.87499998574833
 31
0.0
  0
LINE
  5
E7
330
4E
100
AcDbEntity
  8
0
  6
Continuous
 62
     7
100
AcDbLine
 10
-94.89938698807427
 20
-54.72499998574833
 30
0.0
 11
-94.9999989511291
 21
-55.87499998574833
 31
0.0
  0
LINE
  5
E8
330
4E
100
AcDbEntity
  8
0
  6
Continuous
 62
     7
100
AcDbLine
 10
-94.04999895112944
 20
-55.87499998574833
 30
0.0
 11
-94.9999989511291
 21
-55.87499998574833
 31
0.0
  0
LINE
  5
E9
330
4E
100
AcDbEntity
  8
0
  6
Continuous
 62
     7
100
AcDbLine
 10
-93.33061998356408
 20
-55.87499998574833
 30
0.0
 11
-93.36998988188394
 21
-55.87499998574833
 31
0.0
  0
LINE
  5
EA
330
4E
100
AcDbEntity
  8
0
  6
Continuous
 62
     7
100
AcDbLine
 10
-93.36998988188394
 20
-55.87499998574833
 30
0.0
 11
-94.04999895112944
 21
-55.87499998574833
 31
0.0
  0
LINE
  5
EB
330
4E
100
AcDbEntity
  8
0
  6
Continuous
 62
     7
100
AcDbLine
 10
-92.16937791992402
 20
-55.87499998574833
 30
0.0
 11
-93.33061998356408
 21
-55.87499998574833
 31
0.0
  0
LINE
  5
EC
330
4E
100
AcDbEntity
  8
0
  6
Continuous
 62
     7
100
AcDbLine
 10
-92.13000802160397
 20
-55.87499998574833
 30
0.0
 11
-92.16937791992402
 21
-55.87499998574833
 31
0.0
  0
LINE
  5
ED
330
4E
100
AcDbEntity
  8
0
  6
Continuous
 62
     7
100
AcDbLine
 10
-68.34999895112944
 20
-57.17858982194197
 30
0.0
 11
-68.59999895174393
 21
-58.11160252612747
 31
0.0
  0
LINE
  5
EE
330
4E
100
AcDbEntity
  8
0
  6
Continuous
 62
     7
100
AcDbLine
 10
-67.66998988188398
 20
-57.26153208941105
 30
0.0
 11
-67.9199898824985
 21
-58.19454479359676
 31
0.0
  0
LINE
  5
EF
330
4E
100
AcDbEntity
  8
0
  6
Continuous
 62
     7
100
AcDbLine
 10
-65.69999895174398
 20
-58.11160252612757
 30
0.0
 11
-65.94999895235856
 21
-57.17858982194185
 31
0.0
  0
LINE
  5
F0
330
4E
100
AcDbEntity
  8
0
  6
Continuous
 62
     7
100
AcDbLine
 10
-65.699998951744
 20
-59.27499998575186
 30
0.0
 11
-65.69999895174398
 21
-58.11160252612757
 31
0.0
  0
LINE
  5
F1
330
4E
100
AcDbEntity
  8
0
  6
Continuous
 62
     7
100
AcDbLine
 10
-66.63000802160397
 20
-57.26153208941088
 30
0.0
 11
-66.38000802098944
 21
-58.19454479359649
 31
0.0
  0
LINE
  5
F2
330
4E
100
AcDbEntity
  8
0
  6
Continuous
 62
     7
100
AcDbLine
 10
-67.8499989517441
 20
-58.20375927443905
 30
0.0
 11
-67.9199898824985
 21
-58.19454479359676
 31
0.0
  0
LINE
  5
F3
330
4E
100
AcDbEntity
  8
0
  6
Continuous
 62
     7
100
AcDbLine
 10
-67.9199898824985
 20
-58.19454479359676
 30
0.0
 11
-67.9199898824985
 21
-59.27499998575186
 31
0.0
  0
LINE
  5
F4
330
4E
100
AcDbEntity
  8
0
  6
Continuous
 62
     7
100
AcDbLine
 10
-67.66998988188398
 20
-57.26153208941105
 30
0.0
 11
-67.59999895112956
 21
-57.27074657025329
 31
0.0
  0
LINE
  5
F5
330
4E
100
AcDbEntity
  8
0
  6
Continuous
 62
     7
100
AcDbLine
 10
-67.8499989517441
 20
-59.27499998575186
 30
0.0
 11
-67.8499989517441
 21
-58.20375927443905
 31
0.0
  0
LINE
  5
F6
330
4E
100
AcDbEntity
  8
0
  6
Continuous
 62
     7
100
AcDbLine
 10
-67.9199898824985
 20
-59.27499998575186
 30
0.0
 11
-67.8499989517441
 21
-59.27499998575186
 31
0.0
  0
LINE
  5
F7
330
4E
100
AcDbEntity
  8
0
  6
Continuous
 62
     7
100
AcDbLine
 10
-65.699998951744
 20
-59.27499998575186
 30
0.0
 11
-66.38000802098944
 21
-59.27499998575186
 31
0.0
  0
LINE
  5
F8
330
4E
100
AcDbEntity
  8
0
  6
Continuous
 62
     7
100
AcDbLine
 10
-92.13000802160397
 20
-57.64131979504627
 30
0.0
 11
-92.13000802160397
 21
-55.87499998574833
 31
0.0
  0
LINE
  5
F9
330
4E
100
AcDbEntity
  8
0
  6
Continuous
 62
     2
100
AcDbLine
 10
-93.33061998417877
 20
-57.37499998574815
 30
0.0
 11
-93.2999989514369
 21
-57.37499998574815
 31
0.0
  0
LINE
  5
FA
330
4E
100
AcDbEntity
  8
0
  6
Continuous
 62
     7
100
AcDbLine
 10
-91.29999895174402
 20
-59.27499998575186
 30
0.0
 11
-91.29999895174402
 21
-58.11160252612692
 31
0.0
  0
LINE
  5
FB
330
4E
100
AcDbEntity
  8
0
  6
Continuous
 62
     7
100
AcDbLine
 10
-94.19999895174396
 20
-58.11160252612703
 30
0.0
 11
-94.19999895174396
 21
-59.27499998575186
 31
0.0
  0
LINE
  5
FC
330
4E
100
AcDbEntity
  8
0
  6
Continuous
 62
     7
100
AcDbLine
 10
-94.19999895174396
 20
-59.27499998575186
 30
0.0
 11
-93.5199898824985
 21
-59.27499998575186
 31
0.0
  0
LINE
  5
FD
330
4E
100
AcDbEntity
  8
0
  6
Continuous
 62
     7
100
AcDbLine
 10
-91.98000802098946
 20
-58.20112741847495
 30
0.0
 11
-92.04999895174414
 21
-58.21034189931727
 31
0.0
  0
LINE
  5
FE
330
4E
100
AcDbEntity
  8
0
  6
Continuous
 62
     7
100
AcDbLine
 10
-66.38000802098944
 20
-58.19454479359649
 30
0.0
 11
-66.38000802098944
 21
-59.27499998575186
 31
0.0
  0
LINE
  5
FF
330
4E
100
AcDbEntity
  8
0
  6
Continuous
 62
     7
100
AcDbLine
 10
-66.44999895174412
 20
-58.20375927443878
 30
0.0
 11
-66.44999895174412
 21
-59.27499998575186
 31
0.0
  0
LINE
  5
100
330
4E
100
AcDbEntity
  8
0
  6
Continuous
 62
     7
100
AcDbLine
 10
-66.38000802098944
 20
-58.19454479359649
 30
0.0
 11
-66.44999895174412
 21
-58.20375927443878
 31
0.0
  0
LINE
  5
101
330
4E
100
AcDbEntity
  8
0
  6
Continuous
 62
     7
100
AcDbLine
 10
-66.38000802098944
 20
-59.27499998575186
 30
0.0
 11
-66.44999895174412
 21
-59.27499998575186
 31
0.0
  0
LINE
  5
102
330
4E
100
AcDbEntity
  8
0
  6
Continuous
 62
     7
100
AcDbLine
 10
-93.5199898824985
 20
-59.27499998575186
 30
0.0
 11
-93.44999895174412
 21
-59.27499998575186
 31
0.0
  0
LINE
  5
103
330
4E
100
AcDbEntity
  8
0
  6
Continuous
 62
     7
100
AcDbLine
 10
-93.44999895174412
 20
-59.27499998575186
 30
0.0
 11
-93.44999895174412
 21
-58.21034189931754
 31
0.0
  0
LINE
  5
104
330
4E
100
AcDbEntity
  8
0
  6
Continuous
 62
     7
100
AcDbLine
 10
-93.5199898824985
 20
-58.20112741847512
 30
0.0
 11
-93.5199898824985
 21
-59.27499998575186
 31
0.0
  0
LINE
  5
105
330
4E
100
AcDbEntity
  8
0
  6
Continuous
 62
     7
100
AcDbLine
 10
-93.44999895174412
 20
-58.21034189931754
 30
0.0
 11
-93.5199898824985
 21
-58.20112741847512
 31
0.0
  0
LINE
  5
106
330
4E
100
AcDbEntity
  8
0
  6
Continuous
 62
     7
100
AcDbLine
 10
-92.04999895174414
 20
-58.21034189931727
 30
0.0
 11
-92.04999895174417
 21
-59.27499998575186
 31
0.0
  0
LINE
  5
107
330
4E
100
AcDbEntity
  8
0
  6
Continuous
 62
     7
100
AcDbLine
 10
-91.98000802098946
 20
-58.20112741847495
 30
0.0
 11
-91.98000802098943
 21
-59.27499998575186
 31
0.0
  0
LINE
  5
108
330
4E
100
AcDbEntity
  8
0
  6
Continuous
 62
     7
100
AcDbLine
 10
-91.98000802098943
 20
-59.27499998575186
 30
0.0
 11
-91.29999895174402
 21
-59.27499998575186
 31
0.0
  0
LINE
  5
109
330
4E
100
AcDbEntity
  8
0
  6
Continuous
 62
     7
100
AcDbLine
 10
-91.98000802098943
 20
-59.27499998575186
 30
0.0
 11
-92.04999895174417
 21
-59.27499998575186
 31
0.0
  0
LINE
  5
10A
330
4E
100
AcDbEntity
  8
0
  6
Continuous
 62
     7
100
AcDbLine
 10
-67.9199898824985
 20
-59.27499998575186
 30
0.0
 11
-68.59999895174393
 21
-59.27499998575186
 31
0.0
  0
LINE
  5
10B
330
4E
100
AcDbEntity
  8
0
  6
Continuous
 62
     7
100
AcDbLine
 10
-68.59999895174393
 20
-58.11160252612747
 30
0.0
 11
-68.59999895174393
 21
-59.27499998575186
 31
0.0
  0
LINE
  5
10C
330
4E
100
AcDbEntity
  8
0
  6
Continuous
 62
     7
100
AcDbLine
 10
-67.59999895112956
 20
-57.27074657025329
 30
0.0
 11
-67.8499989517441
 21
-58.20375927443905
 31
0.0
  0
LINE
  5
10D
330
4E
100
AcDbEntity
  8
0
  6
Continuous
 62
     7
100
AcDbLine
 10
-93.36998988188394
 20
-57.64131979504622
 30
0.0
 11
-93.5199898824985
 21
-58.20112741847512
 31
0.0
  0
LINE
  5
10E
330
4E
100
AcDbEntity
  8
0
  6
Continuous
 62
     7
100
AcDbLine
 10
-92.13000802160397
 20
-57.64131979504627
 30
0.0
 11
-91.98000802098946
 21
-58.20112741847495
 31
0.0
  0
LINE
  5
10F
330
4E
100
AcDbEntity
  8
0
  6
Continuous
 62
     7
100
AcDbLine
 10
-66.44999895174412
 20
-58.20375927443878
 30
0.0
 11
-66.69999895235865
 21
-57.27074657025322
 31
0.0
  0
LINE
  5
110
330
4E
100
AcDbEntity
  8
0
  6
Continuous
 62
     7
100
AcDbLine
 10
-92.19999895235863
 20
-57.65053427588862
 30
0.0
 11
-92.04999895174414
 21
-58.21034189931727
 31
0.0
  0
LINE
  5
111
330
4E
100
AcDbEntity
  8
0
  6
Continuous
 62
     7
100
AcDbLine
 10
-92.19999895205144
 20
-57.37499998574815
 30
0.0
 11
-92.19999895235863
 21
-57.65053427588862
 31
0.0
  0
LINE
  5
112
330
4E
100
AcDbEntity
  8
0
  6
Continuous
 62
     7
100
AcDbLine
 10
-93.44999895174412
 20
-58.21034189931754
 30
0.0
 11
-93.29999895112958
 21
-57.65053427588859
 31
0.0
  0
LINE
  5
113
330
4E
100
AcDbEntity
  8
0
  6
Continuous
 62
     7
100
AcDbLine
 10
-65.100610936968
 20
-54.72499998574833
 30
0.0
 11
-94.89938698807427
 21
-54.72499998574833
 31
0.0
  0
LINE
  5
114
330
4E
100
AcDbEntity
  8
0
  6
Continuous
 62
     7
100
AcDbLine
 10
-66.669377919924
 20
-55.87499998574833
 30
0.0
 11
-67.63061998356406
 21
-55.87499998574833
 31
0.0
  0
LINE
  5
115
330
4E
100
AcDbEntity
  8
0
  6
Continuous
 62
     7
100
AcDbLine
 10
-67.63061998356406
 20
-55.87499998574833
 30
0.0
 11
-67.63061998356295
 21
-57.16477490843738
 31
0.0
  0
ARC
  5
116
330
4E
100
AcDbEntity
  8
0
  6
Continuous
 62
     7
100
AcDbCircle
 10
-92.74999895174415
 20
-57.37499998574815
 30
0.0
 40
0.58062103243455
100
AcDbArc
 50
0.0
 51
180.0
  0
ARC
  5
117
330
4E
100
AcDbEntity
  8
0
  6
Continuous
 62
     7
100
AcDbCircle
 10
-92.74999895174415
 20
-57.37499998574815
 30
0.0
 40
0.5499999996927016
100
AcDbArc
 50
0.0
 51
180.0
  0
ARC
  5
118
330
4E
100
AcDbEntity
  8
0
  6
Continuous
 62
     7
100
AcDbCircle
 10
-67.14999895174401
 20
-57.29140076835377
 30
0.0
 40
0.4970218150403815
100
AcDbArc
 50
14.75991075946476
 51
165.2400892399503
  0
ARC
  5
119
330
4E
100
AcDbEntity
  8
0
  6
Continuous
 62
     7
100
AcDbCircle
 10
-67.14999895171829
 20
-57.29140076835377
 30
0.0
 40
0.4664007826297864
100
AcDbArc
 50
15.23951773623485
 51
164.7604823097176
  0
SPLINE
  5
11A
330
4E
100
AcDbEntity
  8
0
  6
Continuous
 62
     7
100
AcDbSpline
210
0.0
220
0.0
230
1.0
 70
     8
 71
     3
 72
    11
 73
     7
 74
     5
 42
0.000000001
 43
0.0000000001
 44
0.00000001
 40
0.0
 40
0.0
 40
0.0
 40
0.0
 40
0.0078081312506724
 40
0.0154404590424972
 40
0.0232448646376677
 40
0.0308851358317284
 40
0.0308851358317284
 40
0.0308851358317284
 40
0.0308851358317284
 10
-66.669377919924
 20
-57.16477490844235
 30
0.0
 10
-66.67195897392781
 20
-57.16510996531031
 30
0.0
 10
-66.67706296646412
 20
-57.16577254986628
 30
0.0
 10
-66.68474547146013
 20
-57.16678007822265
 30
0.0
 10
-66.69237159762672
 20
-57.16778717582934
 30
0.0
 10
-66.69747457835132
 20
-57.16846821923202
 30
0.0
 10
-66.6999989524084
 20
-57.16880512952933
 30
0.0
 11
-66.669377919924
 21
-57.16477490844235
 31
0.0
 11
-66.67712085892718
 21
-57.16578178941354
 31
0.0
 11
-66.68468845322221
 21
-57.16677372906143
 31
0.0
 11
-66.6924256011197
 21
-57.16779612295778
 31
0.0
 11
-66.6999989524084
 21
-57.16880512952933
 31
0.0
  0
SPLINE
  5
11B
330
4E
100
AcDbEntity
  8
0
  6
Continuous
 62
     7
100
AcDbSpline
210
0.0
220
0.0
230
1.0
 70
     8
 71
     3
 72
    11
 73
     7
 74
     5
 42
0.000000001
 43
0.0000000001
 44
0.00000001
 40
0.0
 40
0.0
 40
0.0
 40
0.0
 40
0.0076552601599779
 40
0.0154446766660073
 40
0.0231347131208257
 40
0.0308851358324462
 40
0.0308851358324462
 40
0.0308851358324462
 40
0.0308851358324462
 10
-67.59999895112652
 20
-57.16880512989024
 30
0.0
 10
-67.60252827776252
 20
-57.1684675598846
 30
0.0
 10
-67.60763125878465
 20
-57.16778651900239
 30
0.0
 10
-67.61527645644088
 20
-57.1667769096635
 30
0.0
 10
-67.62295401128799
 20
-57.16577005943917
 30
0.0
 10
-67.62805800507051
 20
-57.16510748422933
 30
0.0
 10
-67.63061998356295
 20
-57.16477490843738
 30
0.0
 11
-67.59999895112652
 21
-57.16880512989024
 31
0.0
 11
-67.6075871611117
 21
-57.16779415144245
 31
0.0
 11
-67.6153094501413
 21
-57.1667737290694
 31
0.0
 11
-67.62293426748894
 21
-57.16577431861732
 31
0.0
 11
-67.63061998356295
 21
-57.16477490843738
 31
0.0
  0
ENDBLK
  5
50
330
4E
100
AcDbEntity
  8
0
100
AcDbBlockEnd
  0
BLOCK
  5
53
330
51
100
AcDbEntity
  8
0
100
AcDbBlockBegin
  2
Rckans1
 70
     0
 10
-79.99999999993747
 20
-57.00000000003759
 30
0.0
  3
Rckans1
  1

  0
INSERT
  5
52
330
51
100
AcDbEntity
  8
0
100
AcDbBlockReference
  2
0801505_UCT_EM_30X5-select__2
 10
-94.9999989511291
 20
-59.27499998575186
 30
0.0
  0
MTEXT
  5
11C
330
51
100
AcDbEntity
  8
1
 62
     6
100
AcDbMText
 10
-79.99999999993747
 20
-61.77499997619566
 30
0.0
 40
2.5
 41
0.0
 71
     2
 72
     1
  1
 
  7
CONVERTER_11
 73
     1
 44
1.32052821128451
  0
ENDBLK
  5
54
330
51
100
AcDbEntity
  8
0
100
AcDbBlockEnd
  0
BLOCK
  5
56
330
55
100
AcDbEntity
  8
0
100
AcDbBlockBegin
  2
0801505_UCT_EM_30X5-select__3
 70
     0
 10
-170.0000000452979
 20
-59.27499998572935
 30
0.0
  3
0801505_UCT_EM_30X5-select__3
  1

  0
LINE
  5
11D
330
55
100
AcDbEntity
  8
0
  6
Continuous
 62
     7
100
AcDbLine
 10
-169.8993880822431
 20
-54.72499998572582
 30
0.0
 11
-170.0000000452979
 21
-55.87499998572582
 31
0.0
  0
LINE
  5
11E
330
55
100
AcDbEntity
  8
0
  6
Continuous
 62
     7
100
AcDbLine
 10
-168.3000000422498
 20
-57.55179490267585
 30
0.0
 11
-168.3000000422546
 21
-58.11160252610496
 31
0.0
  0
LINE
  5
11F
330
55
100
AcDbEntity
  8
0
  6
Continuous
 62
     7
100
AcDbLine
 10
-168.3000000422498
 20
-57.55179490267585
 30
0.0
 11
-168.3000000422501
 21
-55.87499998572582
 31
0.0
  0
LINE
  5
120
330
55
100
AcDbEntity
  8
0
  6
Continuous
 62
     7
100
AcDbLine
 10
-169.8993880822431
 20
-54.72499998572582
 30
0.0
 11
-165.1006120037692
 21
-54.72499998572582
 31
0.0
  0
LINE
  5
121
330
55
100
AcDbEntity
  8
0
  6
Continuous
 62
     7
100
AcDbLine
 10
-168.3000000422501
 20
-55.87499998572582
 30
0.0
 11
-166.7000000437676
 21
-55.87499998572582
 31
0.0
  0
LINE
  5
122
330
55
100
AcDbEntity
  8
0
  6
Continuous
 62
     7
100
AcDbLine
 10
-166.7000000437629
 20
-57.55179490267585
 30
0.0
 11
-168.3000000422498
 21
-57.55179490267585
 31
0.0
  0
LINE
  5
123
330
55
100
AcDbEntity
  8
0
  6
Continuous
 62
     7
100
AcDbLine
 10
-170.0000000452979
 20
-55.87499998572582
 30
0.0
 11
-168.3000000422501
 21
-55.87499998572582
 31
0.0
  0
LINE
  5
124
330
55
100
AcDbEntity
  8
0
  6
Continuous
 62
     7
100
AcDbLine
 10
-168.3000000422502
 20
-59.27499998572935
 30
0.0
 11
-166.700000043768
 21
-59.27499998572935
 31
0.0
  0
LINE
  5
125
330
55
100
AcDbEntity
  8
0
  6
Continuous
 62
     7
100
AcDbLine
 10
-168.3000000422546
 20
-58.11160252610496
 30
0.0
 11
-168.3000000422502
 21
-59.27499998572935
 31
0.0
  0
LINE
  5
126
330
55
100
AcDbEntity
  8
0
  6
Continuous
 62
     7
100
AcDbLine
 10
-166.7000000437676
 20
-58.11160252610496
 30
0.0
 11
-168.3000000422546
 21
-58.11160252610496
 31
0.0
  0
LINE
  5
127
330
55
100
AcDbEntity
  8
0
  6
Continuous
 62
     7
100
AcDbLine
 10
-166.7000000437676
 20
-58.11160252610496
 30
0.0
 11
-166.700000043768
 21
-59.27499998572935
 31
0.0
  0
LINE
  5
128
330
55
100
AcDbEntity
  8
0
  6
Continuous
 62
     7
100
AcDbLine
 10
-166.7000000437676
 20
-55.87499998572582
 30
0.0
 11
-165.0000000407144
 21
-55.87499998572582
 31
0.0
  0
LINE
  5
129
330
55
100
AcDbEntity
  8
0
  6
Continuous
 62
     7
100
AcDbLine
 10
-165.1006120037692
 20
-54.72499998572582
 30
0.0
 11
-165.0000000407144
 21
-55.87499998572582
 31
0.0
  0
LINE
  5
12A
330
55
100
AcDbEntity
  8
0
  6
Continuous
 62
     7
100
AcDbLine
 10
-166.7000000437629
 20
-57.55179490267585
 30
0.0
 11
-166.7000000437676
 21
-58.11160252610496
 31
0.0
  0
LINE
  5
12B
330
55
100
AcDbEntity
  8
0
  6
Continuous
 62
     7
100
AcDbLine
 10
-166.7000000437629
 20
-57.55179490267585
 30
0.0
 11
-166.7000000437676
 21
-55.87499998572582
 31
0.0
  0
ENDBLK
  5
57
330
55
100
AcDbEntity
  8
0
100
AcDbBlockEnd
  0
BLOCK
  5
5A
330
58
100
AcDbEntity
  8
0
100
AcDbBlockBegin
  2
SA_Rechts1
 70
     0
 10
-167.5000000000319
 20
-57.00000000001508
 30
0.0
  3
SA_Rechts1
  1

  0
INSERT
  5
59
330
58
100
AcDbEntity
  8
0
100
AcDbBlockReference
  2
0801505_UCT_EM_30X5-select__3
 10
-170.0000000452979
 20
-59.27499998572935
 30
0.0
  0
MTEXT
  5
12C
330
58
100
AcDbEntity
  8
1
 62
     6
100
AcDbMText
 10
-167.500000000032
 20
-61.77499997617315
 30
0.0
 40
2.5
 41
0.0
 71
     2
 72
     1
  1
 
  7
CONVERTER_11
 73
     1
 44
1.32052821128451
  0
ENDBLK
  5
5B
330
58
100
AcDbEntity
  8
0
100
AcDbBlockEnd
  0
BLOCK
  5
5D
330
5C
100
AcDbEntity
  8
0
100
AcDbBlockBegin
  2
0801505_UCT_EM_30X5-select__4
 70
     0
 10
-109.9999999593104
 20
-59.27499998572928
 30
0.0
  3
0801505_UCT_EM_30X5-select__4
  1

  0
LINE
  5
12D
330
5C
100
AcDbEntity
  8
0
  6
Continuous
 62
     7
100
AcDbLine
 10
-105.1006119177818
 20
-54.72499998572575
 30
0.0
 11
-104.9999999547269
 21
-55.87499998572574
 31
0.0
  0
LINE
  5
12E
330
5C
100
AcDbEntity
  8
0
  6
Continuous
 62
     7
100
AcDbLine
 10
-105.1006119177818
 20
-54.72499998572575
 30
0.0
 11
-109.8993879962556
 21
-54.72499998572575
 31
0.0
  0
LINE
  5
12F
330
5C
100
AcDbEntity
  8
0
  6
Continuous
 62
     7
100
AcDbLine
 10
-104.9999999547269
 20
-55.87499998572574
 30
0.0
 11
-106.6999999577757
 21
-55.87499998572575
 31
0.0
  0
LINE
  5
130
330
5C
100
AcDbEntity
  8
0
  6
Continuous
 62
     7
100
AcDbLine
 10
-106.6999999577757
 20
-55.87499998572575
 30
0.0
 11
-106.6999999577754
 21
-57.17858982191926
 31
0.0
  0
LINE
  5
131
330
5C
100
AcDbEntity
  8
0
  6
Continuous
 62
     7
100
AcDbLine
 10
-108.2999999562626
 20
-55.87499998572575
 30
0.0
 11
-108.2999999562623
 21
-57.17858982191927
 31
0.0
  0
LINE
  5
132
330
5C
100
AcDbEntity
  8
0
  6
Continuous
 62
     7
100
AcDbLine
 10
-106.6999999577754
 20
-57.17858982191926
 30
0.0
 11
-108.2999999562623
 21
-57.17858982191927
 31
0.0
  0
LINE
  5
133
330
5C
100
AcDbEntity
  8
0
  6
Continuous
 62
     7
100
AcDbLine
 10
-109.8993879962556
 20
-54.72499998572575
 30
0.0
 11
-109.9999999593104
 21
-55.87499998572575
 31
0.0
  0
LINE
  5
134
330
5C
100
AcDbEntity
  8
0
  6
Continuous
 62
     7
100
AcDbLine
 10
-108.2999999562626
 20
-55.87499998572575
 30
0.0
 11
-109.9999999593104
 21
-55.87499998572575
 31
0.0
  0
LINE
  5
135
330
5C
100
AcDbEntity
  8
0
  6
Continuous
 62
     7
100
AcDbLine
 10
-106.6999999577757
 20
-55.87499998572575
 30
0.0
 11
-108.2999999562626
 21
-55.87499998572575
 31
0.0
  0
LINE
  5
136
330
5C
100
AcDbEntity
  8
0
  6
Continuous
 62
     7
100
AcDbLine
 10
-106.6999999577801
 20
-59.27499998572928
 30
0.0
 11
-108.299999956267
 21
-59.27499998572928
 31
0.0
  0
LINE
  5
137
330
5C
100
AcDbEntity
  8
0
  6
Continuous
 62
     7
100
AcDbLine
 10
-108.299999956267
 20
-58.11160252610434
 30
0.0
 11
-108.2999999562623
 21
-57.17858982191927
 31
0.0
  0
LINE
  5
138
330
5C
100
AcDbEntity
  8
0
  6
Continuous
 62
     7
100
AcDbLine
 10
-108.299999956267
 20
-58.11160252610434
 30
0.0
 11
-106.6999999577801
 21
-58.11160252610434
 31
0.0
  0
LINE
  5
139
330
5C
100
AcDbEntity
  8
0
  6
Continuous
 62
     7
100
AcDbLine
 10
-108.299999956267
 20
-59.27499998572928
 30
0.0
 11
-108.299999956267
 21
-58.11160252610434
 31
0.0
  0
LINE
  5
13A
330
5C
100
AcDbEntity
  8
0
  6
Continuous
 62
     7
100
AcDbLine
 10
-106.6999999577801
 20
-59.27499998572928
 30
0.0
 11
-106.6999999577801
 21
-58.11160252610434
 31
0.0
  0
LINE
  5
13B
330
5C
100
AcDbEntity
  8
0
  6
Continuous
 62
     7
100
AcDbLine
 10
-106.6999999577801
 20
-58.11160252610434
 30
0.0
 11
-106.6999999577754
 21
-57.17858982191926
 31
0.0
  0
ENDBLK
  5
5E
330
5C
100
AcDbEntity
  8
0
100
AcDbBlockEnd
  0
BLOCK
  5
61
330
5F
100
AcDbEntity
  8
0
100
AcDbBlockBegin
  2
SA_Links1
 70
     0
 10
-107.4999999999985
 20
-57.00000000001501
 30
0.0
  3
SA_Links1
  1

  0
INSERT
  5
60
330
5F
100
AcDbEntity
  8
0
100
AcDbBlockReference
  2
0801505_UCT_EM_30X5-select__4
 10
-109.9999999593104
 20
-59.27499998572928
 30
0.0
  0
MTEXT
  5
13C
330
5F
100
AcDbEntity
  8
1
 62
     6
100
AcDbMText
 10
-107.4999999999986
 20
-61.77499997617315
 30
0.0
 40
2.5
 41
0.0
 71
     2
 72
     1
  1
 
  7
CONVERTER_11
 73
     1
 44
1.32052821128451
  0
ENDBLK
  5
62
330
5F
100
AcDbEntity
  8
0
100
AcDbBlockEnd
  0
BLOCK
  5
64
330
63
100
AcDbEntity
  8
0
100
AcDbBlockBegin
  2
0801505_UCT_EM_30X5-select__5
 70
     0
 10
-150.000001026048
 20
-79.2750000810104
 30
0.0
  3
0801505_UCT_EM_30X5-select__5
  1

  0
LINE
  5
13D
330
63
100
AcDbEntity
  8
0
  6
Continuous
 62
     7
100
AcDbLine
 10
-149.8993890629932
 20
-74.37561203948171
 30
0.0
 11
-150.000001026048
 21
-74.2750000764269
 31
0.0
  0
LINE
  5
13E
330
63
100
AcDbEntity
  8
0
  6
Continuous
 62
     7
100
AcDbLine
 10
-149.8993890629923
 20
-79.17438811795557
 30
0.0
 11
-150.0000010260471
 21
-79.2750000810104
 31
0.0
  0
LINE
  5
13F
330
63
100
AcDbEntity
  8
0
  6
Continuous
 62
     7
100
AcDbLine
 10
-149.8993890629923
 20
-79.17438811795557
 30
0.0
 11
-149.8993890629932
 21
-74.37561203948171
 31
0.0
  0
LINE
  5
140
330
63
100
AcDbEntity
  8
0
  6
Continuous
 62
     7
100
AcDbLine
 10
-150.0000010260471
 20
-79.2750000810104
 30
0.0
 11
-150.000001026048
 21
-74.2750000764269
 31
0.0
  0
LINE
  5
141
330
63
100
AcDbEntity
  8
0
  6
Continuous
 62
     7
100
AcDbLine
 10
-120.0000010488312
 20
-79.27500008100483
 30
0.0
 11
-120.0000010488321
 21
-74.2750000764213
 31
0.0
  0
LINE
  5
142
330
63
100
AcDbEntity
  8
0
  6
Continuous
 62
     7
100
AcDbLine
 10
-120.1006130118869
 20
-74.37561203947614
 30
0.0
 11
-120.0000010488321
 21
-74.2750000764213
 31
0.0
  0
LINE
  5
143
330
63
100
AcDbEntity
  8
0
  6
Continuous
 62
     7
100
AcDbLine
 10
-120.100613011886
 20
-79.17438811795003
 30
0.0
 11
-120.0000010488312
 21
-79.27500008100483
 31
0.0
  0
LINE
  5
144
330
63
100
AcDbEntity
  8
0
  6
Continuous
 62
     7
100
AcDbLine
 10
-149.8993890629932
 20
-74.37561203948171
 30
0.0
 11
-120.1006130118869
 21
-74.37561203947614
 31
0.0
  0
LINE
  5
145
330
63
100
AcDbEntity
  8
0
  6
Continuous
 62
     7
100
AcDbLine
 10
-150.000001026048
 20
-74.2750000764269
 30
0.0
 11
-120.0000010488321
 21
-74.2750000764213
 31
0.0
  0
LINE
  5
146
330
63
100
AcDbEntity
  8
0
  6
Continuous
 62
     7
100
AcDbLine
 10
-120.100613011886
 20
-79.17438811795003
 30
0.0
 11
-120.1006130118869
 21
-74.37561203947614
 31
0.0
  0
LINE
  5
147
330
63
100
AcDbEntity
  8
0
  6
Continuous
 62
     7
100
AcDbLine
 10
-150.0000010260471
 20
-79.2750000810104
 30
0.0
 11
-120.0000010488312
 21
-79.27500008100483
 31
0.0
  0
LINE
  5
148
330
63
100
AcDbEntity
  8
0
  6
Continuous
 62
     7
100
AcDbLine
 10
-149.8993890629923
 20
-79.17438811795557
 30
0.0
 11
-120.100613011886
 21
-79.17438811795003
 31
0.0
  0
ENDBLK
  5
65
330
63
100
AcDbEntity
  8
0
100
AcDbBlockEnd
  0
BLOCK
  5
68
330
66
100
AcDbEntity
  8
0
100
AcDbBlockBegin
  2
Drfsicht1
 70
     0
 10
-135.0000000000238
 20
-76.7750000357388
 30
0.0
  3
Drfsicht1
  1

  0
INSERT
  5
67
330
66
100
AcDbEntity
  8
0
100
AcDbBlockReference
  2
0801505_UCT_EM_30X5-select__5
 10
-150.000001026048
 20
-79.2750000810104
 30
0.0
  0
MTEXT
  5
149
330
66
100
AcDbEntity
  8
1
 62
     6
100
AcDbMText
 10
-135.0000000000238
 20
-81.77500003573971
 30
0.0
 40
2.5
 41
0.0
 71
     2
 72
     1
  1
 
  7
CONVERTER_11
 73
     1
 44
1.32052821128451
  0
DIMENSION
  5
154
330
66
100
AcDbEntity
  8
1
100
AcDbDimension
  2
*D16
 10
-150.000001026048
 20
-69.2750000764213
 30
0.0
 11
-135.0000010374401
 21
-67.6500000764213
 31
0.0
 70
    32
  1
<>
 71
     5
 42
-1.0
 53
0.00013888888889
  3
ME10_DIM_10
100
AcDbAlignedDimension
 13
-120.0000010488321
 23
-74.2750000764213
 33
0.0
 14
-150.000001026048
 24
-74.2750000764269
 34
0.0
100
AcDbRotatedDimension
  0
DIMENSION
  5
15F
330
66
100
AcDbEntity
  8
1
100
AcDbDimension
  2
*D17
 10
-155.000001026048
 20
-74.2750000764269
 30
0.0
 11
-156.625001026048
 21
-76.77500007871865
 31
0.0
 70
    32
  1
<>
 71
     5
 42
-1.0
 53
90.0
  3
ME10_DIM_11
100
AcDbAlignedDimension
 13
-150.0000010260471
 23
-79.2750000810104
 33
0.0
 14
-150.000001026048
 24
-74.2750000764269
 34
0.0
 50
90.0
100
AcDbRotatedDimension
  0
ENDBLK
  5
69
330
66
100
AcDbEntity
  8
0
100
AcDbBlockEnd
  0
BLOCK
  5
6B
330
6A
100
AcDbEntity
  8
0
100
AcDbBlockBegin
  2
0801505_UCT_EM_30X5-select__6
 70
     0
 10
-150.0000010260505
 20
-59.27499998572927
 30
0.0
  3
0801505_UCT_EM_30X5-select__6
  1

  0
LINE
  5
160
330
6A
100
AcDbEntity
  8
0
  6
Continuous
 62
     7
100
AcDbLine
 10
-121.5500010482205
 20
-59.27499998572927
 30
0.0
 11
-121.5500010482205
 21
-58.21034189929496
 31
0.0
  0
LINE
  5
161
330
6A
100
AcDbEntity
  8
0
  6
Continuous
 62
     7
100
AcDbLine
 10
-121.5500010482205
 20
-58.21034189929496
 30
0.0
 11
-121.7000010488351
 21
-57.65053427586599
 31
0.0
  0
LINE
  5
162
330
6A
100
AcDbEntity
  8
0
  6
Continuous
 62
     2
100
AcDbLine
 10
-122.8306220806549
 20
-57.37499998572557
 30
0.0
 11
-122.8000010479132
 21
-57.37499998572557
 31
0.0
  0
LINE
  5
163
330
6A
100
AcDbEntity
  8
0
  6
Continuous
 62
     7
100
AcDbLine
 10
-121.7000010488351
 20
-57.65053427586599
 30
0.0
 11
-121.7000010485277
 21
-57.37499998572557
 31
0.0
  0
LINE
  5
164
330
6A
100
AcDbEntity
  8
0
  6
Continuous
 62
     7
100
AcDbLine
 10
-120.1006130118894
 20
-54.72499998572573
 30
0.0
 11
-120.0000010488346
 21
-55.87499998572573
 31
0.0
  0
LINE
  5
165
330
6A
100
AcDbEntity
  8
0
  6
Continuous
 62
     7
100
AcDbLine
 10
-121.6693800164004
 20
-55.87499998572573
 30
0.0
 11
-121.6693800157857
 21
-57.37499998572557
 31
0.0
  0
LINE
  5
166
330
6A
100
AcDbEntity
  8
0
  6
Continuous
 62
     7
100
AcDbLine
 10
-122.8306220800405
 20
-55.87499998572573
 30
0.0
 11
-122.8306220806549
 21
-57.37499998572557
 31
0.0
  0
LINE
  5
167
330
6A
100
AcDbEntity
  8
0
  6
Continuous
 62
     2
100
AcDbLine
 10
-121.6693800157857
 20
-57.37499998572557
 30
0.0
 11
-121.7000010485277
 21
-57.37499998572557
 31
0.0
  0
LINE
  5
168
330
6A
100
AcDbEntity
  8
0
  6
Continuous
 62
     7
100
AcDbLine
 10
-120.9500010488349
 20
-55.87499998572573
 30
0.0
 11
-120.9500010488349
 21
-57.55179490267578
 31
0.0
  0
LINE
  5
169
330
6A
100
AcDbEntity
  8
0
  6
Continuous
 62
     7
100
AcDbLine
 10
-121.6300101180803
 20
-55.87499998572573
 30
0.0
 11
-120.9500010488349
 21
-55.87499998572573
 31
0.0
  0
LINE
  5
16A
330
6A
100
AcDbEntity
  8
0
  6
Continuous
 62
     7
100
AcDbLine
 10
-122.8306220800405
 20
-55.87499998572573
 30
0.0
 11
-121.6693800164004
 21
-55.87499998572573
 31
0.0
  0
LINE
  5
16B
330
6A
100
AcDbEntity
  8
0
  6
Continuous
 62
     7
100
AcDbLine
 10
-120.9500010488349
 20
-55.87499998572573
 30
0.0
 11
-120.0000010488346
 21
-55.87499998572573
 31
0.0
  0
LINE
  5
16C
330
6A
100
AcDbEntity
  8
0
  6
Continuous
 62
     7
100
AcDbLine
 10
-121.6300101180803
 20
-57.64131979502376
 30
0.0
 11
-121.4800101174658
 21
-58.20112741845265
 31
0.0
  0
LINE
  5
16D
330
6A
100
AcDbEntity
  8
0
  6
Continuous
 62
     7
100
AcDbLine
 10
-122.800001047606
 20
-57.65053427586603
 30
0.0
 11
-122.9500010482205
 21
-58.21034189929468
 31
0.0
  0
LINE
  5
16E
330
6A
100
AcDbEntity
  8
0
  6
Continuous
 62
     7
100
AcDbLine
 10
-122.8699919783604
 20
-57.64131979502371
 30
0.0
 11
-122.800001047606
 21
-57.65053427586603
 31
0.0
  0
LINE
  5
16F
330
6A
100
AcDbEntity
  8
0
  6
Continuous
 62
     7
100
AcDbLine
 10
-122.8699919783604
 20
-57.64131979502371
 30
0.0
 11
-123.0199919789748
 21
-58.20112741845238
 31
0.0
  0
LINE
  5
170
330
6A
100
AcDbEntity
  8
0
  6
Continuous
 62
     7
100
AcDbLine
 10
-122.9500010482205
 20
-58.21034189929468
 30
0.0
 11
-123.0199919789748
 21
-58.20112741845238
 31
0.0
  0
LINE
  5
171
330
6A
100
AcDbEntity
  8
0
  6
Continuous
 62
     7
100
AcDbLine
 10
-120.9500010488349
 20
-57.55179490267578
 30
0.0
 11
-120.8000010482204
 21
-58.11160252610443
 31
0.0
  0
LINE
  5
172
330
6A
100
AcDbEntity
  8
0
  6
Continuous
 62
     7
100
AcDbLine
 10
-121.7000010488351
 20
-57.65053427586599
 30
0.0
 11
-121.6300101180803
 21
-57.64131979502376
 31
0.0
  0
LINE
  5
173
330
6A
100
AcDbEntity
  8
0
  6
Continuous
 62
     7
100
AcDbLine
 10
-149.8993890629957
 20
-54.72499998572575
 30
0.0
 11
-120.1006130118894
 21
-54.72499998572573
 31
0.0
  0
LINE
  5
174
330
6A
100
AcDbEntity
  8
0
  6
Continuous
 62
     7
100
AcDbLine
 10
-149.8993890629957
 20
-54.72499998572575
 30
0.0
 11
-150.0000010260505
 21
-55.87499998572573
 31
0.0
  0
LINE
  5
175
330
6A
100
AcDbEntity
  8
0
  6
Continuous
 62
     7
100
AcDbLine
 10
-149.0500010476058
 20
-55.87499998572573
 30
0.0
 11
-149.0500010476058
 21
-57.17858982191925
 31
0.0
  0
LINE
  5
176
330
6A
100
AcDbEntity
  8
0
  6
Continuous
 62
     7
100
AcDbLine
 10
-148.3306220800405
 20
-57.16477490842308
 30
0.0
 11
-148.3306220800405
 21
-55.87499998572574
 31
0.0
  0
LINE
  5
177
330
6A
100
AcDbEntity
  8
0
  6
Continuous
 62
     7
100
AcDbLine
 10
-147.3693800164026
 20
-57.16477490841512
 30
0.0
 11
-147.3693800164004
 21
-55.87499998572574
 31
0.0
  0
LINE
  5
178
330
6A
100
AcDbEntity
  8
0
  6
Continuous
 62
     7
100
AcDbLine
 10
-148.3306220800405
 20
-55.87499998572574
 30
0.0
 11
-147.3693800164004
 21
-55.87499998572574
 31
0.0
  0
LINE
  5
179
330
6A
100
AcDbEntity
  8
0
  6
Continuous
 62
     7
100
AcDbLine
 10
-148.3699919783603
 20
-57.26153208938825
 30
0.0
 11
-148.3699919783604
 21
-55.87499998572573
 31
0.0
  0
LINE
  5
17A
330
6A
100
AcDbEntity
  8
0
  6
Continuous
 62
     7
100
AcDbLine
 10
-148.3699919783604
 20
-55.87499998572573
 30
0.0
 11
-148.3306220800405
 21
-55.87499998572574
 31
0.0
  0
LINE
  5
17B
330
6A
100
AcDbEntity
  8
0
  6
Continuous
 62
     7
100
AcDbLine
 10
-149.0500010476058
 20
-55.87499998572573
 30
0.0
 11
-148.3699919783604
 21
-55.87499998572573
 31
0.0
  0
LINE
  5
17C
330
6A
100
AcDbEntity
  8
0
  6
Continuous
 62
     7
100
AcDbLine
 10
-150.0000010260505
 20
-55.87499998572573
 30
0.0
 11
-149.0500010476058
 21
-55.87499998572573
 31
0.0
  0
LINE
  5
17D
330
6A
100
AcDbEntity
  8
0
  6
Continuous
 62
     7
100
AcDbLine
 10
-147.3693800164004
 20
-55.87499998572574
 30
0.0
 11
-147.3300101180803
 21
-55.87499998572573
 31
0.0
  0
LINE
  5
17E
330
6A
100
AcDbEntity
  8
0
  6
Continuous
 62
     7
100
AcDbLine
 10
-146.6500010488349
 20
-57.17858982191938
 30
0.0
 11
-146.6500010488349
 21
-55.87499998572573
 31
0.0
  0
LINE
  5
17F
330
6A
100
AcDbEntity
  8
0
  6
Continuous
 62
     7
100
AcDbLine
 10
-146.6500010488349
 20
-57.17858982191938
 30
0.0
 11
-146.4000010482204
 21
-58.11160252610488
 31
0.0
  0
LINE
  5
180
330
6A
100
AcDbEntity
  8
0
  6
Continuous
 62
     7
100
AcDbLine
 10
-147.1500010482205
 20
-59.27499998572927
 30
0.0
 11
-147.1500010482205
 21
-58.20375927441647
 31
0.0
  0
LINE
  5
181
330
6A
100
AcDbEntity
  8
0
  6
Continuous
 62
     7
100
AcDbLine
 10
-147.0800101174658
 20
-58.19454479357399
 30
0.0
 11
-147.1500010482205
 21
-58.20375927441647
 31
0.0
  0
LINE
  5
182
330
6A
100
AcDbEntity
  8
0
  6
Continuous
 62
     7
100
AcDbLine
 10
-147.3300101180803
 20
-55.87499998572573
 30
0.0
 11
-147.3300101180803
 21
-57.26153208938839
 31
0.0
  0
LINE
  5
183
330
6A
100
AcDbEntity
  8
0
  6
Continuous
 62
     7
100
AcDbLine
 10
-147.0800101174658
 20
-58.19454479357399
 30
0.0
 11
-147.0800101174658
 21
-59.27499998572927
 31
0.0
  0
LINE
  5
184
330
6A
100
AcDbEntity
  8
0
  6
Continuous
 62
     7
100
AcDbLine
 10
-147.0800101174658
 20
-59.27499998572927
 30
0.0
 11
-147.1500010482205
 21
-59.27499998572927
 31
0.0
  0
LINE
  5
185
330
6A
100
AcDbEntity
  8
0
  6
Continuous
 62
     7
100
AcDbLine
 10
-147.0800101174658
 20
-59.27499998572927
 30
0.0
 11
-146.4000010482204
 21
-59.27499998572927
 31
0.0
  0
LINE
  5
186
330
6A
100
AcDbEntity
  8
0
  6
Continuous
 62
     7
100
AcDbLine
 10
-146.4000010482204
 20
-58.11160252610488
 30
0.0
 11
-146.4000010482204
 21
-59.27499998572927
 31
0.0
  0
LINE
  5
187
330
6A
100
AcDbEntity
  8
0
  6
Continuous
 62
     7
100
AcDbLine
 10
-147.3300101180803
 20
-55.87499998572573
 30
0.0
 11
-146.6500010488349
 21
-55.87499998572573
 31
0.0
  0
LINE
  5
188
330
6A
100
AcDbEntity
  8
0
  6
Continuous
 62
     7
100
AcDbLine
 10
-146.6500010488349
 20
-55.87499998572573
 30
0.0
 11
-123.5500010476058
 21
-55.87499998572573
 31
0.0
  0
LINE
  5
189
330
6A
100
AcDbEntity
  8
0
  6
Continuous
 62
     7
100
AcDbLine
 10
-121.6693800164004
 20
-55.87499998572573
 30
0.0
 11
-121.6300101180803
 21
-55.87499998572573
 31
0.0
  0
LINE
  5
18A
330
6A
100
AcDbEntity
  8
0
  6
Continuous
 62
     7
100
AcDbLine
 10
-121.6300101180803
 20
-57.64131979502376
 30
0.0
 11
-121.6300101180803
 21
-55.87499998572573
 31
0.0
  0
LINE
  5
18B
330
6A
100
AcDbEntity
  8
0
  6
Continuous
 62
     7
100
AcDbLine
 10
-122.8000010479132
 20
-57.37499998572557
 30
0.0
 11
-122.800001047606
 21
-57.65053427586603
 31
0.0
  0
LINE
  5
18C
330
6A
100
AcDbEntity
  8
0
  6
Continuous
 62
     7
100
AcDbLine
 10
-122.8699919783604
 20
-55.87499998572573
 30
0.0
 11
-122.8306220800405
 21
-55.87499998572573
 31
0.0
  0
LINE
  5
18D
330
6A
100
AcDbEntity
  8
0
  6
Continuous
 62
     7
100
AcDbLine
 10
-148.5500010482205
 20
-58.20375927441619
 30
0.0
 11
-148.300001047606
 21
-57.27074657023064
 31
0.0
  0
LINE
  5
18E
330
6A
100
AcDbEntity
  8
0
  6
Continuous
 62
     7
100
AcDbLine
 10
-148.6199919789749
 20
-58.19454479357383
 30
0.0
 11
-148.6199919789749
 21
-59.27499998572927
 31
0.0
  0
LINE
  5
18F
330
6A
100
AcDbEntity
  8
0
  6
Continuous
 62
     7
100
AcDbLine
 10
-148.5500010482205
 20
-58.20375927441619
 30
0.0
 11
-148.5500010482205
 21
-59.27499998572927
 31
0.0
  0
LINE
  5
190
330
6A
100
AcDbEntity
  8
0
  6
Continuous
 62
     7
100
AcDbLine
 10
-148.300001047606
 20
-57.27074657023064
 30
0.0
 11
-148.3699919783603
 21
-57.26153208938825
 31
0.0
  0
LINE
  5
191
330
6A
100
AcDbEntity
  8
0
  6
Continuous
 62
     7
100
AcDbLine
 10
-147.3300101180803
 20
-57.26153208938839
 30
0.0
 11
-147.4000010488351
 21
-57.2707465702307
 31
0.0
  0
LINE
  5
192
330
6A
100
AcDbEntity
  8
0
  6
Continuous
 62
     7
100
AcDbLine
 10
-148.6199919789749
 20
-59.27499998572927
 30
0.0
 11
-148.5500010482205
 21
-59.27499998572927
 31
0.0
  0
LINE
  5
193
330
6A
100
AcDbEntity
  8
0
  6
Continuous
 62
     7
100
AcDbLine
 10
-149.3000010482203
 20
-59.27499998572927
 30
0.0
 11
-148.6199919789749
 21
-59.27499998572927
 31
0.0
  0
LINE
  5
194
330
6A
100
AcDbEntity
  8
0
  6
Continuous
 62
     7
100
AcDbLine
 10
-149.3000010482203
 20
-59.27499998572927
 30
0.0
 11
-149.3000010482203
 21
-58.11160252610498
 31
0.0
  0
LINE
  5
195
330
6A
100
AcDbEntity
  8
0
  6
Continuous
 62
     7
100
AcDbLine
 10
-123.7000010482203
 20
-58.11160252610432
 30
0.0
 11
-123.5500010476059
 21
-57.55179490267554
 31
0.0
  0
LINE
  5
196
330
6A
100
AcDbEntity
  8
0
  6
Continuous
 62
     7
100
AcDbLine
 10
-122.8699919783604
 20
-57.64131979502371
 30
0.0
 11
-122.8699919783604
 21
-55.87499998572573
 31
0.0
  0
LINE
  5
197
330
6A
100
AcDbEntity
  8
0
  6
Continuous
 62
     7
100
AcDbLine
 10
-123.7000010482203
 20
-59.27499998572927
 30
0.0
 11
-123.0199919789749
 21
-59.27499998572927
 31
0.0
  0
LINE
  5
198
330
6A
100
AcDbEntity
  8
0
  6
Continuous
 62
     7
100
AcDbLine
 10
-123.7000010482203
 20
-59.27499998572927
 30
0.0
 11
-123.7000010482203
 21
-58.11160252610432
 31
0.0
  0
LINE
  5
199
330
6A
100
AcDbEntity
  8
0
  6
Continuous
 62
     7
100
AcDbLine
 10
-123.5500010476059
 20
-57.55179490267554
 30
0.0
 11
-123.5500010476058
 21
-55.87499998572573
 31
0.0
  0
LINE
  5
19A
330
6A
100
AcDbEntity
  8
0
  6
Continuous
 62
     7
100
AcDbLine
 10
-123.5500010476058
 20
-55.87499998572573
 30
0.0
 11
-122.8699919783604
 21
-55.87499998572573
 31
0.0
  0
LINE
  5
19B
330
6A
100
AcDbEntity
  8
0
  6
Continuous
 62
     7
100
AcDbLine
 10
-121.4800101174658
 20
-58.20112741845265
 30
0.0
 11
-121.5500010482205
 21
-58.21034189929496
 31
0.0
  0
LINE
  5
19C
330
6A
100
AcDbEntity
  8
0
  6
Continuous
 62
     7
100
AcDbLine
 10
-121.4800101174658
 20
-58.20112741845265
 30
0.0
 11
-121.4800101174658
 21
-59.27499998572927
 31
0.0
  0
LINE
  5
19D
330
6A
100
AcDbEntity
  8
0
  6
Continuous
 62
     7
100
AcDbLine
 10
-123.0199919789748
 20
-58.20112741845238
 30
0.0
 11
-123.0199919789749
 21
-59.27499998572927
 31
0.0
  0
LINE
  5
19E
330
6A
100
AcDbEntity
  8
0
  6
Continuous
 62
     7
100
AcDbLine
 10
-122.9500010482205
 20
-58.21034189929468
 30
0.0
 11
-122.9500010482205
 21
-59.27499998572927
 31
0.0
  0
LINE
  5
19F
330
6A
100
AcDbEntity
  8
0
  6
Continuous
 62
     7
100
AcDbLine
 10
-123.0199919789749
 20
-59.27499998572927
 30
0.0
 11
-122.9500010482205
 21
-59.27499998572927
 31
0.0
  0
LINE
  5
1A0
330
6A
100
AcDbEntity
  8
0
  6
Continuous
 62
     7
100
AcDbLine
 10
-120.8000010482204
 20
-59.27499998572927
 30
0.0
 11
-121.4800101174658
 21
-59.27499998572927
 31
0.0
  0
LINE
  5
1A1
330
6A
100
AcDbEntity
  8
0
  6
Continuous
 62
     7
100
AcDbLine
 10
-121.4800101174658
 20
-59.27499998572927
 30
0.0
 11
-121.5500010482205
 21
-59.27499998572927
 31
0.0
  0
LINE
  5
1A2
330
6A
100
AcDbEntity
  8
0
  6
Continuous
 62
     7
100
AcDbLine
 10
-120.8000010482204
 20
-58.11160252610443
 30
0.0
 11
-120.8000010482204
 21
-59.27499998572927
 31
0.0
  0
LINE
  5
1A3
330
6A
100
AcDbEntity
  8
0
  6
Continuous
 62
     7
100
AcDbLine
 10
-147.4000010488351
 20
-57.2707465702307
 30
0.0
 11
-147.1500010482205
 21
-58.20375927441647
 31
0.0
  0
LINE
  5
1A4
330
6A
100
AcDbEntity
  8
0
  6
Continuous
 62
     7
100
AcDbLine
 10
-147.3300101180803
 20
-57.26153208938839
 30
0.0
 11
-147.0800101174658
 21
-58.19454479357399
 31
0.0
  0
LINE
  5
1A5
330
6A
100
AcDbEntity
  8
0
  6
Continuous
 62
     7
100
AcDbLine
 10
-149.3000010482203
 20
-58.11160252610498
 30
0.0
 11
-149.0500010476058
 21
-57.17858982191925
 31
0.0
  0
LINE
  5
1A6
330
6A
100
AcDbEntity
  8
0
  6
Continuous
 62
     7
100
AcDbLine
 10
-148.3699919783603
 20
-57.26153208938825
 30
0.0
 11
-148.6199919789749
 21
-58.19454479357383
 31
0.0
  0
LINE
  5
1A7
330
6A
100
AcDbEntity
  8
0
  6
Continuous
 62
     7
100
AcDbLine
 10
-148.3000010475562
 20
-57.16880512950675
 30
0.0
 11
-148.300001047606
 21
-57.27074657023064
 31
0.0
  0
LINE
  5
1A8
330
6A
100
AcDbEntity
  8
0
  6
Continuous
 62
     7
100
AcDbLine
 10
-147.4000010488381
 20
-57.16880512986764
 30
0.0
 11
-147.4000010488351
 21
-57.2707465702307
 31
0.0
  0
LINE
  5
1A9
330
6A
100
AcDbEntity
  8
0
  6
Continuous
 62
     7
100
AcDbLine
 10
-148.5500010482205
 20
-58.20375927441619
 30
0.0
 11
-148.6199919789749
 21
-58.19454479357383
 31
0.0
  0
ARC
  5
1AA
330
6A
100
AcDbEntity
  8
0
  6
Continuous
 62
     7
100
AcDbCircle
 10
-122.2500010482203
 20
-57.37499998572557
 30
0.0
 40
0.5806210324345926
100
AcDbArc
 50
0.0
 51
180.0
  0
ARC
  5
1AB
330
6A
100
AcDbEntity
  8
0
  6
Continuous
 62
     7
100
AcDbCircle
 10
-122.2500010482203
 20
-57.37499998572557
 30
0.0
 40
0.5499999996926022
100
AcDbArc
 50
0.0
 51
180.0
  0
ARC
  5
1AC
330
6A
100
AcDbEntity
  8
0
  6
Continuous
 62
     7
100
AcDbCircle
 10
-147.8500010482205
 20
-57.29140076833117
 30
0.0
 40
0.4970218150395143
100
AcDbArc
 50
14.75991076004338
 51
165.2400892409063
  0
ARC
  5
1AD
330
6A
100
AcDbEntity
  8
0
  6
Continuous
 62
     7
100
AcDbCircle
 10
-147.8500010482463
 20
-57.29140076833117
 30
0.0
 40
0.4664007826297605
100
AcDbArc
 50
15.23951769028374
 51
164.7604822637673
  0
SPLINE
  5
1AE
330
6A
100
AcDbEntity
  8
0
  6
Continuous
 62
     7
100
AcDbSpline
210
0.0
220
0.0
230
1.0
 70
     8
 71
     3
 72
    11
 73
     7
 74
     5
 42
0.000000001
 43
0.0000000001
 44
0.00000001
 40
0.0
 40
0.0
 40
0.0
 40
0.0
 40
0.0077722868988336
 40
0.0154404575129283
 40
0.0232200226777967
 40
0.0308851358312431
 40
0.0308851358312431
 40
0.0308851358312431
 40
0.0308851358312431
 10
-148.3306220800405
 20
-57.16477490842308
 30
0.0
 10
-148.3280528743558
 20
-57.1651084242061
 30
0.0
 10
-148.3229488815733
 20
-57.16577100286227
 30
0.0
 10
-148.3152745846238
 20
-57.16677743701383
 30
0.0
 10
-148.307636611626
 20
-57.16778608704329
 30
0.0
 10
-148.3025336297914
 20
-57.1684671260115
 30
0.0
 10
-148.3000010475562
 20
-57.16880512950675
 30
0.0
 11
-148.3306220800405
 21
-57.16477490842308
 31
0.0
 11
-148.3229146837569
 21
-57.16577714903025
 31
0.0
 11
-148.3153115482585
 21
-57.166773728841
 31
0.0
 11
-148.3075990249762
 21
-57.16779285540103
 31
0.0
 11
-148.3000010475562
 21
-57.16880512950675
 31
0.0
  0
SPLINE
  5
1AF
330
6A
100
AcDbEntity
  8
0
  6
Continuous
 62
     7
100
AcDbSpline
210
0.0
220
0.0
230
1.0
 70
     8
 71
     3
 72
    11
 73
     7
 74
     5
 42
0.000000001
 43
0.0000000001
 44
0.00000001
 40
0.0
 40
0.0
 40
0.0
 40
0.0
 40
0.0077455371840453
 40
0.0154446766660827
 40
0.0232033788489632
 40
0.0308851358309346
 40
0.0308851358309346
 40
0.0308851358309346
 40
0.0308851358309346
 10
-147.4000010488381
 20
-57.16880512986764
 30
0.0
 10
-147.3974418932343
 20
-57.16846358715672
 30
0.0
 10
-147.3923389100317
 20
-57.16778256250312
 30
0.0
 10
-147.3846710150365
 20
-57.16677000053363
 30
0.0
 10
-147.3770232927263
 20
-57.16576709599478
 30
0.0
 10
-147.3719192974908
 20
-57.16510453206355
 30
0.0
 10
-147.3693800164026
 20
-57.16477490841512
 30
0.0
 11
-147.4000010488381
 21
-57.16880512986764
 31
0.0
 11
-147.3923233460815
 21
-57.16778227761353
 31
0.0
 11
-147.3846905498233
 21
-57.16677372904682
 31
0.0
 11
-147.3769976444859
 21
-57.16576542988651
 31
0.0
 11
-147.3693800164026
 21
-57.16477490841512
 31
0.0
  0
ENDBLK
  5
6C
330
6A
100
AcDbEntity
  8
0
100
AcDbBlockEnd
  0
BLOCK
  5
6F
330
6D
100
AcDbEntity
  8
0
100
AcDbBlockBegin
  2
Vordans1
 70
     0
 10
-135.0000000000271
 20
-57.000000000015
 30
0.0
  3
Vordans1
  1

  0
INSERT
  5
6E
330
6D
100
AcDbEntity
  8
0
100
AcDbBlockReference
  2
0801505_UCT_EM_30X5-select__6
 10
-150.0000010260505
 20
-59.27499998572927
 30
0.0
  0
MTEXT
  5
1B0
330
6D
100
AcDbEntity
  8
1
 62
     6
100
AcDbMText
 10
-135.0000000000273
 20
-61.77499997617315
 30
0.0
 40
2.5
 41
0.0
 71
     2
 72
     1
  1
 
  7
CONVERTER_11
 73
     1
 44
1.32052821128451
  0
DIMENSION
  5
1BD
330
6D
100
AcDbEntity
  8
1
100
AcDbDimension
  2
*D18
 10
-154.8993890629957
 20
-54.72499998572574
 30
0.0
 11
-156.6118890629957
 21
-56.9681159412865
 31
0.0
 70
    32
  1
<>
 71
     5
 42
-1.0
 53
90.0
  3
ME10_DIM_12
100
AcDbAlignedDimension
 13
-149.3000010482203
 23
-59.27499998572927
 33
0.0
 14
-149.8993890629957
 24
-54.72499998572575
 34
0.0
 50
90.0
100
AcDbRotatedDimension
  0
ENDBLK
  5
70
330
6D
100
AcDbEntity
  8
0
100
AcDbBlockEnd
  0
BLOCK
  5
72
330
71
100
AcDbEntity
  8
0
100
AcDbBlockBegin
  2
_rahmen
 70
     0
 10
-91.49999901921099
 20
-254.0277395134249
 30
0.0
  3
_rahmen
  1

  0
LINE
  5
1BE
330
71
100
AcDbEntity
  8
1
  6
DOT_CENTER
 62
     2
100
AcDbLine
 10
-217.0581486593984
 20
-227.9027395134249
 30
0.0
 11
-211.5581486593984
 21
-227.9027395134249
 31
0.0
  0
LINE
  5
1BF
330
71
100
AcDbEntity
  8
1
  6
PHANTOM
 62
     2
100
AcDbLine
 10
-208.3081486593984
 20
-225.1527395134249
 30
0.0
 11
-208.3081486593984
 21
-230.6527395134249
 31
0.0
  0
LINE
  5
1C0
330
71
100
AcDbEntity
  8
1
  6
PHANTOM
 62
     2
100
AcDbLine
 10
-205.5581486593984
 20
-227.9027395134249
 30
0.0
 11
-211.0581486593984
 21
-227.9027395134249
 31
0.0
  0
LINE
  5
1C1
330
71
100
AcDbEntity
  8
1
  6
Continuous
 62
     7
100
AcDbLine
 10
-156.744803545961
 20
-240.5277395134249
 30
0.0
 11
-156.744803545961
 21
-232.0277395134248
 31
0.0
  0
LINE
  5
1C2
330
71
100
AcDbEntity
  8
1
  6
Continuous
 62
     6
100
AcDbLine
 10
-184.6448035459611
 20
-232.0277395134248
 30
0.0
 11
-91.4999990192093
 21
-232.0277395134248
 31
0.0
  0
LINE
  5
1C3
330
71
100
AcDbEntity
  8
1
  6
Continuous
 62
     7
100
AcDbLine
 10
-221.044803545961
 20
-232.0277395134248
 30
0.0
 11
-221.044803545961
 21
-223.5277395134248
 31
0.0
  0
LINE
  5
1C4
330
71
100
AcDbEntity
  8
1
  6
Continuous
 62
     7
100
AcDbLine
 10
-184.6448035459611
 20
-232.0277395134248
 30
0.0
 11
-184.6448035459611
 21
-223.5277395134248
 31
0.0
  0
LINE
  5
1C5
330
71
100
AcDbEntity
  8
1
  6
Continuous
 62
     7
100
AcDbLine
 10
-126.9184073008881
 20
-223.5277395134248
 30
0.0
 11
-126.9184073008881
 21
-232.0277395134248
 31
0.0
  0
LINE
  5
1C6
330
71
100
AcDbEntity
  8
1
  6
Continuous
 62
     7
100
AcDbLine
 10
-100.4184073008885
 20
-223.5277395134248
 30
0.0
 11
-100.4184073008885
 21
-232.0277395134248
 31
0.0
  0
LINE
  5
1C7
330
71
100
AcDbEntity
  8
1
  6
Continuous
 62
     6
100
AcDbLine
 10
-290.044803545961
 20
-249.0277395134248
 30
0.0
 11
-334.999999019211
 21
-249.0277395134248
 31
0.0
  0
LINE
  5
1C8
330
71
100
AcDbEntity
  8
1
  6
Continuous
 62
     7
100
AcDbLine
 10
-91.4999990192097
 20
-240.5277395134248
 30
0.0
 11
-184.6448035459611
 21
-240.5277395134248
 31
0.0
  0
LINE
  5
1C9
102
{ACAD_REACTORS
330
2DB
330
2DC
102
}
330
71
100
AcDbEntity
  8
0
  6
Continuous
 62
     2
100
AcDbLine
 10
-207.3373746041936
 20
-239.7274503977615
 30
0.0
 11
-207.3373746041936
 21
-238.8549333909582
 31
0.0
  0
LINE
  5
1CA
102
{ACAD_REACTORS
330
2DB
330
2DC
102
}
330
71
100
AcDbEntity
  8
0
  6
Continuous
 62
     2
100
AcDbLine
 10
-207.3373746041936
 20
-240.6872191052444
 30
0.0
 11
-207.3373746041936
 21
-241.5597361120476
 31
0.0
  0
LINE
  5
1CB
102
{ACAD_REACTORS
330
2DD
330
2DE
102
}
330
71
100
AcDbEntity
  8
0
  6
Continuous
 62
     2
100
AcDbLine
 10
-192.0043304679031
 20
-239.465695295721
 30
0.0
 11
-190.900691168335
 21
-239.465695295721
 31
0.0
  0
LINE
  5
1CC
102
{ACAD_REACTORS
330
2DD
330
2DE
102
}
330
71
100
AcDbEntity
  8
0
  6
Continuous
 62
     2
100
AcDbLine
 10
-191.2346731249417
 20
-240.6872191052449
 30
0.0
 11
-191.2346731249417
 21
-241.5597361120482
 31
0.0
  0
LINE
  5
1CD
102
{ACAD_REACTORS
330
2E7
330
2E8
102
}
330
71
100
AcDbEntity
  8
0
  6
Continuous
 62
     2
100
AcDbLine
 10
-193.0954297403216
 20
-238.3750490372342
 30
0.0
 11
-191.6974766933813
 21
-236.7941900434592
 31
0.0
  0
LINE
  5
1CE
102
{ACAD_REACTORS
330
2E7
330
2E8
102
}
330
71
100
AcDbEntity
  8
0
  6
Continuous
 62
     2
100
AcDbLine
 10
-193.0000063241488
 20
-235.321239513423
 30
0.0
 11
-191.6974766933813
 21
-236.7941900434592
 31
0.0
  0
LINE
  5
1CF
102
{ACAD_REACTORS
330
2E7
330
2E8
102
}
330
71
100
AcDbEntity
  8
0
  6
Continuous
 62
     2
100
AcDbLine
 10
-190.3949470626149
 20
-235.321239513423
 30
0.0
 11
-188.9922228448677
 21
-235.321239513423
 31
0.0
  0
LINE
  5
1D0
102
{ACAD_REACTORS
330
2E7
330
2E8
102
}
330
71
100
AcDbEntity
  8
0
  6
Continuous
 62
     2
100
AcDbLine
 10
-191.6927055225734
 20
-238.3750490372342
 30
0.0
 11
-190.9961145845077
 21
-237.5873172519405
 31
0.0
  0
LINE
  5
1D1
102
{ACAD_REACTORS
330
2E7
330
2E8
102
}
330
71
100
AcDbEntity
  8
0
  6
Continuous
 62
     2
100
AcDbLine
 10
-191.6927055225734
 20
-238.3750490372342
 30
0.0
 11
-193.0954297403216
 21
-238.3750490372342
 31
0.0
  0
LINE
  5
1D2
102
{ACAD_REACTORS
330
2E9
330
2EA
102
}
330
71
100
AcDbEntity
  8
0
  6
Continuous
 62
     2
100
AcDbLine
 10
-193.2147090105385
 20
-238.3750490372342
 30
0.0
 11
-194.4552134207914
 21
-238.3750490372342
 31
0.0
  0
LINE
  5
1D3
102
{ACAD_REACTORS
330
2EB
330
2EC
102
}
330
71
100
AcDbEntity
  8
0
  6
Continuous
 62
     2
100
AcDbLine
 10
-195.3231930289465
 20
-240.512715703884
 30
0.0
 11
-195.6233582661366
 21
-239.7449007378973
 31
0.0
  0
LINE
  5
1D4
102
{ACAD_REACTORS
330
2EB
330
2EC
102
}
330
71
100
AcDbEntity
  8
0
  6
Continuous
 62
     2
100
AcDbLine
 10
-195.923523503329
 20
-240.512715703884
 30
0.0
 11
-195.3231930289465
 21
-240.512715703884
 31
0.0
  0
LINE
  5
1D5
102
{ACAD_REACTORS
330
2EB
330
2EC
102
}
330
71
100
AcDbEntity
  8
0
  6
Continuous
 62
     2
100
AcDbLine
 10
-197.6415635182028
 20
-241.7342395134085
 30
0.0
 11
-196.4010591079498
 21
-241.7342395134085
 31
0.0
  0
LINE
  5
1D6
102
{ACAD_REACTORS
330
2EB
330
2EC
102
}
330
71
100
AcDbEntity
  8
0
  6
Continuous
 62
     2
100
AcDbLine
 10
-196.2436104712635
 20
-238.6804299895974
 30
0.0
 11
-195.0031060610108
 21
-238.6804299895974
 31
0.0
  0
LINE
  5
1D7
102
{ACAD_REACTORS
330
2EB
330
2EC
102
}
330
71
100
AcDbEntity
  8
0
  6
Continuous
 62
     2
100
AcDbLine
 10
-195.0031060610108
 20
-238.6804299895974
 30
0.0
 11
-193.6051530140705
 21
-241.7342395134085
 31
0.0
  0
LINE
  5
1D8
102
{ACAD_REACTORS
330
2EB
330
2EC
102
}
330
71
100
AcDbEntity
  8
0
  6
Continuous
 62
     2
100
AcDbLine
 10
-194.8456574243244
 20
-241.7342395134085
 30
0.0
 11
-195.0571374778002
 21
-241.1932789691906
 31
0.0
  0
LINE
  5
1D9
102
{ACAD_REACTORS
330
2ED
330
2EE
102
}
330
71
100
AcDbEntity
  8
0
  6
Continuous
 62
     2
100
AcDbLine
 10
-198.9879766199104
 20
-241.7342395134085
 30
0.0
 11
-197.7951839177439
 21
-241.7342395134085
 31
0.0
  0
LINE
  5
1DA
102
{ACAD_REACTORS
330
2ED
330
2EE
102
}
330
71
100
AcDbEntity
  8
0
  6
Continuous
 62
     2
100
AcDbLine
 10
-198.9879766199104
 20
-239.465695295721
 30
0.0
 11
-198.9879766199104
 21
-241.7342395134085
 31
0.0
  0
LINE
  5
1DB
102
{ACAD_REACTORS
330
2ED
330
2EE
102
}
330
71
100
AcDbEntity
  8
0
  6
Continuous
 62
     2
100
AcDbLine
 10
-199.799075657385
 20
-238.6804299895974
 30
0.0
 11
-199.799075657385
 21
-239.465695295721
 31
0.0
  0
LINE
  5
1DC
102
{ACAD_REACTORS
330
2EF
330
2F0
102
}
330
71
100
AcDbEntity
  8
0
  6
Continuous
 62
     2
100
AcDbLine
 10
-198.3198617758124
 20
-238.3750490372342
 30
0.0
 11
-197.1270690736459
 21
-238.3750490372342
 31
0.0
  0
LINE
  5
1DD
102
{ACAD_REACTORS
330
2EF
330
2F0
102
}
330
71
100
AcDbEntity
  8
0
  6
Continuous
 62
     2
100
AcDbLine
 10
-195.8865646633919
 20
-236.6300150236282
 30
0.0
 11
-197.1270690736459
 21
-235.321239513423
 31
0.0
  0
LINE
  5
1DE
102
{ACAD_REACTORS
330
2EF
330
2F0
102
}
330
71
100
AcDbEntity
  8
0
  6
Continuous
 62
     2
100
AcDbLine
 10
-194.6937719612253
 20
-235.321239513423
 30
0.0
 11
-195.8865646633919
 21
-235.321239513423
 31
0.0
  0
LINE
  5
1DF
102
{ACAD_REACTORS
330
2EF
330
2F0
102
}
330
71
100
AcDbEntity
  8
0
  6
Continuous
 62
     2
100
AcDbLine
 10
-194.6937719612253
 20
-238.3750490372342
 30
0.0
 11
-194.6937719612253
 21
-235.321239513423
 31
0.0
  0
LINE
  5
1E0
102
{ACAD_REACTORS
330
2EF
330
2F0
102
}
330
71
100
AcDbEntity
  8
0
  6
Continuous
 62
     2
100
AcDbLine
 10
-195.8865646633919
 20
-238.3750490372342
 30
0.0
 11
-194.6937719612253
 21
-238.3750490372342
 31
0.0
  0
LINE
  5
1E1
102
{ACAD_REACTORS
330
2EF
330
2F0
102
}
330
71
100
AcDbEntity
  8
0
  6
Continuous
 62
     2
100
AcDbLine
 10
-197.1270690736459
 20
-237.0662735270295
 30
0.0
 11
-195.8865646633919
 21
-238.3750490372342
 31
0.0
  0
LINE
  5
1E2
102
{ACAD_REACTORS
330
2F1
330
2F2
102
}
330
71
100
AcDbEntity
  8
0
  6
Continuous
 62
     2
100
AcDbLine
 10
-201.1350034838116
 20
-239.9892054998025
 30
0.0
 11
-202.3755078940645
 21
-238.6804299895974
 31
0.0
  0
LINE
  5
1E3
102
{ACAD_REACTORS
330
2F1
330
2F2
102
}
330
71
100
AcDbEntity
  8
0
  6
Continuous
 62
     2
100
AcDbLine
 10
-201.1350034838116
 20
-238.6804299895974
 30
0.0
 11
-201.1350034838116
 21
-239.9892054998025
 31
0.0
  0
LINE
  5
1E4
102
{ACAD_REACTORS
330
2F1
330
2F2
102
}
330
71
100
AcDbEntity
  8
0
  6
Continuous
 62
     2
100
AcDbLine
 10
-199.9422107816452
 20
-238.6804299895974
 30
0.0
 11
-201.1350034838116
 21
-238.6804299895974
 31
0.0
  0
LINE
  5
1E5
102
{ACAD_REACTORS
330
2F1
330
2F2
102
}
330
71
100
AcDbEntity
  8
0
  6
Continuous
 62
     2
100
AcDbLine
 10
-199.9422107816452
 20
-241.7342395134085
 30
0.0
 11
-199.9422107816452
 21
-238.6804299895974
 31
0.0
  0
LINE
  5
1E6
102
{ACAD_REACTORS
330
2F1
330
2F2
102
}
330
71
100
AcDbEntity
  8
0
  6
Continuous
 62
     2
100
AcDbLine
 10
-202.3755078940645
 20
-240.4254640032039
 30
0.0
 11
-201.1350034838116
 21
-241.7342395134085
 31
0.0
  0
LINE
  5
1E7
102
{ACAD_REACTORS
330
2F1
330
2F2
102
}
330
71
100
AcDbEntity
  8
0
  6
Continuous
 62
     2
100
AcDbLine
 10
-202.3755078940645
 20
-241.7342395134085
 30
0.0
 11
-202.3755078940645
 21
-240.4254640032039
 31
0.0
  0
LINE
  5
1E8
102
{ACAD_REACTORS
330
2E1
330
2E2
102
}
330
71
100
AcDbEntity
  8
0
  6
Continuous
 62
     2
100
AcDbLine
 10
-199.894348142673
 20
-236.019253118866
 30
0.0
 11
-198.5584203162453
 21
-236.019253118866
 31
0.0
  0
LINE
  5
1E9
102
{ACAD_REACTORS
330
2E1
330
2E2
102
}
330
71
100
AcDbEntity
  8
0
  6
Continuous
 62
     2
100
AcDbLine
 10
-199.894348142673
 20
-237.6770354317917
 30
0.0
 11
-199.894348142673
 21
-237.19715107805
 31
0.0
  0
LINE
  5
1EA
102
{ACAD_REACTORS
330
2E1
330
2E2
102
}
330
71
100
AcDbEntity
  8
0
  6
Continuous
 62
     2
100
AcDbLine
 10
-198.5584203162453
 20
-237.6770354317917
 30
0.0
 11
-199.894348142673
 21
-237.6770354317917
 31
0.0
  0
LINE
  5
1EB
102
{ACAD_REACTORS
330
2E1
330
2E2
102
}
330
71
100
AcDbEntity
  8
0
  6
Continuous
 62
     2
100
AcDbLine
 10
-198.5584203162453
 20
-238.3750490372342
 30
0.0
 11
-198.5584203162453
 21
-237.6770354317917
 31
0.0
  0
LINE
  5
1EC
102
{ACAD_REACTORS
330
2E1
330
2E2
102
}
330
71
100
AcDbEntity
  8
0
  6
Continuous
 62
     2
100
AcDbLine
 10
-201.7087400400263
 20
-238.3750490372342
 30
0.0
 11
-198.5584203162453
 21
-238.3750490372342
 31
0.0
  0
LINE
  5
1ED
102
{ACAD_REACTORS
330
2E1
330
2E2
102
}
330
71
100
AcDbEntity
  8
0
  6
Continuous
 62
     2
100
AcDbLine
 10
-201.7087400400263
 20
-235.321239513423
 30
0.0
 11
-198.5584203162453
 21
-235.321239513423
 31
0.0
  0
LINE
  5
1EE
102
{ACAD_REACTORS
330
2E1
330
2E2
102
}
330
71
100
AcDbEntity
  8
0
  6
Continuous
 62
     2
100
AcDbLine
 10
-198.5584203162453
 20
-236.019253118866
 30
0.0
 11
-198.5584203162453
 21
-235.321239513423
 31
0.0
  0
LINE
  5
1EF
102
{ACAD_REACTORS
330
2F3
330
2F4
102
}
330
71
100
AcDbEntity
  8
0
  6
Continuous
 62
     2
100
AcDbLine
 10
-204.5700955351663
 20
-236.3900728467576
 30
0.0
 11
-204.5700955351663
 21
-235.321239513423
 31
0.0
  0
LINE
  5
1F0
102
{ACAD_REACTORS
330
2F3
330
2F4
102
}
330
71
100
AcDbEntity
  8
0
  6
Continuous
 62
     2
100
AcDbLine
 10
-204.5700955351663
 20
-235.321239513423
 30
0.0
 11
-203.3773028329999
 21
-235.321239513423
 31
0.0
  0
LINE
  5
1F1
102
{ACAD_REACTORS
330
2F3
330
2F4
102
}
330
71
100
AcDbEntity
  8
0
  6
Continuous
 62
     2
100
AcDbLine
 10
-204.5700955351663
 20
-237.2407769283904
 30
0.0
 11
-205.6197531130738
 21
-237.2407769283904
 31
0.0
  0
LINE
  5
1F2
102
{ACAD_REACTORS
330
2F3
330
2F4
102
}
330
71
100
AcDbEntity
  8
0
  6
Continuous
 62
     2
100
AcDbLine
 10
-205.6197531130738
 20
-237.2407769283904
 30
0.0
 11
-205.6197531130738
 21
-238.3750490372342
 31
0.0
  0
LINE
  5
1F3
102
{ACAD_REACTORS
330
2F3
330
2F4
102
}
330
71
100
AcDbEntity
  8
0
  6
Continuous
 62
     2
100
AcDbLine
 10
-206.8125458152404
 20
-235.321239513423
 30
0.0
 11
-206.8125458152404
 21
-238.3750490372342
 31
0.0
  0
LINE
  5
1F4
102
{ACAD_REACTORS
330
2E5
330
2E6
102
}
330
71
100
AcDbEntity
  8
0
  6
Continuous
 62
     2
100
AcDbLine
 10
-208.768725846794
 20
-236.6900730082053
 30
0.0
 11
-208.768725846794
 21
-235.9843453588631
 31
0.0
  0
LINE
  5
1F5
102
{ACAD_REACTORS
330
2E5
330
2E6
102
}
330
71
100
AcDbEntity
  8
0
  6
Continuous
 62
     2
100
AcDbLine
 10
-210.0092302570481
 20
-238.3750490372342
 30
0.0
 11
-208.768725846794
 21
-238.3750490372342
 31
0.0
  0
LINE
  5
1F6
102
{ACAD_REACTORS
330
2E5
330
2E6
102
}
330
71
100
AcDbEntity
  8
0
  6
Continuous
 62
     2
100
AcDbLine
 10
-208.768725846794
 20
-238.3750490372342
 30
0.0
 11
-208.768725846794
 21
-237.4319707960904
 31
0.0
  0
LINE
  5
1F7
102
{ACAD_REACTORS
330
2DF
330
2E0
102
}
330
71
100
AcDbEntity
  8
0
  6
Continuous
 62
     2
100
AcDbLine
 10
-214.3141761062595
 20
-241.0216839578516
 30
0.0
 11
-215.7900093672691
 21
-241.0216839578516
 31
0.0
  0
LINE
  5
1F8
102
{ACAD_REACTORS
330
2DF
330
2E0
102
}
330
71
100
AcDbEntity
  8
0
  6
Continuous
 62
     2
100
AcDbLine
 10
-216.8081486593984
 20
-235.745484128825
 30
0.0
 11
-216.8081486593984
 21
-241.3099948980252
 31
0.0
  0
LINE
  5
1F9
102
{ACAD_REACTORS
330
2DF
330
2E0
102
}
330
71
100
AcDbEntity
  8
0
  6
Continuous
 62
     2
100
AcDbLine
 10
-216.3839040440156
 20
-235.3212395134412
 30
0.0
 11
-210.9105919532988
 21
-235.3212395134412
 31
0.0
  0
LINE
  5
1FA
102
{ACAD_REACTORS
330
2DF
330
2E0
102
}
330
71
100
AcDbEntity
  8
0
  6
Continuous
 62
     2
100
AcDbLine
 10
-210.4863473379149
 20
-235.745484128825
 30
0.0
 11
-210.4863473379149
 21
-241.3099948980252
 31
0.0
  0
LINE
  5
1FB
102
{ACAD_REACTORS
330
2DF
330
2E0
102
}
330
71
100
AcDbEntity
  8
0
  6
Continuous
 62
     2
100
AcDbLine
 10
-210.9105919532988
 20
-241.7342395134085
 30
0.0
 11
-216.3839040440156
 21
-241.7342395134085
 31
0.0
  0
LINE
  5
1FC
102
{ACAD_REACTORS
330
2DF
330
2E0
102
}
330
71
100
AcDbEntity
  8
0
  6
Continuous
 62
     2
100
AcDbLine
 10
-213.9984591831829
 20
-240.7059670347749
 30
0.0
 11
-213.9984591831829
 21
-239.1751961032433
 31
0.0
  0
LINE
  5
1FD
102
{ACAD_REACTORS
330
2DF
330
2E0
102
}
330
71
100
AcDbEntity
  8
0
  6
Continuous
 62
     2
100
AcDbLine
 10
-213.9984591831829
 20
-236.9535366111183
 30
0.0
 11
-213.9984591831829
 21
-236.3495119920578
 31
0.0
  0
LINE
  5
1FE
102
{ACAD_REACTORS
330
2DF
330
2E0
102
}
330
71
100
AcDbEntity
  8
0
  6
Continuous
 62
     2
100
AcDbLine
 10
-215.7900093672691
 20
-236.0337950689816
 30
0.0
 11
-214.3141761062595
 21
-236.0337950689816
 31
0.0
  0
LINE
  5
1FF
102
{ACAD_REACTORS
330
2DF
330
2E0
102
}
330
71
100
AcDbEntity
  8
0
  6
Continuous
 62
     2
100
AcDbLine
 10
-216.1057262903448
 20
-236.3495119920578
 30
0.0
 11
-216.1057262903448
 21
-240.7059670347749
 31
0.0
  0
LINE
  5
200
102
{ACAD_REACTORS
330
2E5
330
2E6
102
}
330
71
100
AcDbEntity
  8
0
  6
Continuous
 62
     2
100
AcDbLine
 10
-208.768725846794
 20
-237.4319707960904
 30
0.0
 11
-208.0099582590137
 21
-237.4319707960904
 31
0.0
  0
LINE
  5
201
102
{ACAD_REACTORS
330
2E5
330
2E6
102
}
330
71
100
AcDbEntity
  8
0
  6
Continuous
 62
     2
100
AcDbLine
 10
-210.0092302570481
 20
-235.321239513423
 30
0.0
 11
-208.0099582590137
 21
-235.321239513423
 31
0.0
  0
LINE
  5
202
102
{ACAD_REACTORS
330
2E5
330
2E6
102
}
330
71
100
AcDbEntity
  8
0
  6
Continuous
 62
     2
100
AcDbLine
 10
-210.0092302570481
 20
-235.321239513423
 30
0.0
 11
-210.0092302570481
 21
-238.3750490372342
 31
0.0
  0
LINE
  5
203
102
{ACAD_REACTORS
330
2E5
330
2E6
102
}
330
71
100
AcDbEntity
  8
0
  6
Continuous
 62
     2
100
AcDbLine
 10
-208.768725846794
 20
-236.6900730082053
 30
0.0
 11
-208.4514307852521
 21
-236.6900730082053
 31
0.0
  0
LINE
  5
204
102
{ACAD_REACTORS
330
2E5
330
2E6
102
}
330
71
100
AcDbEntity
  8
0
  6
Continuous
 62
     2
100
AcDbLine
 10
-208.768725846794
 20
-235.9843453588631
 30
0.0
 11
-208.4514307852521
 21
-235.9843453588631
 31
0.0
  0
LINE
  5
205
102
{ACAD_REACTORS
330
2F3
330
2F4
102
}
330
71
100
AcDbEntity
  8
0
  6
Continuous
 62
     2
100
AcDbLine
 10
-205.6197531130738
 20
-236.3900728467576
 30
0.0
 11
-204.5700955351663
 21
-236.3900728467576
 31
0.0
  0
LINE
  5
206
102
{ACAD_REACTORS
330
2F3
330
2F4
102
}
330
71
100
AcDbEntity
  8
0
  6
Continuous
 62
     2
100
AcDbLine
 10
-205.6197531130738
 20
-235.321239513423
 30
0.0
 11
-205.6197531130738
 21
-236.3900728467576
 31
0.0
  0
LINE
  5
207
102
{ACAD_REACTORS
330
2F3
330
2F4
102
}
330
71
100
AcDbEntity
  8
0
  6
Continuous
 62
     2
100
AcDbLine
 10
-206.8125458152404
 20
-235.321239513423
 30
0.0
 11
-205.6197531130738
 21
-235.321239513423
 31
0.0
  0
LINE
  5
208
102
{ACAD_REACTORS
330
2F3
330
2F4
102
}
330
71
100
AcDbEntity
  8
0
  6
Continuous
 62
     2
100
AcDbLine
 10
-205.6197531130738
 20
-238.3750490372342
 30
0.0
 11
-206.8125458152404
 21
-238.3750490372342
 31
0.0
  0
LINE
  5
209
102
{ACAD_REACTORS
330
2F3
330
2F4
102
}
330
71
100
AcDbEntity
  8
0
  6
Continuous
 62
     2
100
AcDbLine
 10
-204.5700955351663
 20
-238.3750490372342
 30
0.0
 11
-204.5700955351663
 21
-237.2407769283904
 31
0.0
  0
LINE
  5
20A
102
{ACAD_REACTORS
330
2F3
330
2F4
102
}
330
71
100
AcDbEntity
  8
0
  6
Continuous
 62
     2
100
AcDbLine
 10
-203.3773028329999
 20
-238.3750490372342
 30
0.0
 11
-204.5700955351663
 21
-238.3750490372342
 31
0.0
  0
LINE
  5
20B
102
{ACAD_REACTORS
330
2F3
330
2F4
102
}
330
71
100
AcDbEntity
  8
0
  6
Continuous
 62
     2
100
AcDbLine
 10
-203.3773028329999
 20
-235.321239513423
 30
0.0
 11
-203.3773028329999
 21
-238.3750490372342
 31
0.0
  0
LINE
  5
20C
102
{ACAD_REACTORS
330
2E1
330
2E2
102
}
330
71
100
AcDbEntity
  8
0
  6
Continuous
 62
     2
100
AcDbLine
 10
-199.894348142673
 20
-237.19715107805
 30
0.0
 11
-198.5584203162453
 21
-237.19715107805
 31
0.0
  0
LINE
  5
20D
102
{ACAD_REACTORS
330
2E1
330
2E2
102
}
330
71
100
AcDbEntity
  8
0
  6
Continuous
 62
     2
100
AcDbLine
 10
-198.5584203162453
 20
-237.19715107805
 30
0.0
 11
-198.5584203162453
 21
-236.4991374726077
 31
0.0
  0
LINE
  5
20E
102
{ACAD_REACTORS
330
2E1
330
2E2
102
}
330
71
100
AcDbEntity
  8
0
  6
Continuous
 62
     2
100
AcDbLine
 10
-198.5584203162453
 20
-236.4991374726077
 30
0.0
 11
-199.894348142673
 21
-236.4991374726077
 31
0.0
  0
LINE
  5
20F
102
{ACAD_REACTORS
330
2E1
330
2E2
102
}
330
71
100
AcDbEntity
  8
0
  6
Continuous
 62
     2
100
AcDbLine
 10
-199.894348142673
 20
-236.4991374726077
 30
0.0
 11
-199.894348142673
 21
-236.019253118866
 31
0.0
  0
LINE
  5
210
102
{ACAD_REACTORS
330
2F1
330
2F2
102
}
330
71
100
AcDbEntity
  8
0
  6
Continuous
 62
     2
100
AcDbLine
 10
-203.5683005962321
 20
-241.7342395134085
 30
0.0
 11
-202.3755078940645
 21
-241.7342395134085
 31
0.0
  0
LINE
  5
211
102
{ACAD_REACTORS
330
2F1
330
2F2
102
}
330
71
100
AcDbEntity
  8
0
  6
Continuous
 62
     2
100
AcDbLine
 10
-201.1350034838116
 20
-241.7342395134085
 30
0.0
 11
-199.9422107816452
 21
-241.7342395134085
 31
0.0
  0
LINE
  5
212
102
{ACAD_REACTORS
330
2F1
330
2F2
102
}
330
71
100
AcDbEntity
  8
0
  6
Continuous
 62
     2
100
AcDbLine
 10
-202.3755078940645
 20
-238.6804299895974
 30
0.0
 11
-203.5683005962321
 21
-238.6804299895974
 31
0.0
  0
LINE
  5
213
102
{ACAD_REACTORS
330
2F1
330
2F2
102
}
330
71
100
AcDbEntity
  8
0
  6
Continuous
 62
     2
100
AcDbLine
 10
-203.5683005962321
 20
-238.6804299895974
 30
0.0
 11
-203.5683005962321
 21
-241.7342395134085
 31
0.0
  0
LINE
  5
214
102
{ACAD_REACTORS
330
2EF
330
2F0
102
}
330
71
100
AcDbEntity
  8
0
  6
Continuous
 62
     2
100
AcDbLine
 10
-195.8865646633919
 20
-235.321239513423
 30
0.0
 11
-195.8865646633919
 21
-236.6300150236282
 31
0.0
  0
LINE
  5
215
102
{ACAD_REACTORS
330
2EF
330
2F0
102
}
330
71
100
AcDbEntity
  8
0
  6
Continuous
 62
     2
100
AcDbLine
 10
-197.1270690736459
 20
-235.321239513423
 30
0.0
 11
-198.3198617758124
 21
-235.321239513423
 31
0.0
  0
LINE
  5
216
102
{ACAD_REACTORS
330
2EF
330
2F0
102
}
330
71
100
AcDbEntity
  8
0
  6
Continuous
 62
     2
100
AcDbLine
 10
-198.3198617758124
 20
-235.321239513423
 30
0.0
 11
-198.3198617758124
 21
-238.3750490372342
 31
0.0
  0
LINE
  5
217
102
{ACAD_REACTORS
330
2EF
330
2F0
102
}
330
71
100
AcDbEntity
  8
0
  6
Continuous
 62
     2
100
AcDbLine
 10
-197.1270690736459
 20
-238.3750490372342
 30
0.0
 11
-197.1270690736459
 21
-237.0662735270295
 31
0.0
  0
LINE
  5
218
102
{ACAD_REACTORS
330
2ED
330
2EE
102
}
330
71
100
AcDbEntity
  8
0
  6
Continuous
 62
     2
100
AcDbLine
 10
-197.7951839177439
 20
-241.7342395134085
 30
0.0
 11
-197.7951839177439
 21
-239.465695295721
 31
0.0
  0
LINE
  5
219
102
{ACAD_REACTORS
330
2ED
330
2EE
102
}
330
71
100
AcDbEntity
  8
0
  6
Continuous
 62
     2
100
AcDbLine
 10
-197.7951839177439
 20
-239.465695295721
 30
0.0
 11
-196.9840848802714
 21
-239.465695295721
 31
0.0
  0
LINE
  5
21A
102
{ACAD_REACTORS
330
2ED
330
2EE
102
}
330
71
100
AcDbEntity
  8
0
  6
Continuous
 62
     2
100
AcDbLine
 10
-196.9840848802714
 20
-239.465695295721
 30
0.0
 11
-196.9840848802714
 21
-238.6804299895974
 31
0.0
  0
LINE
  5
21B
102
{ACAD_REACTORS
330
2ED
330
2EE
102
}
330
71
100
AcDbEntity
  8
0
  6
Continuous
 62
     2
100
AcDbLine
 10
-196.9840848802714
 20
-238.6804299895974
 30
0.0
 11
-199.799075657385
 21
-238.6804299895974
 31
0.0
  0
LINE
  5
21C
102
{ACAD_REACTORS
330
2ED
330
2EE
102
}
330
71
100
AcDbEntity
  8
0
  6
Continuous
 62
     2
100
AcDbLine
 10
-199.799075657385
 20
-239.465695295721
 30
0.0
 11
-198.9879766199104
 21
-239.465695295721
 31
0.0
  0
LINE
  5
21D
102
{ACAD_REACTORS
330
2EB
330
2EC
102
}
330
71
100
AcDbEntity
  8
0
  6
Continuous
 62
     2
100
AcDbLine
 10
-196.189579054474
 20
-241.1932789691906
 30
0.0
 11
-195.0571374778002
 21
-241.1932789691906
 31
0.0
  0
LINE
  5
21E
102
{ACAD_REACTORS
330
2EB
330
2EC
102
}
330
71
100
AcDbEntity
  8
0
  6
Continuous
 62
     2
100
AcDbLine
 10
-193.6051530140705
 20
-241.7342395134085
 30
0.0
 11
-194.8456574243244
 21
-241.7342395134085
 31
0.0
  0
LINE
  5
21F
102
{ACAD_REACTORS
330
2EB
330
2EC
102
}
330
71
100
AcDbEntity
  8
0
  6
Continuous
 62
     2
100
AcDbLine
 10
-196.2436104712635
 20
-238.6804299895974
 30
0.0
 11
-197.6415635182028
 21
-241.7342395134085
 31
0.0
  0
LINE
  5
220
102
{ACAD_REACTORS
330
2EB
330
2EC
102
}
330
71
100
AcDbEntity
  8
0
  6
Continuous
 62
     2
100
AcDbLine
 10
-196.4010591079498
 20
-241.7342395134085
 30
0.0
 11
-196.189579054474
 21
-241.1932789691906
 31
0.0
  0
LINE
  5
221
102
{ACAD_REACTORS
330
2EB
330
2EC
102
}
330
71
100
AcDbEntity
  8
0
  6
Continuous
 62
     2
100
AcDbLine
 10
-195.923523503329
 20
-240.512715703884
 30
0.0
 11
-195.6233582661366
 21
-239.7449007378973
 31
0.0
  0
LINE
  5
222
102
{ACAD_REACTORS
330
2E9
330
2EA
102
}
330
71
100
AcDbEntity
  8
0
  6
Continuous
 62
     2
100
AcDbLine
 10
-194.4552134207914
 20
-238.3750490372342
 30
0.0
 11
-194.4552134207914
 21
-235.321239513423
 31
0.0
  0
LINE
  5
223
102
{ACAD_REACTORS
330
2E9
330
2EA
102
}
330
71
100
AcDbEntity
  8
0
  6
Continuous
 62
     2
100
AcDbLine
 10
-193.2147090105385
 20
-235.321239513423
 30
0.0
 11
-193.2147090105385
 21
-238.3750490372342
 31
0.0
  0
LINE
  5
224
102
{ACAD_REACTORS
330
2E9
330
2EA
102
}
330
71
100
AcDbEntity
  8
0
  6
Continuous
 62
     2
100
AcDbLine
 10
-194.4552134207914
 20
-235.321239513423
 30
0.0
 11
-193.2147090105385
 21
-235.321239513423
 31
0.0
  0
LINE
  5
225
102
{ACAD_REACTORS
330
2E7
330
2E8
102
}
330
71
100
AcDbEntity
  8
0
  6
Continuous
 62
     2
100
AcDbLine
 10
-190.9961145845077
 20
-237.5873172519405
 30
0.0
 11
-190.2995236464422
 21
-238.3750490372342
 31
0.0
  0
LINE
  5
226
102
{ACAD_REACTORS
330
2E7
330
2E8
102
}
330
71
100
AcDbEntity
  8
0
  6
Continuous
 62
     2
100
AcDbLine
 10
-190.2995236464422
 20
-238.3750490372342
 30
0.0
 11
-188.8967994286939
 21
-238.3750490372342
 31
0.0
  0
LINE
  5
227
102
{ACAD_REACTORS
330
2E7
330
2E8
102
}
330
71
100
AcDbEntity
  8
0
  6
Continuous
 62
     2
100
AcDbLine
 10
-190.2947524756342
 20
-236.7941900434592
 30
0.0
 11
-188.8967994286939
 21
-238.3750490372342
 31
0.0
  0
LINE
  5
228
102
{ACAD_REACTORS
330
2E7
330
2E8
102
}
330
71
100
AcDbEntity
  8
0
  6
Continuous
 62
     2
100
AcDbLine
 10
-190.2947524756342
 20
-236.7941900434592
 30
0.0
 11
-188.9922228448677
 21
-235.321239513423
 31
0.0
  0
LINE
  5
229
102
{ACAD_REACTORS
330
2E7
330
2E8
102
}
330
71
100
AcDbEntity
  8
0
  6
Continuous
 62
     2
100
AcDbLine
 10
-190.9961145845077
 20
-236.0010628349785
 30
0.0
 11
-190.3949470626149
 21
-235.321239513423
 31
0.0
  0
LINE
  5
22A
102
{ACAD_REACTORS
330
2E7
330
2E8
102
}
330
71
100
AcDbEntity
  8
0
  6
Continuous
 62
     2
100
AcDbLine
 10
-191.5972821063995
 20
-235.321239513423
 30
0.0
 11
-190.9961145845077
 21
-236.0010628349785
 31
0.0
  0
LINE
  5
22B
102
{ACAD_REACTORS
330
2E7
330
2E8
102
}
330
71
100
AcDbEntity
  8
0
  6
Continuous
 62
     2
100
AcDbLine
 10
-191.5972821063995
 20
-235.321239513423
 30
0.0
 11
-193.0000063241488
 21
-235.321239513423
 31
0.0
  0
LINE
  5
22C
102
{ACAD_REACTORS
330
2DD
330
2DE
102
}
330
71
100
AcDbEntity
  8
0
  6
Continuous
 62
     2
100
AcDbLine
 10
-190.900691168335
 20
-241.7342395134085
 30
0.0
 11
-189.7078984661673
 21
-241.7342395134085
 31
0.0
  0
LINE
  5
22D
102
{ACAD_REACTORS
330
2DD
330
2DE
102
}
330
71
100
AcDbEntity
  8
0
  6
Continuous
 62
     2
100
AcDbLine
 10
-189.7078984661673
 20
-241.7342395134085
 30
0.0
 11
-189.7078984661673
 21
-239.465695295721
 31
0.0
  0
LINE
  5
22E
102
{ACAD_REACTORS
330
2DD
330
2DE
102
}
330
71
100
AcDbEntity
  8
0
  6
Continuous
 62
     2
100
AcDbLine
 10
-189.7078984661673
 20
-239.465695295721
 30
0.0
 11
-188.8967994286939
 21
-239.465695295721
 31
0.0
  0
LINE
  5
22F
102
{ACAD_REACTORS
330
2DD
330
2DE
102
}
330
71
100
AcDbEntity
  8
0
  6
Continuous
 62
     2
100
AcDbLine
 10
-188.8967994286939
 20
-239.465695295721
 30
0.0
 11
-188.8967994286939
 21
-238.6804299895974
 31
0.0
  0
LINE
  5
230
102
{ACAD_REACTORS
330
2DD
330
2DE
102
}
330
71
100
AcDbEntity
  8
0
  6
Continuous
 62
     2
100
AcDbLine
 10
-192.2817449473226
 20
-238.6804299895979
 30
0.0
 11
-188.8967994286939
 21
-238.6804299895974
 31
0.0
  0
LINE
  5
231
102
{ACAD_REACTORS
330
2DD
330
2DE
102
}
330
71
100
AcDbEntity
  8
0
  6
Continuous
 62
     2
100
AcDbLine
 10
-190.900691168335
 20
-239.465695295721
 30
0.0
 11
-190.900691168335
 21
-241.7342395134085
 31
0.0
  0
LINE
  5
232
102
{ACAD_REACTORS
330
2DF
330
2E0
102
}
330
71
100
AcDbEntity
  8
0
  6
Continuous
 62
     2
100
AcDbLine
 10
-213.5301776038142
 20
-239.755359363844
 30
0.0
 11
-213.5301776038142
 21
-239.1735079571489
 31
0.0
  0
LINE
  5
233
102
{ACAD_REACTORS
330
2DF
330
2E0
102
}
330
71
100
AcDbEntity
  8
0
  6
Continuous
 62
     2
100
AcDbLine
 10
-213.5301776038142
 20
-236.9552247572127
 30
0.0
 11
-213.5301776038142
 21
-236.3496894687059
 31
0.0
  0
LINE
  5
234
330
71
100
AcDbEntity
  8
1
  6
Continuous
 62
     6
100
AcDbLine
 10
-234.999999019211
 20
-249.0277395134248
 30
0.0
 11
-221.044803545961
 21
-249.0277395134249
 31
0.0
  0
LINE
  5
235
330
71
100
AcDbEntity
  8
1
  6
Continuous
 62
     6
100
AcDbLine
 10
-284.9999990192112
 20
-249.0277395134248
 30
0.0
 11
-290.044803545961
 21
-249.0277395134248
 31
0.0
  0
LINE
  5
236
330
71
100
AcDbEntity
  8
1
  6
Continuous
 62
     6
100
AcDbLine
 10
-134.999999019211
 20
-249.0277395134248
 30
0.0
 11
-91.49999901921099
 21
-249.0277395134248
 31
0.0
  0
LINE
  5
237
330
71
100
AcDbEntity
  8
1
  6
Continuous
 62
     6
100
AcDbLine
 10
-184.999999019211
 20
-249.0277395134248
 30
0.0
 11
-202.844803545961
 21
-249.0277395134248
 31
0.0
  0
LINE
  5
238
330
71
100
AcDbEntity
  8
1
  6
Continuous
 62
     2
100
AcDbLine
 10
-91.49999901921099
 20
-249.0277395134248
 30
0.0
 11
-86.499999019212
 21
-249.0277395134248
 31
0.0
  0
LINE
  5
239
330
71
100
AcDbEntity
  8
1
  6
Continuous
 62
     2
100
AcDbLine
 10
-91.49999901921099
 20
-249.0277395134248
 30
0.0
 11
-91.49999901921099
 21
-254.0277395134249
 31
0.0
  0
LINE
  5
23A
330
71
100
AcDbEntity
  8
1
  6
Continuous
 62
     6
100
AcDbLine
 10
-221.044803545961
 20
-232.0277395134248
 30
0.0
 11
-184.6448035459611
 21
-232.0277395134248
 31
0.0
  0
LINE
  5
23B
330
71
100
AcDbEntity
  8
1
  6
Continuous
 62
     2
100
AcDbLine
 10
-86.499999019212
 20
-254.0277395134249
 30
0.0
 11
-86.499999019212
 21
-249.0277395134248
 31
0.0
  0
LINE
  5
23C
330
71
100
AcDbEntity
  8
1
  6
Continuous
 62
     2
100
AcDbLine
 10
-86.499999019212
 20
-254.0277395134249
 30
0.0
 11
-91.49999901921099
 21
-254.0277395134249
 31
0.0
  0
LINE
  5
23D
330
71
100
AcDbEntity
  8
1
  6
Continuous
 62
     2
100
AcDbLine
 10
-91.49999901921099
 20
-254.0277395134249
 30
0.0
 11
-134.999999019211
 21
-254.0277395134249
 31
0.0
  0
LINE
  5
23E
330
71
100
AcDbEntity
  8
1
  6
Continuous
 62
     6
100
AcDbLine
 10
-91.4999990192093
 20
-232.0277395134248
 30
0.0
 11
-91.4999990192101
 21
-199.0277395134247
 31
0.0
  0
LINE
  5
23F
330
71
100
AcDbEntity
  8
1
  6
Continuous
 62
     2
100
AcDbLine
 10
-86.499999019212
 20
-44.02773951342476
 30
0.0
 11
-234.999999019211
 21
-44.02773951342476
 31
0.0
  0
LINE
  5
240
330
71
100
AcDbEntity
  8
1
  6
Continuous
 62
     6
100
AcDbLine
 10
-91.499999019212
 20
-64.02773951342476
 30
0.0
 11
-378.4999990192101
 21
-64.02773951342476
 31
0.0
  0
LINE
  5
241
330
71
100
AcDbEntity
  8
1
  6
Continuous
 62
     2
100
AcDbLine
 10
-91.4999990192101
 20
-199.0277395134247
 30
0.0
 11
-86.499999019212
 21
-199.0277395134247
 31
0.0
  0
LINE
  5
242
330
71
100
AcDbEntity
  8
1
  6
Continuous
 62
     6
100
AcDbLine
 10
-91.4999990192101
 20
-199.0277395134247
 30
0.0
 11
-91.49999901921059
 21
-149.0277395134249
 31
0.0
  0
LINE
  5
243
330
71
100
AcDbEntity
  8
1
  6
Continuous
 62
     2
100
AcDbLine
 10
-86.499999019212
 20
-199.0277395134247
 30
0.0
 11
-86.499999019212
 21
-149.0277395134249
 31
0.0
  0
LINE
  5
244
330
71
100
AcDbEntity
  8
1
  6
Continuous
 62
     2
100
AcDbLine
 10
-91.49999901921059
 20
-149.0277395134249
 30
0.0
 11
-86.499999019212
 21
-149.0277395134249
 31
0.0
  0
LINE
  5
245
330
71
100
AcDbEntity
  8
1
  6
Continuous
 62
     6
100
AcDbLine
 10
-91.49999901921059
 20
-149.0277395134249
 30
0.0
 11
-91.4999990192118
 21
-99.02773951342476
 31
0.0
  0
LINE
  5
246
330
71
100
AcDbEntity
  8
1
  6
Continuous
 62
     2
100
AcDbLine
 10
-86.499999019212
 20
-149.0277395134249
 30
0.0
 11
-86.499999019212
 21
-99.02773951342476
 31
0.0
  0
LINE
  5
247
330
71
100
AcDbEntity
  8
1
  6
Continuous
 62
     2
100
AcDbLine
 10
-91.4999990192118
 20
-99.02773951342476
 30
0.0
 11
-86.499999019212
 21
-99.02773951342476
 31
0.0
  0
LINE
  5
248
330
71
100
AcDbEntity
  8
1
  6
Continuous
 62
     6
100
AcDbLine
 10
-91.4999990192118
 20
-99.02773951342476
 30
0.0
 11
-91.499999019212
 21
-64.02773951342476
 31
0.0
  0
LINE
  5
249
330
71
100
AcDbEntity
  8
1
  6
Continuous
 62
     2
100
AcDbLine
 10
-86.499999019212
 20
-99.02773951342476
 30
0.0
 11
-86.499999019212
 21
-44.02773951342476
 31
0.0
  0
LINE
  5
24A
330
71
100
AcDbEntity
  8
1
  6
Continuous
 62
     2
100
AcDbLine
 10
-86.499999019212
 20
-249.0277395134248
 30
0.0
 11
-86.499999019212
 21
-199.0277395134247
 31
0.0
  0
LINE
  5
24B
330
71
100
AcDbEntity
  8
1
  6
Continuous
 62
     2
100
AcDbLine
 10
-234.999999019211
 20
-44.02773951342476
 30
0.0
 11
-383.4999990192101
 21
-44.02773951342476
 31
0.0
  0
LINE
  5
24C
330
71
100
AcDbEntity
  8
1
  6
Continuous
 62
     2
100
AcDbLine
 10
-234.999999019211
 20
-44.02773951342476
 30
0.0
 11
-234.999999019211
 21
-53.23643135812608
 31
0.0
  0
LINE
  5
24D
330
71
100
AcDbEntity
  8
1
  6
Continuous
 62
     2
100
AcDbLine
 10
-383.4999990192101
 20
-254.0277395134249
 30
0.0
 11
-378.4999990192091
 21
-254.0277395134249
 31
0.0
  0
LINE
  5
24E
330
71
100
AcDbEntity
  8
1
  6
Continuous
 62
     2
100
AcDbLine
 10
-383.4999990192101
 20
-44.02773951342476
 30
0.0
 11
-383.4999990192101
 21
-99.02773951342476
 31
0.0
  0
LINE
  5
24F
330
71
100
AcDbEntity
  8
1
  6
Continuous
 62
     6
100
AcDbLine
 10
-378.4999990192101
 20
-64.02773951342476
 30
0.0
 11
-378.49999901921
 21
-99.02773951342476
 31
0.0
  0
LINE
  5
250
330
71
100
AcDbEntity
  8
1
  6
Continuous
 62
     2
100
AcDbLine
 10
-383.4999990192101
 20
-99.02773951342476
 30
0.0
 11
-378.49999901921
 21
-99.02773951342476
 31
0.0
  0
LINE
  5
251
330
71
100
AcDbEntity
  8
1
  6
Continuous
 62
     2
100
AcDbLine
 10
-383.4999990192101
 20
-99.02773951342476
 30
0.0
 11
-383.4999990192101
 21
-149.0277395134249
 31
0.0
  0
LINE
  5
252
330
71
100
AcDbEntity
  8
1
  6
Continuous
 62
     6
100
AcDbLine
 10
-378.49999901921
 20
-99.02773951342476
 30
0.0
 11
-378.4999990192095
 21
-149.0277395134249
 31
0.0
  0
LINE
  5
253
330
71
100
AcDbEntity
  8
1
  6
Continuous
 62
     2
100
AcDbLine
 10
-383.4999990192101
 20
-149.0277395134249
 30
0.0
 11
-378.4999990192095
 21
-149.0277395134249
 31
0.0
  0
LINE
  5
254
330
71
100
AcDbEntity
  8
1
  6
Continuous
 62
     2
100
AcDbLine
 10
-383.4999990192101
 20
-149.0277395134249
 30
0.0
 11
-383.4999990192101
 21
-199.0277395134247
 31
0.0
  0
LINE
  5
255
330
71
100
AcDbEntity
  8
1
  6
Continuous
 62
     6
100
AcDbLine
 10
-378.4999990192095
 20
-149.0277395134249
 30
0.0
 11
-378.4999990192093
 21
-199.0277395134247
 31
0.0
  0
LINE
  5
256
330
71
100
AcDbEntity
  8
1
  6
Continuous
 62
     2
100
AcDbLine
 10
-383.4999990192101
 20
-199.0277395134247
 30
0.0
 11
-378.4999990192093
 21
-199.0277395134247
 31
0.0
  0
LINE
  5
257
330
71
100
AcDbEntity
  8
1
  6
Continuous
 62
     2
100
AcDbLine
 10
-383.4999990192101
 20
-199.0277395134247
 30
0.0
 11
-383.4999990192101
 21
-249.0277395134248
 31
0.0
  0
LINE
  5
258
330
71
100
AcDbEntity
  8
1
  6
Continuous
 62
     6
100
AcDbLine
 10
-378.4999990192093
 20
-199.0277395134247
 30
0.0
 11
-378.4999990192091
 21
-249.0277395134248
 31
0.0
  0
LINE
  5
259
330
71
100
AcDbEntity
  8
1
  6
Continuous
 62
     2
100
AcDbLine
 10
-334.999999019211
 20
-254.0277395134249
 30
0.0
 11
-334.999999019211
 21
-249.0277395134248
 31
0.0
  0
LINE
  5
25A
330
71
100
AcDbEntity
  8
1
  6
Continuous
 62
     2
100
AcDbLine
 10
-334.999999019211
 20
-254.0277395134249
 30
0.0
 11
-284.9999990192112
 21
-254.0277395134249
 31
0.0
  0
LINE
  5
25B
330
71
100
AcDbEntity
  8
1
  6
Continuous
 62
     2
100
AcDbLine
 10
-284.9999990192112
 20
-254.0277395134249
 30
0.0
 11
-284.9999990192112
 21
-249.0277395134248
 31
0.0
  0
LINE
  5
25C
330
71
100
AcDbEntity
  8
1
  6
Continuous
 62
     2
100
AcDbLine
 10
-284.9999990192112
 20
-254.0277395134249
 30
0.0
 11
-234.999999019211
 21
-254.0277395134249
 31
0.0
  0
LINE
  5
25D
330
71
100
AcDbEntity
  8
1
  6
Continuous
 62
     2
100
AcDbLine
 10
-234.999999019211
 20
-254.0277395134249
 30
0.0
 11
-234.999999019211
 21
-249.0277395134248
 31
0.0
  0
LINE
  5
25E
330
71
100
AcDbEntity
  8
1
  6
Continuous
 62
     2
100
AcDbLine
 10
-234.999999019211
 20
-254.0277395134249
 30
0.0
 11
-184.999999019211
 21
-254.0277395134249
 31
0.0
  0
LINE
  5
25F
330
71
100
AcDbEntity
  8
1
  6
Continuous
 62
     2
100
AcDbLine
 10
-184.999999019211
 20
-254.0277395134249
 30
0.0
 11
-184.999999019211
 21
-249.0277395134248
 31
0.0
  0
LINE
  5
260
330
71
100
AcDbEntity
  8
1
  6
Continuous
 62
     2
100
AcDbLine
 10
-134.999999019211
 20
-254.0277395134249
 30
0.0
 11
-134.999999019211
 21
-249.0277395134248
 31
0.0
  0
LINE
  5
261
330
71
100
AcDbEntity
  8
1
  6
Continuous
 62
     2
100
AcDbLine
 10
-134.999999019211
 20
-254.0277395134249
 30
0.0
 11
-184.999999019211
 21
-254.0277395134249
 31
0.0
  0
LINE
  5
262
330
71
100
AcDbEntity
  8
1
  6
Continuous
 62
     2
100
AcDbLine
 10
-378.4999990192091
 20
-249.0277395134248
 30
0.0
 11
-378.4999990192091
 21
-254.0277395134249
 31
0.0
  0
LINE
  5
263
330
71
100
AcDbEntity
  8
1
  6
Continuous
 62
     2
100
AcDbLine
 10
-378.4999990192091
 20
-254.0277395134249
 30
0.0
 11
-334.999999019211
 21
-254.0277395134249
 31
0.0
  0
LINE
  5
264
330
71
100
AcDbEntity
  8
1
  6
Continuous
 62
     2
100
AcDbLine
 10
-378.4999990192091
 20
-249.0277395134248
 30
0.0
 11
-383.4999990192101
 21
-249.0277395134248
 31
0.0
  0
LINE
  5
265
330
71
100
AcDbEntity
  8
1
  6
Continuous
 62
     2
100
AcDbLine
 10
-383.4999990192101
 20
-249.0277395134248
 30
0.0
 11
-383.4999990192101
 21
-254.0277395134249
 31
0.0
  0
LINE
  5
266
330
71
100
AcDbEntity
  8
1
  6
Continuous
 62
     6
100
AcDbLine
 10
-91.49999901921099
 20
-249.0277395134248
 30
0.0
 11
-91.4999990192097
 21
-240.5277395134248
 31
0.0
  0
LINE
  5
267
330
71
100
AcDbEntity
  8
1
  6
Continuous
 62
     6
100
AcDbLine
 10
-184.6448035459611
 20
-249.0277395134249
 30
0.0
 11
-134.999999019211
 21
-249.0277395134248
 31
0.0
  0
LINE
  5
268
330
71
100
AcDbEntity
  8
1
  6
Continuous
 62
     6
100
AcDbLine
 10
-337.2999990192112
 20
-249.0277395134249
 30
0.0
 11
-334.999999019211
 21
-249.0277395134248
 31
0.0
  0
LINE
  5
269
330
71
100
AcDbEntity
  8
1
  6
Continuous
 62
     6
100
AcDbLine
 10
-234.999999019211
 20
-249.0277395134248
 30
0.0
 11
-284.9999990192112
 21
-249.0277395134248
 31
0.0
  0
LINE
  5
26A
330
71
100
AcDbEntity
  8
1
  6
Continuous
 62
     7
100
AcDbLine
 10
-221.044803545961
 20
-232.0277395134248
 30
0.0
 11
-221.044803545961
 21
-244.7777395134249
 31
0.0
  0
LINE
  5
26B
330
71
100
AcDbEntity
  8
1
  6
Continuous
 62
     7
100
AcDbLine
 10
-184.6448035459611
 20
-232.0277395134248
 30
0.0
 11
-184.6448035459611
 21
-244.7777395134248
 31
0.0
  0
LINE
  5
26C
330
71
100
AcDbEntity
  8
1
  6
Continuous
 62
     6
100
AcDbLine
 10
-337.2999990192112
 20
-249.0277395134249
 30
0.0
 11
-343.4999990192092
 21
-249.0277395134248
 31
0.0
  0
LINE
  5
26D
330
71
100
AcDbEntity
  8
1
  6
Continuous
 62
     6
100
AcDbLine
 10
-184.6448035459611
 20
-249.0277395134249
 30
0.0
 11
-184.999999019211
 21
-249.0277395134248
 31
0.0
  0
LINE
  5
26E
330
71
100
AcDbEntity
  8
1
  6
Continuous
 62
     6
100
AcDbLine
 10
-91.4999990192093
 20
-232.0277395134248
 30
0.0
 11
-91.4999990192097
 21
-240.5277395134248
 31
0.0
  0
LINE
  5
26F
330
71
100
AcDbEntity
  8
1
  6
Continuous
 62
     6
100
AcDbLine
 10
-343.4999990192092
 20
-249.0277395134248
 30
0.0
 11
-378.4999990192091
 21
-249.0277395134248
 31
0.0
  0
LINE
  5
270
330
71
100
AcDbEntity
  8
1
  6
Continuous
 62
     2
100
AcDbLine
 10
-216.8081486593984
 20
-226.6527395134249
 30
0.0
 11
-211.8081486593984
 21
-225.4027395134249
 31
0.0
  0
LINE
  5
271
330
71
100
AcDbEntity
  8
1
  6
Continuous
 62
     2
100
AcDbLine
 10
-216.8081486593984
 20
-229.1527395134249
 30
0.0
 11
-216.8081486593984
 21
-226.6527395134249
 31
0.0
  0
LINE
  5
272
330
71
100
AcDbEntity
  8
1
  6
Continuous
 62
     2
100
AcDbLine
 10
-211.8081486593984
 20
-230.4027395134249
 30
0.0
 11
-216.8081486593984
 21
-229.1527395134249
 31
0.0
  0
LINE
  5
273
330
71
100
AcDbEntity
  8
1
  6
Continuous
 62
     2
100
AcDbLine
 10
-211.8081486593984
 20
-225.4027395134249
 30
0.0
 11
-211.8081486593984
 21
-230.4027395134249
 31
0.0
  0
LINE
  5
274
330
71
100
AcDbEntity
  8
1
  6
Continuous
 62
     7
100
AcDbLine
 10
-221.044803545961
 20
-244.7777395134249
 30
0.0
 11
-202.844803545961
 21
-244.7777395134248
 31
0.0
  0
LINE
  5
275
330
71
100
AcDbEntity
  8
1
  6
Continuous
 62
     7
100
AcDbLine
 10
-221.044803545961
 20
-244.7777395134249
 30
0.0
 11
-221.044803545961
 21
-249.0277395134249
 31
0.0
  0
LINE
  5
276
330
71
100
AcDbEntity
  8
1
  6
Continuous
 62
     7
100
AcDbLine
 10
-184.6448035459611
 20
-244.7777395134248
 30
0.0
 11
-184.6448035459611
 21
-249.0277395134249
 31
0.0
  0
LINE
  5
277
330
71
100
AcDbEntity
  8
1
  6
Continuous
 62
     7
100
AcDbLine
 10
-202.844803545961
 20
-244.7777395134248
 30
0.0
 11
-202.844803545961
 21
-249.0277395134248
 31
0.0
  0
LINE
  5
278
330
71
100
AcDbEntity
  8
1
  6
Continuous
 62
     6
100
AcDbLine
 10
-202.844803545961
 20
-249.0277395134248
 30
0.0
 11
-221.044803545961
 21
-249.0277395134249
 31
0.0
  0
LINE
  5
279
330
71
100
AcDbEntity
  8
1
  6
Continuous
 62
     7
100
AcDbLine
 10
-202.844803545961
 20
-244.7777395134248
 30
0.0
 11
-184.6448035459611
 21
-244.7777395134248
 31
0.0
  0
LINE
  5
27A
330
71
100
AcDbEntity
  8
1
  6
Continuous
 62
     6
100
AcDbLine
 10
-221.044803545961
 20
-223.5277395134248
 30
0.0
 11
-91.4999990192093
 21
-223.5277395134248
 31
0.0
  0
ARC
  5
27B
102
{ACAD_REACTORS
330
2E3
330
2E4
102
}
330
71
100
AcDbEntity
  8
0
  6
Continuous
 62
     2
100
AcDbCircle
 10
-205.653155547001
 20
-240.2073347515032
 30
0.0
 40
0.7717997786797123
100
AcDbArc
 50
321.8795802028401
 51
38.12041979715329
  0
ARC
  5
27C
102
{ACAD_REACTORS
330
2E3
330
2E4
102
}
330
71
100
AcDbEntity
  8
0
  6
Continuous
 62
     2
100
AcDbCircle
 10
-205.4534155106546
 20
-240.3640659296232
 30
0.0
 40
0.5179085730137754
100
AcDbArc
 50
218.1204197971937
 51
321.8795802027985
  0
ARC
  5
27D
102
{ACAD_REACTORS
330
2E3
330
2E4
102
}
330
71
100
AcDbEntity
  8
0
  6
Continuous
 62
     2
100
AcDbCircle
 10
-205.2536754743085
 20
-240.2073347515032
 30
0.0
 40
0.7717997786794856
100
AcDbArc
 50
141.8795802028376
 51
218.120419797169
  0
ARC
  5
27E
102
{ACAD_REACTORS
330
2E3
330
2E4
102
}
330
71
100
AcDbEntity
  8
0
  6
Continuous
 62
     2
100
AcDbCircle
 10
-205.4534155106546
 20
-240.0506035733827
 30
0.0
 40
0.5179085730132998
100
AcDbArc
 50
38.12041979714704
 51
141.8795802028608
  0
ARC
  5
27F
102
{ACAD_REACTORS
330
2DB
330
2DC
102
}
330
71
100
AcDbEntity
  8
0
  6
Continuous
 62
     2
100
AcDbCircle
 10
-208.5154296462185
 20
-241.6178011169114
 30
0.0
 40
2.227384008973517
100
AcDbArc
 50
58.06909105004049
 51
71.55192388186676
  0
ARC
  5
280
102
{ACAD_REACTORS
330
2DB
330
2DC
102
}
330
71
100
AcDbEntity
  8
0
  6
Continuous
 62
     2
100
AcDbCircle
 10
-208.2537019452597
 20
-240.0022633221642
 30
0.0
 40
0.5115800601948891
100
AcDbArc
 50
113.3722778882021
 51
151.4785267423044
  0
ARC
  5
281
102
{ACAD_REACTORS
330
2DB
330
2DC
102
}
330
71
100
AcDbEntity
  8
0
  6
Continuous
 62
     2
100
AcDbCircle
 10
-207.8763446871794
 20
-240.2073347515032
 30
0.0
 40
0.9410597353332545
100
AcDbArc
 50
151.4785267422669
 51
208.5214732577073
  0
ARC
  5
282
102
{ACAD_REACTORS
330
2DB
330
2DC
102
}
330
71
100
AcDbEntity
  8
0
  6
Continuous
 62
     2
100
AcDbCircle
 10
-208.6733025213114
 20
-236.8946538062468
 30
0.0
 40
4.852596863498138
100
AcDbArc
 50
275.1581447696249
 51
285.9799912583529
  0
ARC
  5
283
102
{ACAD_REACTORS
330
2DB
330
2DC
102
}
330
71
100
AcDbEntity
  8
0
  6
Continuous
 62
     2
100
AcDbCircle
 10
-208.3844464265755
 20
-240.0945443894684
 30
0.0
 40
1.639695123939408
100
AcDbArc
 50
195.0618917770884
 51
275.1581447696396
  0
ARC
  5
284
102
{ACAD_REACTORS
330
2DB
330
2DC
102
}
330
71
100
AcDbEntity
  8
0
  6
Continuous
 62
     2
100
AcDbCircle
 10
-208.8035742700383
 20
-240.2073347515032
 30
0.0
 40
1.205656168390964
100
AcDbArc
 50
164.9381082228781
 51
195.0618917770945
  0
ARC
  5
285
102
{ACAD_REACTORS
330
2DB
330
2DC
102
}
330
71
100
AcDbEntity
  8
0
  6
Continuous
 62
     2
100
AcDbCircle
 10
-208.3844464265755
 20
-240.3201251135381
 30
0.0
 40
1.639695123940507
100
AcDbArc
 50
84.84185523036236
 51
164.9381082228877
  0
ARC
  5
286
102
{ACAD_REACTORS
330
2DF
330
2E0
102
}
330
71
100
AcDbEntity
  8
0
  6
Continuous
 62
     2
100
AcDbCircle
 10
-213.2144606807374
 20
-239.1735079571489
 30
0.0
 40
0.3157169230765071
100
AcDbArc
 50
115.3740086783541
 51
180.0
  0
ARC
  5
287
102
{ACAD_REACTORS
330
2DF
330
2E0
102
}
330
71
100
AcDbEntity
  8
0
  6
Continuous
 62
     2
100
AcDbCircle
 10
-213.2144606807374
 20
-236.9552247572127
 30
0.0
 40
0.315716923076792
100
AcDbArc
 50
180.0
 51
244.6259913216459
  0
ARC
  5
288
102
{ACAD_REACTORS
330
2DF
330
2E0
102
}
330
71
100
AcDbEntity
  8
0
  6
Continuous
 62
     2
100
AcDbCircle
 10
-213.2088445454274
 20
-238.052524416275
 30
0.0
 40
2.018561131933266
100
AcDbArc
 50
269.8110329575866
 51
90.18896704241334
  0
ARC
  5
289
102
{ACAD_REACTORS
330
2DF
330
2E0
102
}
330
71
100
AcDbEntity
  8
0
  6
Continuous
 62
     2
100
AcDbCircle
 10
-213.2144606807374
 20
-239.755359363844
 30
0.0
 40
0.315716923076792
100
AcDbArc
 50
180.0
 51
269.8110329574541
  0
ARC
  5
28A
102
{ACAD_REACTORS
330
2DD
330
2DE
102
}
330
71
100
AcDbEntity
  8
0
  6
Continuous
 62
     2
100
AcDbCircle
 10
-192.1510004660068
 20
-240.0022633221642
 30
0.0
 40
0.5115800601944143
100
AcDbArc
 50
109.3371432194853
 51
151.4785267424225
  0
ARC
  5
28B
102
{ACAD_REACTORS
330
2DD
330
2DE
102
}
330
71
100
AcDbEntity
  8
0
  6
Continuous
 62
     2
100
AcDbCircle
 10
-192.1510004660068
 20
-240.4124061808417
 30
0.0
 40
0.511580060196008
100
AcDbArc
 50
208.5214732576838
 51
246.6277221118436
  0
ARC
  5
28C
102
{ACAD_REACTORS
330
2DD
330
2DE
102
}
330
71
100
AcDbEntity
  8
0
  6
Continuous
 62
     2
100
AcDbCircle
 10
-192.7008727907842
 20
-240.2073347515032
 30
0.0
 40
1.205656168392995
100
AcDbArc
 50
164.9381082229041
 51
195.0618917770959
  0
ARC
  5
28D
102
{ACAD_REACTORS
330
2DD
330
2DE
102
}
330
71
100
AcDbEntity
  8
0
  6
Continuous
 62
     2
100
AcDbCircle
 10
-192.2817449473226
 20
-240.3201251135381
 30
0.0
 40
1.639695123940186
100
AcDbArc
 50
90.0
 51
164.9381082228957
  0
ARC
  5
28E
102
{ACAD_REACTORS
330
2E1
330
2E2
102
}
330
71
100
AcDbEntity
  8
0
  6
Continuous
 62
     2
100
AcDbCircle
 10
-201.7087400400263
 20
-236.8481442753289
 30
0.0
 40
1.526904761905911
100
AcDbArc
 50
90.0
 51
270.0
  0
ARC
  5
28F
102
{ACAD_REACTORS
330
2E5
330
2E6
102
}
330
71
100
AcDbEntity
  8
0
  6
Continuous
 62
     2
100
AcDbCircle
 10
-208.4514307852521
 20
-236.3372091835342
 30
0.0
 40
0.3528638246710898
100
AcDbArc
 50
270.0
 51
90.0
  0
ARC
  5
290
102
{ACAD_REACTORS
330
2DF
330
2E0
102
}
330
71
100
AcDbEntity
  8
0
  6
Continuous
 62
     2
100
AcDbCircle
 10
-215.7900093672691
 20
-236.3495119920578
 30
0.0
 40
0.3157169230762236
100
AcDbArc
 50
90.0
 51
180.0
  0
ARC
  5
291
102
{ACAD_REACTORS
330
2DF
330
2E0
102
}
330
71
100
AcDbEntity
  8
0
  6
Continuous
 62
     2
100
AcDbCircle
 10
-213.7915916586845
 20
-238.0643663571805
 30
0.0
 40
0.911897523557601
100
AcDbArc
 50
115.1944106485306
 51
244.8055893514861
  0
ARC
  5
292
102
{ACAD_REACTORS
330
2DF
330
2E0
102
}
330
71
100
AcDbEntity
  8
0
  6
Continuous
 62
     2
100
AcDbCircle
 10
-214.3141761062595
 20
-239.1751961032433
 30
0.0
 40
0.3157169230766215
100
AcDbArc
 50
0.0
 51
64.80558935146249
  0
ARC
  5
293
102
{ACAD_REACTORS
330
2DF
330
2E0
102
}
330
71
100
AcDbEntity
  8
0
  6
Continuous
 62
     2
100
AcDbCircle
 10
-216.3839040440156
 20
-241.3099948980252
 30
0.0
 40
0.4242446153828041
100
AcDbArc
 50
180.0
 51
270.0
  0
ARC
  5
294
102
{ACAD_REACTORS
330
2E1
330
2E2
102
}
330
71
100
AcDbEntity
  8
0
  6
Continuous
 62
     2
100
AcDbCircle
 10
-201.4924680298611
 20
-236.6914130972084
 30
0.0
 40
0.5179085730135266
100
AcDbArc
 50
38.12041979714334
 51
141.8795802028489
  0
ARC
  5
295
102
{ACAD_REACTORS
330
2E1
330
2E2
102
}
330
71
100
AcDbEntity
  8
0
  6
Continuous
 62
     2
100
AcDbCircle
 10
-201.2927279935148
 20
-236.8481442753289
 30
0.0
 40
0.77179977867969
100
AcDbArc
 50
141.8795802028388
 51
218.1204197971546
  0
ARC
  5
296
102
{ACAD_REACTORS
330
2E3
330
2E4
102
}
330
71
100
AcDbEntity
  8
0
  6
Continuous
 62
     2
100
AcDbCircle
 10
-205.4534155106546
 20
-239.6687597411999
 30
0.0
 40
2.065479772208522
100
AcDbArc
 50
242.4518518243395
 51
297.5481481756871
  0
ARC
  5
297
102
{ACAD_REACTORS
330
2E3
330
2E4
102
}
330
71
100
AcDbEntity
  8
0
  6
Continuous
 62
     2
100
AcDbCircle
 10
-205.4534155106546
 20
-240.745909761806
 30
0.0
 40
2.065479772208568
100
AcDbArc
 50
62.45185182430637
 51
117.5481481756671
  0
ARC
  5
298
102
{ACAD_REACTORS
330
2E3
330
2E4
102
}
330
71
100
AcDbEntity
  8
0
  6
Continuous
 62
     2
100
AcDbCircle
 10
-205.7343554024879
 20
-240.2073347515032
 30
0.0
 40
1.458034083651503
100
AcDbArc
 50
117.5481481756634
 51
242.4518518243366
  0
ARC
  5
299
102
{ACAD_REACTORS
330
2E3
330
2E4
102
}
330
71
100
AcDbEntity
  8
0
  6
Continuous
 62
     2
100
AcDbCircle
 10
-205.1724756188213
 20
-240.2073347515032
 30
0.0
 40
1.458034083652003
100
AcDbArc
 50
297.548148175701
 51
62.45185182429896
  0
ARC
  5
29A
102
{ACAD_REACTORS
330
2E1
330
2E2
102
}
330
71
100
AcDbEntity
  8
0
  6
Continuous
 62
     2
100
AcDbCircle
 10
-201.4924680298611
 20
-237.0048754534493
 30
0.0
 40
0.5179085730134372
100
AcDbArc
 50
218.1204197971511
 51
321.8795802028566
  0
ARC
  5
29B
102
{ACAD_REACTORS
330
2E1
330
2E2
102
}
330
71
100
AcDbEntity
  8
0
  6
Continuous
 62
     2
100
AcDbCircle
 10
-201.6922080662073
 20
-236.8481442753289
 30
0.0
 40
0.7717997786796198
100
AcDbArc
 50
321.8795802028454
 51
38.12041979716123
  0
ARC
  5
29C
102
{ACAD_REACTORS
330
2DF
330
2E0
102
}
330
71
100
AcDbEntity
  8
0
  6
Continuous
 62
     2
100
AcDbCircle
 10
-210.9105919532988
 20
-241.3099948980252
 30
0.0
 40
0.4242446153833157
100
AcDbArc
 50
270.0
 51
0.0
  0
ARC
  5
29D
102
{ACAD_REACTORS
330
2DF
330
2E0
102
}
330
71
100
AcDbEntity
  8
0
  6
Continuous
 62
     2
100
AcDbCircle
 10
-210.9105919532988
 20
-235.745484128825
 30
0.0
 40
0.4242446153838841
100
AcDbArc
 50
0.0
 51
90.0
  0
ARC
  5
29E
102
{ACAD_REACTORS
330
2DF
330
2E0
102
}
330
71
100
AcDbEntity
  8
0
  6
Continuous
 62
     2
100
AcDbCircle
 10
-216.3839040440156
 20
-235.745484128825
 30
0.0
 40
0.4242446153837989
100
AcDbArc
 50
90.0
 51
180.0
  0
ARC
  5
29F
102
{ACAD_REACTORS
330
2DF
330
2E0
102
}
330
71
100
AcDbEntity
  8
0
  6
Continuous
 62
     2
100
AcDbCircle
 10
-214.3141761062595
 20
-240.7059670347749
 30
0.0
 40
0.3157169230767067
100
AcDbArc
 50
270.0
 51
0.0
  0
ARC
  5
2A0
102
{ACAD_REACTORS
330
2DF
330
2E0
102
}
330
71
100
AcDbEntity
  8
0
  6
Continuous
 62
     2
100
AcDbCircle
 10
-214.3141761062595
 20
-236.9535366111183
 30
0.0
 40
0.315716923076146
100
AcDbArc
 50
295.1944106485375
 51
0.0
  0
ARC
  5
2A1
102
{ACAD_REACTORS
330
2DF
330
2E0
102
}
330
71
100
AcDbEntity
  8
0
  6
Continuous
 62
     2
100
AcDbCircle
 10
-214.3141761062595
 20
-236.3495119920578
 30
0.0
 40
0.3157169230766215
100
AcDbArc
 50
0.0
 51
90.0
  0
ARC
  5
2A2
102
{ACAD_REACTORS
330
2DF
330
2E0
102
}
330
71
100
AcDbEntity
  8
0
  6
Continuous
 62
     2
100
AcDbCircle
 10
-215.7900093672691
 20
-240.7059670347749
 30
0.0
 40
0.3157169230756836
100
AcDbArc
 50
180.0
 51
270.0
  0
ARC
  5
2A3
102
{ACAD_REACTORS
330
2E5
330
2E6
102
}
330
71
100
AcDbEntity
  8
0
  6
Continuous
 62
     2
100
AcDbCircle
 10
-208.0099582590137
 20
-236.3766051547567
 30
0.0
 40
1.055365641333708
100
AcDbArc
 50
270.0
 51
90.0
  0
ARC
  5
2A4
102
{ACAD_REACTORS
330
2DD
330
2DE
102
}
330
71
100
AcDbEntity
  8
0
  6
Continuous
 62
     2
100
AcDbCircle
 10
-192.2817449473226
 20
-240.0945443894684
 30
0.0
 40
1.639695123940413
100
AcDbArc
 50
195.0618917771005
 51
275.1581447696762
  0
ARC
  5
2A5
102
{ACAD_REACTORS
330
2DD
330
2DE
102
}
330
71
100
AcDbEntity
  8
0
  6
Continuous
 62
     2
100
AcDbCircle
 10
-192.5706010420584
 20
-236.8946538062468
 30
0.0
 40
4.85259686349885
100
AcDbArc
 50
275.158144769636
 51
285.9799912583383
  0
ARC
  5
2A6
102
{ACAD_REACTORS
330
2DD
330
2DE
102
}
330
71
100
AcDbEntity
  8
0
  6
Continuous
 62
     2
100
AcDbCircle
 10
-192.4127281669656
 20
-238.7968683860951
 30
0.0
 40
2.227384008972773
100
AcDbArc
 50
288.4480761181333
 51
301.9309089499387
  0
ARC
  5
2A7
102
{ACAD_REACTORS
330
2DD
330
2DE
102
}
330
71
100
AcDbEntity
  8
0
  6
Continuous
 62
     2
100
AcDbCircle
 10
-191.9945604333037
 20
-240.0504141621317
 30
0.0
 40
0.9059297849852801
100
AcDbArc
 50
246.6277221118183
 51
288.4480761180811
  0
ARC
  5
2A8
102
{ACAD_REACTORS
330
2DD
330
2DE
102
}
330
71
100
AcDbEntity
  8
0
  6
Continuous
 62
     2
100
AcDbCircle
 10
-191.7736432079254
 20
-240.2073347515032
 30
0.0
 40
0.9410597353348924
100
AcDbArc
 50
151.4785267423624
 51
208.5214732576695
  0
ARC
  5
2A9
102
{ACAD_REACTORS
330
2DD
330
2DE
102
}
330
71
100
AcDbEntity
  8
0
  6
Continuous
 62
     2
100
AcDbCircle
 10
-192.0043304679031
 20
-240.4202183025471
 30
0.0
 40
0.9545230068261219
100
AcDbArc
 50
90.0
 51
109.3371432194314
  0
ARC
  5
2AA
102
{ACAD_REACTORS
330
2DF
330
2E0
102
}
330
71
100
AcDbEntity
  8
0
  6
Continuous
 62
     2
100
AcDbCircle
 10
-213.2144606807374
 20
-236.3496894687059
 30
0.0
 40
0.3157169230760427
100
AcDbArc
 50
90.18896704254595
 51
180.0
  0
ARC
  5
2AB
102
{ACAD_REACTORS
330
2DF
330
2E0
102
}
330
71
100
AcDbEntity
  8
0
  6
Continuous
 62
     2
100
AcDbCircle
 10
-213.7405033788253
 20
-238.0643663571805
 30
0.0
 40
0.9118481501444968
100
AcDbArc
 50
295.3740086781773
 51
64.62599132180586
  0
ARC
  5
2AC
102
{ACAD_REACTORS
330
2DB
330
2DC
102
}
330
71
100
AcDbEntity
  8
0
  6
Continuous
 62
     2
100
AcDbCircle
 10
-208.5154296462185
 20
-238.7968683860945
 30
0.0
 40
2.227384008972773
100
AcDbArc
 50
288.4480761181333
 51
301.9309089499599
  0
ARC
  5
2AD
102
{ACAD_REACTORS
330
2DB
330
2DC
102
}
330
71
100
AcDbEntity
  8
0
  6
Continuous
 62
     2
100
AcDbCircle
 10
-208.0972619125577
 20
-240.0504141621317
 30
0.0
 40
0.9059297849849192
100
AcDbArc
 50
246.627722111871
 51
288.4480761181596
  0
ARC
  5
2AE
102
{ACAD_REACTORS
330
2DB
330
2DC
102
}
330
71
100
AcDbEntity
  8
0
  6
Continuous
 62
     2
100
AcDbCircle
 10
-208.2537019452597
 20
-240.4124061808417
 30
0.0
 40
0.5115800601948034
100
AcDbArc
 50
208.5214732576956
 51
246.6277221118232
  0
ARC
  5
2AF
102
{ACAD_REACTORS
330
2DB
330
2DC
102
}
330
71
100
AcDbEntity
  8
0
  6
Continuous
 62
     2
100
AcDbCircle
 10
-208.0972619125577
 20
-240.3642553408748
 30
0.0
 40
0.9059297849853318
100
AcDbArc
 50
71.55192388185178
 51
113.372277888129
  0
ARC
  5
2B0
102
{ACAD_REACTORS
330
2DB
330
2DC
102
}
330
71
100
AcDbEntity
  8
0
  6
Continuous
 62
     2
100
AcDbCircle
 10
-208.6733025213114
 20
-243.5200156967591
 30
0.0
 40
4.852596863498068
100
AcDbArc
 50
74.02000874164739
 51
84.84185523037506
  0
CIRCLE
  5
2B1
102
{ACAD_REACTORS
330
2DF
330
2E0
102
}
330
71
100
AcDbEntity
  8
0
  6
Continuous
 62
     2
100
AcDbCircle
 10
-213.7643183934981
 20
-238.0643663571805
 30
0.0
 40
0.470978932778479
  0
CIRCLE
  5
2B2
330
71
100
AcDbEntity
  8
1
  6
Continuous
 62
     2
100
AcDbCircle
 10
-208.3081486593984
 20
-227.9027395134249
 30
0.0
 40
1.249999999999886
  0
CIRCLE
  5
2B3
330
71
100
AcDbEntity
  8
1
  6
Continuous
 62
     2
100
AcDbCircle
 10
-208.3081486593984
 20
-227.9027395134249
 30
0.0
 40
2.5
  0
TEXT
  5
2B4
330
71
100
AcDbEntity
  8
1
 62
     7
100
AcDbText
 10
-165.6712558239472
 20
-230.7277395134249
 30
0.0
 40
2.5
  1
/
 41
0.9
  7
CONVERTER_11
100
AcDbText
  0
TEXT
  5
2B6
330
71
100
AcDbEntity
  8
1
 62
     7
100
AcDbText
 10
-163.5148913269052
 20
-230.7277395134249
 30
0.0
 40
2.5
  1
00
 41
0.81
  7
CONVERTER_12
100
AcDbText
  0
TEXT
  5
2B7
330
71
100
AcDbEntity
  8
1
 62
     3
100
AcDbText
 10
-125.9184073008881
 20
-230.7277395134249
 30
0.0
 40
2.5
  1
20.04.2017
 41
0.81
  7
CONVERTER_12
100
AcDbText
  0
MTEXT
  5
2B8
330
71
100
AcDbEntity
  8
1
 62
     2
100
AcDbMText
 10
-125.9184073008881
 20
-224.5277395134249
 30
0.0
 40
1.8
 41
0.0
 71
     1
 72
     1
  1
date
  7
CONVERTER_11
 73
     1
 44
1.32052821128451
  0
MTEXT
  5
2B9
330
71
100
AcDbEntity
  8
1
 62
     2
100
AcDbMText
 10
-155.744803545961
 20
-233.0277395134249
 30
0.0
 40
1.8
 41
0.0
 71
     1
 72
     1
  1
document-type
  7
CONVERTER_11
 73
     1
 44
1.20048019207683
  0
TEXT
  5
2BA
330
71
100
AcDbEntity
  8
1
 62
     3
100
AcDbText
 10
-155.744803545961
 20
-239.2277395134249
 30
0.0
 40
2.5
  1
Customer drawing select
 41
0.81
  7
CONVERTER_12
100
AcDbText
  0
MTEXT
  5
2BC
330
71
100
AcDbEntity
  8
1
 62
     2
100
AcDbMText
 10
-183.544803545961
 20
-224.5277395134248
 30
0.0
 40
1.8
 41
0.0
 71
     1
 72
     1
  1
document-No. / RI
  7
CONVERTER_13
 73
     1
 44
1.32052821128451
  0
TEXT
  5
2BD
330
71
100
AcDbEntity
  8
1
 62
     7
100
AcDbText
 10
-183.544803545961
 20
-230.7277395134249
 30
0.0
 40
2.5
  1
01051615
 41
0.81
  7
CONVERTER_12
100
AcDbText
  0
MTEXT
  5
2BF
330
71
100
AcDbEntity
  8
1
 62
     3
100
AcDbMText
 10
-95.95920316004869
 20
-230.7277395134247
 30
0.0
 40
2.5
 41
0.0
 71
     8
 72
     1
  1
2:1
  7
CONVERTER_14
 73
     1
 44
1.32052821128451
  0
MTEXT
  5
2C0
330
71
100
AcDbEntity
  8
1
 62
     2
100
AcDbMText
 10
-99.31840730088828
 20
-224.5277395134248
 30
0.0
 40
1.8
 41
0.0
 71
     1
 72
     1
  1
scale
  7
CONVERTER_11
 73
     1
 44
1.20048019207683
  0
MTEXT
  5
2C1
330
71
100
AcDbEntity
  8
1
 62
     2
100
AcDbMText
 10
-183.544803545961
 20
-233.0277395134248
 30
0.0
 40
1.8
 41
0.0
 71
     1
 72
     1
  1
ident.-No.
  7
CONVERTER_11
 73
     1
 44
1.20048019207683
  0
TEXT
  5
2C2
330
71
100
AcDbEntity
  8
1
 62
     7
100
AcDbText
 10
-183.1448035459613
 20
-239.2277395134249
 30
0.0
 40
2.5
  1
0801505
 41
0.81
  7
CONVERTER_12
100
AcDbText
  0
MTEXT
  5
2C3
330
71
100
AcDbEntity
  8
1
 62
     2
100
AcDbMText
 10
-255.4828182710085
 20
-236.2777395134249
 30
0.0
 40
2.0
 41
0.0
 71
     5
 72
     1
  1
General Information\P- Simplified representation\P- Document excluded from change process\P- Linear dimensions [mm]
  7
CONVERTER_11
 73
     1
 44
1.20048019207683
  0
MTEXT
  5
2C4
330
71
100
AcDbEntity
  8
1
 62
     7
100
AcDbMText
 10
-88.999999019212
 20
-174.0277395134229
 30
0.0
 40
3.5
 41
0.0
 71
     5
 72
     1
  1
C
  7
CONVERTER_11
 73
     1
 44
1.20048019207683
  0
MTEXT
  5
2C5
330
71
100
AcDbEntity
  8
1
 62
     7
100
AcDbMText
 10
-88.999999019212
 20
-71.52773951342476
 30
0.0
 40
3.5
 41
0.0
 71
     5
 72
     1
  1
A
  7
CONVERTER_11
 73
     1
 44
1.20048019207683
  0
MTEXT
  5
2C6
330
71
100
AcDbEntity
  8
1
 62
     7
100
AcDbMText
 10
-88.999999019212
 20
-124.0277395134229
 30
0.0
 40
3.5
 41
0.0
 71
     5
 72
     1
  1
B
  7
CONVERTER_11
 73
     1
 44
1.20048019207683
  0
MTEXT
  5
2C7
330
71
100
AcDbEntity
  8
1
 62
     7
100
AcDbMText
 10
-88.999999019212
 20
-226.5277395134248
 30
0.0
 40
3.5
 41
0.0
 71
     5
 72
     1
  1
D
  7
CONVERTER_11
 73
     1
 44
1.20048019207683
  0
MTEXT
  5
2C8
330
71
100
AcDbEntity
  8
1
 62
     7
100
AcDbMText
 10
-359.2499990192106
 20
-251.5277395134249
 30
0.0
 40
3.5
 41
0.0
 71
     5
 72
     1
  1
1
  7
CONVERTER_11
 73
     1
 44
1.20048019207683
  0
MTEXT
  5
2C9
330
71
100
AcDbEntity
  8
1
 62
     7
100
AcDbMText
 10
-309.999999019211
 20
-251.5277395134249
 30
0.0
 40
3.5
 41
0.0
 71
     5
 72
     1
  1
2
  7
CONVERTER_11
 73
     1
 44
1.20048019207683
  0
MTEXT
  5
2CA
330
71
100
AcDbEntity
  8
1
 62
     7
100
AcDbMText
 10
-259.999999019211
 20
-251.5277395134249
 30
0.0
 40
3.5
 41
0.0
 71
     5
 72
     1
  1
3
  7
CONVERTER_11
 73
     1
 44
1.20048019207683
  0
MTEXT
  5
2CB
330
71
100
AcDbEntity
  8
1
 62
     7
100
AcDbMText
 10
-209.9999990192111
 20
-251.5277395134249
 30
0.0
 40
3.5
 41
0.0
 71
     5
 72
     1
  1
4
  7
CONVERTER_11
 73
     1
 44
1.20048019207683
  0
MTEXT
  5
2CC
330
71
100
AcDbEntity
  8
1
 62
     7
100
AcDbMText
 10
-159.999999019211
 20
-251.5277395134249
 30
0.0
 40
3.5
 41
0.0
 71
     5
 72
     1
  1
5
  7
CONVERTER_11
 73
     1
 44
1.20048019207683
  0
MTEXT
  5
2CD
330
71
100
AcDbEntity
  8
1
 62
     7
100
AcDbMText
 10
-110.7499990192118
 20
-251.5277395134249
 30
0.0
 40
3.5
 41
0.0
 71
     5
 72
     1
  1
6
  7
CONVERTER_11
 73
     1
 44
1.20048019207683
  0
MTEXT
  5
2CE
330
71
100
AcDbEntity
  8
1
 62
     7
100
AcDbMText
 10
-380.9999990192101
 20
-71.52773951342476
 30
0.0
 40
3.5
 41
0.0
 71
     5
 72
     1
  1
A
  7
CONVERTER_11
 73
     1
 44
1.20048019207683
  0
MTEXT
  5
2CF
330
71
100
AcDbEntity
  8
1
 62
     7
100
AcDbMText
 10
-380.9999990192101
 20
-124.0277395134248
 30
0.0
 40
3.5
 41
0.0
 71
     5
 72
     1
  1
B
  7
CONVERTER_11
 73
     1
 44
1.20048019207683
  0
MTEXT
  5
2D0
330
71
100
AcDbEntity
  8
1
 62
     7
100
AcDbMText
 10
-380.9999990192101
 20
-174.0277395134248
 30
0.0
 40
3.5
 41
0.0
 71
     5
 72
     1
  1
C
  7
CONVERTER_11
 73
     1
 44
1.20048019207683
  0
MTEXT
  5
2D1
330
71
100
AcDbEntity
  8
1
 62
     7
100
AcDbMText
 10
-380.9999990192101
 20
-226.5277395134248
 30
0.0
 40
3.5
 41
0.0
 71
     5
 72
     1
  1
D
  7
CONVERTER_11
 73
     1
 44
1.20048019207683
  0
MTEXT
  5
2D2
330
71
100
AcDbEntity
  8
1
 62
     3
100
AcDbMText
 10
-194.8448035459611
 20
-227.9027395134248
 30
0.0
 40
2.5
 41
0.0
 71
     5
 72
     1
  1
DIN A4
  7
CONVERTER_11
 73
     1
 44
1.20048019207683
  0
MTEXT
  5
2D3
330
71
100
AcDbEntity
  8
1
 62
     2
100
AcDbMText
 10
-183.6448035459611
 20
-241.5277395134248
 30
0.0
 40
1.8
 41
0.0
 71
     1
 72
     1
  1
description
  7
CONVERTER_11
 73
     1
 44
1.20048019207683
  0
MTEXT
  5
2D4
330
71
100
AcDbEntity
  8
1
 62
     7
100
AcDbMText
 10
-138.0724012825855
 20
-245.7777395134245
 30
0.0
 40
3.0
 41
0.0
 71
     5
 72
     1
  1
UCT-EM (30X5)
  7
CONVERTER_12
 73
     1
 44
1.20048019207683
  0
TEXT
  5
2D5
330
71
100
AcDbEntity
  8
1
 62
     2
100
AcDbText
 10
-196.6094947361475
 20
-247.7777395134249
 30
0.0
 40
1.8
  1
1
 41
0.9
  7
CONVERTER_11
100
AcDbText
  0
TEXT
  5
2D6
330
71
100
AcDbEntity
  8
1
 62
     2
100
AcDbText
 10
-211.398538575619
 20
-247.8269881672268
 30
0.0
 40
1.8
  1
1
 41
0.9
  7
CONVERTER_11
100
AcDbText
  0
TEXT
  5
2D7
330
71
100
AcDbEntity
  8
1
 62
     2
100
AcDbText
 10
-220.044803545961
 20
-247.7867567284164
 30
0.0
 40
1.8
  1
page
 41
0.9
  7
CONVERTER_11
100
AcDbText
  0
TEXT
  5
2D8
330
71
100
AcDbEntity
  8
1
 62
     2
100
AcDbText
 10
-201.8448035459612
 20
-247.7867567284164
 30
0.0
 40
1.8
  1
of
 41
0.9
  7
CONVERTER_11
100
AcDbText
  0
MTEXT
  5
2D9
330
71
100
AcDbEntity
  8
1
 62
     3
100
AcDbMText
 10
-195.6418213943511
 20
-62.23643135812597
 30
0.0
 40
1.8
 41
0.0
 71
     7
 72
     1
  3
Transfer or duplication of this document as well as the utilisation or\Pcommunication of its content are not permitted unless express consent\Pis granted. Violations give rise to claims for damages. All rights reserved\Pin case of patent, utility mo
  1
del or design patent registrations.
  7
CONVERTER_11
 73
     1
 44
0.99639855942377
  0
MTEXT
  5
2DA
330
71
100
AcDbEntity
  8
1
 62
     3
100
AcDbMText
 10
-378.4949312331392
 20
-62.23643135812597
 30
0.0
 40
1.8
 41
0.0
 71
     7
 72
     1
  3
Weitergabe sowie Vervielf\U+00e4ltigung dieses Dokuments, Verwertung und \PMitteilung seines Inhalts sind verboten, soweit nicht ausdr\U+00fccklich gestattet. \PZuwiderhandlungen verpflichten zu Schadenersatz. Alle Rechte f\U+00fcr den Fall\Pder Pat
  1
ent-, Gebrauchsmuster- oder Designeintragung vorbehalten.
  7
CONVERTER_11
 73
     1
 44
0.99639855942377
  0
HATCH
  5
2DB
330
71
100
AcDbEntity
  8
1
  6
Continuous
 62
     2
100
AcDbHatch
 10
0.0
 20
0.0
 30
0.0
210
0.0
220
0.0
230
1.0
  2
_USER
 70
     0
 71
     1
 91
        1
 92
        1
 93
       14
 72
     2
 10
-208.8035742700383
 20
-240.2073347515032
 40
1.205656168390964
 50
164.9381082228781
 51
195.0618917770945
 73
     1
 72
     2
 10
-208.3844464265755
 20
-240.0945443894684
 40
1.639695123939408
 50
195.0618917770884
 51
275.1581447696396
 73
     1
 72
     2
 10
-208.6733025213114
 20
-236.8946538062468
 40
4.852596863498138
 50
275.1581447696249
 51
285.9799912583529
 73
     1
 72
     1
 10
-207.3373746041936
 20
-241.5597361120476
 11
-207.3373746041936
 21
-240.6872191052444
 72
     2
 10
-208.5154296462185
 20
-238.7968683860945
 40
2.227384008972773
 50
58.06909105004009
 51
71.55192388186677
 73
     0
 72
     2
 10
-208.0972619125577
 20
-240.0504141621317
 40
0.9059297849849192
 50
71.55192388184041
 51
113.372277888129
 73
     0
 72
     2
 10
-208.2537019452597
 20
-240.4124061808417
 40
0.5115800601948034
 50
113.3722778881768
 51
151.4785267423044
 73
     0
 72
     2
 10
-207.8763446871794
 20
-240.2073347515032
 40
0.9410597353332545
 50
151.4785267422927
 51
208.5214732577331
 73
     0
 72
     2
 10
-208.2537019452597
 20
-240.0022633221642
 40
0.5115800601948891
 50
208.5214732576956
 51
246.627722111798
 73
     0
 72
     2
 10
-208.0972619125577
 20
-240.3642553408748
 40
0.9059297849853318
 50
246.627722111871
 51
288.4480761181483
 73
     0
 72
     2
 10
-208.5154296462185
 20
-241.6178011169114
 40
2.227384008973517
 50
288.4480761181333
 51
301.9309089499595
 73
     0
 72
     1
 10
-207.3373746041936
 20
-239.7274503977615
 11
-207.3373746041936
 21
-238.8549333909582
 72
     2
 10
-208.6733025213114
 20
-243.5200156967591
 40
4.852596863498068
 50
74.02000874164739
 51
84.84185523037506
 73
     1
 72
     2
 10
-208.3844464265755
 20
-240.3201251135381
 40
1.639695123940507
 50
84.84185523036236
 51
164.9381082228877
 73
     1
 97
       14
330
2B0
330
1C9
330
27F
330
2AF
330
280
330
281
330
2AE
330
2AD
330
2AC
330
1CA
330
282
330
283
330
284
330
285
 75
     1
 76
     0
 52
45.0
 41
0.1
 77
     0
 78
     1
 53
45.0
 43
0.0
 44
0.0
 45
-0.0707106781186548
 46
0.0707106781186548
 79
     0
 98
        1
 10
0.0
 20
0.0
  0
HATCH
  5
2DC
330
71
100
AcDbEntity
  8
1
  6
Continuous
 62
     2
100
AcDbHatch
 10
0.0
 20
0.0
 30
0.0
210
0.0
220
0.0
230
1.0
  2
_USER
 70
     0
 71
     1
 91
        1
 92
        1
 93
       14
 72
     2
 10
-208.8035742700383
 20
-240.2073347515032
 40
1.205656168390964
 50
164.9381082228781
 51
195.0618917770945
 73
     1
 72
     2
 10
-208.3844464265755
 20
-240.0945443894684
 40
1.639695123939408
 50
195.0618917770884
 51
275.1581447696396
 73
     1
 72
     2
 10
-208.6733025213114
 20
-236.8946538062468
 40
4.852596863498138
 50
275.1581447696249
 51
285.9799912583529
 73
     1
 72
     1
 10
-207.3373746041936
 20
-241.5597361120476
 11
-207.3373746041936
 21
-240.6872191052444
 72
     2
 10
-208.5154296462185
 20
-238.7968683860945
 40
2.227384008972773
 50
58.06909105004009
 51
71.55192388186677
 73
     0
 72
     2
 10
-208.0972619125577
 20
-240.0504141621317
 40
0.9059297849849192
 50
71.55192388184041
 51
113.372277888129
 73
     0
 72
     2
 10
-208.2537019452597
 20
-240.4124061808417
 40
0.5115800601948034
 50
113.3722778881768
 51
151.4785267423044
 73
     0
 72
     2
 10
-207.8763446871794
 20
-240.2073347515032
 40
0.9410597353332545
 50
151.4785267422927
 51
208.5214732577331
 73
     0
 72
     2
 10
-208.2537019452597
 20
-240.0022633221642
 40
0.5115800601948891
 50
208.5214732576956
 51
246.627722111798
 73
     0
 72
     2
 10
-208.0972619125577
 20
-240.3642553408748
 40
0.9059297849853318
 50
246.627722111871
 51
288.4480761181483
 73
     0
 72
     2
 10
-208.5154296462185
 20
-241.6178011169114
 40
2.227384008973517
 50
288.4480761181333
 51
301.9309089499595
 73
     0
 72
     1
 10
-207.3373746041936
 20
-239.7274503977615
 11
-207.3373746041936
 21
-238.8549333909582
 72
     2
 10
-208.6733025213114
 20
-243.5200156967591
 40
4.852596863498068
 50
74.02000874164739
 51
84.84185523037506
 73
     1
 72
     2
 10
-208.3844464265755
 20
-240.3201251135381
 40
1.639695123940507
 50
84.84185523036236
 51
164.9381082228877
 73
     1
 97
       14
330
2B0
330
1C9
330
27F
330
2AF
330
280
330
281
330
2AE
330
2AD
330
2AC
330
1CA
330
282
330
283
330
284
330
285
 75
     1
 76
     0
 52
45.0
 41
0.1
 77
     0
 78
     1
 53
45.0
 43
0.0
 44
0.0
 45
-0.0707106781186548
 46
0.0707106781186548
 79
     0
 98
        1
 10
0.0
 20
0.0
  0
HATCH
  5
2DD
330
71
100
AcDbEntity
  8
1
  6
Continuous
 62
     2
100
AcDbHatch
 10
0.0
 20
0.0
 30
0.0
210
0.0
220
0.0
230
1.0
  2
_USER
 70
     0
 71
     1
 91
        1
 92
        1
 93
       18
 72
     2
 10
-192.2817449473226
 20
-240.3201251135381
 40
1.639695123940186
 50
90.0
 51
164.9381082228957
 73
     1
 72
     2
 10
-192.7008727907842
 20
-240.2073347515032
 40
1.205656168392995
 50
164.9381082229041
 51
195.0618917770959
 73
     1
 72
     2
 10
-192.2817449473226
 20
-240.0945443894684
 40
1.639695123940413
 50
195.0618917771005
 51
275.1581447696762
 73
     1
 72
     2
 10
-192.5706010420584
 20
-236.8946538062468
 40
4.85259686349885
 50
275.158144769636
 51
285.9799912583383
 73
     1
 72
     1
 10
-191.2346731249417
 20
-241.5597361120482
 11
-191.2346731249417
 21
-240.6872191052449
 72
     2
 10
-192.4127281669656
 20
-238.7968683860951
 40
2.227384008972773
 50
58.06909105006127
 51
71.55192388186677
 73
     0
 72
     2
 10
-191.9945604333037
 20
-240.0504141621317
 40
0.9059297849852801
 50
71.55192388191882
 51
113.3722778881817
 73
     0
 72
     2
 10
-192.1510004660068
 20
-240.4124061808417
 40
0.511580060196008
 50
113.3722778881563
 51
151.4785267423162
 73
     0
 72
     2
 10
-191.7736432079254
 20
-240.2073347515032
 40
0.9410597353348924
 50
151.4785267423305
 51
208.5214732576376
 73
     0
 72
     2
 10
-192.1510004660068
 20
-240.0022633221642
 40
0.5115800601944143
 50
208.5214732575775
 51
250.6628567805147
 73
     0
 72
     2
 10
-192.0043304679031
 20
-240.4202183025471
 40
0.9545230068261219
 50
250.6628567805685
 51
270.0
 73
     0
 72
     1
 10
-192.0043304679031
 20
-239.465695295721
 11
-190.900691168335
 21
-239.465695295721
 72
     1
 10
-190.900691168335
 20
-239.465695295721
 11
-190.900691168335
 21
-241.7342395134085
 72
     1
 10
-190.900691168335
 20
-241.7342395134085
 11
-189.7078984661673
 21
-241.7342395134085
 72
     1
 10
-189.7078984661673
 20
-241.7342395134085
 11
-189.7078984661673
 21
-239.465695295721
 72
     1
 10
-189.7078984661673
 20
-239.465695295721
 11
-188.8967994286939
 21
-239.465695295721
 72
     1
 10
-188.8967994286939
 20
-239.465695295721
 11
-188.8967994286939
 21
-238.6804299895974
 72
     1
 10
-188.8967994286939
 20
-238.6804299895974
 11
-192.2817449473226
 21
-238.6804299895979
 97
       18
330
22F
330
22E
330
22D
330
22C
330
231
330
1CB
330
2A9
330
28A
330
2A8
330
28B
330
2A7
330
2A6
330
1CC
330
2A5
330
2A4
330
28C
330
28D
330
230
 75
     1
 76
     0
 52
45.0
 41
0.1
 77
     0
 78
     1
 53
45.0
 43
0.0
 44
0.0
 45
-0.0707106781186548
 46
0.0707106781186548
 79
     0
 98
        1
 10
0.0
 20
0.0
  0
HATCH
  5
2DE
330
71
100
AcDbEntity
  8
1
  6
Continuous
 62
     2
100
AcDbHatch
 10
0.0
 20
0.0
 30
0.0
210
0.0
220
0.0
230
1.0
  2
_USER
 70
     0
 71
     1
 91
        1
 92
        1
 93
       18
 72
     2
 10
-192.2817449473226
 20
-240.3201251135381
 40
1.639695123940186
 50
90.0
 51
164.9381082228957
 73
     1
 72
     2
 10
-192.7008727907842
 20
-240.2073347515032
 40
1.205656168392995
 50
164.9381082229041
 51
195.0618917770959
 73
     1
 72
     2
 10
-192.2817449473226
 20
-240.0945443894684
 40
1.639695123940413
 50
195.0618917771005
 51
275.1581447696762
 73
     1
 72
     2
 10
-192.5706010420584
 20
-236.8946538062468
 40
4.85259686349885
 50
275.158144769636
 51
285.9799912583383
 73
     1
 72
     1
 10
-191.2346731249417
 20
-241.5597361120482
 11
-191.2346731249417
 21
-240.6872191052449
 72
     2
 10
-192.4127281669656
 20
-238.7968683860951
 40
2.227384008972773
 50
58.06909105006127
 51
71.55192388186677
 73
     0
 72
     2
 10
-191.9945604333037
 20
-240.0504141621317
 40
0.9059297849852801
 50
71.55192388191882
 51
113.3722778881817
 73
     0
 72
     2
 10
-192.1510004660068
 20
-240.4124061808417
 40
0.511580060196008
 50
113.3722778881563
 51
151.4785267423162
 73
     0
 72
     2
 10
-191.7736432079254
 20
-240.2073347515032
 40
0.9410597353348924
 50
151.4785267423305
 51
208.5214732576376
 73
     0
 72
     2
 10
-192.1510004660068
 20
-240.0022633221642
 40
0.5115800601944143
 50
208.5214732575775
 51
250.6628567805147
 73
     0
 72
     2
 10
-192.0043304679031
 20
-240.4202183025471
 40
0.9545230068261219
 50
250.6628567805685
 51
270.0
 73
     0
 72
     1
 10
-192.0043304679031
 20
-239.465695295721
 11
-190.900691168335
 21
-239.465695295721
 72
     1
 10
-190.900691168335
 20
-239.465695295721
 11
-190.900691168335
 21
-241.7342395134085
 72
     1
 10
-190.900691168335
 20
-241.7342395134085
 11
-189.7078984661673
 21
-241.7342395134085
 72
     1
 10
-189.7078984661673
 20
-241.7342395134085
 11
-189.7078984661673
 21
-239.465695295721
 72
     1
 10
-189.7078984661673
 20
-239.465695295721
 11
-188.8967994286939
 21
-239.465695295721
 72
     1
 10
-188.8967994286939
 20
-239.465695295721
 11
-188.8967994286939
 21
-238.6804299895974
 72
     1
 10
-188.8967994286939
 20
-238.6804299895974
 11
-192.2817449473226
 21
-238.6804299895979
 97
       18
330
22F
330
22E
330
22D
330
22C
330
231
330
1CB
330
2A9
330
28A
330
2A8
330
28B
330
2A7
330
2A6
330
1CC
330
2A5
330
2A4
330
28C
330
28D
330
230
 75
     1
 76
     0
 52
45.0
 41
0.1
 77
     0
 78
     1
 53
45.0
 43
0.0
 44
0.0
 45
-0.0707106781186548
 46
0.0707106781186548
 79
     0
 98
        1
 10
0.0
 20
0.0
  0
HATCH
  5
2DF
330
71
100
AcDbEntity
  8
1
  6
Continuous
 62
     2
100
AcDbHatch
 10
0.0
 20
0.0
 30
0.0
210
0.0
220
0.0
230
1.0
  2
_USER
 70
     0
 71
     1
 91
        4
 92
        1
 93
        8
 72
     2
 10
-216.3839040440156
 20
-235.745484128825
 40
0.4242446153837989
 50
90.0
 51
180.0
 73
     1
 72
     1
 10
-216.8081486593984
 20
-235.745484128825
 11
-216.8081486593984
 21
-241.3099948980252
 72
     2
 10
-216.3839040440156
 20
-241.3099948980252
 40
0.4242446153828041
 50
180.0
 51
270.0
 73
     1
 72
     1
 10
-216.3839040440156
 20
-241.7342395134085
 11
-210.9105919532988
 21
-241.7342395134085
 72
     2
 10
-210.9105919532988
 20
-241.3099948980252
 40
0.4242446153833157
 50
270.0
 51
360.0
 73
     1
 72
     1
 10
-210.4863473379149
 20
-241.3099948980252
 11
-210.4863473379149
 21
-235.745484128825
 72
     2
 10
-210.9105919532988
 20
-235.745484128825
 40
0.4242446153838841
 50
0.0
 51
90.0
 73
     1
 72
     1
 10
-210.9105919532988
 20
-235.3212395134412
 11
-216.3839040440156
 21
-235.3212395134412
 97
        8
330
29D
330
1FA
330
29C
330
1FB
330
293
330
1F8
330
29E
330
1F9
 92
       16
 93
        1
 72
     2
 10
-213.7643183934981
 20
-238.0643663571805
 40
0.470978932778479
 50
0.0
 51
360.0
 73
     1
 97
        1
330
2B1
 92
       16
 93
        8
 72
     2
 10
-213.7405033788253
 20
-238.0643663571805
 40
0.9118481501444968
 50
295.3740086781773
 51
424.6259913218059
 73
     1
 72
     2
 10
-213.2144606807374
 20
-236.9552247572127
 40
0.315716923076792
 50
115.3740086783541
 51
180.0
 73
     0
 72
     1
 10
-213.5301776038142
 20
-236.9552247572127
 11
-213.5301776038142
 21
-236.3496894687059
 72
     2
 10
-213.2144606807374
 20
-236.3496894687059
 40
0.3157169230760427
 50
180.0
 51
269.8110329574541
 73
     0
 72
     2
 10
-213.2088445454274
 20
-238.052524416275
 40
2.018561131933266
 50
269.8110329575866
 51
450.1889670424133
 73
     0
 72
     2
 10
-213.2144606807374
 20
-239.755359363844
 40
0.315716923076792
 50
90.1889670425459
 51
180.0
 73
     0
 72
     1
 10
-213.5301776038142
 20
-239.755359363844
 11
-213.5301776038142
 21
-239.1735079571489
 72
     2
 10
-213.2144606807374
 20
-239.1735079571489
 40
0.3157169230765071
 50
180.0
 51
244.6259913216459
 73
     0
 97
        8
330
2AB
330
287
330
233
330
2AA
330
288
330
289
330
232
330
286
 92
       16
 93
       12
 72
     1
 10
-215.7900093672691
 20
-241.0216839578516
 11
-214.3141761062595
 21
-241.0216839578516
 72
     2
 10
-214.3141761062595
 20
-240.7059670347749
 40
0.3157169230767067
 50
270.0
 51
360.0
 73
     1
 72
     1
 10
-213.9984591831829
 20
-240.7059670347749
 11
-213.9984591831829
 21
-239.1751961032433
 72
     2
 10
-214.3141761062595
 20
-239.1751961032433
 40
0.3157169230766215
 50
0.0
 51
64.80558935146249
 73
     1
 72
     2
 10
-213.7915916586845
 20
-238.0643663571805
 40
0.911897523557601
 50
115.1944106485139
 51
244.8055893514694
 73
     0
 72
     2
 10
-214.3141761062595
 20
-236.9535366111183
 40
0.315716923076146
 50
295.1944106485375
 51
360.0
 73
     1
 72
     1
 10
-213.9984591831829
 20
-236.9535366111183
 11
-213.9984591831829
 21
-236.3495119920578
 72
     2
 10
-214.3141761062595
 20
-236.3495119920578
 40
0.3157169230766215
 50
0.0
 51
90.0
 73
     1
 72
     1
 10
-214.3141761062595
 20
-236.0337950689816
 11
-215.7900093672691
 21
-236.0337950689816
 72
     2
 10
-215.7900093672691
 20
-236.3495119920578
 40
0.3157169230762236
 50
90.0
 51
180.0
 73
     1
 72
     1
 10
-216.1057262903448
 20
-236.3495119920578
 11
-216.1057262903448
 21
-240.7059670347749
 72
     2
 10
-215.7900093672691
 20
-240.7059670347749
 40
0.3157169230756836
 50
180.0
 51
270.0
 73
     1
 97
       12
330
1FF
330
290
330
1FE
330
2A1
330
1FD
330
2A0
330
291
330
292
330
1FC
330
29F
330
1F7
330
2A2
 75
     1
 76
     0
 52
45.0
 41
0.1
 77
     0
 78
     1
 53
45.0
 43
0.0
 44
0.0
 45
-0.0707106781186548
 46
0.0707106781186548
 79
     0
 98
        1
 10
0.0
 20
0.0
  0
HATCH
  5
2E0
330
71
100
AcDbEntity
  8
1
  6
Continuous
 62
     2
100
AcDbHatch
 10
0.0
 20
0.0
 30
0.0
210
0.0
220
0.0
230
1.0
  2
_USER
 70
     0
 71
     1
 91
        4
 92
        1
 93
        8
 72
     2
 10
-216.3839040440156
 20
-235.745484128825
 40
0.4242446153837989
 50
90.0
 51
180.0
 73
     1
 72
     1
 10
-216.8081486593984
 20
-235.745484128825
 11
-216.8081486593984
 21
-241.3099948980252
 72
     2
 10
-216.3839040440156
 20
-241.3099948980252
 40
0.4242446153828041
 50
180.0
 51
270.0
 73
     1
 72
     1
 10
-216.3839040440156
 20
-241.7342395134085
 11
-210.9105919532988
 21
-241.7342395134085
 72
     2
 10
-210.9105919532988
 20
-241.3099948980252
 40
0.4242446153833157
 50
270.0
 51
360.0
 73
     1
 72
     1
 10
-210.4863473379149
 20
-241.3099948980252
 11
-210.4863473379149
 21
-235.745484128825
 72
     2
 10
-210.9105919532988
 20
-235.745484128825
 40
0.4242446153838841
 50
0.0
 51
90.0
 73
     1
 72
     1
 10
-210.9105919532988
 20
-235.3212395134412
 11
-216.3839040440156
 21
-235.3212395134412
 97
        8
330
29D
330
1FA
330
29C
330
1FB
330
293
330
1F8
330
29E
330
1F9
 92
       16
 93
        1
 72
     2
 10
-213.7643183934981
 20
-238.0643663571805
 40
0.470978932778479
 50
0.0
 51
360.0
 73
     1
 97
        1
330
2B1
 92
       16
 93
        8
 72
     2
 10
-213.7405033788253
 20
-238.0643663571805
 40
0.9118481501444968
 50
295.3740086781773
 51
424.6259913218059
 73
     1
 72
     2
 10
-213.2144606807374
 20
-236.9552247572127
 40
0.315716923076792
 50
115.3740086783541
 51
180.0
 73
     0
 72
     1
 10
-213.5301776038142
 20
-236.9552247572127
 11
-213.5301776038142
 21
-236.3496894687059
 72
     2
 10
-213.2144606807374
 20
-236.3496894687059
 40
0.3157169230760427
 50
180.0
 51
269.8110329574541
 73
     0
 72
     2
 10
-213.2088445454274
 20
-238.052524416275
 40
2.018561131933266
 50
269.8110329575866
 51
450.1889670424133
 73
     0
 72
     2
 10
-213.2144606807374
 20
-239.755359363844
 40
0.315716923076792
 50
90.1889670425459
 51
180.0
 73
     0
 72
     1
 10
-213.5301776038142
 20
-239.755359363844
 11
-213.5301776038142
 21
-239.1735079571489
 72
     2
 10
-213.2144606807374
 20
-239.1735079571489
 40
0.3157169230765071
 50
180.0
 51
244.6259913216459
 73
     0
 97
        8
330
2AB
330
287
330
233
330
2AA
330
288
330
289
330
232
330
286
 92
       16
 93
       12
 72
     1
 10
-215.7900093672691
 20
-241.0216839578516
 11
-214.3141761062595
 21
-241.0216839578516
 72
     2
 10
-214.3141761062595
 20
-240.7059670347749
 40
0.3157169230767067
 50
270.0
 51
360.0
 73
     1
 72
     1
 10
-213.9984591831829
 20
-240.7059670347749
 11
-213.9984591831829
 21
-239.1751961032433
 72
     2
 10
-214.3141761062595
 20
-239.1751961032433
 40
0.3157169230766215
 50
0.0
 51
64.80558935146249
 73
     1
 72
     2
 10
-213.7915916586845
 20
-238.0643663571805
 40
0.911897523557601
 50
115.1944106485139
 51
244.8055893514694
 73
     0
 72
     2
 10
-214.3141761062595
 20
-236.9535366111183
 40
0.315716923076146
 50
295.1944106485375
 51
360.0
 73
     1
 72
     1
 10
-213.9984591831829
 20
-236.9535366111183
 11
-213.9984591831829
 21
-236.3495119920578
 72
     2
 10
-214.3141761062595
 20
-236.3495119920578
 40
0.3157169230766215
 50
0.0
 51
90.0
 73
     1
 72
     1
 10
-214.3141761062595
 20
-236.0337950689816
 11
-215.7900093672691
 21
-236.0337950689816
 72
     2
 10
-215.7900093672691
 20
-236.3495119920578
 40
0.3157169230762236
 50
90.0
 51
180.0
 73
     1
 72
     1
 10
-216.1057262903448
 20
-236.3495119920578
 11
-216.1057262903448
 21
-240.7059670347749
 72
     2
 10
-215.7900093672691
 20
-240.7059670347749
 40
0.3157169230756836
 50
180.0
 51
270.0
 73
     1
 97
       12
330
1FF
330
290
330
1FE
330
2A1
330
1FD
330
2A0
330
291
330
292
330
1FC
330
29F
330
1F7
330
2A2
 75
     1
 76
     0
 52
45.0
 41
0.1
 77
     0
 78
     1
 53
45.0
 43
0.0
 44
0.0
 45
-0.0707106781186548
 46
0.0707106781186548
 79
     0
 98
        1
 10
0.0
 20
0.0
  0
HATCH
  5
2E1
330
71
100
AcDbEntity
  8
1
  6
Continuous
 62
     2
100
AcDbHatch
 10
0.0
 20
0.0
 30
0.0
210
0.0
220
0.0
230
1.0
  2
_USER
 70
     0
 71
     1
 91
        2
 92
        1
 93
       12
 72
     2
 10
-201.7087400400263
 20
-236.8481442753289
 40
1.526904761905911
 50
90.0
 51
270.0
 73
     1
 72
     1
 10
-201.7087400400263
 20
-238.3750490372342
 11
-198.5584203162453
 21
-238.3750490372342
 72
     1
 10
-198.5584203162453
 20
-238.3750490372342
 11
-198.5584203162453
 21
-237.6770354317917
 72
     1
 10
-198.5584203162453
 20
-237.6770354317917
 11
-199.894348142673
 21
-237.6770354317917
 72
     1
 10
-199.894348142673
 20
-237.6770354317917
 11
-199.894348142673
 21
-237.19715107805
 72
     1
 10
-199.894348142673
 20
-237.19715107805
 11
-198.5584203162453
 21
-237.19715107805
 72
     1
 10
-198.5584203162453
 20
-237.19715107805
 11
-198.5584203162453
 21
-236.4991374726077
 72
     1
 10
-198.5584203162453
 20
-236.4991374726077
 11
-199.894348142673
 21
-236.4991374726077
 72
     1
 10
-199.894348142673
 20
-236.4991374726077
 11
-199.894348142673
 21
-236.019253118866
 72
     1
 10
-199.894348142673
 20
-236.019253118866
 11
-198.5584203162453
 21
-236.019253118866
 72
     1
 10
-198.5584203162453
 20
-236.019253118866
 11
-198.5584203162453
 21
-235.321239513423
 72
     1
 10
-198.5584203162453
 20
-235.321239513423
 11
-201.7087400400263
 21
-235.321239513423
 97
       12
330
1EE
330
1E8
330
20F
330
20E
330
20D
330
20C
330
1E9
330
1EA
330
1EB
330
1EC
330
28E
330
1ED
 92
       16
 93
        4
 72
     2
 10
-201.2927279935148
 20
-236.8481442753289
 40
0.77179977867969
 50
141.8795802028388
 51
218.1204197971546
 73
     1
 72
     2
 10
-201.4924680298611
 20
-237.0048754534493
 40
0.5179085730134372
 50
218.1204197971511
 51
321.8795802028566
 73
     1
 72
     2
 10
-201.6922080662073
 20
-236.8481442753289
 40
0.7717997786796198
 50
321.8795802028454
 51
398.1204197971612
 73
     1
 72
     2
 10
-201.4924680298611
 20
-236.6914130972084
 40
0.5179085730135266
 50
38.12041979714334
 51
141.8795802028489
 73
     1
 97
        4
330
29B
330
29A
330
295
330
294
 75
     1
 76
     0
 52
45.0
 41
0.1
 77
     0
 78
     1
 53
45.0
 43
0.0
 44
0.0
 45
-0.0707106781186548
 46
0.0707106781186548
 79
     0
 98
        1
 10
0.0
 20
0.0
  0
HATCH
  5
2E2
330
71
100
AcDbEntity
  8
1
  6
Continuous
 62
     2
100
AcDbHatch
 10
0.0
 20
0.0
 30
0.0
210
0.0
220
0.0
230
1.0
  2
_USER
 70
     0
 71
     1
 91
        2
 92
        1
 93
       12
 72
     2
 10
-201.7087400400263
 20
-236.8481442753289
 40
1.526904761905911
 50
90.0
 51
270.0
 73
     1
 72
     1
 10
-201.7087400400263
 20
-238.3750490372342
 11
-198.5584203162453
 21
-238.3750490372342
 72
     1
 10
-198.5584203162453
 20
-238.3750490372342
 11
-198.5584203162453
 21
-237.6770354317917
 72
     1
 10
-198.5584203162453
 20
-237.6770354317917
 11
-199.894348142673
 21
-237.6770354317917
 72
     1
 10
-199.894348142673
 20
-237.6770354317917
 11
-199.894348142673
 21
-237.19715107805
 72
     1
 10
-199.894348142673
 20
-237.19715107805
 11
-198.5584203162453
 21
-237.19715107805
 72
     1
 10
-198.5584203162453
 20
-237.19715107805
 11
-198.5584203162453
 21
-236.4991374726077
 72
     1
 10
-198.5584203162453
 20
-236.4991374726077
 11
-199.894348142673
 21
-236.4991374726077
 72
     1
 10
-199.894348142673
 20
-236.4991374726077
 11
-199.894348142673
 21
-236.019253118866
 72
     1
 10
-199.894348142673
 20
-236.019253118866
 11
-198.5584203162453
 21
-236.019253118866
 72
     1
 10
-198.5584203162453
 20
-236.019253118866
 11
-198.5584203162453
 21
-235.321239513423
 72
     1
 10
-198.5584203162453
 20
-235.321239513423
 11
-201.7087400400263
 21
-235.321239513423
 97
       12
330
1EE
330
1E8
330
20F
330
20E
330
20D
330
20C
330
1E9
330
1EA
330
1EB
330
1EC
330
28E
330
1ED
 92
       16
 93
        4
 72
     2
 10
-201.2927279935148
 20
-236.8481442753289
 40
0.77179977867969
 50
141.8795802028388
 51
218.1204197971546
 73
     1
 72
     2
 10
-201.4924680298611
 20
-237.0048754534493
 40
0.5179085730134372
 50
218.1204197971511
 51
321.8795802028566
 73
     1
 72
     2
 10
-201.6922080662073
 20
-236.8481442753289
 40
0.7717997786796198
 50
321.8795802028454
 51
398.1204197971612
 73
     1
 72
     2
 10
-201.4924680298611
 20
-236.6914130972084
 40
0.5179085730135266
 50
38.12041979714334
 51
141.8795802028489
 73
     1
 97
        4
330
29B
330
29A
330
295
330
294
 75
     1
 76
     0
 52
45.0
 41
0.1
 77
     0
 78
     1
 53
45.0
 43
0.0
 44
0.0
 45
-0.0707106781186548
 46
0.0707106781186548
 79
     0
 98
        1
 10
0.0
 20
0.0
  0
HATCH
  5
2E3
330
71
100
AcDbEntity
  8
1
  6
Continuous
 62
     2
100
AcDbHatch
 10
0.0
 20
0.0
 30
0.0
210
0.0
220
0.0
230
1.0
  2
_USER
 70
     0
 71
     1
 91
        2
 92
        1
 93
        4
 72
     2
 10
-205.7343554024879
 20
-240.2073347515032
 40
1.458034083651503
 50
117.5481481756634
 51
242.4518518243366
 73
     1
 72
     2
 10
-205.4534155106546
 20
-239.6687597411999
 40
2.065479772208522
 50
242.4518518243395
 51
297.5481481756871
 73
     1
 72
     2
 10
-205.1724756188213
 20
-240.2073347515032
 40
1.458034083652003
 50
297.548148175701
 51
422.451851824299
 73
     1
 72
     2
 10
-205.4534155106546
 20
-240.745909761806
 40
2.065479772208568
 50
62.45185182430637
 51
117.5481481756671
 73
     1
 97
        4
330
299
330
296
330
298
330
297
 92
       16
 93
        4
 72
     2
 10
-205.4534155106546
 20
-240.0506035733827
 40
0.5179085730132998
 50
38.12041979714704
 51
141.8795802028608
 73
     1
 72
     2
 10
-205.2536754743085
 20
-240.2073347515032
 40
0.7717997786794856
 50
141.8795802028376
 51
218.120419797169
 73
     1
 72
     2
 10
-205.4534155106546
 20
-240.3640659296232
 40
0.5179085730137754
 50
218.1204197971937
 51
321.8795802027985
 73
     1
 72
     2
 10
-205.653155547001
 20
-240.2073347515032
 40
0.7717997786797123
 50
321.8795802028401
 51
398.1204197971533
 73
     1
 97
        4
330
27C
330
27D
330
27E
330
27B
 75
     1
 76
     0
 52
45.0
 41
0.1
 77
     0
 78
     1
 53
45.0
 43
0.0
 44
0.0
 45
-0.0707106781186548
 46
0.0707106781186548
 79
     0
 98
        1
 10
0.0
 20
0.0
  0
HATCH
  5
2E4
330
71
100
AcDbEntity
  8
1
  6
Continuous
 62
     2
100
AcDbHatch
 10
0.0
 20
0.0
 30
0.0
210
0.0
220
0.0
230
1.0
  2
_USER
 70
     0
 71
     1
 91
        2
 92
        1
 93
        4
 72
     2
 10
-205.7343554024879
 20
-240.2073347515032
 40
1.458034083651503
 50
117.5481481756634
 51
242.4518518243366
 73
     1
 72
     2
 10
-205.4534155106546
 20
-239.6687597411999
 40
2.065479772208522
 50
242.4518518243395
 51
297.5481481756871
 73
     1
 72
     2
 10
-205.1724756188213
 20
-240.2073347515032
 40
1.458034083652003
 50
297.548148175701
 51
422.451851824299
 73
     1
 72
     2
 10
-205.4534155106546
 20
-240.745909761806
 40
2.065479772208568
 50
62.45185182430637
 51
117.5481481756671
 73
     1
 97
        4
330
299
330
296
330
298
330
297
 92
       16
 93
        4
 72
     2
 10
-205.4534155106546
 20
-240.0506035733827
 40
0.5179085730132998
 50
38.12041979714704
 51
141.8795802028608
 73
     1
 72
     2
 10
-205.2536754743085
 20
-240.2073347515032
 40
0.7717997786794856
 50
141.8795802028376
 51
218.120419797169
 73
     1
 72
     2
 10
-205.4534155106546
 20
-240.3640659296232
 40
0.5179085730137754
 50
218.1204197971937
 51
321.8795802027985
 73
     1
 72
     2
 10
-205.653155547001
 20
-240.2073347515032
 40
0.7717997786797123
 50
321.8795802028401
 51
398.1204197971533
 73
     1
 97
        4
330
27C
330
27D
330
27E
330
27B
 75
     1
 76
     0
 52
45.0
 41
0.1
 77
     0
 78
     1
 53
45.0
 43
0.0
 44
0.0
 45
-0.0707106781186548
 46
0.0707106781186548
 79
     0
 98
        1
 10
0.0
 20
0.0
  0
HATCH
  5
2E5
330
71
100
AcDbEntity
  8
1
  6
Continuous
 62
     2
100
AcDbHatch
 10
0.0
 20
0.0
 30
0.0
210
0.0
220
0.0
230
1.0
  2
_USER
 70
     0
 71
     1
 91
        2
 92
        1
 93
        6
 72
     1
 10
-210.0092302570481
 20
-235.321239513423
 11
-210.0092302570481
 21
-238.3750490372342
 72
     1
 10
-210.0092302570481
 20
-238.3750490372342
 11
-208.768725846794
 21
-238.3750490372342
 72
     1
 10
-208.768725846794
 20
-238.3750490372342
 11
-208.768725846794
 21
-237.4319707960904
 72
     1
 10
-208.768725846794
 20
-237.4319707960904
 11
-208.0099582590137
 21
-237.4319707960904
 72
     2
 10
-208.0099582590137
 20
-236.3766051547567
 40
1.055365641333708
 50
270.0
 51
450.0
 73
     1
 72
     1
 10
-208.0099582590137
 20
-235.321239513423
 11
-210.0092302570481
 21
-235.321239513423
 97
        6
330
2A3
330
200
330
1F6
330
1F5
330
202
330
201
 92
       16
 93
        4
 72
     1
 10
-208.4514307852521
 20
-235.9843453588631
 11
-208.768725846794
 21
-235.9843453588631
 72
     1
 10
-208.768725846794
 20
-235.9843453588631
 11
-208.768725846794
 21
-236.6900730082053
 72
     1
 10
-208.768725846794
 20
-236.6900730082053
 11
-208.4514307852521
 21
-236.6900730082053
 72
     2
 10
-208.4514307852521
 20
-236.3372091835342
 40
0.3528638246710898
 50
270.0
 51
450.0
 73
     1
 97
        4
330
203
330
1F4
330
204
330
28F
 75
     1
 76
     0
 52
45.0
 41
0.1
 77
     0
 78
     1
 53
45.0
 43
0.0
 44
0.0
 45
-0.0707106781186548
 46
0.0707106781186548
 79
     0
 98
        1
 10
0.0
 20
0.0
  0
HATCH
  5
2E6
330
71
100
AcDbEntity
  8
1
  6
Continuous
 62
     2
100
AcDbHatch
 10
0.0
 20
0.0
 30
0.0
210
0.0
220
0.0
230
1.0
  2
_USER
 70
     0
 71
     1
 91
        2
 92
        1
 93
        6
 72
     1
 10
-210.0092302570481
 20
-235.321239513423
 11
-210.0092302570481
 21
-238.3750490372342
 72
     1
 10
-210.0092302570481
 20
-238.3750490372342
 11
-208.768725846794
 21
-238.3750490372342
 72
     1
 10
-208.768725846794
 20
-238.3750490372342
 11
-208.768725846794
 21
-237.4319707960904
 72
     1
 10
-208.768725846794
 20
-237.4319707960904
 11
-208.0099582590137
 21
-237.4319707960904
 72
     2
 10
-208.0099582590137
 20
-236.3766051547567
 40
1.055365641333708
 50
270.0
 51
450.0
 73
     1
 72
     1
 10
-208.0099582590137
 20
-235.321239513423
 11
-210.0092302570481
 21
-235.321239513423
 97
        6
330
2A3
330
200
330
1F6
330
1F5
330
202
330
201
 92
       16
 93
        4
 72
     1
 10
-208.4514307852521
 20
-235.9843453588631
 11
-208.768725846794
 21
-235.9843453588631
 72
     1
 10
-208.768725846794
 20
-235.9843453588631
 11
-208.768725846794
 21
-236.6900730082053
 72
     1
 10
-208.768725846794
 20
-236.6900730082053
 11
-208.4514307852521
 21
-236.6900730082053
 72
     2
 10
-208.4514307852521
 20
-236.3372091835342
 40
0.3528638246710898
 50
270.0
 51
450.0
 73
     1
 97
        4
330
203
330
1F4
330
204
330
28F
 75
     1
 76
     0
 52
45.0
 41
0.1
 77
     0
 78
     1
 53
45.0
 43
0.0
 44
0.0
 45
-0.0707106781186548
 46
0.0707106781186548
 79
     0
 98
        1
 10
0.0
 20
0.0
  0
HATCH
  5
2E7
330
71
100
AcDbEntity
  8
1
  6
Continuous
 62
     2
100
AcDbHatch
 10
0.0
 20
0.0
 30
0.0
210
0.0
220
0.0
230
1.0
  2
_USER
 70
     0
 71
     1
 91
        1
 92
        1
 93
       12
 72
     1
 10
-190.3949470626149
 20
-235.321239513423
 11
-188.9922228448677
 21
-235.321239513423
 72
     1
 10
-188.9922228448677
 20
-235.321239513423
 11
-190.2947524756342
 21
-236.7941900434592
 72
     1
 10
-190.2947524756342
 20
-236.7941900434592
 11
-188.8967994286939
 21
-238.3750490372342
 72
     1
 10
-188.8967994286939
 20
-238.3750490372342
 11
-190.2995236464422
 21
-238.3750490372342
 72
     1
 10
-190.2995236464422
 20
-238.3750490372342
 11
-190.9961145845077
 21
-237.5873172519405
 72
     1
 10
-190.9961145845077
 20
-237.5873172519405
 11
-191.6927055225734
 21
-238.3750490372342
 72
     1
 10
-191.6927055225734
 20
-238.3750490372342
 11
-193.0954297403216
 21
-238.3750490372342
 72
     1
 10
-193.0954297403216
 20
-238.3750490372342
 11
-191.6974766933813
 21
-236.7941900434592
 72
     1
 10
-191.6974766933813
 20
-236.7941900434592
 11
-193.0000063241488
 21
-235.321239513423
 72
     1
 10
-193.0000063241488
 20
-235.321239513423
 11
-191.5972821063995
 21
-235.321239513423
 72
     1
 10
-191.5972821063995
 20
-235.321239513423
 11
-190.9961145845077
 21
-236.0010628349785
 72
     1
 10
-190.9961145845077
 20
-236.0010628349785
 11
-190.3949470626149
 21
-235.321239513423
 97
       12
330
1CF
330
228
330
227
330
226
330
225
330
1D0
330
1D1
330
1CD
330
1CE
330
22B
330
22A
330
229
 75
     1
 76
     0
 52
45.0
 41
0.1
 77
     0
 78
     1
 53
45.0
 43
0.0
 44
0.0
 45
-0.0707106781186548
 46
0.0707106781186548
 79
     0
 98
        1
 10
0.0
 20
0.0
  0
HATCH
  5
2E8
330
71
100
AcDbEntity
  8
1
  6
Continuous
 62
     2
100
AcDbHatch
 10
0.0
 20
0.0
 30
0.0
210
0.0
220
0.0
230
1.0
  2
_USER
 70
     0
 71
     1
 91
        1
 92
        1
 93
       12
 72
     1
 10
-190.3949470626149
 20
-235.321239513423
 11
-188.9922228448677
 21
-235.321239513423
 72
     1
 10
-188.9922228448677
 20
-235.321239513423
 11
-190.2947524756342
 21
-236.7941900434592
 72
     1
 10
-190.2947524756342
 20
-236.7941900434592
 11
-188.8967994286939
 21
-238.3750490372342
 72
     1
 10
-188.8967994286939
 20
-238.3750490372342
 11
-190.2995236464422
 21
-238.3750490372342
 72
     1
 10
-190.2995236464422
 20
-238.3750490372342
 11
-190.9961145845077
 21
-237.5873172519405
 72
     1
 10
-190.9961145845077
 20
-237.5873172519405
 11
-191.6927055225734
 21
-238.3750490372342
 72
     1
 10
-191.6927055225734
 20
-238.3750490372342
 11
-193.0954297403216
 21
-238.3750490372342
 72
     1
 10
-193.0954297403216
 20
-238.3750490372342
 11
-191.6974766933813
 21
-236.7941900434592
 72
     1
 10
-191.6974766933813
 20
-236.7941900434592
 11
-193.0000063241488
 21
-235.321239513423
 72
     1
 10
-193.0000063241488
 20
-235.321239513423
 11
-191.5972821063995
 21
-235.321239513423
 72
     1
 10
-191.5972821063995
 20
-235.321239513423
 11
-190.9961145845077
 21
-236.0010628349785
 72
     1
 10
-190.9961145845077
 20
-236.0010628349785
 11
-190.3949470626149
 21
-235.321239513423
 97
       12
330
1CF
330
228
330
227
330
226
330
225
330
1D0
330
1D1
330
1CD
330
1CE
330
22B
330
22A
330
229
 75
     1
 76
     0
 52
45.0
 41
0.1
 77
     0
 78
     1
 53
45.0
 43
0.0
 44
0.0
 45
-0.0707106781186548
 46
0.0707106781186548
 79
     0
 98
        1
 10
0.0
 20
0.0
  0
HATCH
  5
2E9
330
71
100
AcDbEntity
  8
1
  6
Continuous
 62
     2
100
AcDbHatch
 10
0.0
 20
0.0
 30
0.0
210
0.0
220
0.0
230
1.0
  2
_USER
 70
     0
 71
     1
 91
        1
 92
        1
 93
        4
 72
     1
 10
-193.2147090105385
 20
-235.321239513423
 11
-193.2147090105385
 21
-238.3750490372342
 72
     1
 10
-193.2147090105385
 20
-238.3750490372342
 11
-194.4552134207914
 21
-238.3750490372342
 72
     1
 10
-194.4552134207914
 20
-238.3750490372342
 11
-194.4552134207914
 21
-235.321239513423
 72
     1
 10
-194.4552134207914
 20
-235.321239513423
 11
-193.2147090105385
 21
-235.321239513423
 97
        4
330
223
330
1D2
330
222
330
224
 75
     1
 76
     0
 52
45.0
 41
0.1
 77
     0
 78
     1
 53
45.0
 43
0.0
 44
0.0
 45
-0.0707106781186548
 46
0.0707106781186548
 79
     0
 98
        1
 10
0.0
 20
0.0
  0
HATCH
  5
2EA
330
71
100
AcDbEntity
  8
1
  6
Continuous
 62
     2
100
AcDbHatch
 10
0.0
 20
0.0
 30
0.0
210
0.0
220
0.0
230
1.0
  2
_USER
 70
     0
 71
     1
 91
        1
 92
        1
 93
        4
 72
     1
 10
-193.2147090105385
 20
-235.321239513423
 11
-193.2147090105385
 21
-238.3750490372342
 72
     1
 10
-193.2147090105385
 20
-238.3750490372342
 11
-194.4552134207914
 21
-238.3750490372342
 72
     1
 10
-194.4552134207914
 20
-238.3750490372342
 11
-194.4552134207914
 21
-235.321239513423
 72
     1
 10
-194.4552134207914
 20
-235.321239513423
 11
-193.2147090105385
 21
-235.321239513423
 97
        4
330
223
330
1D2
330
222
330
224
 75
     1
 76
     0
 52
45.0
 41
0.1
 77
     0
 78
     1
 53
45.0
 43
0.0
 44
0.0
 45
-0.0707106781186548
 46
0.0707106781186548
 79
     0
 98
        1
 10
0.0
 20
0.0
  0
HATCH
  5
2EB
330
71
100
AcDbEntity
  8
1
  6
Continuous
 62
     2
100
AcDbHatch
 10
0.0
 20
0.0
 30
0.0
210
0.0
220
0.0
230
1.0
  2
_USER
 70
     0
 71
     1
 91
        2
 92
        1
 93
        8
 72
     1
 10
-193.6051530140705
 20
-241.7342395134085
 11
-194.8456574243244
 21
-241.7342395134085
 72
     1
 10
-194.8456574243244
 20
-241.7342395134085
 11
-195.0571374778002
 21
-241.1932789691906
 72
     1
 10
-195.0571374778002
 20
-241.1932789691906
 11
-196.189579054474
 21
-241.1932789691906
 72
     1
 10
-196.189579054474
 20
-241.1932789691906
 11
-196.4010591079498
 21
-241.7342395134085
 72
     1
 10
-196.4010591079498
 20
-241.7342395134085
 11
-197.6415635182028
 21
-241.7342395134085
 72
     1
 10
-197.6415635182028
 20
-241.7342395134085
 11
-196.2436104712635
 21
-238.6804299895974
 72
     1
 10
-196.2436104712635
 20
-238.6804299895974
 11
-195.0031060610108
 21
-238.6804299895974
 72
     1
 10
-195.0031060610108
 20
-238.6804299895974
 11
-193.6051530140705
 21
-241.7342395134085
 97
        8
330
21E
330
1D8
330
21D
330
220
330
1D5
330
21F
330
1D6
330
1D7
 92
       16
 93
        3
 72
     1
 10
-195.923523503329
 20
-240.512715703884
 11
-195.3231930289465
 21
-240.512715703884
 72
     1
 10
-195.3231930289465
 20
-240.512715703884
 11
-195.6233582661366
 21
-239.7449007378973
 72
     1
 10
-195.6233582661366
 20
-239.7449007378973
 11
-195.923523503329
 21
-240.512715703884
 97
        3
330
1D4
330
1D3
330
221
 75
     1
 76
     0
 52
45.0
 41
0.1
 77
     0
 78
     1
 53
45.0
 43
0.0
 44
0.0
 45
-0.0707106781186548
 46
0.0707106781186548
 79
     0
 98
        1
 10
0.0
 20
0.0
  0
HATCH
  5
2EC
330
71
100
AcDbEntity
  8
1
  6
Continuous
 62
     2
100
AcDbHatch
 10
0.0
 20
0.0
 30
0.0
210
0.0
220
0.0
230
1.0
  2
_USER
 70
     0
 71
     1
 91
        2
 92
        1
 93
        8
 72
     1
 10
-193.6051530140705
 20
-241.7342395134085
 11
-194.8456574243244
 21
-241.7342395134085
 72
     1
 10
-194.8456574243244
 20
-241.7342395134085
 11
-195.0571374778002
 21
-241.1932789691906
 72
     1
 10
-195.0571374778002
 20
-241.1932789691906
 11
-196.189579054474
 21
-241.1932789691906
 72
     1
 10
-196.189579054474
 20
-241.1932789691906
 11
-196.4010591079498
 21
-241.7342395134085
 72
     1
 10
-196.4010591079498
 20
-241.7342395134085
 11
-197.6415635182028
 21
-241.7342395134085
 72
     1
 10
-197.6415635182028
 20
-241.7342395134085
 11
-196.2436104712635
 21
-238.6804299895974
 72
     1
 10
-196.2436104712635
 20
-238.6804299895974
 11
-195.0031060610108
 21
-238.6804299895974
 72
     1
 10
-195.0031060610108
 20
-238.6804299895974
 11
-193.6051530140705
 21
-241.7342395134085
 97
        8
330
21E
330
1D8
330
21D
330
220
330
1D5
330
21F
330
1D6
330
1D7
 92
       16
 93
        3
 72
     1
 10
-195.923523503329
 20
-240.512715703884
 11
-195.3231930289465
 21
-240.512715703884
 72
     1
 10
-195.3231930289465
 20
-240.512715703884
 11
-195.6233582661366
 21
-239.7449007378973
 72
     1
 10
-195.6233582661366
 20
-239.7449007378973
 11
-195.923523503329
 21
-240.512715703884
 97
        3
330
1D4
330
1D3
330
221
 75
     1
 76
     0
 52
45.0
 41
0.1
 77
     0
 78
     1
 53
45.0
 43
0.0
 44
0.0
 45
-0.0707106781186548
 46
0.0707106781186548
 79
     0
 98
        1
 10
0.0
 20
0.0
  0
HATCH
  5
2ED
330
71
100
AcDbEntity
  8
1
  6
Continuous
 62
     2
100
AcDbHatch
 10
0.0
 20
0.0
 30
0.0
210
0.0
220
0.0
230
1.0
  2
_USER
 70
     0
 71
     1
 91
        1
 92
        1
 93
        8
 72
     1
 10
-199.799075657385
 20
-238.6804299895974
 11
-199.799075657385
 21
-239.465695295721
 72
     1
 10
-199.799075657385
 20
-239.465695295721
 11
-198.9879766199104
 21
-239.465695295721
 72
     1
 10
-198.9879766199104
 20
-239.465695295721
 11
-198.9879766199104
 21
-241.7342395134085
 72
     1
 10
-198.9879766199104
 20
-241.7342395134085
 11
-197.7951839177439
 21
-241.7342395134085
 72
     1
 10
-197.7951839177439
 20
-241.7342395134085
 11
-197.7951839177439
 21
-239.465695295721
 72
     1
 10
-197.7951839177439
 20
-239.465695295721
 11
-196.9840848802714
 21
-239.465695295721
 72
     1
 10
-196.9840848802714
 20
-239.465695295721
 11
-196.9840848802714
 21
-238.6804299895974
 72
     1
 10
-196.9840848802714
 20
-238.6804299895974
 11
-199.799075657385
 21
-238.6804299895974
 97
        8
330
21A
330
219
330
218
330
1D9
330
1DA
330
21C
330
1DB
330
21B
 75
     1
 76
     0
 52
45.0
 41
0.1
 77
     0
 78
     1
 53
45.0
 43
0.0
 44
0.0
 45
-0.0707106781186548
 46
0.0707106781186548
 79
     0
 98
        1
 10
0.0
 20
0.0
  0
HATCH
  5
2EE
330
71
100
AcDbEntity
  8
1
  6
Continuous
 62
     2
100
AcDbHatch
 10
0.0
 20
0.0
 30
0.0
210
0.0
220
0.0
230
1.0
  2
_USER
 70
     0
 71
     1
 91
        1
 92
        1
 93
        8
 72
     1
 10
-199.799075657385
 20
-238.6804299895974
 11
-199.799075657385
 21
-239.465695295721
 72
     1
 10
-199.799075657385
 20
-239.465695295721
 11
-198.9879766199104
 21
-239.465695295721
 72
     1
 10
-198.9879766199104
 20
-239.465695295721
 11
-198.9879766199104
 21
-241.7342395134085
 72
     1
 10
-198.9879766199104
 20
-241.7342395134085
 11
-197.7951839177439
 21
-241.7342395134085
 72
     1
 10
-197.7951839177439
 20
-241.7342395134085
 11
-197.7951839177439
 21
-239.465695295721
 72
     1
 10
-197.7951839177439
 20
-239.465695295721
 11
-196.9840848802714
 21
-239.465695295721
 72
     1
 10
-196.9840848802714
 20
-239.465695295721
 11
-196.9840848802714
 21
-238.6804299895974
 72
     1
 10
-196.9840848802714
 20
-238.6804299895974
 11
-199.799075657385
 21
-238.6804299895974
 97
        8
330
21A
330
219
330
218
330
1D9
330
1DA
330
21C
330
1DB
330
21B
 75
     1
 76
     0
 52
45.0
 41
0.1
 77
     0
 78
     1
 53
45.0
 43
0.0
 44
0.0
 45
-0.0707106781186548
 46
0.0707106781186548
 79
     0
 98
        1
 10
0.0
 20
0.0
  0
HATCH
  5
2EF
330
71
100
AcDbEntity
  8
1
  6
Continuous
 62
     2
100
AcDbHatch
 10
0.0
 20
0.0
 30
0.0
210
0.0
220
0.0
230
1.0
  2
_USER
 70
     0
 71
     1
 91
        1
 92
        1
 93
       10
 72
     1
 10
-197.1270690736459
 20
-235.321239513423
 11
-198.3198617758124
 21
-235.321239513423
 72
     1
 10
-198.3198617758124
 20
-235.321239513423
 11
-198.3198617758124
 21
-238.3750490372342
 72
     1
 10
-198.3198617758124
 20
-238.3750490372342
 11
-197.1270690736459
 21
-238.3750490372342
 72
     1
 10
-197.1270690736459
 20
-238.3750490372342
 11
-197.1270690736459
 21
-237.0662735270295
 72
     1
 10
-197.1270690736459
 20
-237.0662735270295
 11
-195.8865646633919
 21
-238.3750490372342
 72
     1
 10
-195.8865646633919
 20
-238.3750490372342
 11
-194.6937719612253
 21
-238.3750490372342
 72
     1
 10
-194.6937719612253
 20
-238.3750490372342
 11
-194.6937719612253
 21
-235.321239513423
 72
     1
 10
-194.6937719612253
 20
-235.321239513423
 11
-195.8865646633919
 21
-235.321239513423
 72
     1
 10
-195.8865646633919
 20
-235.321239513423
 11
-195.8865646633919
 21
-236.6300150236282
 72
     1
 10
-195.8865646633919
 20
-236.6300150236282
 11
-197.1270690736459
 21
-235.321239513423
 97
       10
330
214
330
1DE
330
1DF
330
1E0
330
1E1
330
217
330
1DC
330
216
330
215
330
1DD
 75
     1
 76
     0
 52
45.0
 41
0.1
 77
     0
 78
     1
 53
45.0
 43
0.0
 44
0.0
 45
-0.0707106781186548
 46
0.0707106781186548
 79
     0
 98
        1
 10
0.0
 20
0.0
  0
HATCH
  5
2F0
330
71
100
AcDbEntity
  8
1
  6
Continuous
 62
     2
100
AcDbHatch
 10
0.0
 20
0.0
 30
0.0
210
0.0
220
0.0
230
1.0
  2
_USER
 70
     0
 71
     1
 91
        1
 92
        1
 93
       10
 72
     1
 10
-197.1270690736459
 20
-235.321239513423
 11
-198.3198617758124
 21
-235.321239513423
 72
     1
 10
-198.3198617758124
 20
-235.321239513423
 11
-198.3198617758124
 21
-238.3750490372342
 72
     1
 10
-198.3198617758124
 20
-238.3750490372342
 11
-197.1270690736459
 21
-238.3750490372342
 72
     1
 10
-197.1270690736459
 20
-238.3750490372342
 11
-197.1270690736459
 21
-237.0662735270295
 72
     1
 10
-197.1270690736459
 20
-237.0662735270295
 11
-195.8865646633919
 21
-238.3750490372342
 72
     1
 10
-195.8865646633919
 20
-238.3750490372342
 11
-194.6937719612253
 21
-238.3750490372342
 72
     1
 10
-194.6937719612253
 20
-238.3750490372342
 11
-194.6937719612253
 21
-235.321239513423
 72
     1
 10
-194.6937719612253
 20
-235.321239513423
 11
-195.8865646633919
 21
-235.321239513423
 72
     1
 10
-195.8865646633919
 20
-235.321239513423
 11
-195.8865646633919
 21
-236.6300150236282
 72
     1
 10
-195.8865646633919
 20
-236.6300150236282
 11
-197.1270690736459
 21
-235.321239513423
 97
       10
330
214
330
1DE
330
1DF
330
1E0
330
1E1
330
217
330
1DC
330
216
330
215
330
1DD
 75
     1
 76
     0
 52
45.0
 41
0.1
 77
     0
 78
     1
 53
45.0
 43
0.0
 44
0.0
 45
-0.0707106781186548
 46
0.0707106781186548
 79
     0
 98
        1
 10
0.0
 20
0.0
  0
HATCH
  5
2F1
330
71
100
AcDbEntity
  8
1
  6
Continuous
 62
     2
100
AcDbHatch
 10
0.0
 20
0.0
 30
0.0
210
0.0
220
0.0
230
1.0
  2
_USER
 70
     0
 71
     1
 91
        1
 92
        1
 93
       10
 72
     1
 10
-202.3755078940645
 20
-238.6804299895974
 11
-203.5683005962321
 21
-238.6804299895974
 72
     1
 10
-203.5683005962321
 20
-238.6804299895974
 11
-203.5683005962321
 21
-241.7342395134085
 72
     1
 10
-203.5683005962321
 20
-241.7342395134085
 11
-202.3755078940645
 21
-241.7342395134085
 72
     1
 10
-202.3755078940645
 20
-241.7342395134085
 11
-202.3755078940645
 21
-240.4254640032039
 72
     1
 10
-202.3755078940645
 20
-240.4254640032039
 11
-201.1350034838116
 21
-241.7342395134085
 72
     1
 10
-201.1350034838116
 20
-241.7342395134085
 11
-199.9422107816452
 21
-241.7342395134085
 72
     1
 10
-199.9422107816452
 20
-241.7342395134085
 11
-199.9422107816452
 21
-238.6804299895974
 72
     1
 10
-199.9422107816452
 20
-238.6804299895974
 11
-201.1350034838116
 21
-238.6804299895974
 72
     1
 10
-201.1350034838116
 20
-238.6804299895974
 11
-201.1350034838116
 21
-239.9892054998025
 72
     1
 10
-201.1350034838116
 20
-239.9892054998025
 11
-202.3755078940645
 21
-238.6804299895974
 97
       10
330
1E3
330
1E4
330
1E5
330
211
330
1E6
330
1E7
330
210
330
213
330
212
330
1E2
 75
     1
 76
     0
 52
45.0
 41
0.1
 77
     0
 78
     1
 53
45.0
 43
0.0
 44
0.0
 45
-0.0707106781186548
 46
0.0707106781186548
 79
     0
 98
        1
 10
0.0
 20
0.0
  0
HATCH
  5
2F2
330
71
100
AcDbEntity
  8
1
  6
Continuous
 62
     2
100
AcDbHatch
 10
0.0
 20
0.0
 30
0.0
210
0.0
220
0.0
230
1.0
  2
_USER
 70
     0
 71
     1
 91
        1
 92
        1
 93
       10
 72
     1
 10
-202.3755078940645
 20
-238.6804299895974
 11
-203.5683005962321
 21
-238.6804299895974
 72
     1
 10
-203.5683005962321
 20
-238.6804299895974
 11
-203.5683005962321
 21
-241.7342395134085
 72
     1
 10
-203.5683005962321
 20
-241.7342395134085
 11
-202.3755078940645
 21
-241.7342395134085
 72
     1
 10
-202.3755078940645
 20
-241.7342395134085
 11
-202.3755078940645
 21
-240.4254640032039
 72
     1
 10
-202.3755078940645
 20
-240.4254640032039
 11
-201.1350034838116
 21
-241.7342395134085
 72
     1
 10
-201.1350034838116
 20
-241.7342395134085
 11
-199.9422107816452
 21
-241.7342395134085
 72
     1
 10
-199.9422107816452
 20
-241.7342395134085
 11
-199.9422107816452
 21
-238.6804299895974
 72
     1
 10
-199.9422107816452
 20
-238.6804299895974
 11
-201.1350034838116
 21
-238.6804299895974
 72
     1
 10
-201.1350034838116
 20
-238.6804299895974
 11
-201.1350034838116
 21
-239.9892054998025
 72
     1
 10
-201.1350034838116
 20
-239.9892054998025
 11
-202.3755078940645
 21
-238.6804299895974
 97
       10
330
1E3
330
1E4
330
1E5
330
211
330
1E6
330
1E7
330
210
330
213
330
212
330
1E2
 75
     1
 76
     0
 52
45.0
 41
0.1
 77
     0
 78
     1
 53
45.0
 43
0.0
 44
0.0
 45
-0.0707106781186548
 46
0.0707106781186548
 79
     0
 98
        1
 10
0.0
 20
0.0
  0
HATCH
  5
2F3
330
71
100
AcDbEntity
  8
1
  6
Continuous
 62
     2
100
AcDbHatch
 10
0.0
 20
0.0
 30
0.0
210
0.0
220
0.0
230
1.0
  2
_USER
 70
     0
 71
     1
 91
        1
 92
        1
 93
       12
 72
     1
 10
-203.3773028329999
 20
-235.321239513423
 11
-203.3773028329999
 21
-238.3750490372342
 72
     1
 10
-203.3773028329999
 20
-238.3750490372342
 11
-204.5700955351663
 21
-238.3750490372342
 72
     1
 10
-204.5700955351663
 20
-238.3750490372342
 11
-204.5700955351663
 21
-237.2407769283904
 72
     1
 10
-204.5700955351663
 20
-237.2407769283904
 11
-205.6197531130738
 21
-237.2407769283904
 72
     1
 10
-205.6197531130738
 20
-237.2407769283904
 11
-205.6197531130738
 21
-238.3750490372342
 72
     1
 10
-205.6197531130738
 20
-238.3750490372342
 11
-206.8125458152404
 21
-238.3750490372342
 72
     1
 10
-206.8125458152404
 20
-238.3750490372342
 11
-206.8125458152404
 21
-235.321239513423
 72
     1
 10
-206.8125458152404
 20
-235.321239513423
 11
-205.6197531130738
 21
-235.321239513423
 72
     1
 10
-205.6197531130738
 20
-235.321239513423
 11
-205.6197531130738
 21
-236.3900728467576
 72
     1
 10
-205.6197531130738
 20
-236.3900728467576
 11
-204.5700955351663
 21
-236.3900728467576
 72
     1
 10
-204.5700955351663
 20
-236.3900728467576
 11
-204.5700955351663
 21
-235.321239513423
 72
     1
 10
-204.5700955351663
 20
-235.321239513423
 11
-203.3773028329999
 21
-235.321239513423
 97
       12
330
20B
330
20A
330
209
330
1F1
330
1F2
330
208
330
1F3
330
207
330
206
330
205
330
1EF
330
1F0
 75
     1
 76
     0
 52
45.0
 41
0.1
 77
     0
 78
     1
 53
45.0
 43
0.0
 44
0.0
 45
-0.0707106781186548
 46
0.0707106781186548
 79
     0
 98
        1
 10
0.0
 20
0.0
  0
HATCH
  5
2F4
330
71
100
AcDbEntity
  8
1
  6
Continuous
 62
     2
100
AcDbHatch
 10
0.0
 20
0.0
 30
0.0
210
0.0
220
0.0
230
1.0
  2
_USER
 70
     0
 71
     1
 91
        1
 92
        1
 93
       12
 72
     1
 10
-203.3773028329999
 20
-235.321239513423
 11
-203.3773028329999
 21
-238.3750490372342
 72
     1
 10
-203.3773028329999
 20
-238.3750490372342
 11
-204.5700955351663
 21
-238.3750490372342
 72
     1
 10
-204.5700955351663
 20
-238.3750490372342
 11
-204.5700955351663
 21
-237.2407769283904
 72
     1
 10
-204.5700955351663
 20
-237.2407769283904
 11
-205.6197531130738
 21
-237.2407769283904
 72
     1
 10
-205.6197531130738
 20
-237.2407769283904
 11
-205.6197531130738
 21
-238.3750490372342
 72
     1
 10
-205.6197531130738
 20
-238.3750490372342
 11
-206.8125458152404
 21
-238.3750490372342
 72
     1
 10
-206.8125458152404
 20
-238.3750490372342
 11
-206.8125458152404
 21
-235.321239513423
 72
     1
 10
-206.8125458152404
 20
-235.321239513423
 11
-205.6197531130738
 21
-235.321239513423
 72
     1
 10
-205.6197531130738
 20
-235.321239513423
 11
-205.6197531130738
 21
-236.3900728467576
 72
     1
 10
-205.6197531130738
 20
-236.3900728467576
 11
-204.5700955351663
 21
-236.3900728467576
 72
     1
 10
-204.5700955351663
 20
-236.3900728467576
 11
-204.5700955351663
 21
-235.321239513423
 72
     1
 10
-204.5700955351663
 20
-235.321239513423
 11
-203.3773028329999
 21
-235.321239513423
 97
       12
330
20B
330
20A
330
209
330
1F1
330
1F2
330
208
330
1F3
330
207
330
206
330
205
330
1EF
330
1F0
 75
     1
 76
     0
 52
45.0
 41
0.1
 77
     0
 78
     1
 53
45.0
 43
0.0
 44
0.0
 45
-0.0707106781186548
 46
0.0707106781186548
 79
     0
 98
        1
 10
0.0
 20
0.0
  0
ENDBLK
  5
73
330
71
100
AcDbEntity
  8
0
100
AcDbBlockEnd
  0
BLOCK
  5
75
330
74
100
AcDbEntity
  8
0
100
AcDbBlockBegin
  2
_punkt
 70
     0
 10
-91.49999901921099
 20
-249.0277395134248
 30
0.0
  3
_punkt
  1

  0
LINE
  5
2F5
330
74
100
AcDbEntity
  8
1
  6
Continuous
 62
     2
100
AcDbLine
 10
-91.49999901921099
 20
-249.0277395134248
 30
0.0
 11
-91.49999901921099
 21
-254.0277395134249
 31
0.0
  0
LINE
  5
2F6
330
74
100
AcDbEntity
  8
1
  6
Continuous
 62
     2
100
AcDbLine
 10
-91.49999901921099
 20
-249.0277395134248
 30
0.0
 11
-86.499999019212
 21
-249.0277395134248
 31
0.0
  0
ENDBLK
  5
76
330
74
100
AcDbEntity
  8
0
100
AcDbBlockEnd
  0
BLOCK
  5
7A
330
77
100
AcDbEntity
  8
0
100
AcDbBlockBegin
  2
A4I_CS
 70
     0
 10
-91.49999901921099
 20
-254.0277395134249
 30
0.0
  3
A4I_CS
  1

  0
INSERT
  5
78
330
77
100
AcDbEntity
  8
1
100
AcDbBlockReference
  2
_rahmen
 10
-91.49999901921099
 20
-254.0277395134249
 30
0.0
  0
INSERT
  5
79
330
77
100
AcDbEntity
  8
1
100
AcDbBlockReference
  2
_punkt
 10
-91.49999901921099
 20
-249.0277395134248
 30
0.0
  0
ENDBLK
  5
7B
330
77
100
AcDbEntity
  8
0
100
AcDbBlockEnd
  0
BLOCK
  5
151
330
14A
100
AcDbEntity
  8
0
100
AcDbBlockBegin
  2
*D16
 70
     1
 10
0.0
 20
0.0
 30
0.0
  3
*D16
  1

  0
LINE
  5
14B
330
14A
100
AcDbEntity
  8
1
  6
Continuous
 62
     2
100
AcDbLine
 10
-150.000001026048
 20
-69.2750000764213
 30
0.0
 11
-120.0000010488321
 21
-69.2750000764213
 31
0.0
  0
LINE
  5
14C
330
14A
100
AcDbEntity
  8
1
  6
Continuous
 62
     2
100
AcDbLine
 10
-120.0000010488321
 20
-74.2750000764213
 30
0.0
 11
-120.0000010488321
 21
-68.5250000764213
 31
0.0
  0
LINE
  5
14D
330
14A
100
AcDbEntity
  8
1
  6
Continuous
 62
     2
100
AcDbLine
 10
-150.000001026048
 20
-74.2750000764269
 30
0.0
 11
-150.000001026048
 21
-68.5250000764213
 31
0.0
  0
SOLID
  5
14E
330
14A
100
AcDbEntity
  8
1
 62
     2
100
AcDbTrace
 10
-148.250001026048
 20
-69.04460820564337
 30
0.0
 11
-148.250001026048
 21
-69.50539194719924
 31
0.0
 12
-150.000001026048
 22
-69.2750000764213
 32
0.0
 13
-150.000001026048
 23
-69.2750000764213
 33
0.0
  0
SOLID
  5
14F
330
14A
100
AcDbEntity
  8
1
 62
     2
100
AcDbTrace
 10
-121.7500010488321
 20
-69.50539194719924
 30
0.0
 11
-121.7500010488321
 21
-69.04460820564337
 31
0.0
 12
-120.0000010488321
 22
-69.2750000764213
 32
0.0
 13
-120.0000010488321
 23
-69.2750000764213
 33
0.0
  0
MTEXT
  5
150
330
14A
100
AcDbEntity
  8
1
 62
     3
100
AcDbMText
 10
-136.3125010374401
 20
-68.5250000764213
 30
0.0
 40
1.75
 41
0.0
 71
     7
 72
     1
  1
30
  7
CONVERTER_11
 11
0.9999999999970619
 21
2.424068405545306E-6
 31
0.0
 73
     1
 44
0.60024009603842
  0
ENDBLK
  5
152
330
14A
100
AcDbEntity
  8
0
100
AcDbBlockEnd
  0
BLOCK
  5
15C
330
155
100
AcDbEntity
  8
0
100
AcDbBlockBegin
  2
*D17
 70
     1
 10
0.0
 20
0.0
 30
0.0
  3
*D17
  1

  0
LINE
  5
156
330
155
100
AcDbEntity
  8
1
  6
Continuous
 62
     2
100
AcDbLine
 10
-155.000001026048
 20
-74.2750000764269
 30
0.0
 11
-155.000001026048
 21
-79.2750000810104
 31
0.0
  0
LINE
  5
157
330
155
100
AcDbEntity
  8
1
  6
Continuous
 62
     2
100
AcDbLine
 10
-150.0000010260471
 20
-79.2750000810104
 30
0.0
 11
-155.750001026048
 21
-79.2750000810104
 31
0.0
  0
LINE
  5
158
330
155
100
AcDbEntity
  8
1
  6
Continuous
 62
     2
100
AcDbLine
 10
-150.000001026048
 20
-74.2750000764269
 30
0.0
 11
-155.750001026048
 21
-74.2750000764269
 31
0.0
  0
SOLID
  5
159
330
155
100
AcDbEntity
  8
1
 62
     2
100
AcDbTrace
 10
-154.7696091552701
 20
-76.0250000764269
 30
0.0
 11
-155.2303928968259
 21
-76.0250000764269
 31
0.0
 12
-155.000001026048
 22
-74.2750000764269
 32
0.0
 13
-155.000001026048
 23
-74.2750000764269
 33
0.0
  0
SOLID
  5
15A
330
155
100
AcDbEntity
  8
1
 62
     2
100
AcDbTrace
 10
-155.2303928968259
 20
-77.5250000810104
 30
0.0
 11
-154.7696091552701
 21
-77.5250000810104
 31
0.0
 12
-155.000001026048
 22
-79.2750000810104
 32
0.0
 13
-155.000001026048
 23
-79.2750000810104
 33
0.0
  0
MTEXT
  5
15B
330
155
100
AcDbEntity
  8
1
 62
     3
100
AcDbMText
 10
-155.750001026048
 20
-77.30000007871865
 30
0.0
 40
1.75
 41
0.0
 71
     7
 72
     1
  1
5
  7
CONVERTER_11
 11
0.0
 21
1.0
 31
0.0
 73
     1
 44
0.60024009603842
  0
ENDBLK
  5
15D
330
155
100
AcDbEntity
  8
0
100
AcDbBlockEnd
  0
BLOCK
  5
1BA
330
1B1
100
AcDbEntity
  8
0
100
AcDbBlockBegin
  2
*D18
 70
     1
 10
0.0
 20
0.0
 30
0.0
  3
*D18
  1

  0
LINE
  5
1B2
330
1B1
100
AcDbEntity
  8
1
  6
Continuous
 62
     2
100
AcDbLine
 10
-154.8993890629957
 20
-59.27499998572927
 30
0.0
 11
-154.8993890629957
 21
-62.77499998572927
 31
0.0
  0
LINE
  5
1B3
330
1B1
100
AcDbEntity
  8
1
  6
Continuous
 62
     2
100
AcDbLine
 10
-154.8993890629957
 20
-54.72499998572574
 30
0.0
 11
-154.8993890629957
 21
-59.27499998572927
 31
0.0
  0
LINE
  5
1B4
330
1B1
100
AcDbEntity
  8
1
  6
Continuous
 62
     2
100
AcDbLine
 10
-154.8993890629957
 20
-51.22499998572574
 30
0.0
 11
-154.8993890629957
 21
-54.72499998572574
 31
0.0
  0
LINE
  5
1B5
330
1B1
100
AcDbEntity
  8
1
  6
Continuous
 62
     2
100
AcDbLine
 10
-149.3000010482203
 20
-59.27499998572927
 30
0.0
 11
-155.6493890629957
 21
-59.27499998572927
 31
0.0
  0
LINE
  5
1B6
330
1B1
100
AcDbEntity
  8
1
  6
Continuous
 62
     2
100
AcDbLine
 10
-149.8993890629957
 20
-54.72499998572574
 30
0.0
 11
-155.6493890629957
 21
-54.72499998572574
 31
0.0
  0
SOLID
  5
1B7
330
1B1
100
AcDbEntity
  8
1
 62
     2
100
AcDbTrace
 10
-155.1297809337736
 20
-52.97499998572574
 30
0.0
 11
-154.6689971922177
 21
-52.97499998572574
 31
0.0
 12
-154.8993890629957
 22
-54.72499998572574
 32
0.0
 13
-154.8993890629957
 23
-54.72499998572574
 33
0.0
  0
SOLID
  5
1B8
330
1B1
100
AcDbEntity
  8
1
 62
     2
100
AcDbTrace
 10
-154.6689971922177
 20
-61.02499998572927
 30
0.0
 11
-155.1297809337736
 21
-61.02499998572927
 31
0.0
 12
-154.8993890629957
 22
-59.27499998572927
 32
0.0
 13
-154.8993890629957
 23
-59.27499998572927
 33
0.0
  0
MTEXT
  5
1B9
330
1B1
100
AcDbEntity
  8
1
 62
     3
100
AcDbMText
 10
-155.8243890629957
 20
-58.5868659412865
 30
0.0
 40
1.75
 41
0.0
 71
     7
 72
     1
  1
4,6
  7
CONVERTER_11
 11
0.0
 21
1.0
 31
0.0
 73
     1
 44
0.60024009603842
  0
ENDBLK
  5
1BB
330
1B1
100
AcDbEntity
  8
0
100
AcDbBlockEnd
  0
ENDSEC
  0
SECTION
  2
ENTITIES
  0
INSERT
  5
7C
330
1F
100
AcDbEntity
  8
0
100
AcDbBlockReference
  2
Allg1
 10
-145.000000000044
 20
-181.000000000014
 30
0.0
 41
2.0
 42
2.0
 43
2.0
  0
INSERT
  5
7D
330
1F
100
AcDbEntity
  8
0
100
AcDbBlockReference
  2
Rckans1
 10
-159.9999999998749
 20
-114.0000000000752
 30
0.0
 41
2.0
 42
2.0
 43
2.0
  0
INSERT
  5
7E
330
1F
100
AcDbEntity
  8
0
100
AcDbBlockReference
  2
SA_Rechts1
 10
-335.0000000000638
 20
-114.0000000000302
 30
0.0
 41
2.0
 42
2.0
 43
2.0
  0
INSERT
  5
7F
330
1F
100
AcDbEntity
  8
0
100
AcDbBlockReference
  2
SA_Links1
 10
-214.999999999997
 20
-114.00000000003
 30
0.0
 41
2.0
 42
2.0
 43
2.0
  0
INSERT
  5
80
330
1F
100
AcDbEntity
  8
0
100
AcDbBlockReference
  2
Drfsicht1
 10
-270.0000000000476
 20
-153.5500000714776
 30
0.0
 41
2.0
 42
2.0
 43
2.0
  0
INSERT
  5
81
330
1F
100
AcDbEntity
  8
0
100
AcDbBlockReference
  2
Vordans1
 10
-270.0000000000542
 20
-114.00000000003
 30
0.0
 41
2.0
 42
2.0
 43
2.0
  0
INSERT
  5
82
330
1F
100
AcDbEntity
  8
0
100
AcDbBlockReference
  2
A4I_CS
 10
-91.49999901921099
 20
-254.0277395134249
 30
0.0
  0
ENDSEC
  0
SECTION
  2
OBJECTS
  0
DICTIONARY
  5
C
330
0
100
AcDbDictionary
281
     1
  3
ACAD_GROUP
350
D
  3
ACAD_LAYOUT
350
1A
  3
ACAD_MATERIAL
350
3B
  3
ACAD_MLEADERSTYLE
350
2F9
  3
ACAD_MLINESTYLE
350
17
  3
ACAD_PLOTSETTINGS
350
19
  3
ACAD_PLOTSTYLENAME
350
E
  3
ACAD_VISUALSTYLE
350
2A
  3
AcDbVariableDictionary
350
2F7
  0
DICTIONARY
  5
D
102
{ACAD_REACTORS
330
C
102
}
330
C
100
AcDbDictionary
281
     1
  0
DICTIONARY
  5
1A
102
{ACAD_REACTORS
330
C
102
}
330
C
100
AcDbDictionary
281
     1
  3
Layout1
350
1E
  3
Layout2
350
26
  3
Model
350
22
  0
DICTIONARY
  5
3B
102
{ACAD_REACTORS
330
C
102
}
330
C
100
AcDbDictionary
281
     1
  3
ByBlock
350
3D
  3
ByLayer
350
3C
  3
Global
350
3E
  0
DICTIONARY
  5
2F9
102
{ACAD_REACTORS
330
C
102
}
330
C
100
AcDbDictionary
281
     1
  0
DICTIONARY
  5
17
102
{ACAD_REACTORS
330
C
102
}
330
C
100
AcDbDictionary
281
     1
  3
Standard
350
18
  0
DICTIONARY
  5
19
102
{ACAD_REACTORS
330
C
102
}
330
C
100
AcDbDictionary
281
     1
  0
ACDBDICTIONARYWDFLT
  5
E
102
{ACAD_REACTORS
330
C
102
}
330
C
100
AcDbDictionary
281
     1
  3
Normal
350
F
100
AcDbDictionaryWithDefault
340
F
  0
DICTIONARY
  5
2A
102
{ACAD_REACTORS
330
C
102
}
330
C
100
AcDbDictionary
281
     1
  3
2dWireframe
350
2F
  3
3D Hidden
350
31
  3
3dWireframe
350
30
  3
Basic
350
32
  3
Brighten
350
36
  3
ColorChange
350
3A
  3
Conceptual
350
34
  3
Dim
350
35
  3
Facepattern
350
39
  3
Flat
350
2B
  3
FlatWithEdges
350
2C
  3
Gouraud
350
2D
  3
GouraudWithEdges
350
2E
  3
Linepattern
350
38
  3
Realistic
350
33
  3
Thicken
350
37
  0
DICTIONARY
  5
2F7
102
{ACAD_REACTORS
330
C
102
}
330
C
100
AcDbDictionary
281
     1
  3
DIMASSOC
350
2FA
  3
HIDETEXT
350
2FB
  0
LAYOUT
  5
1E
102
{ACAD_REACTORS
330
1A
102
}
330
1A
100
AcDbPlotSettings
  1

  2
none_device
  4

  6

 40
0.0
 41
0.0
 42
0.0
 43
0.0
 44
0.0
 45
0.0
 46
0.0
 47
0.0
 48
0.0
 49
0.0
140
0.0
141
0.0
142
1.0
143
1.0
 70
   688
 72
     0
 73
     0
 74
     5
  7

 75
    16
147
1.0
148
0.0
149
0.0
100
AcDbLayout
  1
Layout1
 70
     1
 71
     1
 10
0.0
 20
0.0
 11
12.0
 21
9.0
 12
0.0
 22
0.0
 32
0.0
 14
1.00000000000000E+20
 24
1.00000000000000E+20
 34
1.00000000000000E+20
 15
-1.00000000000000E+20
 25
-1.00000000000000E+20
 35
-1.00000000000000E+20
146
0.0
 13
0.0
 23
0.0
 33
0.0
 16
1.0
 26
0.0
 36
0.0
 17
0.0
 27
1.0
 37
0.0
 76
     0
330
1B
  0
LAYOUT
  5
26
102
{ACAD_REACTORS
330
1A
102
}
330
1A
100
AcDbPlotSettings
  1

  2
none_device
  4

  6

 40
0.0
 41
0.0
 42
0.0
 43
0.0
 44
0.0
 45
0.0
 46
0.0
 47
0.0
 48
0.0
 49
0.0
140
0.0
141
0.0
142
1.0
143
1.0
 70
   688
 72
     0
 73
     0
 74
     5
  7

 75
    16
147
1.0
148
0.0
149
0.0
100
AcDbLayout
  1
Layout2
 70
     1
 71
     2
 10
0.0
 20
0.0
 11
0.0
 21
0.0
 12
0.0
 22
0.0
 32
0.0
 14
0.0
 24
0.0
 34
0.0
 15
0.0
 25
0.0
 35
0.0
146
0.0
 13
0.0
 23
0.0
 33
0.0
 16
1.0
 26
0.0
 36
0.0
 17
0.0
 27
1.0
 37
0.0
 76
     0
330
23
  0
LAYOUT
  5
22
102
{ACAD_REACTORS
330
1A
102
}
330
1A
100
AcDbPlotSettings
  1

  2
none_device
  4

  6

 40
0.0
 41
0.0
 42
0.0
 43
0.0
 44
0.0
 45
0.0
 46
0.0
 47
0.0
 48
0.0
 49
0.0
140
0.0
141
0.0
142
1.0
143
1.0
 70
  1712
 72
     0
 73
     0
 74
     0
  7

 75
     0
147
1.0
148
0.0
149
0.0
100
AcDbLayout
  1
Model
 70
     1
 71
     0
 10
0.0
 20
0.0
 11
12.0
 21
9.0
 12
0.0
 22
0.0
 32
0.0
 14
-383.4999990192101
 24
-254.0277395134249
 34
0.0
 15
-86.499999019212
 25
-44.02773951342476
 35
0.0
146
0.0
 13
0.0
 23
0.0
 33
0.0
 16
1.0
 26
0.0
 36
0.0
 17
0.0
 27
1.0
 37
0.0
 76
     0
330
1F
331
29
  0
MATERIAL
  5
3D
102
{ACAD_REACTORS
330
3B
102
}
102
{ACAD_XDICTIONARY
360
31E
102
}
330
3B
100
AcDbMaterial
  1
ByBlock
  0
MATERIAL
  5
3C
102
{ACAD_REACTORS
330
3B
102
}
102
{ACAD_XDICTIONARY
360
31C
102
}
330
3B
100
AcDbMaterial
  1
ByLayer
  0
MATERIAL
  5
3E
102
{ACAD_REACTORS
330
3B
102
}
102
{ACAD_XDICTIONARY
360
320
102
}
330
3B
100
AcDbMaterial
  1
Global
  0
MLINESTYLE
  5
18
102
{ACAD_REACTORS
330
17
102
}
330
17
100
AcDbMlineStyle
  2
Standard
 70
     0
  3

 62
   256
 51
90.0
 52
90.0
 71
     2
 49
0.5
 62
   256
  6
BYLAYER
 49
-0.5
 62
   256
  6
BYLAYER
  0
ACDBPLACEHOLDER
  5
F
102
{ACAD_REACTORS
330
E
102
}
330
E
  0
VISUALSTYLE
  5
2F
102
{ACAD_REACTORS
330
2A
102
}
102
{ACAD_XDICTIONARY
360
304
102
}
330
2A
100
AcDbVisualStyle
  2
2dWireframe
 70
     4
 71
     0
 72
     2
 73
     0
 90
        0
 40
-0.6
 41
-30.0
 62
     5
 63
     7
 74
     1
 91
        4
 64
     7
 65
   257
 75
     1
175
     1
 42
1.0
 92
        0
 66
   257
 43
1.0
 76
     1
 77
     6
 78
     2
 67
     7
 79
     5
170
     0
171
     0
290
     0
174
     0
 93
        1
 44
0.0
173
     0
291
     0
 45
0.0
1001
ACAD
1000
AcDbSavedByObjectVersion
1070
     0
  0
VISUALSTYLE
  5
31
102
{ACAD_REACTORS
330
2A
102
}
102
{ACAD_XDICTIONARY
360
308
102
}
330
2A
100
AcDbVisualStyle
  2
3D Hidden
 70
     6
 71
     1
 72
     2
 73
     2
 90
        0
 40
-0.6
 41
-30.0
 62
     5
 63
     7
 74
     2
 91
        2
 64
     7
 65
   257
 75
     2
175
     1
 42
40.0
 92
        0
 66
   257
 43
1.0
 76
     1
 77
     6
 78
     2
 67
     7
 79
     3
170
     0
171
     0
290
     0
174
     0
 93
        1
 44
0.0
173
     0
291
     0
 45
0.0
1001
ACAD
1000
AcDbSavedByObjectVersion
1070
     0
  0
VISUALSTYLE
  5
30
102
{ACAD_REACTORS
330
2A
102
}
102
{ACAD_XDICTIONARY
360
306
102
}
330
2A
100
AcDbVisualStyle
  2
3dWireframe
 70
     5
 71
     0
 72
     2
 73
     0
 90
        0
 40
-0.6
 41
-30.0
 62
     5
 63
     7
 74
     1
 91
        4
 64
     7
 65
   257
 75
     1
175
     1
 42
1.0
 92
        0
 66
   257
 43
1.0
 76
     1
 77
     6
 78
     2
 67
     7
 79
     5
170
     0
171
     0
290
     0
174
     0
 93
        1
 44
0.0
173
     0
291
     0
 45
0.0
1001
ACAD
1000
AcDbSavedByObjectVersion
1070
     0
  0
VISUALSTYLE
  5
32
102
{ACAD_REACTORS
330
2A
102
}
102
{ACAD_XDICTIONARY
360
30A
102
}
330
2A
100
AcDbVisualStyle
  2
Basic
 70
     7
 71
     1
 72
     0
 73
     1
 90
        0
 40
-0.6
 41
-30.0
 62
     5
 63
     7
 74
     0
 91
        4
 64
     7
 65
   257
 75
     1
175
     1
 42
1.0
 92
        8
 66
     7
 43
1.0
 76
     1
 77
     6
 78
     2
 67
     7
 79
     5
170
     0
171
     0
290
     0
174
     0
 93
        1
 44
0.0
173
     0
291
     1
 45
0.0
1001
ACAD
1000
AcDbSavedByObjectVersion
1070
     0
  0
VISUALSTYLE
  5
36
102
{ACAD_REACTORS
330
2A
102
}
102
{ACAD_XDICTIONARY
360
312
102
}
330
2A
100
AcDbVisualStyle
  2
Brighten
 70
    12
 71
     2
 72
     2
 73
     0
 90
        0
 40
-0.6
 41
-30.0
 62
     5
 63
     7
 74
     1
 91
        4
 64
     7
 65
   257
 75
     1
175
     1
 42
1.0
 92
        8
 66
     7
 43
1.0
 76
     1
 77
     6
 78
     2
 67
     7
 79
     5
170
     0
171
     0
290
     0
174
     0
 93
        1
 44
50.0
173
     0
291
     1
 45
0.0
1001
ACAD
1000
AcDbSavedByObjectVersion
1070
     0
  0
VISUALSTYLE
  5
3A
102
{ACAD_REACTORS
330
2A
102
}
102
{ACAD_XDICTIONARY
360
31A
102
}
330
2A
100
AcDbVisualStyle
  2
ColorChange
 70
    16
 71
     2
 72
     2
 73
     3
 90
        0
 40
-0.6
 41
-30.0
 62
     5
 63
     8
 74
     1
 91
        4
 64
     7
 65
   257
 75
     1
175
     1
 42
1.0
 92
        8
 66
     8
 43
1.0
 76
     1
 77
     6
 78
     2
 67
     7
 79
     5
170
     0
171
     0
290
     0
174
     0
 93
        1
 44
0.0
173
     0
291
     1
 45
0.0
1001
ACAD
1000
AcDbSavedByObjectVersion
1070
     0
  0
VISUALSTYLE
  5
34
102
{ACAD_REACTORS
330
2A
102
}
102
{ACAD_XDICTIONARY
360
30E
102
}
330
2A
100
AcDbVisualStyle
  2
Conceptual
 70
     9
 71
     3
 72
     2
 73
     0
 90
        0
 40
-0.6
 41
-30.0
 62
     5
 63
     7
 74
     2
 91
        2
 64
     7
 65
   257
 75
     1
175
     1
 42
40.0
 92
        8
 66
     7
 43
1.0
 76
     1
 77
     6
 78
     2
 67
     7
 79
     3
170
     0
171
     0
290
     0
174
     0
 93
        1
 44
0.0
173
     0
291
     0
 45
0.0
1001
ACAD
1000
AcDbSavedByObjectVersion
1070
     0
  0
VISUALSTYLE
  5
35
102
{ACAD_REACTORS
330
2A
102
}
102
{ACAD_XDICTIONARY
360
310
102
}
330
2A
100
AcDbVisualStyle
  2
Dim
 70
    11
 71
     2
 72
     2
 73
     0
 90
        0
 40
-0.6
 41
-30.0
 62
     5
 63
     7
 74
     1
 91
        4
 64
     7
 65
   257
 75
     1
175
     1
 42
1.0
 92
        8
 66
     7
 43
1.0
 76
     1
 77
     6
 78
     2
 67
     7
 79
     5
170
     0
171
     0
290
     0
174
     0
 93
        1
 44
-50.0
173
     0
291
     1
 45
0.0
1001
ACAD
1000
AcDbSavedByObjectVersion
1070
     0
  0
VISUALSTYLE
  5
39
102
{ACAD_REACTORS
330
2A
102
}
102
{ACAD_XDICTIONARY
360
318
102
}
330
2A
100
AcDbVisualStyle
  2
Facepattern
 70
    15
 71
     2
 72
     2
 73
     0
 90
        0
 40
-0.6
 41
-30.0
 62
     5
 63
     7
 74
     1
 91
        4
 64
     7
 65
   257
 75
     1
175
     1
 42
1.0
 92
        8
 66
     7
 43
1.0
 76
     1
 77
     6
 78
     2
 67
     7
 79
     5
170
     0
171
     0
290
     0
174
     0
 93
        1
 44
0.0
173
     0
291
     1
 45
0.0
1001
ACAD
1000
AcDbSavedByObjectVersion
1070
     0
  0
VISUALSTYLE
  5
2B
102
{ACAD_REACTORS
330
2A
102
}
102
{ACAD_XDICTIONARY
360
2FC
102
}
330
2A
100
AcDbVisualStyle
  2
Flat
 70
     0
 71
     2
 72
     1
 73
     1
 90
        2
 40
-0.6
 41
30.0
 62
     5
 63
     7
 74
     0
 91
        4
 64
     7
 65
   257
 75
     1
175
     1
 42
1.0
 92
        8
 66
     7
 43
1.0
 76
     1
 77
     6
 78
     2
 67
     7
 79
     5
170
     0
171
     0
290
     0
174
     0
 93
       13
 44
0.0
173
     0
291
     1
 45
0.0
1001
ACAD
1000
AcDbSavedByObjectVersion
1070
     0
  0
VISUALSTYLE
  5
2C
102
{ACAD_REACTORS
330
2A
102
}
102
{ACAD_XDICTIONARY
360
2FE
102
}
330
2A
100
AcDbVisualStyle
  2
FlatWithEdges
 70
     1
 71
     2
 72
     1
 73
     1
 90
        2
 40
-0.6
 41
30.0
 62
     5
 63
     7
 74
     1
 91
        4
 64
     7
 65
   257
 75
     1
175
     1
 42
1.0
 92
        0
 66
   257
 43
1.0
 76
     1
 77
     6
 78
     2
 67
     7
 79
     5
170
     0
171
     0
290
     0
174
     0
 93
       13
 44
0.0
173
     0
291
     1
 45
0.0
1001
ACAD
1000
AcDbSavedByObjectVersion
1070
     0
  0
VISUALSTYLE
  5
2D
102
{ACAD_REACTORS
330
2A
102
}
102
{ACAD_XDICTIONARY
360
300
102
}
330
2A
100
AcDbVisualStyle
  2
Gouraud
 70
     2
 71
     2
 72
     2
 73
     1
 90
        2
 40
-0.6
 41
30.0
 62
     5
 63
     7
 74
     0
 91
        4
 64
     7
 65
   257
 75
     1
175
     1
 42
1.0
 92
        0
 66
     7
 43
1.0
 76
     1
 77
     6
 78
     2
 67
     7
 79
     5
170
     0
171
     0
290
     0
174
     0
 93
       13
 44
0.0
173
     0
291
     1
 45
0.0
1001
ACAD
1000
AcDbSavedByObjectVersion
1070
     0
  0
VISUALSTYLE
  5
2E
102
{ACAD_REACTORS
330
2A
102
}
102
{ACAD_XDICTIONARY
360
302
102
}
330
2A
100
AcDbVisualStyle
  2
GouraudWithEdges
 70
     3
 71
     2
 72
     2
 73
     1
 90
        2
 40
-0.6
 41
30.0
 62
     5
 63
     7
 74
     1
 91
        4
 64
     7
 65
   257
 75
     1
175
     1
 42
1.0
 92
        0
 66
   257
 43
1.0
 76
     1
 77
     6
 78
     2
 67
     7
 79
     5
170
     0
171
     0
290
     0
174
     0
 93
       13
 44
0.0
173
     0
291
     1
 45
0.0
1001
ACAD
1000
AcDbSavedByObjectVersion
1070
     0
  0
VISUALSTYLE
  5
38
102
{ACAD_REACTORS
330
2A
102
}
102
{ACAD_XDICTIONARY
360
316
102
}
330
2A
100
AcDbVisualStyle
  2
Linepattern
 70
    14
 71
     2
 72
     2
 73
     0
 90
        0
 40
-0.6
 41
-30.0
 62
     5
 63
     7
 74
     1
 91
        4
 64
     7
 65
   257
 75
     7
175
     7
 42
1.0
 92
        8
 66
     7
 43
1.0
 76
     1
 77
     6
 78
     2
 67
     7
 79
     5
170
     0
171
     0
290
     0
174
     0
 93
        1
 44
0.0
173
     0
291
     1
 45
0.0
1001
ACAD
1000
AcDbSavedByObjectVersion
1070
     0
  0
VISUALSTYLE
  5
33
102
{ACAD_REACTORS
330
2A
102
}
102
{ACAD_XDICTIONARY
360
30C
102
}
330
2A
100
AcDbVisualStyle
  2
Realistic
 70
     8
 71
     2
 72
     2
 73
     0
 90
        0
 40
-0.6
 41
-30.0
 62
     5
 63
     7
 74
     1
 91
        0
 64
     7
 65
   257
 75
     1
175
     1
 42
1.0
 92
        8
 66
     8
 43
1.0
 76
     1
 77
     6
 78
     2
 67
     7
 79
     5
170
     0
171
     0
290
     0
174
     0
 93
       13
 44
0.0
173
     0
291
     0
 45
0.0
1001
ACAD
1000
AcDbSavedByObjectVersion
1070
     0
  0
VISUALSTYLE
  5
37
102
{ACAD_REACTORS
330
2A
102
}
102
{ACAD_XDICTIONARY
360
314
102
}
330
2A
100
AcDbVisualStyle
  2
Thicken
 70
    13
 71
     2
 72
     2
 73
     0
 90
        0
 40
-0.6
 41
-30.0
 62
     5
 63
     7
 74
     1
 91
        4
 64
     7
 65
   257
 75
     1
175
     1
 42
1.0
 92
       12
 66
     7
 43
1.0
 76
     1
 77
     6
 78
     2
 67
     7
 79
     5
170
     0
171
     0
290
     0
174
     0
 93
        1
 44
0.0
173
     0
291
     1
 45
0.0
1001
ACAD
1000
AcDbSavedByObjectVersion
1070
     0
  0
DICTIONARYVAR
  5
2FA
102
{ACAD_REACTORS
330
2F7
102
}
330
2F7
100
DictionaryVariables
280
     0
  1
2
  0
DICTIONARYVAR
  5
2FB
102
{ACAD_REACTORS
330
2F7
102
}
330
2F7
100
DictionaryVariables
280
     0
  1
1
  0
DICTIONARY
  5
31E
330
3D
100
AcDbDictionary
280
     1
281
     1
  3
ACAD_XREC_ROUNDTRIP
360
31F
  0
DICTIONARY
  5
31C
330
3C
100
AcDbDictionary
280
     1
281
     1
  3
ACAD_XREC_ROUNDTRIP
360
31D
  0
DICTIONARY
  5
320
330
3E
100
AcDbDictionary
280
     1
281
     1
  3
ACAD_XREC_ROUNDTRIP
360
321
  0
DICTIONARY
  5
304
330
2F
100
AcDbDictionary
280
     1
281
     1
  3
ACAD_XREC_ROUNDTRIP
360
305
  0
DICTIONARY
  5
308
330
31
100
AcDbDictionary
280
     1
281
     1
  3
ACAD_XREC_ROUNDTRIP
360
309
  0
DICTIONARY
  5
306
330
30
100
AcDbDictionary
280
     1
281
     1
  3
ACAD_XREC_ROUNDTRIP
360
307
  0
DICTIONARY
  5
30A
330
32
100
AcDbDictionary
280
     1
281
     1
  3
ACAD_XREC_ROUNDTRIP
360
30B
  0
DICTIONARY
  5
312
330
36
100
AcDbDictionary
280
     1
281
     1
  3
ACAD_XREC_ROUNDTRIP
360
313
  0
DICTIONARY
  5
31A
330
3A
100
AcDbDictionary
280
     1
281
     1
  3
ACAD_XREC_ROUNDTRIP
360
31B
  0
DICTIONARY
  5
30E
330
34
100
AcDbDictionary
280
     1
281
     1
  3
ACAD_XREC_ROUNDTRIP
360
30F
  0
DICTIONARY
  5
310
330
35
100
AcDbDictionary
280
     1
281
     1
  3
ACAD_XREC_ROUNDTRIP
360
311
  0
DICTIONARY
  5
318
330
39
100
AcDbDictionary
280
     1
281
     1
  3
ACAD_XREC_ROUNDTRIP
360
319
  0
DICTIONARY
  5
2FC
330
2B
100
AcDbDictionary
280
     1
281
     1
  3
ACAD_XREC_ROUNDTRIP
360
2FD
  0
DICTIONARY
  5
2FE
330
2C
100
AcDbDictionary
280
     1
281
     1
  3
ACAD_XREC_ROUNDTRIP
360
2FF
  0
DICTIONARY
  5
300
330
2D
100
AcDbDictionary
280
     1
281
     1
  3
ACAD_XREC_ROUNDTRIP
360
301
  0
DICTIONARY
  5
302
330
2E
100
AcDbDictionary
280
     1
281
     1
  3
ACAD_XREC_ROUNDTRIP
360
303
  0
DICTIONARY
  5
316
330
38
100
AcDbDictionary
280
     1
281
     1
  3
ACAD_XREC_ROUNDTRIP
360
317
  0
DICTIONARY
  5
30C
330
33
100
AcDbDictionary
280
     1
281
     1
  3
ACAD_XREC_ROUNDTRIP
360
30D
  0
DICTIONARY
  5
314
330
37
100
AcDbDictionary
280
     1
281
     1
  3
ACAD_XREC_ROUNDTRIP
360
315
  0
XRECORD
  5
31F
102
{ACAD_REACTORS
330
31E
102
}
330
31E
100
AcDbXrecord
280
     1
102
MATERIAL
148
0.0
149
0.0
149
0.0
 93
        0
 94
      127
282
     0
 72
     1
 77
     1
171
     1
175
     1
179
     1
273
     0
  0
XRECORD
  5
31D
102
{ACAD_REACTORS
330
31C
102
}
330
31C
100
AcDbXrecord
280
     1
102
MATERIAL
148
0.0
149
0.0
149
0.0
 93
        0
 94
      127
282
     0
 72
     1
 77
     1
171
     1
175
     1
179
     1
273
     0
  0
XRECORD
  5
321
102
{ACAD_REACTORS
330
320
102
}
330
320
100
AcDbXrecord
280
     1
102
MATERIAL
148
0.0
149
0.0
149
0.0
 93
        0
 94
      127
282
     0
 72
     1
 77
     1
171
     1
175
     1
179
     1
273
     0
  0
XRECORD
  5
305
102
{ACAD_REACTORS
330
304
102
}
330
304
100
AcDbXrecord
280
     1
102
RTVSPropertyOp0
 70
     1
102
RTVSPropertyOp1
 70
     1
102
RTVSPropertyOp2
 70
     1
102
RTVSPropertyOp3
 70
     1
102
RTVSPropertyOp4
 70
     1
102
RTVSPropertyOp5
 70
     1
102
RTVSPropertyOp6
 70
     1
102
RTVSPropertyOp7
 70
     1
102
RTVSPropertyOp8
 70
     1
102
RTVSPropertyOp9
 70
     1
102
RTVSPropertyOp10
 70
     1
102
RTVSPropertyOp11
 70
     1
102
RTVSPropertyOp12
 70
     1
102
RTVSPropertyOp13
 70
     1
102
RTVSPropertyOp14
 70
     1
102
RTVSPropertyOp15
 70
     1
102
RTVSPropertyOp16
 70
     1
102
RTVSPropertyOp17
 70
     1
102
RTVSPropertyOp18
 70
     1
102
RTVSPropertyOp19
 70
     1
102
RTVSPropertyOp20
 70
     1
102
RTVSPropertyOp21
 70
     1
102
RTVSPropertyOp22
 70
     1
102
RTVSPropertyOp23
 70
     1
102
RTVSPropertyOp24
 70
     1
102
RTVSPropertyOp25
 70
     1
102
RTVSPropertyOp26
 70
     1
102
RTVSPropertyOp27
 70
     1
102
RTVSPropertyOp28
 70
     1
102
RTVSPropertyOp29
 70
     1
102
RTVSPropertyOp30
 70
     1
102
RTVSPropertyOp31
 70
     1
102
RTVSPropertyOp32
 70
     1
  0
XRECORD
  5
309
102
{ACAD_REACTORS
330
308
102
}
330
308
100
AcDbXrecord
280
     1
102
RTVSPropertyOp0
 70
     1
102
RTVSPropertyOp1
 70
     1
102
RTVSPropertyOp2
 70
     1
102
RTVSPropertyOp3
 70
     1
102
RTVSPropertyOp4
 70
     1
102
RTVSPropertyOp5
 70
     1
102
RTVSPropertyOp6
 70
     1
102
RTVSPropertyOp7
 70
     1
102
RTVSPropertyOp8
 70
     1
102
RTVSPropertyOp9
 70
     1
102
RTVSPropertyOp10
 70
     1
102
RTVSPropertyOp11
 70
     1
102
RTVSPropertyOp12
 70
     1
102
RTVSPropertyOp13
 70
     1
102
RTVSPropertyOp14
 70
     1
102
RTVSPropertyOp15
 70
     1
102
RTVSPropertyOp16
 70
     1
102
RTVSPropertyOp17
 70
     1
102
RTVSPropertyOp18
 70
     1
102
RTVSPropertyOp19
 70
     1
102
RTVSPropertyOp20
 70
     1
102
RTVSPropertyOp21
 70
     1
102
RTVSPropertyOp22
 70
     1
102
RTVSPropertyOp23
 70
     1
102
RTVSPropertyOp24
 70
     1
102
RTVSPropertyOp25
 70
     1
102
RTVSPropertyOp26
 70
     1
102
RTVSPropertyOp27
 70
     1
102
RTVSPropertyOp28
 70
     1
102
RTVSPropertyOp29
 70
     1
102
RTVSPropertyOp30
 70
     1
102
RTVSPropertyOp31
 70
     1
102
RTVSPropertyOp32
 70
     1
  0
XRECORD
  5
307
102
{ACAD_REACTORS
330
306
102
}
330
306
100
AcDbXrecord
280
     1
102
RTVSPropertyOp0
 70
     1
102
RTVSPropertyOp1
 70
     1
102
RTVSPropertyOp2
 70
     1
102
RTVSPropertyOp3
 70
     1
102
RTVSPropertyOp4
 70
     1
102
RTVSPropertyOp5
 70
     1
102
RTVSPropertyOp6
 70
     1
102
RTVSPropertyOp7
 70
     1
102
RTVSPropertyOp8
 70
     1
102
RTVSPropertyOp9
 70
     1
102
RTVSPropertyOp10
 70
     1
102
RTVSPropertyOp11
 70
     1
102
RTVSPropertyOp12
 70
     1
102
RTVSPropertyOp13
 70
     1
102
RTVSPropertyOp14
 70
     1
102
RTVSPropertyOp15
 70
     1
102
RTVSPropertyOp16
 70
     1
102
RTVSPropertyOp17
 70
     1
102
RTVSPropertyOp18
 70
     1
102
RTVSPropertyOp19
 70
     1
102
RTVSPropertyOp20
 70
     1
102
RTVSPropertyOp21
 70
     1
102
RTVSPropertyOp22
 70
     1
102
RTVSPropertyOp23
 70
     1
102
RTVSPropertyOp24
 70
     1
102
RTVSPropertyOp25
 70
     1
102
RTVSPropertyOp26
 70
     1
102
RTVSPropertyOp27
 70
     1
102
RTVSPropertyOp28
 70
     1
102
RTVSPropertyOp29
 70
     1
102
RTVSPropertyOp30
 70
     1
102
RTVSPropertyOp31
 70
     1
102
RTVSPropertyOp32
 70
     1
  0
XRECORD
  5
30B
102
{ACAD_REACTORS
330
30A
102
}
330
30A
100
AcDbXrecord
280
     1
102
RTVSPropertyOp0
 70
     1
102
RTVSPropertyOp1
 70
     1
102
RTVSPropertyOp2
 70
     1
102
RTVSPropertyOp3
 70
     1
102
RTVSPropertyOp4
 70
     1
102
RTVSPropertyOp5
 70
     1
102
RTVSPropertyOp6
 70
     1
102
RTVSPropertyOp7
 70
     1
102
RTVSPropertyOp8
 70
     1
102
RTVSPropertyOp9
 70
     1
102
RTVSPropertyOp10
 70
     1
102
RTVSPropertyOp11
 70
     1
102
RTVSPropertyOp12
 70
     1
102
RTVSPropertyOp13
 70
     1
102
RTVSPropertyOp14
 70
     1
102
RTVSPropertyOp15
 70
     1
102
RTVSPropertyOp16
 70
     1
102
RTVSPropertyOp17
 70
     1
102
RTVSPropertyOp18
 70
     1
102
RTVSPropertyOp19
 70
     1
102
RTVSPropertyOp20
 70
     1
102
RTVSPropertyOp21
 70
     1
102
RTVSPropertyOp22
 70
     1
102
RTVSPropertyOp23
 70
     1
102
RTVSPropertyOp24
 70
     1
102
RTVSPropertyOp25
 70
     1
102
RTVSPropertyOp26
 70
     1
102
RTVSPropertyOp27
 70
     1
102
RTVSPropertyOp28
 70
     1
102
RTVSPropertyOp29
 70
     1
102
RTVSPropertyOp30
 70
     1
102
RTVSPropertyOp31
 70
     1
102
RTVSPropertyOp32
 70
     1
  0
XRECORD
  5
313
102
{ACAD_REACTORS
330
312
102
}
330
312
100
AcDbXrecord
280
     1
102
RTVSPropertyOp0
 70
     1
102
RTVSPropertyOp1
 70
     1
102
RTVSPropertyOp2
 70
     1
102
RTVSPropertyOp3
 70
     1
102
RTVSPropertyOp4
 70
     1
102
RTVSPropertyOp5
 70
     1
102
RTVSPropertyOp6
 70
     1
102
RTVSPropertyOp7
 70
     1
102
RTVSPropertyOp8
 70
     1
102
RTVSPropertyOp9
 70
     1
102
RTVSPropertyOp10
 70
     1
102
RTVSPropertyOp11
 70
     1
102
RTVSPropertyOp12
 70
     1
102
RTVSPropertyOp13
 70
     1
102
RTVSPropertyOp14
 70
     1
102
RTVSPropertyOp15
 70
     1
102
RTVSPropertyOp16
 70
     1
102
RTVSPropertyOp17
 70
     1
102
RTVSPropertyOp18
 70
     1
102
RTVSPropertyOp19
 70
     1
102
RTVSPropertyOp20
 70
     1
102
RTVSPropertyOp21
 70
     1
102
RTVSPropertyOp22
 70
     1
102
RTVSPropertyOp23
 70
     1
102
RTVSPropertyOp24
 70
     1
102
RTVSPropertyOp25
 70
     1
102
RTVSPropertyOp26
 70
     1
102
RTVSPropertyOp27
 70
     1
102
RTVSPropertyOp28
 70
     1
102
RTVSPropertyOp29
 70
     1
102
RTVSPropertyOp30
 70
     1
102
RTVSPropertyOp31
 70
     1
102
RTVSPropertyOp32
 70
     1
  0
XRECORD
  5
31B
102
{ACAD_REACTORS
330
31A
102
}
330
31A
100
AcDbXrecord
280
     1
102
RTVSPropertyOp0
 70
     1
102
RTVSPropertyOp1
 70
     1
102
RTVSPropertyOp2
 70
     1
102
RTVSPropertyOp3
 70
     1
102
RTVSPropertyOp4
 70
     1
102
RTVSPropertyOp5
 70
     1
102
RTVSPropertyOp6
 70
     1
102
RTVSPropertyOp7
 70
     1
102
RTVSPropertyOp8
 70
     1
102
RTVSPropertyOp9
 70
     1
102
RTVSPropertyOp10
 70
     1
102
RTVSPropertyOp11
 70
     1
102
RTVSPropertyOp12
 70
     1
102
RTVSPropertyOp13
 70
     1
102
RTVSPropertyOp14
 70
     1
102
RTVSPropertyOp15
 70
     1
102
RTVSPropertyOp16
 70
     1
102
RTVSPropertyOp17
 70
     1
102
RTVSPropertyOp18
 70
     1
102
RTVSPropertyOp19
 70
     1
102
RTVSPropertyOp20
 70
     1
102
RTVSPropertyOp21
 70
     1
102
RTVSPropertyOp22
 70
     1
102
RTVSPropertyOp23
 70
     1
102
RTVSPropertyOp24
 70
     1
102
RTVSPropertyOp25
 70
     1
102
RTVSPropertyOp26
 70
     1
102
RTVSPropertyOp27
 70
     1
102
RTVSPropertyOp28
 70
     1
102
RTVSPropertyOp29
 70
     1
102
RTVSPropertyOp30
 70
     1
102
RTVSPropertyOp31
 70
     1
102
RTVSPropertyOp32
 70
     1
  0
XRECORD
  5
30F
102
{ACAD_REACTORS
330
30E
102
}
330
30E
100
AcDbXrecord
280
     1
102
RTVSPropertyOp0
 70
     1
102
RTVSPropertyOp1
 70
     1
102
RTVSPropertyOp2
 70
     1
102
RTVSPropertyOp3
 70
     1
102
RTVSPropertyOp4
 70
     1
102
RTVSPropertyOp5
 70
     1
102
RTVSPropertyOp6
 70
     1
102
RTVSPropertyOp7
 70
     1
102
RTVSPropertyOp8
 70
     1
102
RTVSPropertyOp9
 70
     1
102
RTVSPropertyOp10
 70
     1
102
RTVSPropertyOp11
 70
     1
102
RTVSPropertyOp12
 70
     1
102
RTVSPropertyOp13
 70
     1
102
RTVSPropertyOp14
 70
     1
102
RTVSPropertyOp15
 70
     1
102
RTVSPropertyOp16
 70
     1
102
RTVSPropertyOp17
 70
     1
102
RTVSPropertyOp18
 70
     1
102
RTVSPropertyOp19
 70
     1
102
RTVSPropertyOp20
 70
     1
102
RTVSPropertyOp21
 70
     1
102
RTVSPropertyOp22
 70
     1
102
RTVSPropertyOp23
 70
     1
102
RTVSPropertyOp24
 70
     1
102
RTVSPropertyOp25
 70
     1
102
RTVSPropertyOp26
 70
     1
102
RTVSPropertyOp27
 70
     1
102
RTVSPropertyOp28
 70
     1
102
RTVSPropertyOp29
 70
     1
102
RTVSPropertyOp30
 70
     1
102
RTVSPropertyOp31
 70
     1
102
RTVSPropertyOp32
 70
     1
  0
XRECORD
  5
311
102
{ACAD_REACTORS
330
310
102
}
330
310
100
AcDbXrecord
280
     1
102
RTVSPropertyOp0
 70
     1
102
RTVSPropertyOp1
 70
     1
102
RTVSPropertyOp2
 70
     1
102
RTVSPropertyOp3
 70
     1
102
RTVSPropertyOp4
 70
     1
102
RTVSPropertyOp5
 70
     1
102
RTVSPropertyOp6
 70
     1
102
RTVSPropertyOp7
 70
     1
102
RTVSPropertyOp8
 70
     1
102
RTVSPropertyOp9
 70
     1
102
RTVSPropertyOp10
 70
     1
102
RTVSPropertyOp11
 70
     1
102
RTVSPropertyOp12
 70
     1
102
RTVSPropertyOp13
 70
     1
102
RTVSPropertyOp14
 70
     1
102
RTVSPropertyOp15
 70
     1
102
RTVSPropertyOp16
 70
     1
102
RTVSPropertyOp17
 70
     1
102
RTVSPropertyOp18
 70
     1
102
RTVSPropertyOp19
 70
     1
102
RTVSPropertyOp20
 70
     1
102
RTVSPropertyOp21
 70
     1
102
RTVSPropertyOp22
 70
     1
102
RTVSPropertyOp23
 70
     1
102
RTVSPropertyOp24
 70
     1
102
RTVSPropertyOp25
 70
     1
102
RTVSPropertyOp26
 70
     1
102
RTVSPropertyOp27
 70
     1
102
RTVSPropertyOp28
 70
     1
102
RTVSPropertyOp29
 70
     1
102
RTVSPropertyOp30
 70
     1
102
RTVSPropertyOp31
 70
     1
102
RTVSPropertyOp32
 70
     1
  0
XRECORD
  5
319
102
{ACAD_REACTORS
330
318
102
}
330
318
100
AcDbXrecord
280
     1
102
RTVSPropertyOp0
 70
     1
102
RTVSPropertyOp1
 70
     1
102
RTVSPropertyOp2
 70
     1
102
RTVSPropertyOp3
 70
     1
102
RTVSPropertyOp4
 70
     1
102
RTVSPropertyOp5
 70
     1
102
RTVSPropertyOp6
 70
     1
102
RTVSPropertyOp7
 70
     1
102
RTVSPropertyOp8
 70
     1
102
RTVSPropertyOp9
 70
     1
102
RTVSPropertyOp10
 70
     1
102
RTVSPropertyOp11
 70
     1
102
RTVSPropertyOp12
 70
     1
102
RTVSPropertyOp13
 70
     1
102
RTVSPropertyOp14
 70
     1
102
RTVSPropertyOp15
 70
     1
102
RTVSPropertyOp16
 70
     1
102
RTVSPropertyOp17
 70
     1
102
RTVSPropertyOp18
 70
     1
102
RTVSPropertyOp19
 70
     1
102
RTVSPropertyOp20
 70
     1
102
RTVSPropertyOp21
 70
     1
102
RTVSPropertyOp22
 70
     1
102
RTVSPropertyOp23
 70
     1
102
RTVSPropertyOp24
 70
     1
102
RTVSPropertyOp25
 70
     1
102
RTVSPropertyOp26
 70
     1
102
RTVSPropertyOp27
 70
     1
102
RTVSPropertyOp28
 70
     1
102
RTVSPropertyOp29
 70
     1
102
RTVSPropertyOp30
 70
     1
102
RTVSPropertyOp31
 70
     1
102
RTVSPropertyOp32
 70
     1
  0
XRECORD
  5
2FD
102
{ACAD_REACTORS
330
2FC
102
}
330
2FC
100
AcDbXrecord
280
     1
102
RTVSPropertyOp0
 70
     1
102
RTVSPropertyOp1
 70
     1
102
RTVSPropertyOp2
 70
     1
102
RTVSPropertyOp3
 70
     1
102
RTVSPropertyOp4
 70
     1
102
RTVSPropertyOp5
 70
     1
102
RTVSPropertyOp6
 70
     1
102
RTVSPropertyOp7
 70
     1
102
RTVSPropertyOp8
 70
     1
102
RTVSPropertyOp9
 70
     1
102
RTVSPropertyOp10
 70
     1
102
RTVSPropertyOp11
 70
     1
102
RTVSPropertyOp12
 70
     1
102
RTVSPropertyOp13
 70
     1
102
RTVSPropertyOp14
 70
     1
102
RTVSPropertyOp15
 70
     1
102
RTVSPropertyOp16
 70
     1
102
RTVSPropertyOp17
 70
     1
102
RTVSPropertyOp18
 70
     1
102
RTVSPropertyOp19
 70
     1
102
RTVSPropertyOp20
 70
     1
102
RTVSPropertyOp21
 70
     1
102
RTVSPropertyOp22
 70
     1
102
RTVSPropertyOp23
 70
     1
102
RTVSPropertyOp24
 70
     1
102
RTVSPropertyOp25
 70
     1
102
RTVSPropertyOp26
 70
     1
102
RTVSPropertyOp27
 70
     1
102
RTVSPropertyOp28
 70
     1
102
RTVSPropertyOp29
 70
     1
102
RTVSPropertyOp30
 70
     1
102
RTVSPropertyOp31
 70
     1
102
RTVSPropertyOp32
 70
     1
  0
XRECORD
  5
2FF
102
{ACAD_REACTORS
330
2FE
102
}
330
2FE
100
AcDbXrecord
280
     1
102
RTVSPropertyOp0
 70
     1
102
RTVSPropertyOp1
 70
     1
102
RTVSPropertyOp2
 70
     1
102
RTVSPropertyOp3
 70
     1
102
RTVSPropertyOp4
 70
     1
102
RTVSPropertyOp5
 70
     1
102
RTVSPropertyOp6
 70
     1
102
RTVSPropertyOp7
 70
     1
102
RTVSPropertyOp8
 70
     1
102
RTVSPropertyOp9
 70
     1
102
RTVSPropertyOp10
 70
     1
102
RTVSPropertyOp11
 70
     1
102
RTVSPropertyOp12
 70
     1
102
RTVSPropertyOp13
 70
     1
102
RTVSPropertyOp14
 70
     1
102
RTVSPropertyOp15
 70
     1
102
RTVSPropertyOp16
 70
     1
102
RTVSPropertyOp17
 70
     1
102
RTVSPropertyOp18
 70
     1
102
RTVSPropertyOp19
 70
     1
102
RTVSPropertyOp20
 70
     1
102
RTVSPropertyOp21
 70
     1
102
RTVSPropertyOp22
 70
     1
102
RTVSPropertyOp23
 70
     1
102
RTVSPropertyOp24
 70
     1
102
RTVSPropertyOp25
 70
     1
102
RTVSPropertyOp26
 70
     1
102
RTVSPropertyOp27
 70
     1
102
RTVSPropertyOp28
 70
     1
102
RTVSPropertyOp29
 70
     1
102
RTVSPropertyOp30
 70
     1
102
RTVSPropertyOp31
 70
     1
102
RTVSPropertyOp32
 70
     1
  0
XRECORD
  5
301
102
{ACAD_REACTORS
330
300
102
}
330
300
100
AcDbXrecord
280
     1
102
RTVSPropertyOp0
 70
     1
102
RTVSPropertyOp1
 70
     1
102
RTVSPropertyOp2
 70
     1
102
RTVSPropertyOp3
 70
     1
102
RTVSPropertyOp4
 70
     1
102
RTVSPropertyOp5
 70
     1
102
RTVSPropertyOp6
 70
     1
102
RTVSPropertyOp7
 70
     1
102
RTVSPropertyOp8
 70
     1
102
RTVSPropertyOp9
 70
     1
102
RTVSPropertyOp10
 70
     1
102
RTVSPropertyOp11
 70
     1
102
RTVSPropertyOp12
 70
     1
102
RTVSPropertyOp13
 70
     1
102
RTVSPropertyOp14
 70
     1
102
RTVSPropertyOp15
 70
     1
102
RTVSPropertyOp16
 70
     1
102
RTVSPropertyOp17
 70
     1
102
RTVSPropertyOp18
 70
     1
102
RTVSPropertyOp19
 70
     1
102
RTVSPropertyOp20
 70
     1
102
RTVSPropertyOp21
 70
     1
102
RTVSPropertyOp22
 70
     1
102
RTVSPropertyOp23
 70
     1
102
RTVSPropertyOp24
 70
     1
102
RTVSPropertyOp25
 70
     1
102
RTVSPropertyOp26
 70
     1
102
RTVSPropertyOp27
 70
     1
102
RTVSPropertyOp28
 70
     1
102
RTVSPropertyOp29
 70
     1
102
RTVSPropertyOp30
 70
     1
102
RTVSPropertyOp31
 70
     1
102
RTVSPropertyOp32
 70
     1
  0
XRECORD
  5
303
102
{ACAD_REACTORS
330
302
102
}
330
302
100
AcDbXrecord
280
     1
102
RTVSPropertyOp0
 70
     1
102
RTVSPropertyOp1
 70
     1
102
RTVSPropertyOp2
 70
     1
102
RTVSPropertyOp3
 70
     1
102
RTVSPropertyOp4
 70
     1
102
RTVSPropertyOp5
 70
     1
102
RTVSPropertyOp6
 70
     1
102
RTVSPropertyOp7
 70
     1
102
RTVSPropertyOp8
 70
     1
102
RTVSPropertyOp9
 70
     1
102
RTVSPropertyOp10
 70
     1
102
RTVSPropertyOp11
 70
     1
102
RTVSPropertyOp12
 70
     1
102
RTVSPropertyOp13
 70
     1
102
RTVSPropertyOp14
 70
     1
102
RTVSPropertyOp15
 70
     1
102
RTVSPropertyOp16
 70
     1
102
RTVSPropertyOp17
 70
     1
102
RTVSPropertyOp18
 70
     1
102
RTVSPropertyOp19
 70
     1
102
RTVSPropertyOp20
 70
     1
102
RTVSPropertyOp21
 70
     1
102
RTVSPropertyOp22
 70
     1
102
RTVSPropertyOp23
 70
     1
102
RTVSPropertyOp24
 70
     1
102
RTVSPropertyOp25
 70
     1
102
RTVSPropertyOp26
 70
     1
102
RTVSPropertyOp27
 70
     1
102
RTVSPropertyOp28
 70
     1
102
RTVSPropertyOp29
 70
     1
102
RTVSPropertyOp30
 70
     1
102
RTVSPropertyOp31
 70
     1
102
RTVSPropertyOp32
 70
     1
  0
XRECORD
  5
317
102
{ACAD_REACTORS
330
316
102
}
330
316
100
AcDbXrecord
280
     1
102
RTVSPropertyOp0
 70
     1
102
RTVSPropertyOp1
 70
     1
102
RTVSPropertyOp2
 70
     1
102
RTVSPropertyOp3
 70
     1
102
RTVSPropertyOp4
 70
     1
102
RTVSPropertyOp5
 70
     1
102
RTVSPropertyOp6
 70
     1
102
RTVSPropertyOp7
 70
     1
102
RTVSPropertyOp8
 70
     1
102
RTVSPropertyOp9
 70
     1
102
RTVSPropertyOp10
 70
     1
102
RTVSPropertyOp11
 70
     1
102
RTVSPropertyOp12
 70
     1
102
RTVSPropertyOp13
 70
     1
102
RTVSPropertyOp14
 70
     1
102
RTVSPropertyOp15
 70
     1
102
RTVSPropertyOp16
 70
     1
102
RTVSPropertyOp17
 70
     1
102
RTVSPropertyOp18
 70
     1
102
RTVSPropertyOp19
 70
     1
102
RTVSPropertyOp20
 70
     1
102
RTVSPropertyOp21
 70
     1
102
RTVSPropertyOp22
 70
     1
102
RTVSPropertyOp23
 70
     1
102
RTVSPropertyOp24
 70
     1
102
RTVSPropertyOp25
 70
     1
102
RTVSPropertyOp26
 70
     1
102
RTVSPropertyOp27
 70
     1
102
RTVSPropertyOp28
 70
     1
102
RTVSPropertyOp29
 70
     1
102
RTVSPropertyOp30
 70
     1
102
RTVSPropertyOp31
 70
     1
102
RTVSPropertyOp32
 70
     1
  0
XRECORD
  5
30D
102
{ACAD_REACTORS
330
30C
102
}
330
30C
100
AcDbXrecord
280
     1
102
RTVSPropertyOp0
 70
     1
102
RTVSPropertyOp1
 70
     1
102
RTVSPropertyOp2
 70
     1
102
RTVSPropertyOp3
 70
     1
102
RTVSPropertyOp4
 70
     1
102
RTVSPropertyOp5
 70
     1
102
RTVSPropertyOp6
 70
     1
102
RTVSPropertyOp7
 70
     1
102
RTVSPropertyOp8
 70
     1
102
RTVSPropertyOp9
 70
     1
102
RTVSPropertyOp10
 70
     1
102
RTVSPropertyOp11
 70
     1
102
RTVSPropertyOp12
 70
     1
102
RTVSPropertyOp13
 70
     1
102
RTVSPropertyOp14
 70
     1
102
RTVSPropertyOp15
 70
     1
102
RTVSPropertyOp16
 70
     1
102
RTVSPropertyOp17
 70
     1
102
RTVSPropertyOp18
 70
     1
102
RTVSPropertyOp19
 70
     1
102
RTVSPropertyOp20
 70
     1
102
RTVSPropertyOp21
 70
     1
102
RTVSPropertyOp22
 70
     1
102
RTVSPropertyOp23
 70
     1
102
RTVSPropertyOp24
 70
     1
102
RTVSPropertyOp25
 70
     1
102
RTVSPropertyOp26
 70
     1
102
RTVSPropertyOp27
 70
     1
102
RTVSPropertyOp28
 70
     1
102
RTVSPropertyOp29
 70
     1
102
RTVSPropertyOp30
 70
     1
102
RTVSPropertyOp31
 70
     1
102
RTVSPropertyOp32
 70
     1
  0
XRECORD
  5
315
102
{ACAD_REACTORS
330
314
102
}
330
314
100
AcDbXrecord
280
     1
102
RTVSPropertyOp0
 70
     1
102
RTVSPropertyOp1
 70
     1
102
RTVSPropertyOp2
 70
     1
102
RTVSPropertyOp3
 70
     1
102
RTVSPropertyOp4
 70
     1
102
RTVSPropertyOp5
 70
     1
102
RTVSPropertyOp6
 70
     1
102
RTVSPropertyOp7
 70
     1
102
RTVSPropertyOp8
 70
     1
102
RTVSPropertyOp9
 70
     1
102
RTVSPropertyOp10
 70
     1
102
RTVSPropertyOp11
 70
     1
102
RTVSPropertyOp12
 70
     1
102
RTVSPropertyOp13
 70
     1
102
RTVSPropertyOp14
 70
     1
102
RTVSPropertyOp15
 70
     1
102
RTVSPropertyOp16
 70
     1
102
RTVSPropertyOp17
 70
     1
102
RTVSPropertyOp18
 70
     1
102
RTVSPropertyOp19
 70
     1
102
RTVSPropertyOp20
 70
     1
102
RTVSPropertyOp21
 70
     1
102
RTVSPropertyOp22
 70
     1
102
RTVSPropertyOp23
 70
     1
102
RTVSPropertyOp24
 70
     1
102
RTVSPropertyOp25
 70
     1
102
RTVSPropertyOp26
 70
     1
102
RTVSPropertyOp27
 70
     1
102
RTVSPropertyOp28
 70
     1
102
RTVSPropertyOp29
 70
     1
102
RTVSPropertyOp30
 70
     1
102
RTVSPropertyOp31
 70
     1
102
RTVSPropertyOp32
 70
     1
  0
ENDSEC
  0
EOF
