  0
SECTION
  2
HEADER
  9
$ACADVER
  1
AC1015
  9
$ACADMAINTVER
 70
     6
  9
$DWGCODEPAGE
  3
ANSI_1252
  9
$INSBASE
 10
0.0
 20
0.0
 30
0.0
  9
$EXTMIN
 10
-236.4633047509772
 20
-2.73519784223201
 30
0.0
  9
$EXTMAX
 10
60.53669524902095
 20
207.264802157768
 30
0.0
  9
$LIMMIN
 10
0.0
 20
0.0
  9
$LIMMAX
 10
12.0
 20
9.0
  9
$ORTHOMODE
 70
     0
  9
$REGENMODE
 70
     1
  9
$FILLMODE
 70
     1
  9
$QTEXTMODE
 70
     0
  9
$MIRRTEXT
 70
     1
  9
$LTSCALE
 40
1.0
  9
$ATTMODE
 70
     1
  9
$TEXTSIZE
 40
0.2
  9
$TRACEWID
 40
0.05
  9
$TEXTSTYLE
  7
Standard
  9
$CLAYER
  8
0
  9
$CELTYPE
  6
ByLayer
  9
$CECOLOR
 62
   256
  9
$CELTSCALE
 40
1.0
  9
$DISPSILH
 70
     0
  9
$DIMSCALE
 40
1.0
  9
$DIMASZ
 40
0.18
  9
$DIMEXO
 40
0.0625
  9
$DIMDLI
 40
0.38
  9
$DIMRND
 40
0.0
  9
$DIMDLE
 40
0.0
  9
$DIMEXE
 40
0.18
  9
$DIMTP
 40
0.0
  9
$DIMTM
 40
0.0
  9
$DIMTXT
 40
0.18
  9
$DIMCEN
 40
0.09
  9
$DIMTSZ
 40
0.0
  9
$DIMTOL
 70
     0
  9
$DIMLIM
 70
     0
  9
$DIMTIH
 70
     1
  9
$DIMTOH
 70
     1
  9
$DIMSE1
 70
     0
  9
$DIMSE2
 70
     0
  9
$DIMTAD
 70
     0
  9
$DIMZIN
 70
     0
  9
$DIMBLK
  1

  9
$DIMASO
 70
     1
  9
$DIMSHO
 70
     1
  9
$DIMPOST
  1

  9
$DIMAPOST
  1

  9
$DIMALT
 70
     0
  9
$DIMALTD
 70
     2
  9
$DIMALTF
 40
25.4
  9
$DIMLFAC
 40
1.0
  9
$DIMTOFL
 70
     0
  9
$DIMTVP
 40
0.0
  9
$DIMTIX
 70
     0
  9
$DIMSOXD
 70
     0
  9
$DIMSAH
 70
     0
  9
$DIMBLK1
  1

  9
$DIMBLK2
  1

  9
$DIMSTYLE
  2
Standard
  9
$DIMCLRD
 70
     0
  9
$DIMCLRE
 70
     0
  9
$DIMCLRT
 70
     0
  9
$DIMTFAC
 40
1.0
  9
$DIMGAP
 40
0.09
  9
$DIMJUST
 70
     0
  9
$DIMSD1
 70
     0
  9
$DIMSD2
 70
     0
  9
$DIMTOLJ
 70
     1
  9
$DIMTZIN
 70
     0
  9
$DIMALTZ
 70
     0
  9
$DIMALTTZ
 70
     0
  9
$DIMUPT
 70
     0
  9
$DIMDEC
 70
     4
  9
$DIMTDEC
 70
     4
  9
$DIMALTU
 70
     2
  9
$DIMALTTD
 70
     2
  9
$DIMTXSTY
  7
Standard
  9
$DIMAUNIT
 70
     0
  9
$DIMADEC
 70
     0
  9
$DIMALTRND
 40
0.0
  9
$DIMAZIN
 70
     0
  9
$DIMDSEP
 70
    46
  9
$DIMATFIT
 70
     3
  9
$DIMFRAC
 70
     0
  9
$DIMLDRBLK
  1

  9
$DIMLUNIT
 70
     2
  9
$DIMLWD
 70
    -2
  9
$DIMLWE
 70
    -2
  9
$DIMTMOVE
 70
     0
  9
$LUNITS
 70
     2
  9
$LUPREC
 70
     4
  9
$SKETCHINC
 40
0.1
  9
$FILLETRAD
 40
0.5
  9
$AUNITS
 70
     0
  9
$AUPREC
 70
     0
  9
$MENU
  1
.
  9
$ELEVATION
 40
0.0
  9
$PELEVATION
 40
0.0
  9
$THICKNESS
 40
0.0
  9
$LIMCHECK
 70
     0
  9
$CHAMFERA
 40
0.5
  9
$CHAMFERB
 40
0.5
  9
$CHAMFERC
 40
1.0
  9
$CHAMFERD
 40
0.0
  9
$SKPOLY
 70
     0
  9
$TDCREATE
 40
2456687.398725671
  9
$TDUCREATE
 40
2456687.357059005
  9
$TDUPDATE
 40
2456687.398727338
  9
$TDUUPDATE
 40
2456687.357060671
  9
$TDINDWG
 40
0.0000000116
  9
$TDUSRTIMER
 40
0.0000000116
  9
$USRTIMER
 70
     1
  9
$ANGBASE
 50
0.0
  9
$ANGDIR
 70
     0
  9
$PDMODE
 70
     0
  9
$PDSIZE
 40
0.0
  9
$PLINEWID
 40
0.0
  9
$SPLFRAME
 70
     0
  9
$SPLINETYPE
 70
     6
  9
$SPLINESEGS
 70
     8
  9
$HANDSEED
  5
441
  9
$SURFTAB1
 70
     6
  9
$SURFTAB2
 70
     6
  9
$SURFTYPE
 70
     6
  9
$SURFU
 70
     6
  9
$SURFV
 70
     6
  9
$UCSBASE
  2

  9
$UCSNAME
  2

  9
$UCSORG
 10
0.0
 20
0.0
 30
0.0
  9
$UCSXDIR
 10
1.0
 20
0.0
 30
0.0
  9
$UCSYDIR
 10
0.0
 20
1.0
 30
0.0
  9
$UCSORTHOREF
  2

  9
$UCSORTHOVIEW
 70
     0
  9
$UCSORGTOP
 10
0.0
 20
0.0
 30
0.0
  9
$UCSORGBOTTOM
 10
0.0
 20
0.0
 30
0.0
  9
$UCSORGLEFT
 10
0.0
 20
0.0
 30
0.0
  9
$UCSORGRIGHT
 10
0.0
 20
0.0
 30
0.0
  9
$UCSORGFRONT
 10
0.0
 20
0.0
 30
0.0
  9
$UCSORGBACK
 10
0.0
 20
0.0
 30
0.0
  9
$PUCSBASE
  2

  9
$PUCSNAME
  2

  9
$PUCSORG
 10
0.0
 20
0.0
 30
0.0
  9
$PUCSXDIR
 10
1.0
 20
0.0
 30
0.0
  9
$PUCSYDIR
 10
0.0
 20
1.0
 30
0.0
  9
$PUCSORTHOREF
  2

  9
$PUCSORTHOVIEW
 70
     0
  9
$PUCSORGTOP
 10
0.0
 20
0.0
 30
0.0
  9
$PUCSORGBOTTOM
 10
0.0
 20
0.0
 30
0.0
  9
$PUCSORGLEFT
 10
0.0
 20
0.0
 30
0.0
  9
$PUCSORGRIGHT
 10
0.0
 20
0.0
 30
0.0
  9
$PUCSORGFRONT
 10
0.0
 20
0.0
 30
0.0
  9
$PUCSORGBACK
 10
0.0
 20
0.0
 30
0.0
  9
$USERI1
 70
     0
  9
$USERI2
 70
     0
  9
$USERI3
 70
     0
  9
$USERI4
 70
     0
  9
$USERI5
 70
     0
  9
$USERR1
 40
18.1
  9
$USERR2
 40
0.0
  9
$USERR3
 40
0.0
  9
$USERR4
 40
0.0
  9
$USERR5
 40
0.0
  9
$WORLDVIEW
 70
     1
  9
$SHADEDGE
 70
     3
  9
$SHADEDIF
 70
    70
  9
$TILEMODE
 70
     1
  9
$MAXACTVP
 70
    64
  9
$PINSBASE
 10
0.0
 20
0.0
 30
0.0
  9
$PLIMCHECK
 70
     0
  9
$PEXTMIN
 10
1.00000000000000E+20
 20
1.00000000000000E+20
 30
1.00000000000000E+20
  9
$PEXTMAX
 10
-1.00000000000000E+20
 20
-1.00000000000000E+20
 30
-1.00000000000000E+20
  9
$PLIMMIN
 10
0.0
 20
0.0
  9
$PLIMMAX
 10
12.0
 20
9.0
  9
$UNITMODE
 70
     0
  9
$VISRETAIN
 70
     1
  9
$PLINEGEN
 70
     0
  9
$PSLTSCALE
 70
     1
  9
$TREEDEPTH
 70
  3020
  9
$CMLSTYLE
  2
Standard
  9
$CMLJUST
 70
     0
  9
$CMLSCALE
 40
1.0
  9
$PROXYGRAPHICS
 70
     1
  9
$MEASUREMENT
 70
     1
  9
$CELWEIGHT
370
    -1
  9
$ENDCAPS
280
     0
  9
$JOINSTYLE
280
     0
  9
$LWDISPLAY
290
     0
  9
$INSUNITS
 70
     4
  9
$HYPERLINKBASE
  1

  9
$STYLESHEET
  1

  9
$XEDIT
290
     1
  9
$CEPSNTYPE
380
     0
  9
$PSTYLEMODE
290
     1
  9
$FINGERPRINTGUID
  2
{B8DA2372-A789-4F9E-9E84-3053C8372947}
  9
$VERSIONGUID
  2
{FAEB1C32-E019-11D5-929B-00C0DF256EC4}
  9
$EXTNAMES
290
     1
  9
$PSVPSCALE
 40
0.0
  9
$OLESTARTUP
290
     0
  0
ENDSEC
  0
SECTION
  2
CLASSES
  0
CLASS
  1
ACDBDICTIONARYWDFLT
  2
AcDbDictionaryWithDefault
  3
ObjectDBX Classes
 90
        0
280
     0
281
     0
  0
CLASS
  1
VISUALSTYLE
  2
AcDbVisualStyle
  3
ObjectDBX Classes
 90
     4095
280
     0
281
     0
  0
CLASS
  1
MATERIAL
  2
AcDbMaterial
  3
ObjectDBX Classes
 90
     1153
280
     0
281
     0
  0
CLASS
  1
DICTIONARYVAR
  2
AcDbDictionaryVar
  3
ObjectDBX Classes
 90
        0
280
     0
281
     0
  0
CLASS
  1
ACDBPLACEHOLDER
  2
AcDbPlaceHolder
  3
ObjectDBX Classes
 90
        0
280
     0
281
     0
  0
CLASS
  1
LAYOUT
  2
AcDbLayout
  3
ObjectDBX Classes
 90
        0
280
     0
281
     0
  0
ENDSEC
  0
SECTION
  2
TABLES
  0
TABLE
  2
VPORT
  5
8
330
0
100
AcDbSymbolTable
 70
     1
  0
VPORT
  5
29
330
8
100
AcDbSymbolTableRecord
100
AcDbViewportTableRecord
  2
*Active
 70
     0
 10
0.0
 20
0.0
 11
1.0
 21
1.0
 12
-87.96330475097812
 22
102.264802157768
 13
0.0
 23
0.0
 14
0.5
 24
0.5
 15
0.5
 25
0.5
 16
0.0
 26
0.0
 36
1.0
 17
0.0
 27
0.0
 37
0.0
 40
231.0000000000001
 41
1.60267857142857
 42
50.0
 43
0.0
 44
0.0
 50
0.0
 51
0.0
 71
     0
 72
   100
 73
     1
 74
     3
 75
     0
 76
     0
 77
     0
 78
     0
281
     0
 65
     1
110
0.0
120
0.0
130
0.0
111
1.0
121
0.0
131
0.0
112
0.0
122
1.0
132
0.0
 79
     0
146
0.0
  0
ENDTAB
  0
TABLE
  2
LTYPE
  5
5
330
0
100
AcDbSymbolTable
 70
     8
  0
LTYPE
  5
14
330
5
100
AcDbSymbolTableRecord
100
AcDbLinetypeTableRecord
  2
ByBlock
 70
     0
  3

 72
    65
 73
     0
 40
0.0
  0
LTYPE
  5
15
330
5
100
AcDbSymbolTableRecord
100
AcDbLinetypeTableRecord
  2
ByLayer
 70
     0
  3

 72
    65
 73
     0
 40
0.0
  0
LTYPE
  5
16
330
5
100
AcDbSymbolTableRecord
100
AcDbLinetypeTableRecord
  2
Continuous
 70
     0
  3
Solid line
 72
    65
 73
     0
 40
0.0
  0
LTYPE
  5
3F
330
5
100
AcDbSymbolTableRecord
100
AcDbLinetypeTableRecord
  2
DASHED
 70
     0
  3
Dashed
 72
    65
 73
     2
 40
15.0
 49
7.0
 74
     0
 49
-8.0
 74
     0
  0
LTYPE
  5
40
330
5
100
AcDbSymbolTableRecord
100
AcDbLinetypeTableRecord
  2
DOTTED
 70
     0
  3
Dotted
 72
    65
 73
     2
 40
1.0
 49
0.0
 74
     0
 49
-1.0
 74
     0
  0
LTYPE
  5
41
330
5
100
AcDbSymbolTableRecord
100
AcDbLinetypeTableRecord
  2
DOT_CENTER
 70
     0
  3
Dot_Center
 72
    65
 73
     4
 40
14.0
 49
12.0
 74
     0
 49
-1.0
 74
     0
 49
0.0
 74
     0
 49
-1.0
 74
     0
  0
LTYPE
  5
42
330
5
100
AcDbSymbolTableRecord
100
AcDbLinetypeTableRecord
  2
LONG_DASHED
 70
     0
  3
Long_Dashed
 72
    65
 73
     2
 40
15.0
 49
10.0
 74
     0
 49
-5.0
 74
     0
  0
LTYPE
  5
43
330
5
100
AcDbSymbolTableRecord
100
AcDbLinetypeTableRecord
  2
DASH_CENTER
 70
     0
  3
Dash_Center
 72
    65
 73
     4
 40
14.0
 49
11.0
 74
     0
 49
-1.0
 74
     0
 49
1.0
 74
     0
 49
-1.0
 74
     0
  0
LTYPE
  5
44
330
5
100
AcDbSymbolTableRecord
100
AcDbLinetypeTableRecord
  2
PHANTOM
 70
     0
  3
Phantom
 72
    65
 73
     6
 40
13.0
 49
10.0
 74
     0
 49
-1.0
 74
     0
 49
0.0
 74
     0
 49
-1.0
 74
     0
 49
0.0
 74
     0
 49
-1.0
 74
     0
  0
LTYPE
  5
45
330
5
100
AcDbSymbolTableRecord
100
AcDbLinetypeTableRecord
  2
CENTER_DASH_DASH
 70
     0
  3
Center_Dash_Dash
 72
    65
 73
     6
 40
14.0
 49
9.0
 74
     0
 49
-1.0
 74
     0
 49
1.0
 74
     0
 49
-1.0
 74
     0
 49
1.0
 74
     0
 49
-1.0
 74
     0
  0
ENDTAB
  0
TABLE
  2
LAYER
  5
2
330
0
100
AcDbSymbolTable
 70
     2
  0
LAYER
  5
10
330
2
100
AcDbSymbolTableRecord
100
AcDbLayerTableRecord
  2
0
 70
     0
 62
     7
  6
Continuous
370
    -3
390
F
  0
LAYER
  5
46
330
2
100
AcDbSymbolTableRecord
100
AcDbLayerTableRecord
  2
1
 70
     0
 62
     7
  6
Continuous
370
    -3
390
F
  0
ENDTAB
  0
TABLE
  2
STYLE
  5
3
330
0
100
AcDbSymbolTable
 70
     9
  0
STYLE
  5
11
330
3
100
AcDbSymbolTableRecord
100
AcDbTextStyleTableRecord
  2
Standard
 70
     0
 40
0.0
 41
1.0
 50
0.0
 71
     0
 42
0.2
  3
txt
  4

  0
STYLE
  5
EE
330
3
100
AcDbSymbolTableRecord
100
AcDbTextStyleTableRecord
  2
CONVERTER_11
 70
     0
 40
0.0
 41
0.9
 50
0.0
 71
     0
 42
0.2
  3
txt.shx
  4

  0
STYLE
  5
394
330
3
100
AcDbSymbolTableRecord
100
AcDbTextStyleTableRecord
  2
CONVERTER_12
 70
     0
 40
0.0
 41
0.63
 50
0.0
 71
     0
 42
0.2
  3
txt.shx
  4

  0
STYLE
  5
397
330
3
100
AcDbSymbolTableRecord
100
AcDbTextStyleTableRecord
  2
CONVERTER_13
 70
     0
 40
0.0
 41
0.72
 50
0.0
 71
     0
 42
0.2
  3
txt.shx
  4

  0
STYLE
  5
39B
330
3
100
AcDbSymbolTableRecord
100
AcDbTextStyleTableRecord
  2
CONVERTER_14
 70
     0
 40
0.0
 41
0.765
 50
0.0
 71
     0
 42
0.2
  3
txt.shx
  4

  0
STYLE
  5
3D3
330
3
100
AcDbSymbolTableRecord
100
AcDbTextStyleTableRecord
  2
CONVERTER_15
 70
     0
 40
0.0
 41
0.855
 50
0.0
 71
     0
 42
0.2
  3
txt.shx
  4

  0
STYLE
  5
3EF
330
3
100
AcDbSymbolTableRecord
100
AcDbTextStyleTableRecord
  2
CONVERTER_16
 70
     0
 40
0.0
 41
0.54
 50
0.0
 71
     0
 42
0.2
  3
txt.shx
  4

  0
STYLE
  5
3F1
330
3
100
AcDbSymbolTableRecord
100
AcDbTextStyleTableRecord
  2
CONVERTER_17
 70
     0
 40
0.0
 41
0.81
 50
0.0
 71
     0
 42
0.2
  3
txt.shx
  4

  0
STYLE
  5
3F8
330
3
100
AcDbSymbolTableRecord
100
AcDbTextStyleTableRecord
  2
CONVERTER_18
 70
     0
 40
0.0
 41
0.45
 50
0.0
 71
     0
 42
0.2
  3
txt.shx
  4

  0
ENDTAB
  0
TABLE
  2
VIEW
  5
6
330
0
100
AcDbSymbolTable
 70
     0
  0
ENDTAB
  0
TABLE
  2
UCS
  5
7
330
0
100
AcDbSymbolTable
 70
     0
  0
ENDTAB
  0
TABLE
  2
APPID
  5
9
330
0
100
AcDbSymbolTable
 70
     1
  0
APPID
  5
12
330
9
100
AcDbSymbolTableRecord
100
AcDbRegAppTableRecord
  2
ACAD
 70
     0
  0
ENDTAB
  0
TABLE
  2
DIMSTYLE
  5
A
330
0
100
AcDbSymbolTable
 70
     5
100
AcDbDimStyleTable
  0
DIMSTYLE
105
27
330
A
100
AcDbSymbolTableRecord
100
AcDbDimStyleTableRecord
  2
Standard
 70
     0
178
     0
340
11
  0
DIMSTYLE
105
18D
102
{ACAD_REACTORS
330
18E
102
}
330
A
100
AcDbSymbolTableRecord
100
AcDbDimStyleTableRecord
  2
ME10_DIM_10
 70
     0
 41
3.5
 42
0.0
 44
2.0
 73
     0
 74
     0
 77
     1
 78
     8
140
3.5
147
2.0
172
     1
173
     1
174
     1
175
     1
176
     2
177
     2
178
     3
340
EE
  0
DIMSTYLE
105
1FF
102
{ACAD_REACTORS
330
200
102
}
330
A
100
AcDbSymbolTableRecord
100
AcDbDimStyleTableRecord
  2
ME10_DIM_11
 70
     0
 41
3.5
 42
0.0
 44
2.0
 73
     0
 74
     0
 77
     1
 78
     8
140
3.5
147
2.0
172
     1
173
     1
174
     1
175
     1
176
     2
177
     2
271
     0
178
     3
271
     0
340
EE
  0
DIMSTYLE
105
20A
102
{ACAD_REACTORS
330
20B
102
}
330
A
100
AcDbSymbolTableRecord
100
AcDbDimStyleTableRecord
  2
ME10_DIM_12
 70
     0
 41
3.5
 42
0.0
 44
2.0
 73
     0
 74
     0
 77
     1
 78
     8
140
3.5
147
2.0
172
     1
173
     1
174
     1
175
     1
176
     2
177
     2
271
     0
178
     3
271
     0
340
EE
  0
DIMSTYLE
105
215
102
{ACAD_REACTORS
330
216
102
}
330
A
100
AcDbSymbolTableRecord
100
AcDbDimStyleTableRecord
  2
ME10_DIM_13
 70
     0
 41
3.5
 42
0.0
 44
2.0
 73
     0
 74
     0
 77
     1
 78
     8
140
3.5
147
2.0
172
     1
173
     1
174
     1
175
     1
176
     2
177
     2
271
     0
178
     3
271
     0
340
EE
  0
ENDTAB
  0
TABLE
  2
BLOCK_RECORD
  5
1
330
0
100
AcDbSymbolTable
 70
    20
  0
BLOCK_RECORD
  5
1F
330
1
100
AcDbSymbolTableRecord
100
AcDbBlockTableRecord
  2
*Model_Space
340
22
  0
BLOCK_RECORD
  5
1B
330
1
100
AcDbSymbolTableRecord
100
AcDbBlockTableRecord
  2
*Paper_Space
340
1E
  0
BLOCK_RECORD
  5
23
330
1
100
AcDbSymbolTableRecord
100
AcDbBlockTableRecord
  2
*Paper_Space0
340
26
  0
BLOCK_RECORD
  5
47
330
1
100
AcDbSymbolTableRecord
100
AcDbBlockTableRecord
  2
0735032_DFK_WW_1x1-select__1
340
0
102
{BLKREFS
331
4B
102
}
  0
BLOCK_RECORD
  5
4A
330
1
100
AcDbSymbolTableRecord
100
AcDbBlockTableRecord
  2
AllgSicht1
340
0
102
{BLKREFS
331
7C
102
}
  0
BLOCK_RECORD
  5
4E
330
1
100
AcDbSymbolTableRecord
100
AcDbBlockTableRecord
  2
0735032_DFK_WW_1x1-select__2
340
0
102
{BLKREFS
331
52
102
}
  0
BLOCK_RECORD
  5
51
330
1
100
AcDbSymbolTableRecord
100
AcDbBlockTableRecord
  2
Drfsicht1
340
0
102
{BLKREFS
331
7D
102
}
  0
BLOCK_RECORD
  5
55
330
1
100
AcDbSymbolTableRecord
100
AcDbBlockTableRecord
  2
0735032_DFK_WW_1x1-select__3
340
0
102
{BLKREFS
331
59
102
}
  0
BLOCK_RECORD
  5
58
330
1
100
AcDbSymbolTableRecord
100
AcDbBlockTableRecord
  2
Rckans1
340
0
102
{BLKREFS
331
7E
102
}
  0
BLOCK_RECORD
  5
5C
330
1
100
AcDbSymbolTableRecord
100
AcDbBlockTableRecord
  2
0735032_DFK_WW_1x1-select__4
340
0
102
{BLKREFS
331
60
102
}
  0
BLOCK_RECORD
  5
5F
330
1
100
AcDbSymbolTableRecord
100
AcDbBlockTableRecord
  2
SA_Links1
340
0
102
{BLKREFS
331
7F
102
}
  0
BLOCK_RECORD
  5
63
330
1
100
AcDbSymbolTableRecord
100
AcDbBlockTableRecord
  2
0735032_DFK_WW_1x1-select__5
340
0
102
{BLKREFS
331
67
102
}
  0
BLOCK_RECORD
  5
66
330
1
100
AcDbSymbolTableRecord
100
AcDbBlockTableRecord
  2
SA_Rechts1
340
0
102
{BLKREFS
331
80
102
}
  0
BLOCK_RECORD
  5
6A
330
1
100
AcDbSymbolTableRecord
100
AcDbBlockTableRecord
  2
0735032_DFK_WW_1x1-select__6
340
0
102
{BLKREFS
331
6E
102
}
  0
BLOCK_RECORD
  5
6D
330
1
100
AcDbSymbolTableRecord
100
AcDbBlockTableRecord
  2
Vordans1
340
0
102
{BLKREFS
331
81
102
}
  0
BLOCK_RECORD
  5
71
330
1
100
AcDbSymbolTableRecord
100
AcDbBlockTableRecord
  2
_punkt
340
0
102
{BLKREFS
331
78
102
}
  0
BLOCK_RECORD
  5
74
330
1
100
AcDbSymbolTableRecord
100
AcDbBlockTableRecord
  2
_rahmen
340
0
102
{BLKREFS
331
79
102
}
  0
BLOCK_RECORD
  5
77
330
1
100
AcDbSymbolTableRecord
100
AcDbBlockTableRecord
  2
A4I
340
0
102
{BLKREFS
331
82
102
}
  0
BLOCK_RECORD
  5
182
330
1
100
AcDbSymbolTableRecord
100
AcDbBlockTableRecord
  2
*D16
340
0
  0
BLOCK_RECORD
  5
1F6
330
1
100
AcDbSymbolTableRecord
100
AcDbBlockTableRecord
  2
*D17
340
0
  0
BLOCK_RECORD
  5
201
330
1
100
AcDbSymbolTableRecord
100
AcDbBlockTableRecord
  2
*D18
340
0
  0
BLOCK_RECORD
  5
20C
330
1
100
AcDbSymbolTableRecord
100
AcDbBlockTableRecord
  2
*D19
340
0
  0
ENDTAB
  0
ENDSEC
  0
SECTION
  2
BLOCKS
  0
BLOCK
  5
20
330
1F
100
AcDbEntity
  8
0
100
AcDbBlockBegin
  2
*Model_Space
 70
     0
 10
0.0
 20
0.0
 30
0.0
  3
*Model_Space
  1

  0
ENDBLK
  5
21
330
1F
100
AcDbEntity
  8
0
100
AcDbBlockEnd
  0
BLOCK
  5
1C
330
1B
100
AcDbEntity
 67
     1
  8
0
100
AcDbBlockBegin
  2
*Paper_Space
 70
     0
 10
0.0
 20
0.0
 30
0.0
  3
*Paper_Space
  1

  0
ENDBLK
  5
1D
330
1B
100
AcDbEntity
 67
     1
  8
0
100
AcDbBlockEnd
  0
BLOCK
  5
24
330
23
100
AcDbEntity
  8
0
100
AcDbBlockBegin
  2
*Paper_Space0
 70
     0
 10
0.0
 20
0.0
 30
0.0
  3
*Paper_Space0
  1

  0
ENDBLK
  5
25
330
23
100
AcDbEntity
  8
0
100
AcDbBlockEnd
  0
BLOCK
  5
48
330
47
100
AcDbEntity
  8
0
100
AcDbBlockBegin
  2
0735032_DFK_WW_1x1-select__1
 70
     0
 10
6.22615664500627
 20
47.57789407275578
 30
0.0
  3
0735032_DFK_WW_1x1-select__1
  1

  0
LINE
  5
83
330
47
100
AcDbEntity
  8
0
  6
Continuous
 62
     7
100
AcDbLine
 10
10.14786791532895
 20
95.65291964604049
 30
0.0
 11
7.19786791532894
 21
93.09814470487638
 31
0.0
  0
LINE
  5
84
330
47
100
AcDbEntity
  8
0
  6
Continuous
 62
     7
100
AcDbLine
 10
6.22615664500627
 20
76.22500536614622
 30
0.0
 11
6.22615664500627
 21
78.02633820601784
 31
0.0
  0
LINE
  5
85
330
47
100
AcDbEntity
  8
0
  6
Continuous
 62
     7
100
AcDbLine
 10
6.22615664500627
 20
78.02633820601784
 30
0.0
 11
7.09218204879072
 21
77.77633820601784
 31
0.0
  0
LINE
  5
86
330
47
100
AcDbEntity
  8
0
  6
Continuous
 62
     7
100
AcDbLine
 10
6.81051553633073
 20
73.42262612753638
 30
0.0
 11
7.52519475068294
 21
73.4078137274742
 31
0.0
  0
LINE
  5
87
330
47
100
AcDbEntity
  8
0
  6
Continuous
 62
     7
100
AcDbLine
 10
7.52519475068294
 20
74.04155648272207
 30
0.0
 11
6.81051553633073
 21
73.42262612753638
 31
0.0
  0
LINE
  5
88
330
47
100
AcDbEntity
  8
0
  6
Continuous
 62
     7
100
AcDbLine
 10
24.58948504372266
 20
72.86963947620704
 30
0.0
 11
26.83948504372266
 21
74.81819663472203
 31
0.0
  0
LINE
  5
89
330
47
100
AcDbEntity
  8
0
  6
Continuous
 62
     7
100
AcDbLine
 10
27.08379917718443
 20
73.5693029473607
 30
0.0
 11
24.13379917718443
 21
71.0145280061966
 31
0.0
  0
LINE
  5
8A
330
47
100
AcDbEntity
  8
0
  6
Continuous
 62
     2
100
AcDbLine
 10
27.18948504372266
 20
73.82226742036993
 30
0.0
 11
24.23948504372266
 21
71.26749247920583
 31
0.0
  0
LINE
  5
8B
330
47
100
AcDbEntity
  8
0
  6
Continuous
 62
     7
100
AcDbLine
 10
24.53885487430694
 20
85.04277345906738
 30
0.0
 11
21.58885487430693
 21
82.48799851790326
 31
0.0
  0
LINE
  5
8C
330
47
100
AcDbEntity
  8
0
  6
Continuous
 62
     7
100
AcDbLine
 10
18.47870864161832
 20
90.85721124079188
 30
0.0
 11
13.32756495603872
 21
92.34421833754381
 31
0.0
  0
LINE
  5
8D
330
47
100
AcDbEntity
  8
0
  6
Continuous
 62
     2
100
AcDbLine
 10
22.52020645373622
 20
91.5380774793933
 30
0.0
 11
19.57020645373626
 21
88.98330253822922
 31
0.0
  0
LINE
  5
8E
330
47
100
AcDbEntity
  8
0
  6
Continuous
 62
     2
100
AcDbLine
 10
22.5421702490728
 20
90.57121924103882
 30
0.0
 11
19.5921702490728
 21
88.0164442998747
 31
0.0
  0
LINE
  5
8F
330
47
100
AcDbEntity
  8
0
  6
Continuous
 62
     2
100
AcDbLine
 10
21.89055081807115
 20
89.73175033125764
 30
0.0
 11
18.94055081807115
 21
87.17697539009355
 31
0.0
  0
LINE
  5
90
330
47
100
AcDbEntity
  8
0
  6
Continuous
 62
     7
100
AcDbLine
 10
22.80528958154153
 20
86.67001944442463
 30
0.0
 11
24.01657143309267
 21
84.59046273099985
 31
0.0
  0
LINE
  5
91
330
47
100
AcDbEntity
  8
0
  6
Continuous
 62
     7
100
AcDbLine
 10
21.61987479305327
 20
82.26346176509684
 30
0.0
 11
21.1639061339364
 21
81.8685813229721
 31
0.0
  0
LINE
  5
92
330
47
100
AcDbEntity
  8
0
  6
Continuous
 62
     7
100
AcDbLine
 10
24.56254316017978
 20
85.05730420551534
 30
0.0
 11
21.61254316017976
 21
82.50252926435128
 31
0.0
  0
LINE
  5
93
330
47
100
AcDbEntity
  8
0
  6
Continuous
 62
     7
100
AcDbLine
 10
24.60920197746205
 20
85.06430710759335
 30
0.0
 11
21.65920197746205
 21
82.50953216642927
 31
0.0
  0
LINE
  5
94
330
47
100
AcDbEntity
  8
0
  6
Continuous
 62
     7
100
AcDbLine
 10
24.23948504372295
 20
80.96697700159166
 30
0.0
 11
24.23948504372266
 21
71.26749247920583
 31
0.0
  0
LINE
  5
95
330
47
100
AcDbEntity
  8
0
  6
Continuous
 62
     7
100
AcDbLine
 10
21.1639061339364
 20
81.8685813229721
 30
0.0
 11
21.71724318827161
 21
82.09629745095162
 31
0.0
  0
LINE
  5
96
330
47
100
AcDbEntity
  8
0
  6
Continuous
 62
     7
100
AcDbLine
 10
21.31401688917222
 20
89.2302709127285
 30
0.0
 11
22.30083519208032
 21
87.53607841400081
 31
0.0
  0
LINE
  5
97
330
47
100
AcDbEntity
  8
0
  6
Continuous
 62
     7
100
AcDbLine
 10
7.52519475068294
 20
75.56816162274332
 30
0.0
 11
7.52046278787669
 21
75.5742432369352
 31
0.0
  0
LINE
  5
98
330
47
100
AcDbEntity
  8
0
  6
Continuous
 62
     7
100
AcDbLine
 10
7.52519475068294
 20
73.4078137274742
 30
0.0
 11
7.52519475068294
 21
75.56816162274332
 31
0.0
  0
LINE
  5
99
330
47
100
AcDbEntity
  8
0
  6
Continuous
 62
     7
100
AcDbLine
 10
22.5421702490728
 20
90.57121924103882
 30
0.0
 11
21.89055081807115
 21
89.73175033125764
 31
0.0
  0
LINE
  5
9A
330
47
100
AcDbEntity
  8
0
  6
Continuous
 62
     7
100
AcDbLine
 10
21.42870864161832
 20
93.41198618195598
 30
0.0
 11
22.52020645373622
 21
91.5380774793933
 31
0.0
  0
LINE
  5
9B
330
47
100
AcDbEntity
  8
0
  6
Continuous
 62
     7
100
AcDbLine
 10
24.60920197746205
 20
85.06430710759335
 30
0.0
 11
25.79767381590433
 21
84.98209538079735
 31
0.0
  0
LINE
  5
9C
330
47
100
AcDbEntity
  8
0
  6
Continuous
 62
     7
100
AcDbLine
 10
24.33160121123395
 20
71.18582959260372
 30
0.0
 11
24.33160121123395
 21
69.71092261879865
 31
0.0
  0
LINE
  5
9D
330
47
100
AcDbEntity
  8
0
  6
Continuous
 62
     7
100
AcDbLine
 10
13.67397511755247
 20
67.21608416817345
 30
0.0
 11
8.50697613582048
 21
68.70766829467667
 31
0.0
  0
LINE
  5
9E
330
47
100
AcDbEntity
  8
0
  6
Continuous
 62
     2
100
AcDbLine
 10
24.33160121123395
 20
69.71092261879865
 30
0.0
 11
21.38160121123396
 21
67.15614767763455
 31
0.0
  0
LINE
  5
9F
330
47
100
AcDbEntity
  8
0
  6
Continuous
 62
     7
100
AcDbLine
 10
23.59180014546634
 20
67.94017130773406
 30
0.0
 11
20.64180014546634
 21
65.38539636656996
 31
0.0
  0
LINE
  5
A0
330
47
100
AcDbEntity
  8
0
  6
Continuous
 62
     7
100
AcDbLine
 10
6.81051553633073
 20
73.42262612753638
 30
0.0
 11
8.08871798395205
 21
69.14934979083344
 31
0.0
  0
LINE
  5
A1
330
47
100
AcDbEntity
  8
0
  6
Continuous
 62
     7
100
AcDbLine
 10
21.38160121123396
 20
71.65947977731362
 30
0.0
 11
23.80647234183044
 21
70.9594797773136
 31
0.0
  0
LINE
  5
A2
330
47
100
AcDbEntity
  8
0
  6
Continuous
 62
     7
100
AcDbLine
 10
27.18948504372266
 20
73.82226742036993
 30
0.0
 11
27.18948504372295
 21
83.52175194275576
 31
0.0
  0
LINE
  5
A3
330
47
100
AcDbEntity
  8
0
  6
Continuous
 62
     7
100
AcDbLine
 10
14.10698781944469
 20
66.225058764389
 30
0.0
 11
18.35051229798842
 21
65.00005876438901
 31
0.0
  0
LINE
  5
A4
330
47
100
AcDbEntity
  8
0
  6
Continuous
 62
     7
100
AcDbLine
 10
14.92266114547107
 20
65.98959415721295
 30
0.0
 11
14.92266114547107
 21
48.010906774648
 31
0.0
  0
LINE
  5
A5
330
47
100
AcDbEntity
  8
0
  6
Continuous
 62
     7
100
AcDbLine
 10
14.92266114547107
 20
48.010906774648
 30
0.0
 11
14.42266114547107
 21
47.57789407275578
 31
0.0
  0
LINE
  5
A6
330
47
100
AcDbEntity
  8
0
  6
Continuous
 62
     7
100
AcDbLine
 10
14.42266114547107
 20
66.13393172451035
 30
0.0
 11
14.42266114547107
 21
47.57789407275578
 31
0.0
  0
LINE
  5
A7
330
47
100
AcDbEntity
  8
0
  6
Continuous
 62
     7
100
AcDbLine
 10
13.67397511755247
 20
67.21608416817345
 30
0.0
 11
13.67397511755247
 21
66.78307146628123
 31
0.0
  0
LINE
  5
A8
330
47
100
AcDbEntity
  8
0
  6
Continuous
 62
     7
100
AcDbLine
 10
13.55663574168663
 20
67.2499571282948
 30
0.0
 11
13.55663574168663
 21
47.82789407275578
 31
0.0
  0
LINE
  5
A9
330
47
100
AcDbEntity
  8
0
  6
Continuous
 62
     7
100
AcDbLine
 10
13.55663574168663
 20
47.82789407275578
 30
0.0
 11
14.42266114547107
 21
47.57789407275578
 31
0.0
  0
LINE
  5
AA
330
47
100
AcDbEntity
  8
0
  6
Continuous
 62
     7
100
AcDbLine
 10
7.52046278787669
 20
75.5742432369352
 30
0.0
 11
6.22615664500627
 21
76.22500536614622
 31
0.0
  0
LINE
  5
AB
330
47
100
AcDbEntity
  8
0
  6
Continuous
 62
     2
100
AcDbLine
 10
26.69275327883055
 20
84.3745525317597
 30
0.0
 11
23.74275327883054
 21
81.81977759059562
 31
0.0
  0
LINE
  5
AC
330
47
100
AcDbEntity
  8
0
  6
Continuous
 62
     7
100
AcDbLine
 10
26.69275327883055
 20
84.3745525317597
 30
0.0
 11
27.18948504372295
 21
83.52175194275576
 31
0.0
  0
LINE
  5
AD
330
47
100
AcDbEntity
  8
0
  6
Continuous
 62
     7
100
AcDbLine
 10
26.83948504372266
 20
74.81819663472203
 30
0.0
 11
26.83948504372295
 21
83.2186430514312
 31
0.0
  0
LINE
  5
AE
330
47
100
AcDbEntity
  8
0
  6
Continuous
 62
     7
100
AcDbLine
 10
27.18948504372295
 20
83.52175194275576
 30
0.0
 11
26.83948504372295
 21
83.2186430514312
 31
0.0
  0
LINE
  5
AF
330
47
100
AcDbEntity
  8
0
  6
Continuous
 62
     7
100
AcDbLine
 10
23.74275327883054
 20
81.81977759059562
 30
0.0
 11
24.23948504372295
 21
80.96697700159166
 31
0.0
  0
LINE
  5
B0
330
47
100
AcDbEntity
  8
0
  6
Continuous
 62
     7
100
AcDbLine
 10
26.83948504372295
 20
83.2186430514312
 30
0.0
 11
24.58948504372295
 21
81.27008589291621
 31
0.0
  0
LINE
  5
B1
330
47
100
AcDbEntity
  8
0
  6
Continuous
 62
     7
100
AcDbLine
 10
26.83948504372266
 20
74.81819663472203
 30
0.0
 11
24.58948504372266
 21
75.76432585705189
 31
0.0
  0
LINE
  5
B2
330
47
100
AcDbEntity
  8
0
  6
Continuous
 62
     7
100
AcDbLine
 10
21.71724318827161
 20
82.09629745095162
 30
0.0
 11
21.58064195292586
 21
82.33081761292775
 31
0.0
  0
LINE
  5
B3
330
47
100
AcDbEntity
  8
0
  6
Continuous
 62
     7
100
AcDbLine
 10
6.22615664500627
 20
78.02633820601784
 30
0.0
 11
7.09218204879071
 21
78.77633820601784
 31
0.0
  0
LINE
  5
B4
330
47
100
AcDbEntity
  8
0
  6
Continuous
 62
     7
100
AcDbLine
 10
7.09218204879072
 20
92.84518023186715
 30
0.0
 11
7.09218204879072
 21
77.77633820601784
 31
0.0
  0
LINE
  5
B5
330
47
100
AcDbEntity
  8
0
  6
Continuous
 62
     7
100
AcDbLine
 10
12.89455225414649
 20
91.60319293375937
 30
0.0
 11
7.52519475068294
 21
93.15319293375939
 31
0.0
  0
LINE
  5
B6
330
47
100
AcDbEntity
  8
0
  6
Continuous
 62
     7
100
AcDbLine
 10
21.42870864161832
 20
93.41198618195598
 30
0.0
 11
16.27756495603872
 21
94.8989932787079
 31
0.0
  0
LINE
  5
B7
330
47
100
AcDbEntity
  8
0
  6
Continuous
 62
     2
100
AcDbLine
 10
25.79767381590433
 20
84.98209538079735
 30
0.0
 11
22.84767381590434
 21
82.42732043963323
 31
0.0
  0
LINE
  5
B8
330
47
100
AcDbEntity
  8
0
  6
Continuous
 62
     7
100
AcDbLine
 10
24.58948504372266
 20
72.86963947620704
 30
0.0
 11
24.58948504372295
 21
81.27008589291621
 31
0.0
  0
LINE
  5
B9
330
47
100
AcDbEntity
  8
0
  6
Continuous
 62
     7
100
AcDbLine
 10
24.58948504372295
 20
81.27008589291621
 30
0.0
 11
24.23948504372295
 21
80.96697700159166
 31
0.0
  0
LINE
  5
BA
330
47
100
AcDbEntity
  8
0
  6
Continuous
 62
     2
100
AcDbLine
 10
10.47519475068293
 20
95.70796787492347
 30
0.0
 11
7.52519475068294
 21
93.15319293375939
 31
0.0
  0
LINE
  5
BB
330
47
100
AcDbEntity
  8
0
  6
Continuous
 62
     7
100
AcDbLine
 10
15.32974299416923
 20
94.30658050733805
 30
0.0
 11
10.47519475068293
 21
95.70796787492347
 31
0.0
  0
LINE
  5
BC
330
47
100
AcDbEntity
  8
0
  6
Continuous
 62
     7
100
AcDbLine
 10
12.8945522541465
 20
92.03620563565158
 30
0.0
 11
12.89455225414649
 21
91.60319293375937
 31
0.0
  0
LINE
  5
BD
330
47
100
AcDbEntity
  8
0
  6
Continuous
 62
     7
100
AcDbLine
 10
15.95023812068473
 20
94.8439450498249
 30
0.0
 11
13.00023812068473
 21
92.28917010866081
 31
0.0
  0
LINE
  5
BE
330
47
100
AcDbEntity
  8
0
  6
Continuous
 62
     2
100
AcDbLine
 10
16.27756495603872
 20
94.8989932787079
 30
0.0
 11
13.32756495603872
 21
92.34421833754381
 31
0.0
  0
LINE
  5
BF
330
47
100
AcDbEntity
  8
0
  6
Continuous
 62
     7
100
AcDbLine
 10
21.42870864161832
 20
93.41198618195598
 30
0.0
 11
18.47870864161832
 21
90.85721124079188
 31
0.0
  0
LINE
  5
C0
330
47
100
AcDbEntity
  8
0
  6
Continuous
 62
     7
100
AcDbLine
 10
21.8790433273898
 20
89.71959816203477
 30
0.0
 11
18.92904332738981
 21
87.16482322087067
 31
0.0
  0
LINE
  5
C1
330
47
100
AcDbEntity
  8
0
  6
Continuous
 62
     7
100
AcDbLine
 10
18.03449601511635
 20
87.24122503369718
 30
0.0
 11
19.35083519208031
 21
84.98130347283671
 31
0.0
  0
LINE
  5
C2
330
47
100
AcDbEntity
  8
0
  6
Continuous
 62
     7
100
AcDbLine
 10
22.8765279098803
 20
86.73171364648913
 30
0.0
 11
19.92652790988029
 21
84.17693870532503
 31
0.0
  0
LINE
  5
C3
330
47
100
AcDbEntity
  8
0
  6
Continuous
 62
     7
100
AcDbLine
 10
22.30083519208032
 20
87.53607841400081
 30
0.0
 11
19.35083519208031
 21
84.98130347283671
 31
0.0
  0
LINE
  5
C4
330
47
100
AcDbEntity
  8
0
  6
Continuous
 62
     7
100
AcDbLine
 10
19.84756695697243
 20
84.12850288383262
 30
0.0
 11
21.1639061339364
 21
81.8685813229721
 31
0.0
  0
LINE
  5
C5
330
47
100
AcDbEntity
  8
0
  6
Continuous
 62
     7
100
AcDbLine
 10
21.65920197746205
 20
82.50953216642927
 30
0.0
 11
22.84767381590434
 21
82.42732043963323
 31
0.0
  0
LINE
  5
C6
330
47
100
AcDbEntity
  8
0
  6
Continuous
 62
     7
100
AcDbLine
 10
21.38160121123396
 20
71.65947977731362
 30
0.0
 11
21.38160121123396
 21
67.15614767763455
 31
0.0
  0
LINE
  5
C7
330
47
100
AcDbEntity
  8
0
  6
Continuous
 62
     7
100
AcDbLine
 10
18.72443430479609
 20
87.23442099970029
 30
0.0
 11
18.58783306945068
 21
87.46894116167675
 31
0.0
  0
LINE
  5
C8
330
47
100
AcDbEntity
  8
0
  6
Continuous
 62
     7
100
AcDbLine
 10
19.5921702490728
 20
88.0164442998747
 30
0.0
 11
18.94055081807115
 21
87.17697539009355
 31
0.0
  0
LINE
  5
C9
330
47
100
AcDbEntity
  8
0
  6
Continuous
 62
     7
100
AcDbLine
 10
18.47870864161832
 20
90.85721124079188
 30
0.0
 11
19.57020645373626
 21
88.98330253822922
 31
0.0
  0
LINE
  5
CA
330
47
100
AcDbEntity
  8
0
  6
Continuous
 62
     7
100
AcDbLine
 10
18.58783306945068
 20
87.46894116167675
 30
0.0
 11
18.03449601511635
 21
87.24122503369718
 31
0.0
  0
SPLINE
  5
CB
330
47
100
AcDbEntity
  8
0
  6
Continuous
 62
     7
100
AcDbSpline
210
0.0
220
0.0
230
1.0
 70
     8
 71
     3
 72
     9
 73
     5
 74
     3
 42
0.000000001
 43
0.0000000001
 44
0.00000001
 40
0.0
 40
0.0
 40
0.0
 40
0.0
 40
0.1347351597551075
 40
0.280698468389796
 40
0.280698468389796
 40
0.280698468389796
 40
0.280698468389796
 10
27.08379917718443
 20
73.5693029473607
 30
0.0
 10
27.11419166088556
 20
73.60400441365078
 30
0.0
 10
27.17750936795917
 20
73.6762992010747
 30
0.0
 10
27.18538810633994
 20
73.77233089868135
 30
0.0
 10
27.18948504372266
 20
73.82226742036993
 30
0.0
 11
27.08379917718443
 21
73.5693029473607
 31
0.0
 11
27.16220350300162
 21
73.6788763270947
 31
0.0
 11
27.18948504372266
 21
73.82226742036993
 31
0.0
  0
SPLINE
  5
CC
330
47
100
AcDbEntity
  8
0
  6
Continuous
 62
     7
100
AcDbSpline
210
0.0
220
0.0
230
1.0
 70
     8
 71
     3
 72
     9
 73
     5
 74
     3
 42
0.000000001
 43
0.0000000001
 44
0.00000001
 40
0.0
 40
0.0
 40
0.0
 40
0.0
 40
0.1347351597551211
 40
0.2806984683897957
 40
0.2806984683897957
 40
0.2806984683897957
 40
0.2806984683897957
 10
24.13379917718443
 20
71.0145280061966
 30
0.0
 10
24.16419166088557
 20
71.0492294724867
 30
0.0
 10
24.22750936795915
 20
71.12152425991059
 30
0.0
 10
24.23538810633994
 20
71.21755595751726
 30
0.0
 10
24.23948504372266
 20
71.26749247920583
 30
0.0
 11
24.13379917718443
 21
71.0145280061966
 31
0.0
 11
24.21220350300162
 21
71.12410138593062
 31
0.0
 11
24.23948504372266
 21
71.26749247920583
 31
0.0
  0
SPLINE
  5
CD
330
47
100
AcDbEntity
  8
0
  6
Continuous
 62
     7
100
AcDbSpline
210
0.0
220
0.0
230
1.0
 70
     8
 71
     3
 72
    11
 73
     7
 74
     5
 42
0.000000001
 43
0.0000000001
 44
0.00000001
 40
0.0
 40
0.0
 40
0.0
 40
0.0
 40
0.2923142457933448
 40
0.5828468989025493
 40
0.8613027544292018
 40
1.120419266351324
 40
1.120419266351324
 40
1.120419266351324
 40
1.120419266351324
 10
23.74275327883054
 20
81.81977759059562
 30
0.0
 10
23.68809968056948
 20
81.90100517484231
 30
0.0
 10
23.57912557426817
 20
82.06296526955265
 30
0.0
 10
23.35684951519755
 20
82.24894698604996
 30
0.0
 10
23.11153815028241
 20
82.384441000957
 30
0.0
 10
22.93349352369956
 20
82.41337425928698
 30
0.0
 10
22.84767381590434
 20
82.42732043963323
 30
0.0
 11
23.74275327883054
 21
81.81977759059562
 31
0.0
 11
23.56836880659005
 21
82.05437868678403
 31
0.0
 11
23.34807146187662
 21
82.2437943771333
 31
0.0
 11
23.10076539992273
 21
82.3717685026308
 31
0.0
 11
22.84767381590434
 21
82.42732043963323
 31
0.0
  0
SPLINE
  5
CE
330
47
100
AcDbEntity
  8
0
  6
Continuous
 62
     7
100
AcDbSpline
210
0.0
220
0.0
230
1.0
 70
     8
 71
     3
 72
     9
 73
     5
 74
     3
 42
0.000000001
 43
0.0000000001
 44
0.00000001
 40
0.0
 40
0.0
 40
0.0
 40
0.0
 40
0.0140206581723703
 40
0.027881392611818
 40
0.027881392611818
 40
0.027881392611818
 40
0.027881392611818
 10
24.56254316017978
 20
85.05730420551534
 30
0.0
 10
24.5582760602125
 20
85.0553512270636
 30
0.0
 10
24.5497905417872
 20
85.05146752905489
 30
0.0
 10
24.54248612742732
 20
85.04566038488025
 30
0.0
 10
24.53885487430694
 20
85.04277345906738
 30
0.0
 11
24.56254316017978
 21
85.05730420551534
 31
0.0
 11
24.55004053787244
 21
85.05095886756314
 31
0.0
 11
24.53885487430694
 21
85.04277345906738
 31
0.0
  0
SPLINE
  5
CF
330
47
100
AcDbEntity
  8
0
  6
Continuous
 62
     7
100
AcDbSpline
210
0.0
220
0.0
230
1.0
 70
     8
 71
     3
 72
     9
 73
     5
 74
     3
 42
0.000000001
 43
0.0000000001
 44
0.00000001
 40
0.0
 40
0.0
 40
0.0
 40
0.0
 40
0.0243482251547188
 40
0.0474874726515421
 40
0.0474874726515421
 40
0.0474874726515421
 40
0.0474874726515421
 10
21.65920197746205
 20
82.50953216642927
 30
0.0
 10
21.65102044854424
 20
82.50968823556559
 30
0.0
 10
21.63506363521489
 20
82.50999260475132
 30
0.0
 10
21.61992148311815
 20
82.50497446537531
 30
0.0
 10
21.61254316017976
 20
82.50252926435128
 30
0.0
 11
21.65920197746205
 21
82.50953216642927
 31
0.0
 11
21.63487155867088
 21
82.50860112139962
 31
0.0
 11
21.61254316017976
 21
82.50252926435128
 31
0.0
  0
SPLINE
  5
D0
330
47
100
AcDbEntity
  8
0
  6
Continuous
 62
     7
100
AcDbSpline
210
0.0
220
0.0
230
1.0
 70
     8
 71
     3
 72
     9
 73
     5
 74
     3
 42
0.000000001
 43
0.0000000001
 44
0.00000001
 40
0.0
 40
0.0
 40
0.0
 40
0.0
 40
0.0083604311811065
 40
0.0167564732152437
 40
0.0167564732152437
 40
0.0167564732152437
 40
0.0167564732152437
 10
21.8790433273898
 20
89.71959816203477
 30
0.0
 10
21.88110683516681
 20
89.72147746065633
 30
0.0
 10
21.88524262598705
 20
89.72524407676002
 30
0.0
 10
21.8887789205503
 20
89.72957850478579
 30
0.0
 10
21.89055081807115
 20
89.73175033125764
 30
0.0
 11
21.8790433273898
 21
89.71959816203477
 31
0.0
 11
21.88508460614917
 21
89.7253774153365
 31
0.0
 11
21.89055081807115
 21
89.73175033125764
 31
0.0
  0
SPLINE
  5
D1
330
47
100
AcDbEntity
  8
0
  6
Continuous
 62
     7
100
AcDbSpline
210
0.0
220
0.0
230
1.0
 70
     8
 71
     3
 72
    11
 73
     7
 74
     5
 42
0.000000001
 43
0.0000000001
 44
0.00000001
 40
0.0
 40
0.0
 40
0.0
 40
0.0
 40
0.2268420877276394
 40
0.4715428108737656
 40
0.7374498629678992
 40
1.020829633473628
 40
1.020829633473628
 40
1.020829633473628
 40
1.020829633473628
 10
19.5921702490728
 20
88.0164442998747
 30
0.0
 10
19.6317001311664
 20
88.08190926409947
 30
0.0
 10
19.71387195783321
 20
88.21799307034993
 30
0.0
 10
19.73713594704994
 20
88.46938096369703
 30
0.0
 10
19.69537124130334
 20
88.73374542115181
 30
0.0
 10
19.61280354224882
 20
88.89837126129305
 30
0.0
 10
19.57020645373626
 20
88.98330253822922
 30
0.0
 11
19.5921702490728
 21
88.0164442998747
 31
0.0
 11
19.69518603838937
 21
88.21854596017072
 31
0.0
 11
19.72659905169646
 21
88.46122201664367
 31
0.0
 11
19.68371181073908
 21
88.72364771341717
 31
0.0
 11
19.57020645373626
 21
88.98330253822922
 31
0.0
  0
SPLINE
  5
D2
330
47
100
AcDbEntity
  8
0
  6
Continuous
 62
     7
100
AcDbSpline
210
0.0
220
0.0
230
1.0
 70
     8
 71
     3
 72
    11
 73
     7
 74
     5
 42
0.000000001
 43
0.0000000001
 44
0.00000001
 40
0.0
 40
0.0
 40
0.0
 40
0.0
 40
0.0935705952109223
 40
0.1815181363975987
 40
0.2647690944696165
 40
0.3453217744506443
 40
0.3453217744506443
 40
0.3453217744506443
 40
0.3453217744506443
 10
7.525194750682935
 20
93.15319293375939
 30
0.0
 10
7.494664443426572
 20
93.16023333407591
 30
0.0
 10
7.435438522279044
 20
93.17389103279598
 30
0.0
 10
7.34640624667256
 20
93.16941754372152
 30
0.0
 10
7.26416901115585
 20
93.14645292925817
 30
0.0
 10
7.219724237151878
 20
93.11406963768924
 30
0.0
 10
7.197867915328942
 20
93.09814470487638
 30
0.0
 11
7.525194750682935
 21
93.15319293375939
 31
0.0
 11
7.43312230954088
 21
93.16986992204005
 31
0.0
 11
7.345260822889625
 21
93.16598024784486
 31
0.0
 11
7.265628712574753
 21
93.14170166674789
 31
0.0
 11
7.197867915328942
 21
93.09814470487638
 31
0.0
  0
SPLINE
  5
D3
330
47
100
AcDbEntity
  8
0
  6
Continuous
 62
     7
100
AcDbSpline
210
0.0
220
0.0
230
1.0
 70
     8
 71
     3
 72
    17
 73
    13
 74
    11
 42
0.000000001
 43
0.0000000001
 44
0.00000001
 40
0.0
 40
0.0
 40
0.0
 40
0.0
 40
0.1090702943147368
 40
0.2244781791889514
 40
0.349779658892737
 40
0.4849246416384885
 40
0.6269607679072801
 40
0.7712100676606422
 40
0.9124842480388554
 40
1.046285869967639
 40
1.170025331838587
 40
1.284170860792874
 40
1.284170860792874
 40
1.284170860792874
 40
1.284170860792874
 10
22.8765279098803
 20
86.73171364648913
 30
0.0
 10
22.90136267695265
 20
86.75886126782423
 30
0.0
 10
22.95247523814753
 20
86.81473394651854
 30
0.0
 10
22.98463171176077
 20
86.93071024484415
 30
0.0
 10
22.98231668830108
 20
87.05704224959558
 30
0.0
 10
22.94413365611508
 20
87.18727057412563
 30
0.0
 10
22.87448794173637
 20
87.31052606293682
 30
0.0
 10
22.77876321459148
 20
87.41752549799172
 30
0.0
 10
22.66435546717446
 20
87.50018166576515
 30
0.0
 10
22.54049320682771
 20
87.55058897966157
 30
0.0
 10
22.41474023810558
 20
87.56860940589952
 30
0.0
 10
22.33776878349546
 20
87.54662655883031
 30
0.0
 10
22.30083519208032
 20
87.53607841400081
 30
0.0
 11
22.8765279098803
 21
86.73171364648913
 31
0.0
 11
22.94383746459976
 21
86.81753761778552
 31
0.0
 11
22.97829447207076
 21
86.92768159574405
 31
0.0
 11
22.97702966514817
 21
87.05297669483156
 31
0.0
 11
22.94014913868933
 21
87.18299205358034
 31
0.0
 11
22.87072237808781
 21
87.30690406335961
 31
0.0
 11
22.77452972847468
 21
87.41439747920714
 31
0.0
 11
22.65957857919697
 21
87.49652315816586
 31
0.0
 11
22.53543876339337
 21
87.5464449014757
 31
0.0
 11
22.41244465322574
 21
87.5600060249103
 31
0.0
 11
22.30083519208032
 21
87.53607841400081
 31
0.0
  0
SPLINE
  5
D4
330
47
100
AcDbEntity
  8
0
  6
Continuous
 62
     7
100
AcDbSpline
210
0.0
220
0.0
230
1.0
 70
     8
 71
     3
 72
    11
 73
     7
 74
     5
 42
0.000000001
 43
0.0000000001
 44
0.00000001
 40
0.0
 40
0.0
 40
0.0
 40
0.0
 40
0.0935705952109205
 40
0.1815181363975917
 40
0.2647690944696146
 40
0.3453217744506332
 40
0.3453217744506332
 40
0.3453217744506332
 40
0.3453217744506332
 10
23.80647234183044
 20
70.9594797773136
 30
0.0
 10
23.83700264908681
 20
70.9524393769971
 30
0.0
 10
23.89622857023432
 20
70.93878167827697
 30
0.0
 10
23.98526084584081
 20
70.94325516735151
 30
0.0
 10
24.06749808135752
 20
70.96621978181481
 30
0.0
 10
24.11194285536149
 20
70.99860307338373
 30
0.0
 10
24.13379917718443
 20
71.0145280061966
 30
0.0
 11
23.80647234183044
 21
70.9594797773136
 31
0.0
 11
23.89854478297249
 21
70.94280278903294
 31
0.0
 11
23.98640626962374
 21
70.94669246322813
 31
0.0
 11
24.06603837993862
 21
70.9709710443251
 31
0.0
 11
24.13379917718443
 21
71.0145280061966
 31
0.0
  0
SPLINE
  5
D5
330
47
100
AcDbEntity
  8
0
  6
Continuous
 62
     7
100
AcDbSpline
210
0.0
220
0.0
230
1.0
 70
     8
 71
     3
 72
    11
 73
     7
 74
     5
 42
0.000000001
 43
0.0000000001
 44
0.00000001
 40
0.0
 40
0.0
 40
0.0
 40
0.0
 40
0.4692023400008045
 40
0.9495170296776689
 40
1.449992279684603
 40
1.97628023263772
 40
1.97628023263772
 40
1.97628023263772
 40
1.97628023263772
 10
23.59180014546634
 20
67.94017130773406
 30
0.0
 10
23.70319829743396
 20
68.05106992823336
 30
0.0
 10
23.92863288747935
 20
68.2754936456144
 30
0.0
 10
24.15791317012059
 20
68.70771973585697
 30
0.0
 10
24.30594440696304
 20
69.19201967607992
 30
0.0
 10
24.32290680392202
 20
69.53508013782299
 30
0.0
 10
24.33160121123395
 20
69.71092261879865
 30
0.0
 11
23.59180014546634
 21
67.94017130773406
 31
0.0
 11
23.90760958717322
 21
68.28718029013729
 31
0.0
 11
24.14063528753874
 21
68.70718175008855
 31
0.0
 11
24.28347763094416
 21
69.18683948514544
 31
0.0
 11
24.33160121123395
 21
69.71092261879865
 31
0.0
  0
SPLINE
  5
D6
330
47
100
AcDbEntity
  8
0
  6
Continuous
 62
     7
100
AcDbSpline
210
0.0
220
0.0
230
1.0
 70
     8
 71
     3
 72
     9
 73
     5
 74
     3
 42
0.000000001
 43
0.0000000001
 44
0.00000001
 40
0.0
 40
0.0
 40
0.0
 40
0.0
 40
0.0243482251547117
 40
0.0474874726515321
 40
0.0474874726515321
 40
0.0474874726515321
 40
0.0474874726515321
 10
24.60920197746205
 20
85.06430710759335
 30
0.0
 10
24.60102044854423
 20
85.06446317672965
 30
0.0
 10
24.5850636352149
 20
85.06476754591546
 30
0.0
 10
24.56992148311816
 20
85.05974940653937
 30
0.0
 10
24.56254316017978
 20
85.05730420551534
 30
0.0
 11
24.60920197746205
 21
85.06430710759335
 31
0.0
 11
24.58487155867089
 21
85.0633760625637
 31
0.0
 11
24.56254316017978
 21
85.05730420551534
 31
0.0
  0
SPLINE
  5
D7
330
47
100
AcDbEntity
  8
0
  6
Continuous
 62
     7
100
AcDbSpline
210
0.0
220
0.0
230
1.0
 70
     8
 71
     3
 72
    11
 73
     7
 74
     5
 42
0.000000001
 43
0.0000000001
 44
0.00000001
 40
0.0
 40
0.0
 40
0.0
 40
0.0
 40
0.156534295597315
 40
0.319042237604213
 40
0.4801876425079346
 40
0.6330349523981915
 40
0.6330349523981915
 40
0.6330349523981915
 40
0.6330349523981915
 10
8.088717983952051
 20
69.14934979083344
 30
0.0
 10
8.10560960556671
 20
69.09963408843984
 30
0.0
 10
8.14003747899516
 20
68.9983054436989
 30
0.0
 10
8.239039119692034
 20
68.86982536216915
 30
0.0
 10
8.360958897048242
 20
68.76442537101596
 30
0.0
 10
8.459168874351908
 20
68.72625102945719
 30
0.0
 10
8.50697613582048
 20
68.70766829467667
 30
0.0
 11
8.088717983952051
 21
69.14934979083344
 31
0.0
 11
8.146939598818554
 21
69.00404586945129
 31
0.0
 11
8.243374704637965
 21
68.87324410176004
 31
0.0
 11
8.367788906087558
 21
68.77082853220631
 31
0.0
 11
8.50697613582048
 21
68.70766829467667
 31
0.0
  0
SPLINE
  5
D8
330
47
100
AcDbEntity
  8
0
  6
Continuous
 62
     7
100
AcDbSpline
210
0.0
220
0.0
230
1.0
 70
     8
 71
     3
 72
    11
 73
     7
 74
     5
 42
0.000000001
 43
0.0000000001
 44
0.00000001
 40
0.0
 40
0.0
 40
0.0
 40
0.0
 40
0.2923142457933584
 40
0.5828468989025563
 40
0.8613027544292089
 40
1.120419266351351
 40
1.120419266351351
 40
1.120419266351351
 40
1.120419266351351
 10
26.69275327883055
 20
84.3745525317597
 30
0.0
 10
26.63809968056949
 20
84.45578011600638
 30
0.0
 10
26.52912557426819
 20
84.61774021071675
 30
0.0
 10
26.30684951519754
 20
84.80372192721403
 30
0.0
 10
26.06153815028242
 20
84.93921594212111
 30
0.0
 10
25.88349352369956
 20
84.96814920045107
 30
0.0
 10
25.79767381590433
 20
84.98209538079735
 30
0.0
 11
26.69275327883055
 21
84.3745525317597
 31
0.0
 11
26.51836880659006
 21
84.60915362794813
 31
0.0
 11
26.29807146187662
 21
84.79856931829738
 31
0.0
 11
26.05076539992273
 21
84.92654344379488
 31
0.0
 11
25.79767381590433
 21
84.98209538079735
 31
0.0
  0
SPLINE
  5
D9
330
47
100
AcDbEntity
  8
0
  6
Continuous
 62
     7
100
AcDbSpline
210
0.0
220
0.0
230
1.0
 70
     8
 71
     3
 72
    11
 73
     7
 74
     5
 42
0.000000001
 43
0.0000000001
 44
0.00000001
 40
0.0
 40
0.0
 40
0.0
 40
0.0
 40
0.6549941686516327
 40
1.270626970641455
 40
1.85338369420386
 40
2.417252465941715
 40
2.417252465941715
 40
2.417252465941715
 40
2.417252465941715
 10
18.35051229798842
 20
65.00005876438901
 30
0.0
 10
18.56422444949268
 20
64.95077596200973
 30
0.0
 10
18.97880588879343
 20
64.8551719834349
 30
0.0
 10
19.60203182902985
 20
64.88648644789478
 30
0.0
 10
20.17769251039329
 20
65.04723871274908
 30
0.0
 10
20.48880588948492
 20
65.2739218345331
 30
0.0
 10
20.64180014546634
 20
65.38539636656996
 30
0.0
 11
18.35051229798842
 21
65.00005876438901
 31
0.0
 11
18.99501938598279
 21
64.88331984642427
 31
0.0
 11
19.61004979254157
 21
64.91054756579067
 31
0.0
 11
20.16747456474567
 21
65.0804976334694
 31
0.0
 11
20.64180014546634
 21
65.38539636656996
 31
0.0
  0
SPLINE
  5
DA
330
47
100
AcDbEntity
  8
0
  6
Continuous
 62
     7
100
AcDbSpline
210
0.0
220
0.0
230
1.0
 70
     8
 71
     3
 72
    11
 73
     7
 74
     5
 42
0.000000001
 43
0.0000000001
 44
0.00000001
 40
0.0
 40
0.0
 40
0.0
 40
0.0
 40
0.469202340000815
 40
0.9495170296776811
 40
1.449992279684602
 40
1.976280232637719
 40
1.976280232637719
 40
1.976280232637719
 40
1.976280232637719
 10
20.64180014546634
 20
65.38539636656996
 30
0.0
 10
20.75319829743398
 20
65.49629498706929
 30
0.0
 10
20.97863288747934
 20
65.72071870445029
 30
0.0
 10
21.2079131701206
 20
66.15294479469289
 30
0.0
 10
21.35594440696304
 20
66.63724473491581
 30
0.0
 10
21.37290680392204
 20
66.98030519665893
 30
0.0
 10
21.38160121123396
 20
67.15614767763455
 30
0.0
 11
20.64180014546634
 21
65.38539636656996
 31
0.0
 11
20.95760958717322
 21
65.7324053489732
 31
0.0
 11
21.19063528753875
 21
66.15240680892447
 31
0.0
 11
21.33347763094416
 21
66.63206454398134
 31
0.0
 11
21.38160121123396
 21
67.15614767763455
 31
0.0
  0
SPLINE
  5
DB
330
47
100
AcDbEntity
  8
0
  6
Continuous
 62
     7
100
AcDbSpline
210
0.0
220
0.0
230
1.0
 70
     8
 71
     3
 72
    13
 73
     9
 74
     7
 42
0.000000001
 43
0.0000000001
 44
0.00000001
 40
0.0
 40
0.0
 40
0.0
 40
0.0
 40
0.117263164263548
 40
0.2419307378212696
 40
0.3712960139461183
 40
0.5017221147109511
 40
0.629373771144773
 40
0.7509434390751921
 40
0.7509434390751921
 40
0.7509434390751921
 40
0.7509434390751921
 10
13.67397511755247
 20
66.78307146628123
 30
0.0
 10
13.67704949180664
 20
66.74392110375678
 30
0.0
 10
13.68339238182473
 20
66.663148288781
 30
0.0
 10
13.72926241492594
 20
66.5465003744711
 30
0.0
 10
13.79753189440771
 20
66.43729262373661
 30
0.0
 10
13.88713031459575
 20
66.34335421813428
 30
0.0
 10
13.99053224913817
 20
66.26795118826942
 30
0.0
 10
14.06880602429698
 20
66.23912171677267
 30
0.0
 10
14.10698781944469
 20
66.225058764389
 30
0.0
 11
13.67397511755247
 21
66.78307146628123
 31
0.0
 11
13.68872977908582
 21
66.6667402582352
 31
0.0
 11
13.73198781944469
 21
66.54981829080818
 31
0.0
 11
13.8008016832278
 21
66.44027365414782
 31
0.0
 11
13.89048146849858
 21
66.34557146628123
 31
0.0
 11
13.99491591530271
 21
66.27216579793485
 31
0.0
 11
14.10698781944469
 21
66.225058764389
 31
0.0
  0
SPLINE
  5
DC
330
47
100
AcDbEntity
  8
0
  6
Continuous
 62
     7
100
AcDbSpline
210
0.0
220
0.0
230
1.0
 70
     8
 71
     3
 72
     9
 73
     5
 74
     3
 42
0.000000001
 43
0.0000000001
 44
0.00000001
 40
0.0
 40
0.0
 40
0.0
 40
0.0
 40
0.0140206581723641
 40
0.0278813926118426
 40
0.0278813926118426
 40
0.0278813926118426
 40
0.0278813926118426
 10
21.61254316017976
 20
82.50252926435128
 30
0.0
 10
21.60827606021248
 20
82.50057628589953
 30
0.0
 10
21.59979054178718
 20
82.4966925878908
 30
0.0
 10
21.59248612742732
 20
82.49088544371614
 30
0.0
 10
21.58885487430693
 20
82.48799851790326
 30
0.0
 11
21.61254316017976
 21
82.50252926435128
 31
0.0
 11
21.60004053787244
 21
82.49618392639907
 31
0.0
 11
21.58885487430693
 21
82.48799851790326
 31
0.0
  0
SPLINE
  5
DD
330
47
100
AcDbEntity
  8
0
  6
Continuous
 62
     7
100
AcDbSpline
210
0.0
220
0.0
230
1.0
 70
     8
 71
     3
 72
    11
 73
     7
 74
     5
 42
0.000000001
 43
0.0000000001
 44
0.00000001
 40
0.0
 40
0.0
 40
0.0
 40
0.0
 40
0.037473805208115
 40
0.0776998176276065
 40
0.1219199024266063
 40
0.1696011608741799
 40
0.1696011608741799
 40
0.1696011608741799
 40
0.1696011608741799
 10
21.58885487430693
 20
82.48799851790326
 30
0.0
 10
21.58045950983611
 20
82.47848043588104
 30
0.0
 10
21.56305220777005
 20
82.45874522223625
 30
0.0
 10
21.55511078156184
 20
82.41731205499221
 30
0.0
 10
21.55995008162267
 20
82.37287991105802
 30
0.0
 10
21.57357362860754
 20
82.34518604450383
 30
0.0
 10
21.58064195292586
 20
82.33081761292775
 30
0.0
 11
21.58885487430693
 21
82.48799851790326
 31
0.0
 11
21.56654055100372
 21
82.45789274952222
 31
0.0
 11
21.55732087431726
 21
82.4187375455615
 31
0.0
 11
21.56219817302402
 21
82.374787254057
 31
0.0
 11
21.58064195292586
 21
82.33081761292775
 31
0.0
  0
SPLINE
  5
DE
330
47
100
AcDbEntity
  8
0
  6
Continuous
 62
     7
100
AcDbSpline
210
0.0
220
0.0
230
1.0
 70
     8
 71
     3
 72
     9
 73
     5
 74
     3
 42
0.000000001
 43
0.0000000001
 44
0.00000001
 40
0.0
 40
0.0
 40
0.0
 40
0.0
 40
0.046735529129247
 40
0.0929379791488817
 40
0.0929379791488817
 40
0.0929379791488817
 40
0.0929379791488817
 10
19.84756695697243
 20
84.12850288383262
 30
0.0
 10
19.86179062410464
 20
84.13501281226812
 30
0.0
 10
19.89007570934561
 20
84.14795843234131
 30
0.0
 10
19.9144237323177
 20
84.16731561888878
 30
0.0
 10
19.92652790988029
 20
84.17693870532503
 30
0.0
 11
19.84756695697243
 21
84.12850288383262
 31
0.0
 11
19.88924236466269
 21
84.14965401033955
 31
0.0
 11
19.92652790988029
 21
84.17693870532503
 31
0.0
  0
SPLINE
  5
DF
330
47
100
AcDbEntity
  8
0
  6
Continuous
 62
     7
100
AcDbSpline
210
0.0
220
0.0
230
1.0
 70
     8
 71
     3
 72
     9
 73
     5
 74
     3
 42
0.000000001
 43
0.0000000001
 44
0.00000001
 40
0.0
 40
0.0
 40
0.0
 40
0.0
 40
0.1347351597550944
 40
0.2806984683897967
 40
0.2806984683897967
 40
0.2806984683897967
 40
0.2806984683897967
 10
7.197867915328942
 20
93.09814470487638
 30
0.0
 10
7.167475431627806
 20
93.0634432385863
 30
0.0
 10
7.104157724554204
 20
92.99114845116236
 30
0.0
 10
7.096278986173435
 20
92.89511675355574
 30
0.0
 10
7.092182048790718
 20
92.84518023186715
 30
0.0
 11
7.197867915328942
 21
93.09814470487638
 31
0.0
 11
7.119463589511756
 21
92.98857132514239
 31
0.0
 11
7.092182048790718
 21
92.84518023186715
 31
0.0
  0
SPLINE
  5
E0
330
47
100
AcDbEntity
  8
0
  6
Continuous
 62
     7
100
AcDbSpline
210
0.0
220
0.0
230
1.0
 70
     8
 71
     3
 72
    11
 73
     7
 74
     5
 42
0.000000001
 43
0.0000000001
 44
0.00000001
 40
0.0
 40
0.0
 40
0.0
 40
0.0
 40
0.2268420877276284
 40
0.4715428108737545
 40
0.7374498629678887
 40
1.020829633473609
 40
1.020829633473609
 40
1.020829633473609
 40
1.020829633473609
 10
22.5421702490728
 20
90.57121924103882
 30
0.0
 10
22.5817001311664
 20
90.63668420526356
 30
0.0
 10
22.66387195783322
 20
90.77276801151405
 30
0.0
 10
22.68713594704992
 20
91.02415590486108
 30
0.0
 10
22.64537124130336
 20
91.28852036231591
 30
0.0
 10
22.56280354224879
 20
91.45314620245713
 30
0.0
 10
22.52020645373622
 20
91.5380774793933
 30
0.0
 11
22.5421702490728
 21
90.57121924103882
 31
0.0
 11
22.64518603838938
 21
90.77332090133481
 31
0.0
 11
22.67659905169646
 21
91.01599695780777
 31
0.0
 11
22.63371181073908
 21
91.27842265458126
 31
0.0
 11
22.52020645373622
 21
91.5380774793933
 31
0.0
  0
SPLINE
  5
E1
330
47
100
AcDbEntity
  8
0
  6
Continuous
 62
     7
100
AcDbSpline
210
0.0
220
0.0
230
1.0
 70
     8
 71
     3
 72
    17
 73
    13
 74
    11
 42
0.000000001
 43
0.0000000001
 44
0.00000001
 40
0.0
 40
0.0
 40
0.0
 40
0.0
 40
0.2877137145311839
 40
0.6243937917215161
 40
1.032205630612476
 40
1.50913232417992
 40
2.038675609611815
 40
2.596340723080512
 40
3.154005836326177
 40
3.683549120848997
 40
4.16047581502364
 40
4.568287659588223
 40
4.568287659588223
 40
4.568287659588223
 40
4.568287659588223
 10
9.253206989954705
 20
93.73689052273666
 30
0.0
 10
9.269589514635241
 20
93.64055516971676
 30
0.0
 10
9.305142737642502
 20
93.43148903262586
 30
0.0
 10
9.55165178382253
 20
93.1697722740986
 30
0.0
 10
9.89619889807216
 20
92.95299846085804
 30
0.0
 10
10.34198802452996
 20
92.78841429593388
 30
0.0
 10
10.85441820926178
 20
92.68512347331935
 30
0.0
 10
11.40312707680658
 20
92.65009575586035
 30
0.0
 10
11.95230731260834
 20
92.68464704023475
 30
0.0
 10
12.46343800974518
 20
92.79013455541488
 30
0.0
 10
12.91328891155331
 20
92.94759756515812
 30
0.0
 10
13.15414245355555
 20
93.11994746486407
 30
0.0
 10
13.26516160809126
 20
93.19939052273666
 30
0.0
 11
9.253206989954705
 21
93.73689052273666
 31
0.0
 11
9.326467017104214
 21
93.45866012342931
 31
0.0
 11
9.541252371818167
 21
93.19939052273666
 31
0.0
 11
9.88292781571894
 21
92.97675093561877
 31
0.0
 11
10.32820698995472
 21
92.80591321366839
 31
0.0
 11
10.84674619133999
 21
92.69852053631142
 31
0.0
 11
11.40320698995471
 21
92.66189052273666
 31
0.0
 11
11.95966778856943
 21
92.69852053631142
 31
0.0
 11
12.47820698995471
 21
92.80591321366839
 31
0.0
 11
12.92348616419049
 21
92.97675093561878
 31
0.0
 11
13.26516160809126
 21
93.19939052273666
 31
0.0
  0
SPLINE
  5
E2
330
47
100
AcDbEntity
  8
0
  6
Continuous
 62
     7
100
AcDbSpline
210
0.0
220
0.0
230
1.0
 70
     8
 71
     3
 72
    19
 73
    15
 74
    13
 42
0.000000001
 43
0.0000000001
 44
0.00000001
 40
0.0
 40
0.0
 40
0.0
 40
0.0
 40
0.2877137191521992
 40
0.6243937928049643
 40
1.032205632740997
 40
1.509132327925898
 40
2.038675615798446
 40
2.596340732498304
 40
3.154005849198157
 40
3.683549137070695
 40
4.160475832255602
 40
4.568287672191637
 40
4.904967745844404
 40
5.192681464996605
 40
5.192681464996605
 40
5.192681464996605
 40
5.192681464996605
 10
13.55320698995471
 20
93.73689052273666
 30
0.0
 10
13.53682447753998
 20
93.83322585527512
 30
0.0
 10
13.50127127435765
 20
94.04229194255491
 30
0.0
 10
13.25476198876362
 20
94.30400914238659
 30
0.0
 10
12.91021610972566
 20
94.52078077573569
 30
0.0
 10
12.46442119161468
 20
94.68537512461074
 30
0.0
 10
11.9520160583368
 20
94.78862189684678
 30
0.0
 10
11.40320698995471
 20
94.82382578497935
 30
0.0
 10
10.85439792157263
 20
94.78862189684678
 30
0.0
 10
10.34199278829475
 20
94.68537512461076
 30
0.0
 10
9.89619787018377
 20
94.52078077573572
 30
0.0
 10
9.551651991145807
 20
94.3040091423866
 30
0.0
 10
9.305142705551786
 20
94.04229194255493
 30
0.0
 10
9.269589502369437
 20
93.83322585527512
 30
0.0
 10
9.253206989954705
 20
93.73689052273666
 30
0.0
 11
13.55320698995471
 21
93.73689052273666
 31
0.0
 11
13.47994696280521
 21
94.01512092204402
 31
0.0
 11
13.26516160809126
 21
94.27439052273665
 31
0.0
 11
12.92348616419049
 21
94.49703010985453
 31
0.0
 11
12.47820698995472
 21
94.66786783180493
 31
0.0
 11
11.95966778856944
 21
94.77526050916191
 31
0.0
 11
11.40320698995471
 21
94.81189052273666
 31
0.0
 11
10.84674619133999
 21
94.77526050916191
 31
0.0
 11
10.32820698995472
 21
94.66786783180493
 31
0.0
 11
9.882927815718942
 21
94.49703010985453
 31
0.0
 11
9.541252371818167
 21
94.27439052273665
 31
0.0
 11
9.326467017104216
 21
94.01512092204402
 31
0.0
 11
9.253206989954705
 21
93.73689052273666
 31
0.0
  0
SPLINE
  5
E3
330
47
100
AcDbEntity
  8
0
  6
Continuous
 62
     7
100
AcDbSpline
210
0.0
220
0.0
230
1.0
 70
     8
 71
     3
 72
     9
 73
     5
 74
     3
 42
0.000000001
 43
0.0000000001
 44
0.00000001
 40
0.0
 40
0.0
 40
0.0
 40
0.0
 40
0.3366800751335783
 40
0.6243937964551807
 40
0.6243937964551807
 40
0.6243937964551807
 40
0.6243937964551807
 10
13.26516160809126
 20
93.19939052273666
 30
0.0
 10
13.34835489743108
 20
93.27985425572777
 30
0.0
 10
13.50264192579631
 20
93.42907918143784
 30
0.0
 10
13.53725683357664
 20
93.63979500861556
 30
0.0
 10
13.55320698995471
 20
93.73689052273666
 30
0.0
 11
13.26516160809126
 21
93.19939052273666
 31
0.0
 11
13.4799469628052
 21
93.45866012342931
 31
0.0
 11
13.55320698995471
 21
93.73689052273666
 31
0.0
  0
SPLINE
  5
E4
330
47
100
AcDbEntity
  8
0
  6
Continuous
 62
     7
100
AcDbSpline
210
0.0
220
0.0
230
1.0
 70
     8
 71
     3
 72
    11
 73
     7
 74
     5
 42
0.000000001
 43
0.0000000001
 44
0.00000001
 40
0.0
 40
0.0
 40
0.0
 40
0.0
 40
0.0935705952109301
 40
0.1815181363976089
 40
0.264769094469625
 40
0.3453217744506454
 40
0.3453217744506454
 40
0.3453217744506454
 40
0.3453217744506454
 10
16.27756495603872
 20
94.8989932787079
 30
0.0
 10
16.24703464878235
 20
94.90603367902442
 30
0.0
 10
16.18780872763482
 20
94.91969137774456
 30
0.0
 10
16.09877645202834
 20
94.91521788867
 30
0.0
 10
16.01653921651163
 20
94.89225327420667
 30
0.0
 10
15.97209444250766
 20
94.8598699826378
 30
0.0
 10
15.95023812068473
 20
94.8439450498249
 30
0.0
 11
16.27756495603872
 21
94.8989932787079
 31
0.0
 11
16.18549251489666
 21
94.91567026698858
 31
0.0
 11
16.0976310282454
 21
94.91178059279338
 31
0.0
 11
16.01799891793053
 21
94.88750201169641
 31
0.0
 11
15.95023812068473
 21
94.8439450498249
 31
0.0
  0
SPLINE
  5
E5
330
47
100
AcDbEntity
  8
0
  6
Continuous
 62
     7
100
AcDbSpline
210
0.0
220
0.0
230
1.0
 70
     8
 71
     3
 72
    11
 73
     7
 74
     5
 42
0.000000001
 43
0.0000000001
 44
0.00000001
 40
0.0
 40
0.0
 40
0.0
 40
0.0
 40
0.0935705952109248
 40
0.1815181363976013
 40
0.2647690944696249
 40
0.3453217744506421
 40
0.3453217744506421
 40
0.3453217744506421
 40
0.3453217744506421
 10
13.32756495603872
 20
92.34421833754381
 30
0.0
 10
13.29703464878235
 20
92.3512587378603
 30
0.0
 10
13.23780872763484
 20
92.36491643658047
 30
0.0
 10
13.14877645202834
 20
92.36044294750593
 30
0.0
 10
13.06653921651164
 20
92.33747833304258
 30
0.0
 10
13.02209444250767
 20
92.30509504147368
 30
0.0
 10
13.00023812068473
 20
92.28917010866081
 30
0.0
 11
13.32756495603872
 21
92.34421833754381
 31
0.0
 11
13.23549251489667
 21
92.36089532582449
 31
0.0
 11
13.14763102824541
 21
92.3570056516293
 31
0.0
 11
13.06799891793054
 21
92.33272707053231
 31
0.0
 11
13.00023812068473
 21
92.28917010866081
 31
0.0
  0
SPLINE
  5
E6
330
47
100
AcDbEntity
  8
0
  6
Continuous
 62
     7
100
AcDbSpline
210
0.0
220
0.0
230
1.0
 70
     8
 71
     3
 72
     9
 73
     5
 74
     3
 42
0.000000001
 43
0.0000000001
 44
0.00000001
 40
0.0
 40
0.0
 40
0.0
 40
0.0
 40
0.1347351597551085
 40
0.2806984683897971
 40
0.2806984683897971
 40
0.2806984683897971
 40
0.2806984683897971
 10
13.00023812068473
 20
92.28917010866081
 30
0.0
 10
12.96984563698359
 20
92.2544686423707
 30
0.0
 10
12.90652792990999
 20
92.18217385494683
 30
0.0
 10
12.89864919152922
 20
92.08614215734018
 30
0.0
 10
12.8945522541465
 20
92.03620563565158
 30
0.0
 11
13.00023812068473
 21
92.28917010866081
 31
0.0
 11
12.92183379486754
 21
92.17959672892681
 31
0.0
 11
12.8945522541465
 21
92.03620563565158
 31
0.0
  0
SPLINE
  5
E7
330
47
100
AcDbEntity
  8
0
  6
Continuous
 62
     7
100
AcDbSpline
210
0.0
220
0.0
230
1.0
 70
     8
 71
     3
 72
    11
 73
     7
 74
     5
 42
0.000000001
 43
0.0000000001
 44
0.00000001
 40
0.0
 40
0.0
 40
0.0
 40
0.0
 40
0.0935705952109178
 40
0.1815181363975896
 40
0.2647690944696057
 40
0.3453217744506181
 40
0.3453217744506181
 40
0.3453217744506181
 40
0.3453217744506181
 10
10.47519475068293
 20
95.70796787492347
 30
0.0
 10
10.44466444342657
 20
95.71500827524
 30
0.0
 10
10.38543852227905
 20
95.72866597396013
 30
0.0
 10
10.29640624667256
 20
95.72419248488555
 30
0.0
 10
10.21416901115587
 20
95.70122787042226
 30
0.0
 10
10.16972423715189
 20
95.66884457885335
 30
0.0
 10
10.14786791532895
 20
95.65291964604049
 30
0.0
 11
10.47519475068293
 21
95.70796787492347
 31
0.0
 11
10.38312230954088
 21
95.72464486320415
 31
0.0
 11
10.29526082288963
 21
95.72075518900894
 31
0.0
 11
10.21562871257476
 21
95.69647660791198
 31
0.0
 11
10.14786791532895
 21
95.65291964604049
 31
0.0
  0
SPLINE
  5
E8
330
47
100
AcDbEntity
  8
0
  6
Continuous
 62
     7
100
AcDbSpline
210
0.0
220
0.0
230
1.0
 70
     8
 71
     3
 72
    17
 73
    13
 74
    11
 42
0.000000001
 43
0.0000000001
 44
0.00000001
 40
0.0
 40
0.0
 40
0.0
 40
0.0
 40
0.109070294314721
 40
0.2244781791889481
 40
0.349779658892748
 40
0.4849246416384966
 40
0.626960767907304
 40
0.7712100676606579
 40
0.9124842480388629
 40
1.04628586996764
 40
1.170025331838596
 40
1.284170860792887
 40
1.284170860792887
 40
1.284170860792887
 40
1.284170860792887
 10
19.92652790988029
 20
84.17693870532503
 30
0.0
 10
19.95136267695264
 20
84.20408632666012
 30
0.0
 10
20.00247523814754
 20
84.2599590053544
 30
0.0
 10
20.03463171176077
 20
84.37593530368005
 30
0.0
 10
20.03231668830107
 20
84.50226730843143
 30
0.0
 10
19.9941336561151
 20
84.6324956329616
 30
0.0
 10
19.92448794173637
 20
84.7557511217727
 30
0.0
 10
19.82876321459148
 20
84.86275055682762
 30
0.0
 10
19.71435546717445
 20
84.94540672460106
 30
0.0
 10
19.5904932068277
 20
84.99581403849746
 30
0.0
 10
19.46474023810557
 20
85.01383446473534
 30
0.0
 10
19.38776878349544
 20
84.99185161766624
 30
0.0
 10
19.35083519208031
 20
84.98130347283671
 30
0.0
 11
19.92652790988029
 21
84.17693870532503
 31
0.0
 11
19.99383746459976
 21
84.26276267662139
 31
0.0
 11
20.02829447207075
 21
84.37290665457994
 31
0.0
 11
20.02702966514816
 21
84.49820175366746
 31
0.0
 11
19.99014913868933
 21
84.62821711241624
 31
0.0
 11
19.92072237808781
 21
84.75212912219553
 31
0.0
 11
19.82452972847467
 21
84.85962253804304
 31
0.0
 11
19.70957857919696
 21
84.94174821700175
 31
0.0
 11
19.58543876339337
 21
84.99166996031158
 31
0.0
 11
19.46244465322573
 21
85.0052310837462
 31
0.0
 11
19.35083519208031
 21
84.98130347283671
 31
0.0
  0
SPLINE
  5
E9
330
47
100
AcDbEntity
  8
0
  6
Continuous
 62
     7
100
AcDbSpline
210
0.0
220
0.0
230
1.0
 70
     8
 71
     3
 72
    13
 73
     9
 74
     7
 42
0.000000001
 43
0.0000000001
 44
0.00000001
 40
0.0
 40
0.0
 40
0.0
 40
0.0
 40
0.0451629265095342
 40
0.0899903310669002
 40
0.1328101889292533
 40
0.1724892379900809
 40
0.2088805264573482
 40
0.2431182708327498
 40
0.2431182708327498
 40
0.2431182708327498
 40
0.2431182708327498
 10
18.72443430479609
 20
87.23442099970029
 30
0.0
 10
18.73290703246153
 20
87.22189871114274
 30
0.0
 10
18.74978955395277
 20
87.19694717244377
 30
0.0
 10
18.78434327367235
 20
87.16838791534832
 30
0.0
 10
18.82255793611268
 20
87.14893838783918
 30
0.0
 10
18.86180732519254
 20
87.14120741252509
 30
0.0
 10
18.89965183000461
 20
87.14506758736022
 30
0.0
 10
18.91944735835754
 20
87.15837323959836
 30
0.0
 10
18.92904332738981
 20
87.16482322087067
 30
0.0
 11
18.72443430479609
 21
87.23442099970029
 31
0.0
 11
18.75149733621274
 21
87.1982646442758
 31
0.0
 11
18.78578169558995
 21
87.16938421983431
 31
0.0
 11
18.8241673286562
 21
87.15040835263606
 31
0.0
 11
18.86316071099967
 21
87.14306374025688
 31
0.0
 11
18.8992130390241
 21
87.14801913367413
 31
0.0
 11
18.92904332738981
 21
87.16482322087067
 31
0.0
  0
SPLINE
  5
EA
330
47
100
AcDbEntity
  8
0
  6
Continuous
 62
     7
100
AcDbSpline
210
0.0
220
0.0
230
1.0
 70
     8
 71
     3
 72
     9
 73
     5
 74
     3
 42
0.000000001
 43
0.0000000001
 44
0.00000001
 40
0.0
 40
0.0
 40
0.0
 40
0.0
 40
0.0083604311810967
 40
0.0167564732152377
 40
0.0167564732152377
 40
0.0167564732152377
 40
0.0167564732152377
 10
18.92904332738981
 20
87.16482322087067
 30
0.0
 10
18.93110683516683
 20
87.16670251949223
 30
0.0
 10
18.93524262598705
 20
87.17046913559585
 30
0.0
 10
18.9387789205503
 20
87.1748035636217
 30
0.0
 10
18.94055081807115
 20
87.17697539009355
 30
0.0
 11
18.92904332738981
 21
87.16482322087067
 31
0.0
 11
18.93508460614918
 21
87.17060247417238
 31
0.0
 11
18.94055081807115
 21
87.17697539009355
 31
0.0
  0
SPLINE
  5
EB
330
47
100
AcDbEntity
  8
0
  6
Continuous
 62
     7
100
AcDbSpline
210
0.0
220
0.0
230
1.0
 70
     8
 71
     3
 72
     9
 73
     5
 74
     3
 42
0.000000001
 43
0.0000000001
 44
0.00000001
 40
0.0
 40
0.0
 40
0.0
 40
0.0
 40
0.3366800751335742
 40
0.6243937964551909
 40
0.6243937964551909
 40
0.6243937964551909
 40
0.6243937964551909
 10
18.85325019014205
 20
92.45227370296985
 30
0.0
 10
18.93644347948187
 20
92.53273743596097
 30
0.0
 10
19.09073050784712
 20
92.68196236167103
 30
0.0
 10
19.12534541562744
 20
92.89267818884873
 30
0.0
 10
19.14129557200551
 20
92.98977370296984
 30
0.0
 11
18.85325019014205
 21
92.45227370296985
 31
0.0
 11
19.068035544856
 21
92.71154330366248
 31
0.0
 11
19.14129557200551
 21
92.98977370296984
 31
0.0
  0
SPLINE
  5
EC
330
47
100
AcDbEntity
  8
0
  6
Continuous
 62
     7
100
AcDbSpline
210
0.0
220
0.0
230
1.0
 70
     8
 71
     3
 72
    17
 73
    13
 74
    11
 42
0.000000001
 43
0.0000000001
 44
0.00000001
 40
0.0
 40
0.0
 40
0.0
 40
0.0
 40
0.2877137145311839
 40
0.6243937917215139
 40
1.032205630612463
 40
1.509132324179906
 40
2.038675609611805
 40
2.596340723080507
 40
3.154005836326164
 40
3.683549120848981
 40
4.160475815023624
 40
4.568287659588205
 40
4.568287659588205
 40
4.568287659588205
 40
4.568287659588205
 10
14.84129557200551
 20
92.98977370296984
 30
0.0
 10
14.85767809668604
 20
92.89343834994995
 30
0.0
 10
14.89323131969331
 20
92.684372212859
 30
0.0
 10
15.13974036587333
 20
92.4226554543318
 30
0.0
 10
15.48428748012297
 20
92.20588164109125
 30
0.0
 10
15.93007660658076
 20
92.04129747616707
 30
0.0
 10
16.44250679131257
 20
91.9380066535525
 30
0.0
 10
16.99121565885737
 20
91.90297893609352
 30
0.0
 10
17.54039589465915
 20
91.93753022046796
 30
0.0
 10
18.05152659179596
 20
92.04301773564808
 30
0.0
 10
18.5013774936041
 20
92.20048074539127
 30
0.0
 10
18.74223103560634
 20
92.37283064509728
 30
0.0
 10
18.85325019014205
 20
92.45227370296985
 30
0.0
 11
14.84129557200551
 21
92.98977370296984
 31
0.0
 11
14.91455559915502
 21
92.7115433036625
 31
0.0
 11
15.12934095386897
 21
92.45227370296985
 31
0.0
 11
15.47101639776974
 21
92.22963411585197
 31
0.0
 11
15.91629557200551
 21
92.05879639390157
 31
0.0
 11
16.43483477339079
 21
91.9514037165446
 31
0.0
 11
16.99129557200551
 21
91.91477370296985
 31
0.0
 11
17.54775637062023
 21
91.9514037165446
 31
0.0
 11
18.0662955720055
 21
92.05879639390157
 31
0.0
 11
18.51157474624128
 21
92.22963411585197
 31
0.0
 11
18.85325019014205
 21
92.45227370296985
 31
0.0
  0
SPLINE
  5
ED
330
47
100
AcDbEntity
  8
0
  6
Continuous
 62
     7
100
AcDbSpline
210
0.0
220
0.0
230
1.0
 70
     8
 71
     3
 72
    19
 73
    15
 74
    13
 42
0.000000001
 43
0.0000000001
 44
0.00000001
 40
0.0
 40
0.0
 40
0.0
 40
0.0
 40
0.2877137191522015
 40
0.6243937928049677
 40
1.032205632741009
 40
1.509132327925914
 40
2.038675615798454
 40
2.596340732498301
 40
3.15400584919816
 40
3.683549137070701
 40
4.160475832255601
 40
4.568287672191652
 40
4.904967745844427
 40
5.192681464996613
 40
5.192681464996613
 40
5.192681464996613
 40
5.192681464996613
 10
19.14129557200551
 20
92.98977370296984
 30
0.0
 10
19.12491305959078
 20
93.08610903550829
 30
0.0
 10
19.08935985640844
 20
93.29517512278811
 30
0.0
 10
18.84285057081441
 20
93.55689232261977
 30
0.0
 10
18.49830469177646
 20
93.7736639559689
 30
0.0
 10
18.05250977366547
 20
93.93825830484396
 30
0.0
 10
17.54010464038759
 20
94.04150507707995
 30
0.0
 10
16.99129557200551
 20
94.07670896521256
 30
0.0
 10
16.44248650362344
 20
94.04150507707996
 30
0.0
 10
15.93008137034555
 20
93.93825830484398
 30
0.0
 10
15.48428645223455
 20
93.77366395596891
 30
0.0
 10
15.1397405731966
 20
93.5568923226198
 30
0.0
 10
14.89323128760259
 20
93.29517512278808
 30
0.0
 10
14.85767808442024
 20
93.08610903550829
 30
0.0
 10
14.84129557200551
 20
92.98977370296984
 30
0.0
 11
19.14129557200551
 21
92.98977370296984
 31
0.0
 11
19.068035544856
 21
93.2680041022772
 31
0.0
 11
18.85325019014205
 21
93.52727370296984
 31
0.0
 11
18.51157474624128
 21
93.74991329008773
 31
0.0
 11
18.0662955720055
 21
93.92075101203812
 31
0.0
 11
17.54775637062023
 21
94.0281436893951
 31
0.0
 11
16.99129557200551
 21
94.06477370296984
 31
0.0
 11
16.43483477339079
 21
94.0281436893951
 31
0.0
 11
15.91629557200551
 21
93.92075101203812
 31
0.0
 11
15.47101639776973
 21
93.74991329008775
 31
0.0
 11
15.12934095386896
 21
93.52727370296984
 31
0.0
 11
14.91455559915501
 21
93.26800410227719
 31
0.0
 11
14.84129557200551
 21
92.98977370296984
 31
0.0
  0
ENDBLK
  5
49
330
47
100
AcDbEntity
  8
0
100
AcDbBlockEnd
  0
BLOCK
  5
4C
330
4A
100
AcDbEntity
  8
0
100
AcDbBlockBegin
  2
AllgSicht1
 70
     0
 10
16.99999999987924
 20
70.92093376150595
 30
0.0
  3
AllgSicht1
  1

  0
INSERT
  5
4B
330
4A
100
AcDbEntity
  8
0
100
AcDbBlockReference
  2
0735032_DFK_WW_1x1-select__1
 10
6.22615664500627
 20
47.57789407275578
 30
0.0
  0
MTEXT
  5
EF
330
4A
100
AcDbEntity
  8
1
 62
     6
100
AcDbMText
 10
16.99999999987892
 20
40.06156433754271
 30
0.0
 40
5.0
 41
0.0
 71
     2
 72
     1
  1
 
  7
CONVERTER_11
 73
     1
 44
1.32052821128451
  0
ENDBLK
  5
4D
330
4A
100
AcDbEntity
  8
0
100
AcDbBlockEnd
  0
BLOCK
  5
4F
330
4E
100
AcDbEntity
  8
0
100
AcDbBlockBegin
  2
0735032_DFK_WW_1x1-select__2
 70
     0
 10
-126.7499992450587
 20
80.61999963760402
 30
0.0
  3
0735032_DFK_WW_1x1-select__2
  1

  0
LINE
  5
F0
330
4E
100
AcDbEntity
  8
0
  6
Continuous
 62
     7
100
AcDbLine
 10
-106.5235756814096
 20
86.51999963760403
 30
0.0
 11
-105.9499992450583
 21
86.51999963760403
 31
0.0
  0
LINE
  5
F1
330
4E
100
AcDbEntity
  8
0
  6
Continuous
 62
     7
100
AcDbLine
 10
-106.5235756814096
 20
80.61999963760402
 30
0.0
 11
-105.9499992450583
 21
80.61999963760402
 31
0.0
  0
LINE
  5
F2
330
4E
100
AcDbEntity
  8
0
  6
Continuous
 62
     7
100
AcDbLine
 10
-105.9499992450583
 20
86.51999963760403
 30
0.0
 11
-105.9499992450583
 21
80.61999963760402
 31
0.0
  0
LINE
  5
F3
330
4E
100
AcDbEntity
  8
0
  6
Continuous
 62
     7
100
AcDbLine
 10
-106.5235756814096
 20
86.51999963760403
 30
0.0
 11
-107.5571244191427
 21
86.51999963760403
 31
0.0
  0
LINE
  5
F4
330
4E
100
AcDbEntity
  8
0
  6
Continuous
 62
     2
100
AcDbLine
 10
-106.5235756814096
 20
86.51999963760403
 30
0.0
 11
-106.5235756814096
 21
80.61999963760402
 31
0.0
  0
LINE
  5
F5
330
4E
100
AcDbEntity
  8
0
  6
Continuous
 62
     7
100
AcDbLine
 10
-119.0499992450587
 20
86.51999963760403
 30
0.0
 11
-125.2499992450587
 21
86.51999963760403
 31
0.0
  0
LINE
  5
F6
330
4E
100
AcDbEntity
  8
0
  6
Continuous
 62
     7
100
AcDbLine
 10
-118.5499992450587
 20
86.51999963760403
 30
0.0
 11
-119.0499992450587
 21
86.51999963760403
 31
0.0
  0
LINE
  5
F7
330
4E
100
AcDbEntity
  8
0
  6
Continuous
 62
     7
100
AcDbLine
 10
-112.601970858051
 20
86.51999963760403
 30
0.0
 11
-111.3416177467586
 21
86.51999963760403
 31
0.0
  0
LINE
  5
F8
330
4E
100
AcDbEntity
  8
0
  6
Continuous
 62
     7
100
AcDbLine
 10
-109.5013718680167
 20
86.51999963760403
 30
0.0
 11
-109.0472939868244
 21
86.51999963760403
 31
0.0
  0
LINE
  5
F9
330
4E
100
AcDbEntity
  8
0
  6
Continuous
 62
     7
100
AcDbLine
 10
-110.8081376425222
 20
86.51999963760403
 30
0.0
 11
-109.5013718680167
 21
86.51999963760403
 31
0.0
  0
LINE
  5
FA
330
4E
100
AcDbEntity
  8
0
  6
Continuous
 62
     7
100
AcDbLine
 10
-109.0472939868244
 20
86.51999963760403
 30
0.0
 11
-108.9833304522766
 21
86.51999963760403
 31
0.0
  0
LINE
  5
FB
330
4E
100
AcDbEntity
  8
0
  6
Continuous
 62
     7
100
AcDbLine
 10
-111.1607697910477
 20
86.51999963760403
 30
0.0
 11
-111.3416177467586
 21
86.51999963760403
 31
0.0
  0
LINE
  5
FC
330
4E
100
AcDbEntity
  8
0
  6
Continuous
 62
     7
100
AcDbLine
 10
-110.8081376425222
 20
86.51999963760403
 30
0.0
 11
-111.1607697910477
 21
86.51999963760403
 31
0.0
  0
LINE
  5
FD
330
4E
100
AcDbEntity
  8
0
  6
Continuous
 62
     7
100
AcDbLine
 10
-118.5499992450587
 20
86.51999963760403
 30
0.0
 11
-112.601970858051
 21
86.51999963760403
 31
0.0
  0
LINE
  5
FE
330
4E
100
AcDbEntity
  8
0
  6
Continuous
 62
     7
100
AcDbLine
 10
-119.0499992450587
 20
80.61999963760402
 30
0.0
 11
-125.2499992450587
 21
80.61999963760402
 31
0.0
  0
LINE
  5
FF
330
4E
100
AcDbEntity
  8
0
  6
Continuous
 62
     7
100
AcDbLine
 10
-125.7499992450587
 20
86.51999963760403
 30
0.0
 11
-125.7499992450587
 21
80.61999963760402
 31
0.0
  0
LINE
  5
100
330
4E
100
AcDbEntity
  8
0
  6
Continuous
 62
     7
100
AcDbLine
 10
-119.0499992450587
 20
86.51999963760403
 30
0.0
 11
-119.0499992450587
 21
80.61999963760402
 31
0.0
  0
LINE
  5
101
330
4E
100
AcDbEntity
  8
0
  6
Continuous
 62
     2
100
AcDbLine
 10
-118.5499992450587
 20
86.51999963760403
 30
0.0
 11
-118.5499992450587
 21
80.61999963760402
 31
0.0
  0
LINE
  5
102
330
4E
100
AcDbEntity
  8
0
  6
Continuous
 62
     7
100
AcDbLine
 10
-112.601970858051
 20
86.51999963760403
 30
0.0
 11
-112.601970858051
 21
80.61999963760402
 31
0.0
  0
LINE
  5
103
330
4E
100
AcDbEntity
  8
0
  6
Continuous
 62
     7
100
AcDbLine
 10
-109.5013718680167
 20
86.51999963760403
 30
0.0
 11
-109.5013718680167
 21
80.61999963760402
 31
0.0
  0
LINE
  5
104
330
4E
100
AcDbEntity
  8
0
  6
Continuous
 62
     7
100
AcDbLine
 10
-110.8081376425222
 20
86.51999963760403
 30
0.0
 11
-110.8081376425222
 21
80.61999963760402
 31
0.0
  0
LINE
  5
105
330
4E
100
AcDbEntity
  8
0
  6
Continuous
 62
     2
100
AcDbLine
 10
-111.3416177467586
 20
86.51999963760403
 30
0.0
 11
-111.3416177467586
 21
80.61999963760402
 31
0.0
  0
LINE
  5
106
330
4E
100
AcDbEntity
  8
0
  6
Continuous
 62
     7
100
AcDbLine
 10
-111.1607697910477
 20
80.61999963760402
 30
0.0
 11
-111.3416177467586
 21
80.61999963760402
 31
0.0
  0
LINE
  5
107
330
4E
100
AcDbEntity
  8
0
  6
Continuous
 62
     7
100
AcDbLine
 10
-110.8081376425222
 20
80.61999963760402
 30
0.0
 11
-111.1607697910477
 21
80.61999963760402
 31
0.0
  0
LINE
  5
108
330
4E
100
AcDbEntity
  8
0
  6
Continuous
 62
     7
100
AcDbLine
 10
-111.1607697910477
 20
86.51999963760403
 30
0.0
 11
-111.1607697910477
 21
80.61999963760402
 31
0.0
  0
LINE
  5
109
330
4E
100
AcDbEntity
  8
0
  6
Continuous
 62
     7
100
AcDbLine
 10
-118.5499992450587
 20
80.61999963760402
 30
0.0
 11
-119.0499992450587
 21
80.61999963760402
 31
0.0
  0
LINE
  5
10A
330
4E
100
AcDbEntity
  8
0
  6
Continuous
 62
     7
100
AcDbLine
 10
-125.2499992450587
 20
80.61999963760402
 30
0.0
 11
-125.7499992450587
 21
80.61999963760402
 31
0.0
  0
LINE
  5
10B
330
4E
100
AcDbEntity
  8
0
  6
Continuous
 62
     2
100
AcDbLine
 10
-125.2499992450587
 20
86.51999963760403
 30
0.0
 11
-125.2499992450587
 21
80.61999963760402
 31
0.0
  0
LINE
  5
10C
330
4E
100
AcDbEntity
  8
0
  6
Continuous
 62
     7
100
AcDbLine
 10
-125.2499992450587
 20
86.51999963760403
 30
0.0
 11
-125.7499992450587
 21
86.51999963760403
 31
0.0
  0
LINE
  5
10D
330
4E
100
AcDbEntity
  8
0
  6
Continuous
 62
     7
100
AcDbLine
 10
-126.7499992450587
 20
86.51999963760403
 30
0.0
 11
-125.7499992450587
 21
86.51999963760403
 31
0.0
  0
LINE
  5
10E
330
4E
100
AcDbEntity
  8
0
  6
Continuous
 62
     7
100
AcDbLine
 10
-126.7499992450587
 20
80.61999963760402
 30
0.0
 11
-125.7499992450587
 21
80.61999963760402
 31
0.0
  0
LINE
  5
10F
330
4E
100
AcDbEntity
  8
0
  6
Continuous
 62
     7
100
AcDbLine
 10
-126.7499992450587
 20
80.61999963760402
 30
0.0
 11
-126.7499992450587
 21
86.51999963760403
 31
0.0
  0
LINE
  5
110
330
4E
100
AcDbEntity
  8
0
  6
Continuous
 62
     7
100
AcDbLine
 10
-109.5013718680167
 20
80.61999963760402
 30
0.0
 11
-109.0472939868244
 21
80.61999963760402
 31
0.0
  0
LINE
  5
111
330
4E
100
AcDbEntity
  8
0
  6
Continuous
 62
     7
100
AcDbLine
 10
-110.8081376425222
 20
80.61999963760402
 30
0.0
 11
-109.5013718680167
 21
80.61999963760402
 31
0.0
  0
LINE
  5
112
330
4E
100
AcDbEntity
  8
0
  6
Continuous
 62
     7
100
AcDbLine
 10
-109.0472939868244
 20
80.61999963760402
 30
0.0
 11
-108.9833304522766
 21
80.61999963760402
 31
0.0
  0
LINE
  5
113
330
4E
100
AcDbEntity
  8
0
  6
Continuous
 62
     7
100
AcDbLine
 10
-106.5235756814096
 20
80.61999963760402
 30
0.0
 11
-107.5571244191427
 21
80.61999963760402
 31
0.0
  0
LINE
  5
114
330
4E
100
AcDbEntity
  8
0
  6
Continuous
 62
     7
100
AcDbLine
 10
-111.3416177467586
 20
80.61999963760402
 30
0.0
 11
-112.601970858051
 21
80.61999963760402
 31
0.0
  0
LINE
  5
115
330
4E
100
AcDbEntity
  8
0
  6
Continuous
 62
     7
100
AcDbLine
 10
-118.5499992450587
 20
80.61999963760402
 30
0.0
 11
-112.601970858051
 21
80.61999963760402
 31
0.0
  0
LINE
  5
116
330
4E
100
AcDbEntity
  8
0
  6
Continuous
 62
     7
100
AcDbLine
 10
-109.0472939868244
 20
86.51999963760403
 30
0.0
 11
-109.0472939868244
 21
80.61999963760402
 31
0.0
  0
LINE
  5
117
330
4E
100
AcDbEntity
  8
0
  6
Continuous
 62
     7
100
AcDbLine
 10
-108.9833304522766
 20
86.51999963760403
 30
0.0
 11
-108.9833304522766
 21
80.61999963760402
 31
0.0
  0
LINE
  5
118
330
4E
100
AcDbEntity
  8
0
  6
Continuous
 62
     2
100
AcDbLine
 10
-107.5571244191427
 20
86.51999963760403
 30
0.0
 11
-107.5571244191427
 21
80.61999963760402
 31
0.0
  0
LINE
  5
119
330
4E
100
AcDbEntity
  8
0
  6
Continuous
 62
     7
100
AcDbLine
 10
-108.9294534908406
 20
86.51999963760403
 30
0.0
 11
-107.5571244191427
 21
86.51999963760403
 31
0.0
  0
LINE
  5
11A
330
4E
100
AcDbEntity
  8
0
  6
Continuous
 62
     7
100
AcDbLine
 10
-108.9294534908406
 20
86.51999963760403
 30
0.0
 11
-108.9833304522766
 21
86.51999963760403
 31
0.0
  0
LINE
  5
11B
330
4E
100
AcDbEntity
  8
0
  6
Continuous
 62
     7
100
AcDbLine
 10
-108.9294534908406
 20
80.61999963760402
 30
0.0
 11
-107.5571244191427
 21
80.61999963760402
 31
0.0
  0
LINE
  5
11C
330
4E
100
AcDbEntity
  8
0
  6
Continuous
 62
     7
100
AcDbLine
 10
-108.9294534908406
 20
80.61999963760402
 30
0.0
 11
-108.9833304522766
 21
80.61999963760402
 31
0.0
  0
LINE
  5
11D
330
4E
100
AcDbEntity
  8
0
  6
Continuous
 62
     7
100
AcDbLine
 10
-108.9294534908406
 20
86.51999963760403
 30
0.0
 11
-108.9294534908406
 21
80.61999963760402
 31
0.0
  0
LINE
  5
11E
330
4E
100
AcDbEntity
  8
1
  6
DOT_CENTER
 62
     2
100
AcDbLine
 10
-120.1102397186397
 20
83.56999963760403
 30
0.0
 11
-124.8402397186396
 21
83.56999963760403
 31
0.0
  0
LINE
  5
11F
330
4E
100
AcDbEntity
  8
1
  6
DOT_CENTER
 62
     2
100
AcDbLine
 10
-122.4752397186396
 20
85.93499963760402
 30
0.0
 11
-122.4752397186396
 21
81.20499963760403
 31
0.0
  0
LINE
  5
120
330
4E
100
AcDbEntity
  8
1
  6
DOT_CENTER
 62
     2
100
AcDbLine
 10
-113.6576708244347
 20
83.56999963760403
 30
0.0
 11
-118.3876708244347
 21
83.56999963760403
 31
0.0
  0
LINE
  5
121
330
4E
100
AcDbEntity
  8
1
  6
DOT_CENTER
 62
     2
100
AcDbLine
 10
-116.0226708244347
 20
85.93499963760404
 30
0.0
 11
-116.0226708244347
 21
81.20499963760402
 31
0.0
  0
CIRCLE
  5
122
330
4E
100
AcDbEntity
  8
0
  6
Continuous
 62
     7
100
AcDbCircle
 10
-122.4752397186396
 20
83.56999963760403
 30
0.0
 40
2.149999999999906
  0
CIRCLE
  5
123
330
4E
100
AcDbEntity
  8
0
  6
Continuous
 62
     7
100
AcDbCircle
 10
-116.0226708244347
 20
83.56999963760403
 30
0.0
 40
2.149999999999991
  0
ENDBLK
  5
50
330
4E
100
AcDbEntity
  8
0
100
AcDbBlockEnd
  0
BLOCK
  5
53
330
51
100
AcDbEntity
  8
0
100
AcDbBlockBegin
  2
Drfsicht1
 70
     0
 10
-116.0126197893524
 20
83.56999958992031
 30
0.0
  3
Drfsicht1
  1

  0
INSERT
  5
52
330
51
100
AcDbEntity
  8
0
100
AcDbBlockReference
  2
0735032_DFK_WW_1x1-select__2
 10
-126.7499992450587
 20
80.61999963760402
 30
0.0
  0
MTEXT
  5
124
330
51
100
AcDbEntity
  8
1
 62
     6
100
AcDbMText
 10
-116.0126197893524
 20
75.61999954223643
 30
0.0
 40
5.0
 41
0.0
 71
     2
 72
     1
  1
 
  7
CONVERTER_11
 73
     1
 44
1.32052821128451
  0
ENDBLK
  5
54
330
51
100
AcDbEntity
  8
0
100
AcDbBlockEnd
  0
BLOCK
  5
56
330
55
100
AcDbEntity
  8
0
100
AcDbBlockBegin
  2
0735032_DFK_WW_1x1-select__3
 70
     0
 10
-28.05000075494161
 20
114.5199998541418
 30
0.0
  3
0735032_DFK_WW_1x1-select__3
  1

  0
LINE
  5
125
330
55
100
AcDbEntity
  8
0
  6
Continuous
 62
     7
100
AcDbLine
 10
-7.92476028136026
 20
143.4588773356843
 30
0.0
 11
-9.40070133578628
 21
138.9505903315906
 31
0.0
  0
LINE
  5
126
330
55
100
AcDbEntity
  8
0
  6
Continuous
 62
     7
100
AcDbLine
 10
-7.25000075494121
 20
146.4999998541418
 30
0.0
 11
-7.25000075494121
 21
148.5799998541418
 31
0.0
  0
LINE
  5
127
330
55
100
AcDbEntity
  8
0
  6
Continuous
 62
     7
100
AcDbLine
 10
-14.30000075494128
 20
138.5799998541418
 30
0.0
 11
-9.88366424893027
 21
138.5799998541418
 31
0.0
  0
LINE
  5
128
330
55
100
AcDbEntity
  8
0
  6
Continuous
 62
     7
100
AcDbLine
 10
-7.92476028136026
 20
143.4588773356843
 30
0.0
 11
-8.75000075494121
 21
143.6799998541419
 31
0.0
  0
LINE
  5
129
330
55
100
AcDbEntity
  8
0
  6
Continuous
 62
     7
100
AcDbLine
 10
-8.75000075494121
 20
143.6799998541419
 30
0.0
 11
-8.75000075494121
 21
146.1745547318956
 31
0.0
  0
LINE
  5
12A
330
55
100
AcDbEntity
  8
0
  6
Continuous
 62
     7
100
AcDbLine
 10
-14.95000075494125
 20
166.4799998541419
 30
0.0
 11
-8.75000075494121
 21
166.4799998541419
 31
0.0
  0
LINE
  5
12B
330
55
100
AcDbEntity
  8
0
  6
Continuous
 62
     7
100
AcDbLine
 10
-7.25000075494121
 20
148.5799998541418
 30
0.0
 11
-8.25000075494121
 21
148.5799998541418
 31
0.0
  0
LINE
  5
12C
330
55
100
AcDbEntity
  8
0
  6
Continuous
 62
     7
100
AcDbLine
 10
-28.05000075494128
 20
146.7799998541418
 30
0.0
 11
-28.05000075494161
 21
157.979999854142
 31
0.0
  0
LINE
  5
12D
330
55
100
AcDbEntity
  8
0
  6
Continuous
 62
     7
100
AcDbLine
 10
-24.75000075494121
 20
146.2799998541418
 30
0.0
 11
-24.75000075494121
 21
141.0799998541418
 31
0.0
  0
LINE
  5
12E
330
55
100
AcDbEntity
  8
0
  6
Continuous
 62
     7
100
AcDbLine
 10
-8.74453675494113
 20
146.1799998541418
 30
0.0
 11
-7.25000075494121
 21
146.4999998541418
 31
0.0
  0
LINE
  5
12F
330
55
100
AcDbEntity
  8
0
  6
Continuous
 62
     7
100
AcDbLine
 10
-8.75000075494121
 20
146.1745547318956
 30
0.0
 11
-8.74453675494113
 21
146.1799998541418
 31
0.0
  0
LINE
  5
130
330
55
100
AcDbEntity
  8
0
  6
Continuous
 62
     7
100
AcDbLine
 10
-24.75000075494121
 20
146.2799998541418
 30
0.0
 11
-27.55000075494128
 21
146.2799998541418
 31
0.0
  0
LINE
  5
131
330
55
100
AcDbEntity
  8
0
  6
Continuous
 62
     7
100
AcDbLine
 10
-15.30000075494128
 20
138.5799998541418
 30
0.0
 11
-15.30000075494128
 21
114.5199998541418
 31
0.0
  0
LINE
  5
132
330
55
100
AcDbEntity
  8
0
  6
Continuous
 62
     7
100
AcDbLine
 10
-16.35000075494124
 20
137.5799998541418
 30
0.0
 11
-21.25000075494121
 21
137.5799998541418
 31
0.0
  0
LINE
  5
133
330
55
100
AcDbEntity
  8
0
  6
Continuous
 62
     7
100
AcDbLine
 10
-15.85000075494124
 20
138.5799998541418
 30
0.0
 11
-15.85000075494124
 21
138.0799998541418
 31
0.0
  0
LINE
  5
134
330
55
100
AcDbEntity
  8
0
  6
Continuous
 62
     7
100
AcDbLine
 10
-15.85000075494124
 20
138.5799998541418
 30
0.0
 11
-15.30000075494128
 21
138.5799998541418
 31
0.0
  0
LINE
  5
135
330
55
100
AcDbEntity
  8
0
  6
Continuous
 62
     7
100
AcDbLine
 10
-22.97865057565322
 20
160.1666427968821
 30
0.0
 11
-24.49862813198321
 21
157.9958898795162
 31
0.0
  0
LINE
  5
136
330
55
100
AcDbEntity
  8
0
  6
Continuous
 62
     7
100
AcDbLine
 10
-25.07054650915929
 20
158.9010947780394
 30
0.0
 11
-26.44287558085717
 21
159.2023221323277
 31
0.0
  0
LINE
  5
137
330
55
100
AcDbEntity
  8
0
  6
Continuous
 62
     7
100
AcDbLine
 10
-24.49862813198321
 20
157.9958898795162
 30
0.0
 11
-25.13756672652927
 21
158.4432794998702
 31
0.0
  0
LINE
  5
138
330
55
100
AcDbEntity
  8
0
  6
Continuous
 62
     7
100
AcDbLine
 10
-20.88509658297222
 20
163.156547758537
 30
0.0
 11
-22.40507413930222
 21
160.9857948411712
 31
0.0
  0
LINE
  5
139
330
55
100
AcDbEntity
  8
0
  6
Continuous
 62
     7
100
AcDbLine
 10
-21.39802914194891
 20
167.4799998541419
 30
0.0
 11
-22.65838225324127
 21
165.6800290704585
 31
0.0
  0
LINE
  5
13A
330
55
100
AcDbEntity
  8
0
  6
Continuous
 62
     7
100
AcDbLine
 10
-21.68176869751427
 20
163.3786705667112
 30
0.0
 11
-21.52403517751726
 21
163.6039373788908
 31
0.0
  0
LINE
  5
13B
330
55
100
AcDbEntity
  8
0
  6
Continuous
 62
     7
100
AcDbLine
 10
-22.68374385954122
 20
164.5709186072063
 30
0.0
 11
-21.93131855174524
 21
163.3843769281288
 31
0.0
  0
LINE
  5
13C
330
55
100
AcDbEntity
  8
0
  6
Continuous
 62
     7
100
AcDbLine
 10
-21.39802914194891
 20
167.4799998541419
 30
0.0
 11
-15.45000075494125
 21
167.4799998541419
 31
0.0
  0
LINE
  5
13D
330
55
100
AcDbEntity
  8
0
  6
Continuous
 62
     7
100
AcDbLine
 10
-14.95000075494125
 20
166.9799998541419
 30
0.0
 11
-14.95000075494125
 21
166.4799998541419
 31
0.0
  0
LINE
  5
13E
330
55
100
AcDbEntity
  8
0
  6
Continuous
 62
     7
100
AcDbLine
 10
-21.52403517751726
 20
163.6039373788908
 30
0.0
 11
-20.88509658297222
 21
163.156547758537
 31
0.0
  0
LINE
  5
13F
330
55
100
AcDbEntity
  8
0
  6
Continuous
 62
     7
100
AcDbLine
 10
-25.13756672652927
 20
158.4432794998702
 30
0.0
 11
-24.97983320653226
 21
158.6685463120496
 31
0.0
  0
LINE
  5
140
330
55
100
AcDbEntity
  8
0
  6
Continuous
 62
     7
100
AcDbLine
 10
-27.47642431859028
 20
158.7991518984309
 30
0.0
 11
-28.05000075494161
 21
157.979999854142
 31
0.0
  0
LINE
  5
141
330
55
100
AcDbEntity
  8
0
  6
Continuous
 62
     7
100
AcDbLine
 10
-8.25000075494121
 20
165.9799998541419
 30
0.0
 11
-8.25000075494121
 21
148.5799998541418
 31
0.0
  0
LINE
  5
142
330
55
100
AcDbEntity
  8
0
  6
Continuous
 62
     7
100
AcDbLine
 10
-15.30000075494128
 20
138.5799998541418
 30
0.0
 11
-14.30000075494128
 21
138.5799998541418
 31
0.0
  0
LINE
  5
143
330
55
100
AcDbEntity
  8
0
  6
Continuous
 62
     7
100
AcDbLine
 10
-14.30000075494128
 20
114.5199998541418
 30
0.0
 11
-15.30000075494128
 21
114.5199998541418
 31
0.0
  0
LINE
  5
144
330
55
100
AcDbEntity
  8
0
  6
Continuous
 62
     7
100
AcDbLine
 10
-14.30000075494128
 20
138.5799998541418
 30
0.0
 11
-14.30000075494128
 21
114.5199998541418
 31
0.0
  0
ARC
  5
145
330
55
100
AcDbEntity
  8
0
  6
Continuous
 62
     7
100
AcDbCircle
 10
-21.25000075494121
 20
141.0799998541418
 30
0.0
 40
3.5
100
AcDbArc
 50
180.0
 51
270.0
  0
ARC
  5
146
330
55
100
AcDbEntity
  8
0
  6
Continuous
 62
     7
100
AcDbCircle
 10
-9.88366424893027
 20
139.0799998541418
 30
0.0
 40
0.5
100
AcDbArc
 50
270.0
 51
344.999999999992
  0
ARC
  5
147
330
55
100
AcDbEntity
  8
0
  6
Continuous
 62
     7
100
AcDbCircle
 10
-27.55000075494128
 20
146.7799998541418
 30
0.0
 40
0.5
100
AcDbArc
 50
180.0
 51
270.0
  0
ARC
  5
148
330
55
100
AcDbEntity
  8
0
  6
Continuous
 62
     7
100
AcDbCircle
 10
-16.35000075494124
 20
138.0799998541418
 30
0.0
 40
0.5
100
AcDbArc
 50
270.0
 51
0.0
  0
ARC
  5
149
330
55
100
AcDbEntity
  8
0
  6
Continuous
 62
     7
100
AcDbCircle
 10
-26.65727227430126
 20
158.2255754620798
 30
0.0
 40
1.000000000000065
100
AcDbArc
 50
77.61986494801606
 51
144.9999999999989
  0
ARC
  5
14A
330
55
100
AcDbEntity
  8
0
  6
Continuous
 62
     7
100
AcDbCircle
 10
-22.69186235747726
 20
160.5762188190265
 30
0.0
 40
0.4999999999998945
100
AcDbArc
 50
55.00000000005907
 51
234.999999999954
  0
ARC
  5
14B
330
55
100
AcDbEntity
  8
0
  6
Continuous
 62
     7
100
AcDbCircle
 10
-21.83923020895227
 20
165.1064526341074
 30
0.0
 40
1.000000000000033
100
AcDbArc
 50
144.9999999999983
 51
212.3801350519686
  0
ARC
  5
14C
330
55
100
AcDbEntity
  8
0
  6
Continuous
 62
     7
100
AcDbCircle
 10
-15.45000075494125
 20
166.9799998541419
 30
0.0
 40
0.5
100
AcDbArc
 50
0.0
 51
90.0
  0
ARC
  5
14D
330
55
100
AcDbEntity
  8
0
  6
Continuous
 62
     7
100
AcDbCircle
 10
-21.8046415041572
 20
163.4647070321639
 30
0.0
 40
0.1499999999996995
100
AcDbArc
 50
212.3801350520044
 51
324.9999999999015
  0
ARC
  5
14E
330
55
100
AcDbEntity
  8
0
  6
Continuous
 62
     7
100
AcDbCircle
 10
-25.10270601317519
 20
158.7545827775021
 30
0.0
 40
0.1499999999995565
100
AcDbArc
 50
324.9999999999638
 51
55.00000000026623
  0
ARC
  5
14F
330
55
100
AcDbEntity
  8
0
  6
Continuous
 62
     7
100
AcDbCircle
 10
-25.10346202117217
 20
158.7528597317062
 30
0.0
 40
0.1518455132444713
100
AcDbArc
 50
55.13923958783051
 51
77.48062536020035
  0
ARC
  5
150
330
55
100
AcDbEntity
  8
0
  6
Continuous
 62
     7
100
AcDbCircle
 10
-8.75000075494121
 20
165.9799998541419
 30
0.0
 40
0.5
100
AcDbArc
 50
0.0
 51
90.0
  0
ENDBLK
  5
57
330
55
100
AcDbEntity
  8
0
100
AcDbBlockEnd
  0
BLOCK
  5
5A
330
58
100
AcDbEntity
  8
0
100
AcDbBlockBegin
  2
Rckans1
 70
     0
 10
-17.98738021064754
 20
142.0000000000751
 30
0.0
  3
Rckans1
  1

  0
INSERT
  5
59
330
58
100
AcDbEntity
  8
0
100
AcDbBlockReference
  2
0735032_DFK_WW_1x1-select__3
 10
-28.05000075494161
 20
114.5199998541418
 30
0.0
  0
MTEXT
  5
151
330
58
100
AcDbEntity
  8
1
 62
     6
100
AcDbMText
 10
-17.98738021064753
 20
111.5200004578387
 30
0.0
 40
5.0
 41
0.0
 71
     2
 72
     1
  1
 
  7
CONVERTER_11
 73
     1
 44
1.32052821128451
  0
ENDBLK
  5
5B
330
58
100
AcDbEntity
  8
0
100
AcDbBlockEnd
  0
BLOCK
  5
5D
330
5C
100
AcDbEntity
  8
0
100
AcDbBlockBegin
  2
0735032_DFK_WW_1x1-select__4
 70
     0
 10
-59.76340077677192
 20
114.5199998542168
 30
0.0
  3
0735032_DFK_WW_1x1-select__4
  1

  0
LINE
  5
152
330
5C
100
AcDbEntity
  8
0
  6
Continuous
 62
     7
100
AcDbLine
 10
-57.31340077677191
 20
138.5799998542168
 30
0.0
 11
-57.31340077677191
 21
114.5199998542168
 31
0.0
  0
LINE
  5
153
330
5C
100
AcDbEntity
  8
0
  6
Continuous
 62
     7
100
AcDbLine
 10
-59.76340077677192
 20
166.9799998542169
 30
0.0
 11
-59.76340077677192
 21
166.4799998542169
 31
0.0
  0
LINE
  5
154
330
5C
100
AcDbEntity
  8
0
  6
Continuous
 62
     7
100
AcDbLine
 10
-59.76340077677192
 20
166.4799998542169
 30
0.0
 11
-59.76340077677192
 21
165.9799998542169
 31
0.0
  0
LINE
  5
155
330
5C
100
AcDbEntity
  8
0
  6
Continuous
 62
     7
100
AcDbLine
 10
-59.76340077677192
 20
167.4799998542169
 30
0.0
 11
-59.76340077677192
 21
166.9799998542169
 31
0.0
  0
LINE
  5
156
330
5C
100
AcDbEntity
  8
0
  6
Continuous
 62
     7
100
AcDbLine
 10
-56.31340077677191
 20
138.5799998542168
 30
0.0
 11
-56.31340077677191
 21
114.5199998542168
 31
0.0
  0
LINE
  5
157
330
5C
100
AcDbEntity
  8
0
  6
Continuous
 62
     7
100
AcDbLine
 10
-59.76340077677192
 20
146.4999998542168
 30
0.0
 11
-59.76340077677192
 21
148.5799998542168
 31
0.0
  0
LINE
  5
158
330
5C
100
AcDbEntity
  8
0
  6
Continuous
 62
     7
100
AcDbLine
 10
-59.76340077677192
 20
138.5799998542173
 30
0.0
 11
-59.76340077677192
 21
138.0799998542168
 31
0.0
  0
LINE
  5
159
330
5C
100
AcDbEntity
  8
0
  6
Continuous
 62
     7
100
AcDbLine
 10
-59.76340077677192
 20
138.9505903316656
 30
0.0
 11
-59.76340077677192
 21
138.5799998542173
 31
0.0
  0
LINE
  5
15A
330
5C
100
AcDbEntity
  8
0
  6
Continuous
 62
     7
100
AcDbLine
 10
-59.76340077677192
 20
143.4588773357593
 30
0.0
 11
-59.76340077677192
 21
138.9505903316656
 31
0.0
  0
LINE
  5
15B
330
5C
100
AcDbEntity
  8
0
  6
Continuous
 62
     7
100
AcDbLine
 10
-59.76340077677192
 20
146.1799998542168
 30
0.0
 11
-59.76340077677192
 21
146.4999998542168
 31
0.0
  0
LINE
  5
15C
330
5C
100
AcDbEntity
  8
0
  6
Continuous
 62
     7
100
AcDbLine
 10
-59.76340077677192
 20
143.6799998542169
 30
0.0
 11
-59.76340077677192
 21
146.1745547319706
 31
0.0
  0
LINE
  5
15D
330
5C
100
AcDbEntity
  8
0
  6
Continuous
 62
     7
100
AcDbLine
 10
-59.76340077677192
 20
146.1745547319706
 30
0.0
 11
-59.76340077677192
 21
146.1799998542168
 31
0.0
  0
LINE
  5
15E
330
5C
100
AcDbEntity
  8
0
  6
Continuous
 62
     7
100
AcDbLine
 10
-59.76340077677192
 20
143.4588773357593
 30
0.0
 11
-59.76340077677192
 21
143.6799998542169
 31
0.0
  0
LINE
  5
15F
330
5C
100
AcDbEntity
  8
0
  6
Continuous
 62
     7
100
AcDbLine
 10
-59.76340077677192
 20
138.0799998542168
 30
0.0
 11
-59.76340077677192
 21
137.5799998542168
 31
0.0
  0
LINE
  5
160
330
5C
100
AcDbEntity
  8
0
  6
Continuous
 62
     7
100
AcDbLine
 10
-57.31340077677191
 20
114.5199998542168
 30
0.0
 11
-56.31340077677191
 21
114.5199998542168
 31
0.0
  0
LINE
  5
161
330
5C
100
AcDbEntity
  8
0
  6
Continuous
 62
     7
100
AcDbLine
 10
-56.31340077677191
 20
137.5799998542168
 30
0.0
 11
-53.86340077677192
 21
137.5799998542168
 31
0.0
  0
LINE
  5
162
330
5C
100
AcDbEntity
  8
0
  6
Continuous
 62
     2
100
AcDbLine
 10
-56.31340077677191
 20
138.0799998542168
 30
0.0
 11
-53.86340077677192
 21
138.0799998542168
 31
0.0
  0
LINE
  5
163
330
5C
100
AcDbEntity
  8
0
  6
Continuous
 62
     7
100
AcDbLine
 10
-56.31340077677191
 20
138.5799998542168
 30
0.0
 11
-53.86340077677192
 21
138.5799998542173
 31
0.0
  0
LINE
  5
164
330
5C
100
AcDbEntity
  8
0
  6
Continuous
 62
     7
100
AcDbLine
 10
-59.76340077677192
 20
138.9505903316656
 30
0.0
 11
-53.86340077677192
 21
138.9505903316656
 31
0.0
  0
LINE
  5
165
330
5C
100
AcDbEntity
  8
0
  6
Continuous
 62
     7
100
AcDbLine
 10
-59.76340077677192
 20
143.4588773357593
 30
0.0
 11
-53.86340077677192
 21
143.4588773357593
 31
0.0
  0
LINE
  5
166
330
5C
100
AcDbEntity
  8
0
  6
Continuous
 62
     7
100
AcDbLine
 10
-59.76340077677192
 20
146.1745547319706
 30
0.0
 11
-53.86340077677192
 21
146.1745547319706
 31
0.0
  0
LINE
  5
167
330
5C
100
AcDbEntity
  8
0
  6
Continuous
 62
     7
100
AcDbLine
 10
-53.86340077677192
 20
143.6799998542169
 30
0.0
 11
-53.86340077677192
 21
146.1745547319706
 31
0.0
  0
LINE
  5
168
330
5C
100
AcDbEntity
  8
0
  6
Continuous
 62
     7
100
AcDbLine
 10
-59.76340077677192
 20
143.6799998542169
 30
0.0
 11
-53.86340077677192
 21
143.6799998542169
 31
0.0
  0
LINE
  5
169
330
5C
100
AcDbEntity
  8
0
  6
Continuous
 62
     7
100
AcDbLine
 10
-53.86340077677192
 20
143.4588773357593
 30
0.0
 11
-53.86340077677192
 21
143.6799998542169
 31
0.0
  0
LINE
  5
16A
330
5C
100
AcDbEntity
  8
0
  6
Continuous
 62
     7
100
AcDbLine
 10
-53.86340077677192
 20
143.4588773357593
 30
0.0
 11
-53.86340077677192
 21
138.9505903316656
 31
0.0
  0
LINE
  5
16B
330
5C
100
AcDbEntity
  8
0
  6
Continuous
 62
     7
100
AcDbLine
 10
-53.86340077677192
 20
138.9505903316656
 30
0.0
 11
-53.86340077677192
 21
138.5799998542173
 31
0.0
  0
LINE
  5
16C
330
5C
100
AcDbEntity
  8
0
  6
Continuous
 62
     7
100
AcDbLine
 10
-59.76340077677192
 20
138.5799998542173
 30
0.0
 11
-57.31340077677191
 21
138.5799998542168
 31
0.0
  0
LINE
  5
16D
330
5C
100
AcDbEntity
  8
0
  6
Continuous
 62
     7
100
AcDbLine
 10
-57.31340077677191
 20
138.5799998542168
 30
0.0
 11
-56.31340077677191
 21
138.5799998542168
 31
0.0
  0
LINE
  5
16E
330
5C
100
AcDbEntity
  8
0
  6
Continuous
 62
     7
100
AcDbLine
 10
-53.86340077677192
 20
138.5799998542173
 30
0.0
 11
-53.86340077677192
 21
138.0799998542168
 31
0.0
  0
LINE
  5
16F
330
5C
100
AcDbEntity
  8
0
  6
Continuous
 62
     2
100
AcDbLine
 10
-59.76340077677192
 20
138.0799998542168
 30
0.0
 11
-57.31340077677191
 21
138.0799998542168
 31
0.0
  0
LINE
  5
170
330
5C
100
AcDbEntity
  8
0
  6
Continuous
 62
     7
100
AcDbLine
 10
-53.86340077677192
 20
138.0799998542168
 30
0.0
 11
-53.86340077677192
 21
137.5799998542168
 31
0.0
  0
LINE
  5
171
330
5C
100
AcDbEntity
  8
0
  6
Continuous
 62
     7
100
AcDbLine
 10
-59.76340077677192
 20
137.5799998542168
 30
0.0
 11
-57.31340077677191
 21
137.5799998542168
 31
0.0
  0
LINE
  5
172
330
5C
100
AcDbEntity
  8
0
  6
Continuous
 62
     7
100
AcDbLine
 10
-53.86340077677192
 20
166.9799998542169
 30
0.0
 11
-53.86340077677192
 21
166.4799998542169
 31
0.0
  0
LINE
  5
173
330
5C
100
AcDbEntity
  8
0
  6
Continuous
 62
     7
100
AcDbLine
 10
-53.86340077677192
 20
166.4799998542169
 30
0.0
 11
-53.86340077677192
 21
165.9799998542169
 31
0.0
  0
LINE
  5
174
330
5C
100
AcDbEntity
  8
0
  6
Continuous
 62
     7
100
AcDbLine
 10
-53.86340077677192
 20
167.4799998542169
 30
0.0
 11
-53.86340077677192
 21
166.9799998542169
 31
0.0
  0
LINE
  5
175
330
5C
100
AcDbEntity
  8
0
  6
Continuous
 62
     7
100
AcDbLine
 10
-53.86340077677192
 20
146.4999998542168
 30
0.0
 11
-53.86340077677192
 21
148.5799998542168
 31
0.0
  0
LINE
  5
176
330
5C
100
AcDbEntity
  8
0
  6
Continuous
 62
     7
100
AcDbLine
 10
-53.86340077677192
 20
165.9799998542169
 30
0.0
 11
-53.86340077677192
 21
148.5799998542168
 31
0.0
  0
LINE
  5
177
330
5C
100
AcDbEntity
  8
0
  6
Continuous
 62
     7
100
AcDbLine
 10
-53.86340077677192
 20
146.1745547319706
 30
0.0
 11
-53.86340077677192
 21
146.1799998542168
 31
0.0
  0
LINE
  5
178
330
5C
100
AcDbEntity
  8
0
  6
Continuous
 62
     7
100
AcDbLine
 10
-53.86340077677192
 20
146.1799998542168
 30
0.0
 11
-53.86340077677192
 21
146.4999998542168
 31
0.0
  0
LINE
  5
179
330
5C
100
AcDbEntity
  8
0
  6
Continuous
 62
     7
100
AcDbLine
 10
-59.76340077677192
 20
165.9799998542169
 30
0.0
 11
-59.76340077677192
 21
148.5799998542168
 31
0.0
  0
LINE
  5
17A
330
5C
100
AcDbEntity
  8
0
  6
Continuous
 62
     7
100
AcDbLine
 10
-59.76340077677192
 20
167.4799998542169
 30
0.0
 11
-53.86340077677192
 21
167.4799998542169
 31
0.0
  0
LINE
  5
17B
330
5C
100
AcDbEntity
  8
0
  6
Continuous
 62
     2
100
AcDbLine
 10
-59.76340077677192
 20
166.9799998542169
 30
0.0
 11
-53.86340077677192
 21
166.9799998542169
 31
0.0
  0
LINE
  5
17C
330
5C
100
AcDbEntity
  8
0
  6
Continuous
 62
     2
100
AcDbLine
 10
-59.76340077677192
 20
165.9799998542169
 30
0.0
 11
-53.86340077677192
 21
165.9799998542169
 31
0.0
  0
LINE
  5
17D
330
5C
100
AcDbEntity
  8
0
  6
Continuous
 62
     7
100
AcDbLine
 10
-59.76340077677192
 20
166.4799998542169
 30
0.0
 11
-53.86340077677192
 21
166.4799998542169
 31
0.0
  0
LINE
  5
17E
330
5C
100
AcDbEntity
  8
0
  6
Continuous
 62
     7
100
AcDbLine
 10
-53.86340077677192
 20
146.1799998542168
 30
0.0
 11
-59.76340077677192
 21
146.1799998542168
 31
0.0
  0
LINE
  5
17F
330
5C
100
AcDbEntity
  8
0
  6
Continuous
 62
     7
100
AcDbLine
 10
-53.86340077677192
 20
146.4999998542168
 30
0.0
 11
-59.76340077677192
 21
146.4999998542168
 31
0.0
  0
LINE
  5
180
330
5C
100
AcDbEntity
  8
0
  6
Continuous
 62
     7
100
AcDbLine
 10
-53.86340077677192
 20
148.5799998542168
 30
0.0
 11
-59.76340077677192
 21
148.5799998542168
 31
0.0
  0
ENDBLK
  5
5E
330
5C
100
AcDbEntity
  8
0
100
AcDbBlockEnd
  0
BLOCK
  5
61
330
5F
100
AcDbEntity
  8
0
100
AcDbBlockBegin
  2
SA_Links1
 70
     0
 10
-56.8134007290882
 20
142.00000000015
 30
0.0
  3
SA_Links1
  1

  0
INSERT
  5
60
330
5F
100
AcDbEntity
  8
0
100
AcDbBlockReference
  2
0735032_DFK_WW_1x1-select__4
 10
-59.76340077677192
 20
114.5199998542168
 30
0.0
  0
MTEXT
  5
181
330
5F
100
AcDbEntity
  8
1
 62
     6
100
AcDbMText
 10
-56.8134007290882
 20
111.5200004579137
 30
0.0
 40
5.0
 41
0.0
 71
     2
 72
     1
  1
 
  7
CONVERTER_11
 73
     1
 44
1.32052821128451
  0
DIMENSION
  5
18E
330
5F
100
AcDbEntity
  8
1
100
AcDbDimension
  2
*D16
 10
-59.76340077677192
 20
175.558484082724
 30
0.0
 11
-45.4388308616564
 21
179.483484082724
 31
0.0
 70
    32
  1
<>
 71
     5
 42
-1.0
 53
0.00013888888889
  3
ME10_DIM_10
100
AcDbAlignedDimension
 13
-53.86340077677192
 23
148.5799998542168
 33
0.0
 14
-59.76340077677192
 24
148.5799998542168
 34
0.0
100
AcDbRotatedDimension
  0
ENDBLK
  5
62
330
5F
100
AcDbEntity
  8
0
100
AcDbBlockEnd
  0
BLOCK
  5
64
330
63
100
AcDbEntity
  8
0
100
AcDbBlockBegin
  2
0735032_DFK_WW_1x1-select__5
 70
     0
 10
-162.9752395310212
 20
114.5199998541418
 30
0.0
  3
0735032_DFK_WW_1x1-select__5
  1

  0
LINE
  5
18F
330
63
100
AcDbEntity
  8
0
  6
Continuous
 62
     7
100
AcDbLine
 10
-160.5252395310212
 20
137.5799998541418
 30
0.0
 11
-160.5252395310212
 21
114.5199998541418
 31
0.0
  0
LINE
  5
190
330
63
100
AcDbEntity
  8
0
  6
Continuous
 62
     7
100
AcDbLine
 10
-162.2752395310212
 20
148.2799998541418
 30
0.0
 11
-157.7752395310212
 21
148.2799998541418
 31
0.0
  0
LINE
  5
191
330
63
100
AcDbEntity
  8
0
  6
Continuous
 62
     2
100
AcDbLine
 10
-157.0752395310212
 20
146.7799998541418
 30
0.0
 11
-162.9752395310212
 21
146.7799998541418
 31
0.0
  0
LINE
  5
192
330
63
100
AcDbEntity
  8
0
  6
Continuous
 62
     7
100
AcDbLine
 10
-157.0752395310212
 20
146.2799998541418
 30
0.0
 11
-162.9752395310212
 21
146.2799998541418
 31
0.0
  0
LINE
  5
193
330
63
100
AcDbEntity
  8
0
  6
Continuous
 62
     7
100
AcDbLine
 10
-162.9752395310212
 20
163.156547758537
 30
0.0
 11
-162.9752395310212
 21
161.076218819027
 31
0.0
  0
LINE
  5
194
330
63
100
AcDbEntity
  8
0
  6
Continuous
 62
     7
100
AcDbLine
 10
-162.9752395310212
 20
157.979999854142
 30
0.0
 11
-162.9752395310212
 21
146.7799998541418
 31
0.0
  0
LINE
  5
195
330
63
100
AcDbEntity
  8
0
  6
Continuous
 62
     7
100
AcDbLine
 10
-162.9752395310212
 20
146.2799998541418
 30
0.0
 11
-162.9752395310212
 21
146.7799998541418
 31
0.0
  0
LINE
  5
196
330
63
100
AcDbEntity
  8
0
  6
Continuous
 62
     7
100
AcDbLine
 10
-162.9752395310212
 20
163.3843769281288
 30
0.0
 11
-162.9752395310212
 21
163.3147070321637
 31
0.0
  0
LINE
  5
197
330
63
100
AcDbEntity
  8
0
  6
Continuous
 62
     7
100
AcDbLine
 10
-162.9752395310212
 20
163.3147070321637
 30
0.0
 11
-162.9752395310212
 21
163.156547758537
 31
0.0
  0
LINE
  5
198
330
63
100
AcDbEntity
  8
0
  6
Continuous
 62
     7
100
AcDbLine
 10
-162.9752395310212
 20
159.2255754620798
 30
0.0
 11
-162.9752395310212
 21
158.7991518984309
 31
0.0
  0
LINE
  5
199
330
63
100
AcDbEntity
  8
0
  6
Continuous
 62
     7
100
AcDbLine
 10
-162.9752395310212
 20
160.1666427968821
 30
0.0
 11
-162.9752395310212
 21
159.2255754620798
 31
0.0
  0
LINE
  5
19A
330
63
100
AcDbEntity
  8
0
  6
Continuous
 62
     7
100
AcDbLine
 10
-162.9752395310212
 20
161.076218819027
 30
0.0
 11
-162.9752395310212
 21
160.1666427968821
 31
0.0
  0
LINE
  5
19B
330
63
100
AcDbEntity
  8
0
  6
Continuous
 62
     7
100
AcDbLine
 10
-157.0752395310212
 20
163.156547758537
 30
0.0
 11
-157.0752395310212
 21
161.076218819027
 31
0.0
  0
LINE
  5
19C
330
63
100
AcDbEntity
  8
0
  6
Continuous
 62
     7
100
AcDbLine
 10
-157.0752395310212
 20
164.5709186072063
 30
0.0
 11
-157.0752395310212
 21
165.6800290704585
 31
0.0
  0
LINE
  5
19D
330
63
100
AcDbEntity
  8
0
  6
Continuous
 62
     7
100
AcDbLine
 10
-157.0752395310212
 20
160.1666427968821
 30
0.0
 11
-157.0752395310212
 21
159.2255754620798
 31
0.0
  0
LINE
  5
19E
330
63
100
AcDbEntity
  8
0
  6
Continuous
 62
     7
100
AcDbLine
 10
-157.0752395310212
 20
159.2255754620798
 30
0.0
 11
-157.0752395310212
 21
158.7991518984309
 31
0.0
  0
LINE
  5
19F
330
63
100
AcDbEntity
  8
0
  6
Continuous
 62
     7
100
AcDbLine
 10
-157.0752395310212
 20
146.7799998541418
 30
0.0
 11
-157.0752395310212
 21
157.979999854142
 31
0.0
  0
LINE
  5
1A0
330
63
100
AcDbEntity
  8
0
  6
Continuous
 62
     7
100
AcDbLine
 10
-157.0752395310212
 20
146.2799998541418
 30
0.0
 11
-157.0752395310212
 21
146.7799998541418
 31
0.0
  0
LINE
  5
1A1
330
63
100
AcDbEntity
  8
0
  6
Continuous
 62
     7
100
AcDbLine
 10
-157.0752395310212
 20
161.076218819027
 30
0.0
 11
-157.0752395310212
 21
160.1666427968821
 31
0.0
  0
LINE
  5
1A2
330
63
100
AcDbEntity
  8
0
  6
Continuous
 62
     7
100
AcDbLine
 10
-157.0752395310212
 20
163.3147070321637
 30
0.0
 11
-157.0752395310212
 21
163.156547758537
 31
0.0
  0
LINE
  5
1A3
330
63
100
AcDbEntity
  8
0
  6
Continuous
 62
     7
100
AcDbLine
 10
-157.0752395310212
 20
164.5709186072063
 30
0.0
 11
-157.0752395310212
 21
163.3843769281288
 31
0.0
  0
LINE
  5
1A4
330
63
100
AcDbEntity
  8
0
  6
Continuous
 62
     7
100
AcDbLine
 10
-157.0752395310212
 20
163.3843769281288
 30
0.0
 11
-157.0752395310212
 21
163.3147070321637
 31
0.0
  0
LINE
  5
1A5
330
63
100
AcDbEntity
  8
0
  6
Continuous
 62
     7
100
AcDbLine
 10
-157.0752395310212
 20
167.4799998541419
 30
0.0
 11
-157.0752395310212
 21
165.6800290704585
 31
0.0
  0
LINE
  5
1A6
330
63
100
AcDbEntity
  8
0
  6
Continuous
 62
     7
100
AcDbLine
 10
-162.9752395310212
 20
146.2799998541418
 30
0.0
 11
-162.9752395310212
 21
141.0799998541418
 31
0.0
  0
LINE
  5
1A7
330
63
100
AcDbEntity
  8
0
  6
Continuous
 62
     7
100
AcDbLine
 10
-157.0752395310212
 20
137.5799998541418
 30
0.0
 11
-162.9752395310212
 21
137.5799998541418
 31
0.0
  0
LINE
  5
1A8
330
63
100
AcDbEntity
  8
0
  6
Continuous
 62
     7
100
AcDbLine
 10
-157.0752395310212
 20
137.5799998541418
 30
0.0
 11
-157.0752395310212
 21
141.0799998541418
 31
0.0
  0
LINE
  5
1A9
330
63
100
AcDbEntity
  8
0
  6
Continuous
 62
     7
100
AcDbLine
 10
-162.9752395310212
 20
137.5799998541418
 30
0.0
 11
-162.9752395310212
 21
141.0799998541418
 31
0.0
  0
LINE
  5
1AA
330
63
100
AcDbEntity
  8
0
  6
Continuous
 62
     2
100
AcDbLine
 10
-157.0752395310212
 20
141.0799998541418
 30
0.0
 11
-162.9752395310212
 21
141.0799998541418
 31
0.0
  0
LINE
  5
1AB
330
63
100
AcDbEntity
  8
0
  6
Continuous
 62
     7
100
AcDbLine
 10
-157.0752395310212
 20
167.4799998541419
 30
0.0
 11
-162.9752395310212
 21
167.4799998541419
 31
0.0
  0
LINE
  5
1AC
330
63
100
AcDbEntity
  8
0
  6
Continuous
 62
     2
100
AcDbLine
 10
-157.0752395310212
 20
165.6800290704585
 30
0.0
 11
-162.9752395310212
 21
165.6800290704585
 31
0.0
  0
LINE
  5
1AD
330
63
100
AcDbEntity
  8
0
  6
Continuous
 62
     2
100
AcDbLine
 10
-157.0752395310212
 20
164.5709186072063
 30
0.0
 11
-162.9752395310212
 21
164.5709186072063
 31
0.0
  0
LINE
  5
1AE
330
63
100
AcDbEntity
  8
0
  6
Continuous
 62
     2
100
AcDbLine
 10
-157.0752395310212
 20
163.3843769281288
 30
0.0
 11
-162.9752395310212
 21
163.3843769281288
 31
0.0
  0
LINE
  5
1AF
330
63
100
AcDbEntity
  8
0
  6
Continuous
 62
     7
100
AcDbLine
 10
-157.0752395310212
 20
163.156547758537
 30
0.0
 11
-162.9752395310212
 21
163.156547758537
 31
0.0
  0
LINE
  5
1B0
330
63
100
AcDbEntity
  8
0
  6
Continuous
 62
     7
100
AcDbLine
 10
-157.0752395310212
 20
160.1666427968821
 30
0.0
 11
-162.9752395310212
 21
160.1666427968821
 31
0.0
  0
LINE
  5
1B1
330
63
100
AcDbEntity
  8
0
  6
Continuous
 62
     7
100
AcDbLine
 10
-157.7752395310212
 20
157.979999854142
 30
0.0
 11
-162.2752395310212
 21
157.979999854142
 31
0.0
  0
LINE
  5
1B2
330
63
100
AcDbEntity
  8
0
  6
Continuous
 62
     2
100
AcDbLine
 10
-157.0752395310212
 20
158.7991518984309
 30
0.0
 11
-162.9752395310212
 21
158.7991518984309
 31
0.0
  0
LINE
  5
1B3
330
63
100
AcDbEntity
  8
0
  6
Continuous
 62
     7
100
AcDbLine
 10
-157.0752395310212
 20
157.979999854142
 30
0.0
 11
-157.7752395310212
 21
157.979999854142
 31
0.0
  0
LINE
  5
1B4
330
63
100
AcDbEntity
  8
0
  6
Continuous
 62
     7
100
AcDbLine
 10
-162.9752395310212
 20
158.7991518984309
 30
0.0
 11
-162.9752395310212
 21
157.979999854142
 31
0.0
  0
LINE
  5
1B5
330
63
100
AcDbEntity
  8
0
  6
Continuous
 62
     7
100
AcDbLine
 10
-157.0752395310212
 20
158.7991518984309
 30
0.0
 11
-157.0752395310212
 21
157.979999854142
 31
0.0
  0
LINE
  5
1B6
330
63
100
AcDbEntity
  8
0
  6
Continuous
 62
     7
100
AcDbLine
 10
-157.0752395310212
 20
159.2255754620798
 30
0.0
 11
-162.9752395310212
 21
159.2255754620798
 31
0.0
  0
LINE
  5
1B7
330
63
100
AcDbEntity
  8
0
  6
Continuous
 62
     7
100
AcDbLine
 10
-157.0752395310212
 20
161.076218819027
 30
0.0
 11
-162.9752395310212
 21
161.076218819027
 31
0.0
  0
LINE
  5
1B8
330
63
100
AcDbEntity
  8
0
  6
Continuous
 62
     7
100
AcDbLine
 10
-157.0752395310212
 20
163.3147070321637
 30
0.0
 11
-162.9752395310212
 21
163.3147070321637
 31
0.0
  0
LINE
  5
1B9
330
63
100
AcDbEntity
  8
0
  6
Continuous
 62
     7
100
AcDbLine
 10
-162.9752395310212
 20
164.5709186072063
 30
0.0
 11
-162.9752395310212
 21
163.3843769281288
 31
0.0
  0
LINE
  5
1BA
330
63
100
AcDbEntity
  8
0
  6
Continuous
 62
     7
100
AcDbLine
 10
-162.9752395310212
 20
164.5709186072063
 30
0.0
 11
-162.9752395310212
 21
165.6800290704585
 31
0.0
  0
LINE
  5
1BB
330
63
100
AcDbEntity
  8
0
  6
Continuous
 62
     7
100
AcDbLine
 10
-162.9752395310212
 20
167.4799998541419
 30
0.0
 11
-162.9752395310212
 21
165.6800290704585
 31
0.0
  0
LINE
  5
1BC
330
63
100
AcDbEntity
  8
0
  6
Continuous
 62
     7
100
AcDbLine
 10
-162.2752395310212
 20
148.9799998541418
 30
0.0
 11
-162.2752395310212
 21
154.3799998541418
 31
0.0
  0
LINE
  5
1BD
330
63
100
AcDbEntity
  8
0
  6
Continuous
 62
     7
100
AcDbLine
 10
-162.2752395310212
 20
157.979999854142
 30
0.0
 11
-162.9752395310212
 21
157.979999854142
 31
0.0
  0
LINE
  5
1BE
330
63
100
AcDbEntity
  8
0
  6
Continuous
 62
     7
100
AcDbLine
 10
-162.2752395310212
 20
154.3799998541418
 30
0.0
 11
-162.2752395310212
 21
157.979999854142
 31
0.0
  0
LINE
  5
1BF
330
63
100
AcDbEntity
  8
0
  6
Continuous
 62
     7
100
AcDbLine
 10
-162.2752395310212
 20
148.2799998541418
 30
0.0
 11
-162.2752395310212
 21
148.9799998541418
 31
0.0
  0
LINE
  5
1C0
330
63
100
AcDbEntity
  8
0
  6
Continuous
 62
     7
100
AcDbLine
 10
-159.5252395310212
 20
137.5799998541418
 30
0.0
 11
-159.5252395310212
 21
114.5199998541418
 31
0.0
  0
LINE
  5
1C1
330
63
100
AcDbEntity
  8
0
  6
Continuous
 62
     7
100
AcDbLine
 10
-157.0752395310212
 20
146.2799998541418
 30
0.0
 11
-157.0752395310212
 21
141.0799998541418
 31
0.0
  0
LINE
  5
1C2
330
63
100
AcDbEntity
  8
0
  6
Continuous
 62
     7
100
AcDbLine
 10
-159.5252395310212
 20
114.5199998541418
 30
0.0
 11
-160.5252395310212
 21
114.5199998541418
 31
0.0
  0
LINE
  5
1C3
330
63
100
AcDbEntity
  8
0
  6
Continuous
 62
     7
100
AcDbLine
 10
-157.7752395310212
 20
148.9799998541418
 30
0.0
 11
-157.7752395310212
 21
154.3799998541418
 31
0.0
  0
LINE
  5
1C4
330
63
100
AcDbEntity
  8
0
  6
Continuous
 62
     7
100
AcDbLine
 10
-157.7752395310212
 20
154.3799998541418
 30
0.0
 11
-157.7752395310212
 21
157.979999854142
 31
0.0
  0
LINE
  5
1C5
330
63
100
AcDbEntity
  8
0
  6
Continuous
 62
     7
100
AcDbLine
 10
-157.7752395310212
 20
148.2799998541418
 30
0.0
 11
-157.7752395310212
 21
148.9799998541418
 31
0.0
  0
LINE
  5
1C6
330
63
100
AcDbEntity
  8
0
  6
Continuous
 62
     7
100
AcDbLine
 10
-157.7752395310212
 20
154.3799998541418
 30
0.0
 11
-162.2752395310212
 21
154.3799998541418
 31
0.0
  0
LINE
  5
1C7
330
63
100
AcDbEntity
  8
0
  6
Continuous
 62
     7
100
AcDbLine
 10
-157.7752395310212
 20
148.9799998541418
 30
0.0
 11
-162.2752395310212
 21
148.9799998541418
 31
0.0
  0
ENDBLK
  5
65
330
63
100
AcDbEntity
  8
0
100
AcDbBlockEnd
  0
BLOCK
  5
68
330
66
100
AcDbEntity
  8
0
100
AcDbBlockBegin
  2
SA_Rechts1
 70
     0
 10
-160.0252395787049
 20
142.000000000075
 30
0.0
  3
SA_Rechts1
  1

  0
INSERT
  5
67
330
66
100
AcDbEntity
  8
0
100
AcDbBlockReference
  2
0735032_DFK_WW_1x1-select__5
 10
-162.9752395310212
 20
114.5199998541418
 30
0.0
  0
MTEXT
  5
1C8
330
66
100
AcDbEntity
  8
1
 62
     6
100
AcDbMText
 10
-160.0252395787049
 20
111.5200004578387
 30
0.0
 40
5.0
 41
0.0
 71
     2
 72
     1
  1
 
  7
CONVERTER_11
 73
     1
 44
1.32052821128451
  0
ENDBLK
  5
69
330
66
100
AcDbEntity
  8
0
100
AcDbBlockEnd
  0
BLOCK
  5
6B
330
6A
100
AcDbEntity
  8
0
100
AcDbBlockBegin
  2
0735032_DFK_WW_1x1-select__6
 70
     0
 10
-126.7499992450587
 20
114.5199998541418
 30
0.0
  3
0735032_DFK_WW_1x1-select__6
  1

  0
LINE
  5
1C9
330
6A
100
AcDbEntity
  8
0
  6
Continuous
 62
     7
100
AcDbLine
 10
-126.0752397186397
 20
143.4588773356843
 30
0.0
 11
-124.5992986642136
 21
138.9505903315906
 31
0.0
  0
LINE
  5
1CA
330
6A
100
AcDbEntity
  8
0
  6
Continuous
 62
     7
100
AcDbLine
 10
-119.6999992450586
 20
138.5799998541418
 30
0.0
 11
-119.6999992450586
 21
114.5199998541418
 31
0.0
  0
LINE
  5
1CB
330
6A
100
AcDbEntity
  8
0
  6
Continuous
 62
     7
100
AcDbLine
 10
-119.6999992450586
 20
138.5799998541418
 30
0.0
 11
-124.1163357510697
 21
138.5799998541418
 31
0.0
  0
LINE
  5
1CC
330
6A
100
AcDbEntity
  8
0
  6
Continuous
 62
     7
100
AcDbLine
 10
-125.2499992450587
 20
143.6799998541419
 30
0.0
 11
-125.2499992450587
 21
146.1745547318956
 31
0.0
  0
LINE
  5
1CD
330
6A
100
AcDbEntity
  8
0
  6
Continuous
 62
     7
100
AcDbLine
 10
-126.0752397186397
 20
143.4588773356843
 30
0.0
 11
-125.2499992450587
 21
143.6799998541419
 31
0.0
  0
LINE
  5
1CE
330
6A
100
AcDbEntity
  8
0
  6
Continuous
 62
     7
100
AcDbLine
 10
-125.2554632450587
 20
146.1799998541418
 30
0.0
 11
-126.7499992450587
 21
146.4999998541418
 31
0.0
  0
LINE
  5
1CF
330
6A
100
AcDbEntity
  8
0
  6
Continuous
 62
     7
100
AcDbLine
 10
-125.2499992450587
 20
146.1745547318956
 30
0.0
 11
-125.2554632450587
 21
146.1799998541418
 31
0.0
  0
LINE
  5
1D0
330
6A
100
AcDbEntity
  8
0
  6
Continuous
 62
     7
100
AcDbLine
 10
-112.601970858051
 20
167.4799998541419
 30
0.0
 11
-118.5499992450587
 21
167.4799998541419
 31
0.0
  0
LINE
  5
1D1
330
6A
100
AcDbEntity
  8
0
  6
Continuous
 62
     7
100
AcDbLine
 10
-112.4759648224827
 20
163.6039373788908
 30
0.0
 11
-113.1149034170277
 21
163.156547758537
 31
0.0
  0
LINE
  5
1D2
330
6A
100
AcDbEntity
  8
0
  6
Continuous
 62
     7
100
AcDbLine
 10
-113.1149034170277
 20
163.156547758537
 30
0.0
 11
-111.5949258606977
 21
160.9857948411712
 31
0.0
  0
LINE
  5
1D3
330
6A
100
AcDbEntity
  8
0
  6
Continuous
 62
     7
100
AcDbLine
 10
-112.3182313024856
 20
163.3786705667112
 30
0.0
 11
-112.4759648224827
 21
163.6039373788908
 31
0.0
  0
LINE
  5
1D4
330
6A
100
AcDbEntity
  8
0
  6
Continuous
 62
     7
100
AcDbLine
 10
-126.7499992450587
 20
148.5799998541418
 30
0.0
 11
-125.7499992450587
 21
148.5799998541418
 31
0.0
  0
LINE
  5
1D5
330
6A
100
AcDbEntity
  8
0
  6
Continuous
 62
     7
100
AcDbLine
 10
-108.9294534908406
 20
158.9010947780394
 30
0.0
 11
-107.5571244191427
 21
159.2023221323277
 31
0.0
  0
LINE
  5
1D6
330
6A
100
AcDbEntity
  8
0
  6
Continuous
 62
     7
100
AcDbLine
 10
-105.9499992450583
 20
157.979999854142
 30
0.0
 11
-105.9499992450586
 21
146.7799998541418
 31
0.0
  0
LINE
  5
1D7
330
6A
100
AcDbEntity
  8
0
  6
Continuous
 62
     7
100
AcDbLine
 10
-126.7499992450587
 20
146.4999998541418
 30
0.0
 11
-126.7499992450587
 21
148.5799998541418
 31
0.0
  0
LINE
  5
1D8
330
6A
100
AcDbEntity
  8
0
  6
Continuous
 62
     7
100
AcDbLine
 10
-119.0499992450587
 20
166.4799998541419
 30
0.0
 11
-125.2499992450587
 21
166.4799998541419
 31
0.0
  0
LINE
  5
1D9
330
6A
100
AcDbEntity
  8
0
  6
Continuous
 62
     7
100
AcDbLine
 10
-108.8624332734706
 20
158.4432794998702
 30
0.0
 11
-109.0201667934677
 21
158.6685463120496
 31
0.0
  0
LINE
  5
1DA
330
6A
100
AcDbEntity
  8
0
  6
Continuous
 62
     7
100
AcDbLine
 10
-111.0213494243467
 20
160.1666427968821
 30
0.0
 11
-109.5013718680167
 21
157.9958898795162
 31
0.0
  0
LINE
  5
1DB
330
6A
100
AcDbEntity
  8
0
  6
Continuous
 62
     7
100
AcDbLine
 10
-109.5013718680167
 20
157.9958898795162
 30
0.0
 11
-108.8624332734706
 21
158.4432794998702
 31
0.0
  0
LINE
  5
1DC
330
6A
100
AcDbEntity
  8
0
  6
Continuous
 62
     7
100
AcDbLine
 10
-125.7499992450587
 20
165.9799998541419
 30
0.0
 11
-125.7499992450587
 21
148.5799998541418
 31
0.0
  0
LINE
  5
1DD
330
6A
100
AcDbEntity
  8
0
  6
Continuous
 62
     7
100
AcDbLine
 10
-117.6499992450587
 20
137.5799998541418
 30
0.0
 11
-112.7499992450587
 21
137.5799998541418
 31
0.0
  0
LINE
  5
1DE
330
6A
100
AcDbEntity
  8
0
  6
Continuous
 62
     7
100
AcDbLine
 10
-118.6999992450586
 20
138.5799998541418
 30
0.0
 11
-119.6999992450586
 21
138.5799998541418
 31
0.0
  0
LINE
  5
1DF
330
6A
100
AcDbEntity
  8
0
  6
Continuous
 62
     7
100
AcDbLine
 10
-119.6999992450586
 20
114.5199998541418
 30
0.0
 11
-118.6999992450586
 21
114.5199998541418
 31
0.0
  0
LINE
  5
1E0
330
6A
100
AcDbEntity
  8
0
  6
Continuous
 62
     7
100
AcDbLine
 10
-118.1499992450587
 20
138.5799998541418
 30
0.0
 11
-118.6999992450586
 21
138.5799998541418
 31
0.0
  0
LINE
  5
1E1
330
6A
100
AcDbEntity
  8
0
  6
Continuous
 62
     7
100
AcDbLine
 10
-118.1499992450587
 20
138.5799998541418
 30
0.0
 11
-118.1499992450587
 21
138.0799998541418
 31
0.0
  0
LINE
  5
1E2
330
6A
100
AcDbEntity
  8
0
  6
Continuous
 62
     7
100
AcDbLine
 10
-112.601970858051
 20
167.4799998541419
 30
0.0
 11
-111.3416177467586
 21
165.6800290704585
 31
0.0
  0
LINE
  5
1E3
330
6A
100
AcDbEntity
  8
0
  6
Continuous
 62
     7
100
AcDbLine
 10
-111.3162561404587
 20
164.5709186072063
 30
0.0
 11
-112.0686814482547
 21
163.3843769281288
 31
0.0
  0
LINE
  5
1E4
330
6A
100
AcDbEntity
  8
0
  6
Continuous
 62
     7
100
AcDbLine
 10
-118.6999992450586
 20
138.5799998541418
 30
0.0
 11
-118.6999992450586
 21
114.5199998541418
 31
0.0
  0
LINE
  5
1E5
330
6A
100
AcDbEntity
  8
0
  6
Continuous
 62
     7
100
AcDbLine
 10
-119.0499992450587
 20
166.9799998541419
 30
0.0
 11
-119.0499992450587
 21
166.4799998541419
 31
0.0
  0
LINE
  5
1E6
330
6A
100
AcDbEntity
  8
0
  6
Continuous
 62
     7
100
AcDbLine
 10
-106.5235756814096
 20
158.7991518984309
 30
0.0
 11
-105.9499992450583
 21
157.979999854142
 31
0.0
  0
LINE
  5
1E7
330
6A
100
AcDbEntity
  8
0
  6
Continuous
 62
     7
100
AcDbLine
 10
-109.2499992450587
 20
146.2799998541418
 30
0.0
 11
-106.4499992450586
 21
146.2799998541418
 31
0.0
  0
LINE
  5
1E8
330
6A
100
AcDbEntity
  8
0
  6
Continuous
 62
     7
100
AcDbLine
 10
-109.2499992450587
 20
146.2799998541418
 30
0.0
 11
-109.2499992450587
 21
141.0799998541418
 31
0.0
  0
ARC
  5
1E9
330
6A
100
AcDbEntity
  8
0
  6
Continuous
 62
     7
100
AcDbCircle
 10
-112.7499992450587
 20
141.0799998541418
 30
0.0
 40
3.5
100
AcDbArc
 50
270.0
 51
0.0
  0
ARC
  5
1EA
330
6A
100
AcDbEntity
  8
0
  6
Continuous
 62
     7
100
AcDbCircle
 10
-124.1163357510697
 20
139.0799998541418
 30
0.0
 40
0.4999999999993755
100
AcDbArc
 50
195.0000000000103
 51
270.0
  0
ARC
  5
1EB
330
6A
100
AcDbEntity
  8
0
  6
Continuous
 62
     7
100
AcDbCircle
 10
-111.3081376425227
 20
160.5762188190265
 30
0.0
 40
0.5000000000002118
100
AcDbArc
 50
305.0000000000496
 51
124.9999999999376
  0
ARC
  5
1EC
330
6A
100
AcDbEntity
  8
0
  6
Continuous
 62
     7
100
AcDbCircle
 10
-108.8965379788277
 20
158.7528597317062
 30
0.0
 40
0.1518455132444861
100
AcDbArc
 50
102.5193746398088
 51
124.860760412175
  0
ARC
  5
1ED
330
6A
100
AcDbEntity
  8
0
  6
Continuous
 62
     7
100
AcDbCircle
 10
-112.1953584958427
 20
163.4647070321639
 30
0.0
 40
0.1499999999996474
100
AcDbArc
 50
215.0000000001046
 51
327.6198649479883
  0
ARC
  5
1EE
330
6A
100
AcDbEntity
  8
0
  6
Continuous
 62
     7
100
AcDbCircle
 10
-125.2499992450587
 20
165.9799998541419
 30
0.0
 40
0.5
100
AcDbArc
 50
90.0
 51
180.0
  0
ARC
  5
1EF
330
6A
100
AcDbEntity
  8
0
  6
Continuous
 62
     7
100
AcDbCircle
 10
-112.1607697910477
 20
165.1064526341074
 30
0.0
 40
1.00000000000003
100
AcDbArc
 50
327.6198649480328
 51
34.99999999999856
  0
ARC
  5
1F0
330
6A
100
AcDbEntity
  8
0
  6
Continuous
 62
     7
100
AcDbCircle
 10
-117.6499992450587
 20
138.0799998541418
 30
0.0
 40
0.5
100
AcDbArc
 50
180.0
 51
270.0
  0
ARC
  5
1F1
330
6A
100
AcDbEntity
  8
0
  6
Continuous
 62
     7
100
AcDbCircle
 10
-108.8972939868247
 20
158.7545827775021
 30
0.0
 40
0.149999999999688
100
AcDbArc
 50
124.9999999997293
 51
215.0000000000237
  0
ARC
  5
1F2
330
6A
100
AcDbEntity
  8
0
  6
Continuous
 62
     7
100
AcDbCircle
 10
-118.5499992450587
 20
166.9799998541419
 30
0.0
 40
0.5
100
AcDbArc
 50
90.0
 51
180.0
  0
ARC
  5
1F3
330
6A
100
AcDbEntity
  8
0
  6
Continuous
 62
     7
100
AcDbCircle
 10
-106.4499992450586
 20
146.7799998541418
 30
0.0
 40
0.5
100
AcDbArc
 50
270.0
 51
0.0
  0
ARC
  5
1F4
330
6A
100
AcDbEntity
  8
0
  6
Continuous
 62
     7
100
AcDbCircle
 10
-107.3427277256987
 20
158.2255754620798
 30
0.0
 40
1.000000000000112
100
AcDbArc
 50
34.99999999999856
 51
102.380135051979
  0
ENDBLK
  5
6C
330
6A
100
AcDbEntity
  8
0
100
AcDbBlockEnd
  0
BLOCK
  5
6F
330
6D
100
AcDbEntity
  8
0
100
AcDbBlockBegin
  2
Vordans1
 70
     0
 10
-116.0126197893524
 20
142.000000000075
 30
0.0
  3
Vordans1
  1

  0
INSERT
  5
6E
330
6D
100
AcDbEntity
  8
0
100
AcDbBlockReference
  2
0735032_DFK_WW_1x1-select__6
 10
-126.7499992450587
 20
114.5199998541418
 30
0.0
  0
MTEXT
  5
1F5
330
6D
100
AcDbEntity
  8
1
 62
     6
100
AcDbMText
 10
-116.0126197893524
 20
111.5200004578387
 30
0.0
 40
5.0
 41
0.0
 71
     2
 72
     1
  1
 
  7
CONVERTER_11
 73
     1
 44
1.32052821128451
  0
DIMENSION
  5
200
330
6D
100
AcDbEntity
  8
1
100
AcDbDimension
  2
*D17
 10
-80.187652634234
 20
167.4799998541419
 30
0.0
 11
-83.937652634234
 21
140.838970112356
 31
0.0
 70
    32
  1
<>
 71
     5
 42
-1.0
 53
90.0
  3
ME10_DIM_11
100
AcDbAlignedDimension
 13
-119.6999992450586
 23
114.5199998541418
 33
0.0
 14
-112.601970858051
 24
167.4799998541419
 34
0.0
 50
90.0
100
AcDbRotatedDimension
  0
DIMENSION
  5
20B
330
6D
100
AcDbEntity
  8
1
100
AcDbDimension
  2
*D18
 10
-93.19163924045088
 20
137.5799998541418
 30
0.0
 11
-96.94163924045088
 21
153.167461548537
 31
0.0
 70
    32
  1
<>
 71
     5
 42
-1.0
 53
90.0
  3
ME10_DIM_12
100
AcDbAlignedDimension
 13
-112.601970858051
 23
167.4799998541419
 33
0.0
 14
-112.7499992450587
 24
137.5799998541418
 34
0.0
 50
90.0
100
AcDbRotatedDimension
  0
DIMENSION
  5
216
330
6D
100
AcDbEntity
  8
1
100
AcDbDimension
  2
*D19
 10
-105.9499992450583
 20
175.558484082724
 30
0.0
 11
-117.11155312274
 21
179.308484082724
 31
0.0
 70
    32
  1
<>
 71
     5
 42
-1.0
 53
0.00013888888889
  3
ME10_DIM_13
100
AcDbAlignedDimension
 13
-126.7499992450587
 23
146.4999998541418
 33
0.0
 14
-105.9499992450583
 24
157.979999854142
 34
0.0
100
AcDbRotatedDimension
  0
ENDBLK
  5
70
330
6D
100
AcDbEntity
  8
0
100
AcDbBlockEnd
  0
BLOCK
  5
72
330
71
100
AcDbEntity
  8
0
100
AcDbBlockBegin
  2
_punkt
 70
     0
 10
55.53669524902195
 20
2.2648021577681
 30
0.0
  3
_punkt
  1

  0
LINE
  5
217
330
71
100
AcDbEntity
  8
1
  6
Continuous
 62
     2
100
AcDbLine
 10
55.53669524902195
 20
2.2648021577681
 30
0.0
 11
55.53669524902195
 21
-2.73519784223201
 31
0.0
  0
LINE
  5
218
330
71
100
AcDbEntity
  8
1
  6
Continuous
 62
     2
100
AcDbLine
 10
55.53669524902195
 20
2.2648021577681
 30
0.0
 11
60.53669524902095
 21
2.2648021577681
 31
0.0
  0
ENDBLK
  5
73
330
71
100
AcDbEntity
  8
0
100
AcDbBlockEnd
  0
BLOCK
  5
75
330
74
100
AcDbEntity
  8
0
100
AcDbBlockBegin
  2
_rahmen
 70
     0
 10
55.53669524902195
 20
-2.73519784223201
 30
0.0
  3
_rahmen
  1

  0
POINT
  5
219
330
74
100
AcDbEntity
  8
1
 62
     3
 60
     1
100
AcDbPoint
 10
-7.96330475097568
 20
23.51480215776797
 30
0.0
  0
LINE
  5
21A
102
{ACAD_REACTORS
330
3FC
330
3FD
102
}
330
74
100
AcDbEntity
  8
0
  6
Continuous
 62
     2
100
AcDbLine
 10
-59.52097792089539
 20
9.77330555913509
 30
0.0
 11
-59.52097792089539
 21
10.49439399450968
 31
0.0
  0
LINE
  5
21B
102
{ACAD_REACTORS
330
3FC
330
3FD
102
}
330
74
100
AcDbEntity
  8
0
  6
Continuous
 62
     2
100
AcDbLine
 10
-59.52097792089539
 20
8.98010828022363
 30
0.0
 11
-59.52097792089539
 21
8.25901984484904
 31
0.0
  0
LINE
  5
21C
102
{ACAD_REACTORS
330
3FE
330
3FF
102
}
330
74
100
AcDbEntity
  8
0
  6
Continuous
 62
     2
100
AcDbLine
 10
-46.84904061817603
 20
9.98963208974706
 30
0.0
 11
-45.93694202349165
 21
9.98963208974706
 31
0.0
  0
LINE
  5
21D
102
{ACAD_REACTORS
330
3FE
330
3FF
102
}
330
74
100
AcDbEntity
  8
0
  6
Continuous
 62
     2
100
AcDbLine
 10
-46.21296016944762
 20
8.98010828022317
 30
0.0
 11
-46.21296016944762
 21
8.2590198448486
 31
0.0
  0
LINE
  5
21E
102
{ACAD_REACTORS
330
408
330
409
102
}
330
74
100
AcDbEntity
  8
0
  6
Continuous
 62
     2
100
AcDbLine
 10
-47.75077555405908
 20
10.8909926339511
 30
0.0
 11
-46.59544245741419
 21
12.19748767012871
 31
0.0
  0
LINE
  5
21F
102
{ACAD_REACTORS
330
408
330
409
102
}
330
74
100
AcDbEntity
  8
0
  6
Continuous
 62
     2
100
AcDbLine
 10
-47.67191322664353
 20
13.41480215776193
 30
0.0
 11
-46.59544245741419
 21
12.19748767012871
 31
0.0
  0
LINE
  5
220
102
{ACAD_REACTORS
330
408
330
409
102
}
330
74
100
AcDbEntity
  8
0
  6
Continuous
 62
     2
100
AcDbLine
 10
-45.51897168818578
 20
13.41480215776193
 30
0.0
 11
-44.35969547517156
 21
13.41480215776193
 31
0.0
  0
LINE
  5
221
102
{ACAD_REACTORS
330
408
330
409
102
}
330
74
100
AcDbEntity
  8
0
  6
Continuous
 62
     2
100
AcDbLine
 10
-46.59149934104406
 20
10.8909926339511
 30
0.0
 11
-46.01580435090709
 21
11.54201063832604
 31
0.0
  0
LINE
  5
222
102
{ACAD_REACTORS
330
408
330
409
102
}
330
74
100
AcDbEntity
  8
0
  6
Continuous
 62
     2
100
AcDbLine
 10
-46.59149934104406
 20
10.8909926339511
 30
0.0
 11
-47.75077555405908
 21
10.8909926339511
 31
0.0
  0
LINE
  5
223
102
{ACAD_REACTORS
330
40A
330
40B
102
}
330
74
100
AcDbEntity
  8
0
  6
Continuous
 62
     2
100
AcDbLine
 10
-47.84935346332922
 20
10.8909926339511
 30
0.0
 11
-48.8745637197366
 21
10.8909926339511
 31
0.0
  0
LINE
  5
224
102
{ACAD_REACTORS
330
40C
330
40D
102
}
330
74
100
AcDbEntity
  8
0
  6
Continuous
 62
     2
100
AcDbLine
 10
-49.59190223887303
 20
9.12432596729827
 30
0.0
 11
-49.83997268283183
 21
9.75888379042781
 31
0.0
  0
LINE
  5
225
102
{ACAD_REACTORS
330
40C
330
40D
102
}
330
74
100
AcDbEntity
  8
0
  6
Continuous
 62
     2
100
AcDbLine
 10
-50.08804312679245
 20
9.12432596729827
 30
0.0
 11
-49.59190223887303
 21
9.12432596729827
 31
0.0
  0
LINE
  5
226
102
{ACAD_REACTORS
330
40C
330
40D
102
}
330
74
100
AcDbEntity
  8
0
  6
Continuous
 62
     2
100
AcDbLine
 10
-51.50791090767989
 20
8.11480215777395
 30
0.0
 11
-50.48270065127251
 21
8.11480215777395
 31
0.0
  0
LINE
  5
227
102
{ACAD_REACTORS
330
40C
330
40D
102
}
330
74
100
AcDbEntity
  8
0
  6
Continuous
 62
     2
100
AcDbLine
 10
-50.35257781103591
 20
10.63861168158478
 30
0.0
 11
-49.32736755462866
 21
10.63861168158478
 31
0.0
  0
LINE
  5
228
102
{ACAD_REACTORS
330
40C
330
40D
102
}
330
74
100
AcDbEntity
  8
0
  6
Continuous
 62
     2
100
AcDbLine
 10
-49.32736755462866
 20
10.63861168158478
 30
0.0
 11
-48.17203445798376
 21
8.11480215777395
 31
0.0
  0
LINE
  5
229
102
{ACAD_REACTORS
330
40C
330
40D
102
}
330
74
100
AcDbEntity
  8
0
  6
Continuous
 62
     2
100
AcDbLine
 10
-49.19724471439195
 20
8.11480215777395
 30
0.0
 11
-49.37202161809096
 21
8.56187698770607
 31
0.0
  0
LINE
  5
22A
102
{ACAD_REACTORS
330
40E
330
40F
102
}
330
74
100
AcDbEntity
  8
0
  6
Continuous
 62
     2
100
AcDbLine
 10
-52.6206490082647
 20
8.11480215777395
 30
0.0
 11
-51.63486991556515
 21
8.11480215777395
 31
0.0
  0
LINE
  5
22B
102
{ACAD_REACTORS
330
40E
330
40F
102
}
330
74
100
AcDbEntity
  8
0
  6
Continuous
 62
     2
100
AcDbLine
 10
-52.6206490082647
 20
9.98963208974706
 30
0.0
 11
-52.6206490082647
 21
8.11480215777395
 31
0.0
  0
LINE
  5
22C
102
{ACAD_REACTORS
330
40E
330
40F
102
}
330
74
100
AcDbEntity
  8
0
  6
Continuous
 62
     2
100
AcDbLine
 10
-53.29097879130158
 20
10.63861168158478
 30
0.0
 11
-53.29097879130158
 21
9.98963208974706
 31
0.0
  0
LINE
  5
22D
102
{ACAD_REACTORS
330
410
330
411
102
}
330
74
100
AcDbEntity
  8
0
  6
Continuous
 62
     2
100
AcDbLine
 10
-52.0684879800845
 20
10.8909926339511
 30
0.0
 11
-51.08270888738495
 21
10.8909926339511
 31
0.0
  0
LINE
  5
22E
102
{ACAD_REACTORS
330
410
330
411
102
}
330
74
100
AcDbEntity
  8
0
  6
Continuous
 62
     2
100
AcDbLine
 10
-50.05749863097667
 20
12.33316950469982
 30
0.0
 11
-51.08270888738495
 21
13.41480215776193
 31
0.0
  0
LINE
  5
22F
102
{ACAD_REACTORS
330
410
330
411
102
}
330
74
100
AcDbEntity
  8
0
  6
Continuous
 62
     2
100
AcDbLine
 10
-49.07171953827701
 20
13.41480215776193
 30
0.0
 11
-50.05749863097667
 21
13.41480215776193
 31
0.0
  0
LINE
  5
230
102
{ACAD_REACTORS
330
410
330
411
102
}
330
74
100
AcDbEntity
  8
0
  6
Continuous
 62
     2
100
AcDbLine
 10
-49.07171953827701
 20
10.8909926339511
 30
0.0
 11
-49.07171953827701
 21
13.41480215776193
 31
0.0
  0
LINE
  5
231
102
{ACAD_REACTORS
330
410
330
411
102
}
330
74
100
AcDbEntity
  8
0
  6
Continuous
 62
     2
100
AcDbLine
 10
-50.05749863097667
 20
10.8909926339511
 30
0.0
 11
-49.07171953827701
 21
10.8909926339511
 31
0.0
  0
LINE
  5
232
102
{ACAD_REACTORS
330
410
330
411
102
}
330
74
100
AcDbEntity
  8
0
  6
Continuous
 62
     2
100
AcDbLine
 10
-51.08270888738495
 20
11.97262528701276
 30
0.0
 11
-50.05749863097667
 21
10.8909926339511
 31
0.0
  0
LINE
  5
233
102
{ACAD_REACTORS
330
412
330
413
102
}
330
74
100
AcDbEntity
  8
0
  6
Continuous
 62
     2
100
AcDbLine
 10
-54.3950513751252
 20
9.55697902852267
 30
0.0
 11
-55.42026163153257
 21
10.63861168158478
 31
0.0
  0
LINE
  5
234
102
{ACAD_REACTORS
330
412
330
413
102
}
330
74
100
AcDbEntity
  8
0
  6
Continuous
 62
     2
100
AcDbLine
 10
-54.3950513751252
 20
10.63861168158478
 30
0.0
 11
-54.3950513751252
 21
9.55697902852267
 31
0.0
  0
LINE
  5
235
102
{ACAD_REACTORS
330
412
330
413
102
}
330
74
100
AcDbEntity
  8
0
  6
Continuous
 62
     2
100
AcDbLine
 10
-53.40927228242565
 20
10.63861168158478
 30
0.0
 11
-54.3950513751252
 21
10.63861168158478
 31
0.0
  0
LINE
  5
236
102
{ACAD_REACTORS
330
412
330
413
102
}
330
74
100
AcDbEntity
  8
0
  6
Continuous
 62
     2
100
AcDbLine
 10
-53.40927228242565
 20
8.11480215777395
 30
0.0
 11
-53.40927228242565
 21
10.63861168158478
 31
0.0
  0
LINE
  5
237
102
{ACAD_REACTORS
330
412
330
413
102
}
330
74
100
AcDbEntity
  8
0
  6
Continuous
 62
     2
100
AcDbLine
 10
-55.42026163153257
 20
9.1964348108356
 30
0.0
 11
-54.3950513751252
 21
8.11480215777395
 31
0.0
  0
LINE
  5
238
102
{ACAD_REACTORS
330
412
330
413
102
}
330
74
100
AcDbEntity
  8
0
  6
Continuous
 62
     2
100
AcDbLine
 10
-55.42026163153257
 20
8.11480215777395
 30
0.0
 11
-55.42026163153257
 21
9.1964348108356
 31
0.0
  0
LINE
  5
239
102
{ACAD_REACTORS
330
402
330
403
102
}
330
74
100
AcDbEntity
  8
0
  6
Continuous
 62
     2
100
AcDbLine
 10
-53.36971638244863
 20
12.83793140946199
 30
0.0
 11
-52.26564379862412
 21
12.83793140946199
 31
0.0
  0
LINE
  5
23A
102
{ACAD_REACTORS
330
402
330
403
102
}
330
74
100
AcDbEntity
  8
0
  6
Continuous
 62
     2
100
AcDbLine
 10
-53.36971638244863
 20
11.46786338225059
 30
0.0
 11
-53.36971638244863
 21
11.86446202170655
 31
0.0
  0
LINE
  5
23B
102
{ACAD_REACTORS
330
402
330
403
102
}
330
74
100
AcDbEntity
  8
0
  6
Continuous
 62
     2
100
AcDbLine
 10
-52.26564379862412
 20
11.46786338225059
 30
0.0
 11
-53.36971638244863
 21
11.46786338225059
 31
0.0
  0
LINE
  5
23C
102
{ACAD_REACTORS
330
402
330
403
102
}
330
74
100
AcDbEntity
  8
0
  6
Continuous
 62
     2
100
AcDbLine
 10
-52.26564379862412
 20
10.8909926339511
 30
0.0
 11
-52.26564379862412
 21
11.46786338225059
 31
0.0
  0
LINE
  5
23D
102
{ACAD_REACTORS
330
402
330
403
102
}
330
74
100
AcDbEntity
  8
0
  6
Continuous
 62
     2
100
AcDbLine
 10
-54.86921381827783
 20
10.8909926339511
 30
0.0
 11
-52.26564379862412
 21
10.8909926339511
 31
0.0
  0
LINE
  5
23E
102
{ACAD_REACTORS
330
402
330
403
102
}
330
74
100
AcDbEntity
  8
0
  6
Continuous
 62
     2
100
AcDbLine
 10
-54.86921381827783
 20
13.41480215776193
 30
0.0
 11
-52.26564379862412
 21
13.41480215776193
 31
0.0
  0
LINE
  5
23F
102
{ACAD_REACTORS
330
402
330
403
102
}
330
74
100
AcDbEntity
  8
0
  6
Continuous
 62
     2
100
AcDbLine
 10
-52.26564379862412
 20
12.83793140946199
 30
0.0
 11
-52.26564379862412
 21
13.41480215776193
 31
0.0
  0
LINE
  5
240
102
{ACAD_REACTORS
330
414
330
415
102
}
330
74
100
AcDbEntity
  8
0
  6
Continuous
 62
     2
100
AcDbLine
 10
-57.2339704258316
 20
12.53146882442757
 30
0.0
 11
-57.2339704258316
 21
13.41480215776193
 31
0.0
  0
LINE
  5
241
102
{ACAD_REACTORS
330
414
330
415
102
}
330
74
100
AcDbEntity
  8
0
  6
Continuous
 62
     2
100
AcDbLine
 10
-57.2339704258316
 20
13.41480215776193
 30
0.0
 11
-56.24819133313206
 21
13.41480215776193
 31
0.0
  0
LINE
  5
242
102
{ACAD_REACTORS
330
414
330
415
102
}
330
74
100
AcDbEntity
  8
0
  6
Continuous
 62
     2
100
AcDbLine
 10
-57.2339704258316
 20
11.82840759993766
 30
0.0
 11
-58.10145602740799
 21
11.82840759993766
 31
0.0
  0
LINE
  5
243
102
{ACAD_REACTORS
330
414
330
415
102
}
330
74
100
AcDbEntity
  8
0
  6
Continuous
 62
     2
100
AcDbLine
 10
-58.10145602740799
 20
11.82840759993766
 30
0.0
 11
-58.10145602740799
 21
10.8909926339511
 31
0.0
  0
LINE
  5
244
102
{ACAD_REACTORS
330
414
330
415
102
}
330
74
100
AcDbEntity
  8
0
  6
Continuous
 62
     2
100
AcDbLine
 10
-59.08723512010765
 20
13.41480215776193
 30
0.0
 11
-59.08723512010765
 21
10.8909926339511
 31
0.0
  0
LINE
  5
245
102
{ACAD_REACTORS
330
406
330
407
102
}
330
74
100
AcDbEntity
  8
0
  6
Continuous
 62
     2
100
AcDbLine
 10
-60.70391283213546
 20
12.28353480670216
 30
0.0
 11
-60.70391283213546
 21
12.86678079789412
 31
0.0
  0
LINE
  5
246
102
{ACAD_REACTORS
330
406
330
407
102
}
330
74
100
AcDbEntity
  8
0
  6
Continuous
 62
     2
100
AcDbLine
 10
-61.72912308854374
 20
10.8909926339511
 30
0.0
 11
-60.70391283213546
 21
10.8909926339511
 31
0.0
  0
LINE
  5
247
102
{ACAD_REACTORS
330
406
330
407
102
}
330
74
100
AcDbEntity
  8
0
  6
Continuous
 62
     2
100
AcDbLine
 10
-60.70391283213546
 20
10.8909926339511
 30
0.0
 11
-60.70391283213546
 21
11.67039613902857
 31
0.0
  0
LINE
  5
248
102
{ACAD_REACTORS
330
400
330
401
102
}
330
74
100
AcDbEntity
  8
0
  6
Continuous
 62
     2
100
AcDbLine
 10
-65.28692957549542
 20
8.70369104666397
 30
0.0
 11
-66.50662648542065
 21
8.70369104666397
 31
0.0
  0
LINE
  5
249
102
{ACAD_REACTORS
330
400
330
401
102
}
330
74
100
AcDbEntity
  8
0
  6
Continuous
 62
     2
100
AcDbLine
 10
-67.3480639169325
 20
13.0641867731322
 30
0.0
 11
-67.3480639169325
 21
8.46541754238823
 31
0.0
  0
LINE
  5
24A
102
{ACAD_REACTORS
330
400
330
401
102
}
330
74
100
AcDbEntity
  8
0
  6
Continuous
 62
     2
100
AcDbLine
 10
-66.99744853231861
 20
13.41480215774694
 30
0.0
 11
-62.47405011023857
 21
13.41480215774694
 31
0.0
  0
LINE
  5
24B
102
{ACAD_REACTORS
330
400
330
401
102
}
330
74
100
AcDbEntity
  8
0
  6
Continuous
 62
     2
100
AcDbLine
 10
-62.12343472562377
 20
13.0641867731322
 30
0.0
 11
-62.12343472562377
 21
8.46541754238823
 31
0.0
  0
LINE
  5
24C
102
{ACAD_REACTORS
330
400
330
401
102
}
330
74
100
AcDbEntity
  8
0
  6
Continuous
 62
     2
100
AcDbLine
 10
-62.47405011023857
 20
8.11480215777395
 30
0.0
 11
-66.99744853231861
 21
8.11480215777395
 31
0.0
  0
LINE
  5
24D
102
{ACAD_REACTORS
330
400
330
401
102
}
330
74
100
AcDbEntity
  8
0
  6
Continuous
 62
     2
100
AcDbLine
 10
-65.02600649857258
 20
8.96461412358686
 30
0.0
 11
-65.02600649857258
 21
10.22971406700142
 31
0.0
  0
LINE
  5
24E
102
{ACAD_REACTORS
330
400
330
401
102
}
330
74
100
AcDbEntity
  8
0
  6
Continuous
 62
     2
100
AcDbLine
 10
-65.02600649857258
 20
12.06579629189804
 30
0.0
 11
-65.02600649857258
 21
12.5649901919481
 31
0.0
  0
LINE
  5
24F
102
{ACAD_REACTORS
330
400
330
401
102
}
330
74
100
AcDbEntity
  8
0
  6
Continuous
 62
     2
100
AcDbLine
 10
-66.50662648542065
 20
12.82591326887055
 30
0.0
 11
-65.28692957549542
 21
12.82591326887055
 31
0.0
  0
LINE
  5
250
102
{ACAD_REACTORS
330
400
330
401
102
}
330
74
100
AcDbEntity
  8
0
  6
Continuous
 62
     2
100
AcDbLine
 10
-66.7675495623427
 20
12.5649901919481
 30
0.0
 11
-66.7675495623427
 21
8.96461412358686
 31
0.0
  0
LINE
  5
251
102
{ACAD_REACTORS
330
406
330
407
102
}
330
74
100
AcDbEntity
  8
0
  6
Continuous
 62
     2
100
AcDbLine
 10
-60.70391283213546
 20
11.67039613902857
 30
0.0
 11
-60.07683218107734
 21
11.67039613902857
 31
0.0
  0
LINE
  5
252
102
{ACAD_REACTORS
330
406
330
407
102
}
330
74
100
AcDbEntity
  8
0
  6
Continuous
 62
     2
100
AcDbLine
 10
-61.72912308854374
 20
13.41480215776193
 30
0.0
 11
-60.07683218107734
 21
13.41480215776193
 31
0.0
  0
LINE
  5
253
102
{ACAD_REACTORS
330
406
330
407
102
}
330
74
100
AcDbEntity
  8
0
  6
Continuous
 62
     2
100
AcDbLine
 10
-61.72912308854374
 20
13.41480215776193
 30
0.0
 11
-61.72912308854374
 21
10.8909926339511
 31
0.0
  0
LINE
  5
254
102
{ACAD_REACTORS
330
406
330
407
102
}
330
74
100
AcDbEntity
  8
0
  6
Continuous
 62
     2
100
AcDbLine
 10
-60.70391283213546
 20
12.28353480670216
 30
0.0
 11
-60.44168550854708
 21
12.28353480670216
 31
0.0
  0
LINE
  5
255
102
{ACAD_REACTORS
330
406
330
407
102
}
330
74
100
AcDbEntity
  8
0
  6
Continuous
 62
     2
100
AcDbLine
 10
-60.70391283213546
 20
12.86678079789412
 30
0.0
 11
-60.44168550854708
 21
12.86678079789412
 31
0.0
  0
LINE
  5
256
102
{ACAD_REACTORS
330
414
330
415
102
}
330
74
100
AcDbEntity
  8
0
  6
Continuous
 62
     2
100
AcDbLine
 10
-58.10145602740799
 20
12.53146882442757
 30
0.0
 11
-57.2339704258316
 21
12.53146882442757
 31
0.0
  0
LINE
  5
257
102
{ACAD_REACTORS
330
414
330
415
102
}
330
74
100
AcDbEntity
  8
0
  6
Continuous
 62
     2
100
AcDbLine
 10
-58.10145602740799
 20
13.41480215776193
 30
0.0
 11
-58.10145602740799
 21
12.53146882442757
 31
0.0
  0
LINE
  5
258
102
{ACAD_REACTORS
330
414
330
415
102
}
330
74
100
AcDbEntity
  8
0
  6
Continuous
 62
     2
100
AcDbLine
 10
-59.08723512010765
 20
13.41480215776193
 30
0.0
 11
-58.10145602740799
 21
13.41480215776193
 31
0.0
  0
LINE
  5
259
102
{ACAD_REACTORS
330
414
330
415
102
}
330
74
100
AcDbEntity
  8
0
  6
Continuous
 62
     2
100
AcDbLine
 10
-58.10145602740799
 20
10.8909926339511
 30
0.0
 11
-59.08723512010765
 21
10.8909926339511
 31
0.0
  0
LINE
  5
25A
102
{ACAD_REACTORS
330
414
330
415
102
}
330
74
100
AcDbEntity
  8
0
  6
Continuous
 62
     2
100
AcDbLine
 10
-57.2339704258316
 20
10.8909926339511
 30
0.0
 11
-57.2339704258316
 21
11.82840759993766
 31
0.0
  0
LINE
  5
25B
102
{ACAD_REACTORS
330
414
330
415
102
}
330
74
100
AcDbEntity
  8
0
  6
Continuous
 62
     2
100
AcDbLine
 10
-56.24819133313206
 20
10.8909926339511
 30
0.0
 11
-57.2339704258316
 21
10.8909926339511
 31
0.0
  0
LINE
  5
25C
102
{ACAD_REACTORS
330
414
330
415
102
}
330
74
100
AcDbEntity
  8
0
  6
Continuous
 62
     2
100
AcDbLine
 10
-56.24819133313206
 20
13.41480215776193
 30
0.0
 11
-56.24819133313206
 21
10.8909926339511
 31
0.0
  0
LINE
  5
25D
102
{ACAD_REACTORS
330
402
330
403
102
}
330
74
100
AcDbEntity
  8
0
  6
Continuous
 62
     2
100
AcDbLine
 10
-53.36971638244863
 20
11.86446202170655
 30
0.0
 11
-52.26564379862412
 21
11.86446202170655
 31
0.0
  0
LINE
  5
25E
102
{ACAD_REACTORS
330
402
330
403
102
}
330
74
100
AcDbEntity
  8
0
  6
Continuous
 62
     2
100
AcDbLine
 10
-52.26564379862412
 20
11.86446202170655
 30
0.0
 11
-52.26564379862412
 21
12.44133277000603
 31
0.0
  0
LINE
  5
25F
102
{ACAD_REACTORS
330
402
330
403
102
}
330
74
100
AcDbEntity
  8
0
  6
Continuous
 62
     2
100
AcDbLine
 10
-52.26564379862412
 20
12.44133277000603
 30
0.0
 11
-53.36971638244863
 21
12.44133277000603
 31
0.0
  0
LINE
  5
260
102
{ACAD_REACTORS
330
402
330
403
102
}
330
74
100
AcDbEntity
  8
0
  6
Continuous
 62
     2
100
AcDbLine
 10
-53.36971638244863
 20
12.44133277000603
 30
0.0
 11
-53.36971638244863
 21
12.83793140946199
 31
0.0
  0
LINE
  5
261
102
{ACAD_REACTORS
330
412
330
413
102
}
330
74
100
AcDbEntity
  8
0
  6
Continuous
 62
     2
100
AcDbLine
 10
-56.40604072423302
 20
8.11480215777395
 30
0.0
 11
-55.42026163153257
 21
8.11480215777395
 31
0.0
  0
LINE
  5
262
102
{ACAD_REACTORS
330
412
330
413
102
}
330
74
100
AcDbEntity
  8
0
  6
Continuous
 62
     2
100
AcDbLine
 10
-54.3950513751252
 20
8.11480215777395
 30
0.0
 11
-53.40927228242565
 21
8.11480215777395
 31
0.0
  0
LINE
  5
263
102
{ACAD_REACTORS
330
412
330
413
102
}
330
74
100
AcDbEntity
  8
0
  6
Continuous
 62
     2
100
AcDbLine
 10
-55.42026163153257
 20
10.63861168158478
 30
0.0
 11
-56.40604072423302
 21
10.63861168158478
 31
0.0
  0
LINE
  5
264
102
{ACAD_REACTORS
330
412
330
413
102
}
330
74
100
AcDbEntity
  8
0
  6
Continuous
 62
     2
100
AcDbLine
 10
-56.40604072423302
 20
10.63861168158478
 30
0.0
 11
-56.40604072423302
 21
8.11480215777395
 31
0.0
  0
LINE
  5
265
102
{ACAD_REACTORS
330
410
330
411
102
}
330
74
100
AcDbEntity
  8
0
  6
Continuous
 62
     2
100
AcDbLine
 10
-50.05749863097667
 20
13.41480215776193
 30
0.0
 11
-50.05749863097667
 21
12.33316950469982
 31
0.0
  0
LINE
  5
266
102
{ACAD_REACTORS
330
410
330
411
102
}
330
74
100
AcDbEntity
  8
0
  6
Continuous
 62
     2
100
AcDbLine
 10
-51.08270888738495
 20
13.41480215776193
 30
0.0
 11
-52.0684879800845
 21
13.41480215776193
 31
0.0
  0
LINE
  5
267
102
{ACAD_REACTORS
330
410
330
411
102
}
330
74
100
AcDbEntity
  8
0
  6
Continuous
 62
     2
100
AcDbLine
 10
-52.0684879800845
 20
13.41480215776193
 30
0.0
 11
-52.0684879800845
 21
10.8909926339511
 31
0.0
  0
LINE
  5
268
102
{ACAD_REACTORS
330
410
330
411
102
}
330
74
100
AcDbEntity
  8
0
  6
Continuous
 62
     2
100
AcDbLine
 10
-51.08270888738495
 20
10.8909926339511
 30
0.0
 11
-51.08270888738495
 21
11.97262528701276
 31
0.0
  0
LINE
  5
269
102
{ACAD_REACTORS
330
40E
330
40F
102
}
330
74
100
AcDbEntity
  8
0
  6
Continuous
 62
     2
100
AcDbLine
 10
-51.63486991556515
 20
8.11480215777395
 30
0.0
 11
-51.63486991556515
 21
9.98963208974706
 31
0.0
  0
LINE
  5
26A
102
{ACAD_REACTORS
330
40E
330
40F
102
}
330
74
100
AcDbEntity
  8
0
  6
Continuous
 62
     2
100
AcDbLine
 10
-51.63486991556515
 20
9.98963208974706
 30
0.0
 11
-50.96454013252997
 21
9.98963208974706
 31
0.0
  0
LINE
  5
26B
102
{ACAD_REACTORS
330
40E
330
40F
102
}
330
74
100
AcDbEntity
  8
0
  6
Continuous
 62
     2
100
AcDbLine
 10
-50.96454013252997
 20
9.98963208974706
 30
0.0
 11
-50.96454013252997
 21
10.63861168158478
 31
0.0
  0
LINE
  5
26C
102
{ACAD_REACTORS
330
40E
330
40F
102
}
330
74
100
AcDbEntity
  8
0
  6
Continuous
 62
     2
100
AcDbLine
 10
-50.96454013252997
 20
10.63861168158478
 30
0.0
 11
-53.29097879130158
 21
10.63861168158478
 31
0.0
  0
LINE
  5
26D
102
{ACAD_REACTORS
330
40E
330
40F
102
}
330
74
100
AcDbEntity
  8
0
  6
Continuous
 62
     2
100
AcDbLine
 10
-53.29097879130158
 20
9.98963208974706
 30
0.0
 11
-52.6206490082647
 21
9.98963208974706
 31
0.0
  0
LINE
  5
26E
102
{ACAD_REACTORS
330
40C
330
40D
102
}
330
74
100
AcDbEntity
  8
0
  6
Continuous
 62
     2
100
AcDbLine
 10
-50.3079237475735
 20
8.56187698770607
 30
0.0
 11
-49.37202161809096
 21
8.56187698770607
 31
0.0
  0
LINE
  5
26F
102
{ACAD_REACTORS
330
40C
330
40D
102
}
330
74
100
AcDbEntity
  8
0
  6
Continuous
 62
     2
100
AcDbLine
 10
-48.17203445798376
 20
8.11480215777395
 30
0.0
 11
-49.19724471439195
 21
8.11480215777395
 31
0.0
  0
LINE
  5
270
102
{ACAD_REACTORS
330
40C
330
40D
102
}
330
74
100
AcDbEntity
  8
0
  6
Continuous
 62
     2
100
AcDbLine
 10
-50.35257781103591
 20
10.63861168158478
 30
0.0
 11
-51.50791090767989
 21
8.11480215777395
 31
0.0
  0
LINE
  5
271
102
{ACAD_REACTORS
330
40C
330
40D
102
}
330
74
100
AcDbEntity
  8
0
  6
Continuous
 62
     2
100
AcDbLine
 10
-50.48270065127251
 20
8.11480215777395
 30
0.0
 11
-50.3079237475735
 21
8.56187698770607
 31
0.0
  0
LINE
  5
272
102
{ACAD_REACTORS
330
40C
330
40D
102
}
330
74
100
AcDbEntity
  8
0
  6
Continuous
 62
     2
100
AcDbLine
 10
-50.08804312679245
 20
9.12432596729827
 30
0.0
 11
-49.83997268283183
 21
9.75888379042781
 31
0.0
  0
LINE
  5
273
102
{ACAD_REACTORS
330
40A
330
40B
102
}
330
74
100
AcDbEntity
  8
0
  6
Continuous
 62
     2
100
AcDbLine
 10
-48.8745637197366
 20
10.8909926339511
 30
0.0
 11
-48.8745637197366
 21
13.41480215776193
 31
0.0
  0
LINE
  5
274
102
{ACAD_REACTORS
330
40A
330
40B
102
}
330
74
100
AcDbEntity
  8
0
  6
Continuous
 62
     2
100
AcDbLine
 10
-47.84935346332922
 20
13.41480215776193
 30
0.0
 11
-47.84935346332922
 21
10.8909926339511
 31
0.0
  0
LINE
  5
275
102
{ACAD_REACTORS
330
40A
330
40B
102
}
330
74
100
AcDbEntity
  8
0
  6
Continuous
 62
     2
100
AcDbLine
 10
-48.8745637197366
 20
13.41480215776193
 30
0.0
 11
-47.84935346332922
 21
13.41480215776193
 31
0.0
  0
LINE
  5
276
102
{ACAD_REACTORS
330
408
330
409
102
}
330
74
100
AcDbEntity
  8
0
  6
Continuous
 62
     2
100
AcDbLine
 10
-46.01580435090709
 20
11.54201063832604
 30
0.0
 11
-45.44010936077034
 21
10.8909926339511
 31
0.0
  0
LINE
  5
277
102
{ACAD_REACTORS
330
408
330
409
102
}
330
74
100
AcDbEntity
  8
0
  6
Continuous
 62
     2
100
AcDbLine
 10
-45.44010936077034
 20
10.8909926339511
 30
0.0
 11
-44.28083314775522
 21
10.8909926339511
 31
0.0
  0
LINE
  5
278
102
{ACAD_REACTORS
330
408
330
409
102
}
330
74
100
AcDbEntity
  8
0
  6
Continuous
 62
     2
100
AcDbLine
 10
-45.4361662444001
 20
12.19748767012871
 30
0.0
 11
-44.28083314775522
 21
10.8909926339511
 31
0.0
  0
LINE
  5
279
102
{ACAD_REACTORS
330
408
330
409
102
}
330
74
100
AcDbEntity
  8
0
  6
Continuous
 62
     2
100
AcDbLine
 10
-45.4361662444001
 20
12.19748767012871
 30
0.0
 11
-44.35969547517156
 21
13.41480215776193
 31
0.0
  0
LINE
  5
27A
102
{ACAD_REACTORS
330
408
330
409
102
}
330
74
100
AcDbEntity
  8
0
  6
Continuous
 62
     2
100
AcDbLine
 10
-46.01580435090709
 20
12.85296470193094
 30
0.0
 11
-45.51897168818578
 21
13.41480215776193
 31
0.0
  0
LINE
  5
27B
102
{ACAD_REACTORS
330
408
330
409
102
}
330
74
100
AcDbEntity
  8
0
  6
Continuous
 62
     2
100
AcDbLine
 10
-46.51263701362762
 20
13.41480215776193
 30
0.0
 11
-46.01580435090709
 21
12.85296470193094
 31
0.0
  0
LINE
  5
27C
102
{ACAD_REACTORS
330
408
330
409
102
}
330
74
100
AcDbEntity
  8
0
  6
Continuous
 62
     2
100
AcDbLine
 10
-46.51263701362762
 20
13.41480215776193
 30
0.0
 11
-47.67191322664353
 21
13.41480215776193
 31
0.0
  0
LINE
  5
27D
102
{ACAD_REACTORS
330
3FE
330
3FF
102
}
330
74
100
AcDbEntity
  8
0
  6
Continuous
 62
     2
100
AcDbLine
 10
-45.93694202349165
 20
8.11480215777395
 30
0.0
 11
-44.95116293079109
 21
8.11480215777395
 31
0.0
  0
LINE
  5
27E
102
{ACAD_REACTORS
330
3FE
330
3FF
102
}
330
74
100
AcDbEntity
  8
0
  6
Continuous
 62
     2
100
AcDbLine
 10
-44.95116293079109
 20
8.11480215777395
 30
0.0
 11
-44.95116293079109
 21
9.98963208974706
 31
0.0
  0
LINE
  5
27F
102
{ACAD_REACTORS
330
3FE
330
3FF
102
}
330
74
100
AcDbEntity
  8
0
  6
Continuous
 62
     2
100
AcDbLine
 10
-44.95116293079109
 20
9.98963208974706
 30
0.0
 11
-44.28083314775522
 21
9.98963208974706
 31
0.0
  0
LINE
  5
280
102
{ACAD_REACTORS
330
3FE
330
3FF
102
}
330
74
100
AcDbEntity
  8
0
  6
Continuous
 62
     2
100
AcDbLine
 10
-44.28083314775522
 20
9.98963208974706
 30
0.0
 11
-44.28083314775522
 21
10.63861168158478
 31
0.0
  0
LINE
  5
281
102
{ACAD_REACTORS
330
3FE
330
3FF
102
}
330
74
100
AcDbEntity
  8
0
  6
Continuous
 62
     2
100
AcDbLine
 10
-47.07830878298551
 20
10.63861168158432
 30
0.0
 11
-44.28083314775522
 21
10.63861168158478
 31
0.0
  0
LINE
  5
282
102
{ACAD_REACTORS
330
3FE
330
3FF
102
}
330
74
100
AcDbEntity
  8
0
  6
Continuous
 62
     2
100
AcDbLine
 10
-45.93694202349165
 20
9.98963208974706
 30
0.0
 11
-45.93694202349165
 21
8.11480215777395
 31
0.0
  0
LINE
  5
283
102
{ACAD_REACTORS
330
400
330
401
102
}
330
74
100
AcDbEntity
  8
0
  6
Continuous
 62
     2
100
AcDbLine
 10
-64.63899692884631
 20
9.7502402979099
 30
0.0
 11
-64.63899692884631
 21
10.23110922906287
 31
0.0
  0
LINE
  5
284
102
{ACAD_REACTORS
330
400
330
401
102
}
330
74
100
AcDbEntity
  8
0
  6
Continuous
 62
     2
100
AcDbLine
 10
-64.63899692884631
 20
12.06440112983658
 30
0.0
 11
-64.63899692884631
 21
12.56484351703225
 31
0.0
  0
LINE
  5
285
330
74
100
AcDbEntity
  8
1
  6
Continuous
 62
     7
100
AcDbLine
 10
-7.96330475097568
 20
19.26480215776799
 30
0.0
 11
-7.96330475097568
 21
23.51480215776797
 31
0.0
  0
LINE
  5
286
330
74
100
AcDbEntity
  8
1
  6
Continuous
 62
     6
100
AcDbLine
 10
-87.96330475097807
 20
2.2648021577681
 30
0.0
 11
-87.50810927772807
 21
2.26480215776799
 31
0.0
  0
LINE
  5
287
330
74
100
AcDbEntity
  8
1
  6
Continuous
 62
     6
100
AcDbLine
 10
-137.9633047509782
 20
2.2648021577681
 30
0.0
 11
-176.7633047509781
 21
2.2648021577681
 31
0.0
  0
LINE
  5
288
330
74
100
AcDbEntity
  8
1
  6
Continuous
 62
     6
100
AcDbLine
 10
-187.9633047509781
 20
2.2648021577681
 30
0.0
 11
-176.7633047509781
 21
2.2648021577681
 31
0.0
  0
LINE
  5
289
330
74
100
AcDbEntity
  8
1
  6
Continuous
 62
     6
100
AcDbLine
 10
12.03669524902195
 20
2.2648021577681
 30
0.0
 11
55.53669524902195
 21
2.2648021577681
 31
0.0
  0
LINE
  5
28A
330
74
100
AcDbEntity
  8
1
  6
Continuous
 62
     6
100
AcDbLine
 10
-37.96330475097805
 20
2.2648021577681
 30
0.0
 11
-55.80810927772809
 21
2.2648021577681
 31
0.0
  0
LINE
  5
28B
330
74
100
AcDbEntity
  8
1
  6
PHANTOM
 62
     2
100
AcDbLine
 10
-65.8888460629277
 20
17.13980215776799
 30
0.0
 11
-61.57325109373869
 21
17.13980215776799
 31
0.0
  0
LINE
  5
28C
330
74
100
AcDbEntity
  8
1
  6
PHANTOM
 62
     2
100
AcDbLine
 10
-68.9158494526247
 20
18.78980215776802
 30
0.0
 11
-68.9158494526247
 21
15.48980215776801
 31
0.0
  0
LINE
  5
28D
330
74
100
AcDbEntity
  8
1
  6
PHANTOM
 62
     2
100
AcDbLine
 10
-67.26584945262469
 20
17.13980215776799
 30
0.0
 11
-70.56584945262469
 21
17.13980215776799
 31
0.0
  0
LINE
  5
28E
330
74
100
AcDbEntity
  8
1
  6
Continuous
 62
     2
100
AcDbLine
 10
55.53669524902195
 20
2.2648021577681
 30
0.0
 11
60.53669524902095
 21
2.2648021577681
 31
0.0
  0
LINE
  5
28F
330
74
100
AcDbEntity
  8
1
  6
Continuous
 62
     2
100
AcDbLine
 10
55.53669524902195
 20
2.2648021577681
 30
0.0
 11
55.53669524902195
 21
-2.73519784223201
 31
0.0
  0
LINE
  5
290
330
74
100
AcDbEntity
  8
1
  6
Continuous
 62
     7
100
AcDbLine
 10
-37.60810927772807
 20
15.01480215776799
 30
0.0
 11
-37.60810927772807
 21
19.26480215776799
 31
0.0
  0
LINE
  5
291
330
74
100
AcDbEntity
  8
1
  6
Continuous
 62
     7
100
AcDbLine
 10
-74.00810927772797
 20
15.01480215776799
 30
0.0
 11
-37.60810927772807
 21
15.01480215776799
 31
0.0
  0
LINE
  5
292
330
74
100
AcDbEntity
  8
1
  6
Continuous
 62
     2
100
AcDbLine
 10
60.53669524902095
 20
-2.73519784223201
 30
0.0
 11
60.53669524902095
 21
2.2648021577681
 31
0.0
  0
LINE
  5
293
330
74
100
AcDbEntity
  8
1
  6
Continuous
 62
     2
100
AcDbLine
 10
60.53669524902095
 20
-2.73519784223201
 30
0.0
 11
55.53669524902195
 21
-2.73519784223201
 31
0.0
  0
LINE
  5
294
330
74
100
AcDbEntity
  8
1
  6
Continuous
 62
     2
100
AcDbLine
 10
55.53669524902195
 20
-2.73519784223201
 30
0.0
 11
12.03669524902195
 21
-2.73519784223201
 31
0.0
  0
LINE
  5
295
330
74
100
AcDbEntity
  8
1
  6
Continuous
 62
     6
100
AcDbLine
 10
55.53669524902365
 20
32.01480215776799
 30
0.0
 11
55.53669524902286
 21
52.2648021577681
 31
0.0
  0
LINE
  5
296
330
74
100
AcDbEntity
  8
1
  6
Continuous
 62
     2
100
AcDbLine
 10
60.53669524902095
 20
207.264802157768
 30
0.0
 11
-87.96330475097807
 21
207.264802157768
 31
0.0
  0
LINE
  5
297
330
74
100
AcDbEntity
  8
1
  6
Continuous
 62
     6
100
AcDbLine
 10
55.53669524902095
 20
187.264802157768
 30
0.0
 11
-231.4633047509772
 21
187.264802157768
 31
0.0
  0
LINE
  5
298
330
74
100
AcDbEntity
  8
1
  6
Continuous
 62
     2
100
AcDbLine
 10
55.53669524902286
 20
52.2648021577681
 30
0.0
 11
60.53669524902095
 21
52.2648021577681
 31
0.0
  0
LINE
  5
299
330
74
100
AcDbEntity
  8
1
  6
Continuous
 62
     6
100
AcDbLine
 10
55.53669524902286
 20
52.2648021577681
 30
0.0
 11
55.53669524902234
 21
102.2648021577679
 31
0.0
  0
LINE
  5
29A
330
74
100
AcDbEntity
  8
1
  6
Continuous
 62
     2
100
AcDbLine
 10
60.53669524902095
 20
52.2648021577681
 30
0.0
 11
60.53669524902095
 21
102.2648021577679
 31
0.0
  0
LINE
  5
29B
330
74
100
AcDbEntity
  8
1
  6
Continuous
 62
     2
100
AcDbLine
 10
55.53669524902234
 20
102.2648021577679
 30
0.0
 11
60.53669524902095
 21
102.2648021577679
 31
0.0
  0
LINE
  5
29C
330
74
100
AcDbEntity
  8
1
  6
Continuous
 62
     6
100
AcDbLine
 10
55.53669524902234
 20
102.2648021577679
 30
0.0
 11
55.53669524902124
 21
152.264802157768
 31
0.0
  0
LINE
  5
29D
330
74
100
AcDbEntity
  8
1
  6
Continuous
 62
     2
100
AcDbLine
 10
60.53669524902095
 20
102.2648021577679
 30
0.0
 11
60.53669524902095
 21
152.264802157768
 31
0.0
  0
LINE
  5
29E
330
74
100
AcDbEntity
  8
1
  6
Continuous
 62
     2
100
AcDbLine
 10
55.53669524902124
 20
152.264802157768
 30
0.0
 11
60.53669524902095
 21
152.264802157768
 31
0.0
  0
LINE
  5
29F
330
74
100
AcDbEntity
  8
1
  6
Continuous
 62
     6
100
AcDbLine
 10
55.53669524902124
 20
152.264802157768
 30
0.0
 11
55.53669524902095
 21
187.264802157768
 31
0.0
  0
LINE
  5
2A0
330
74
100
AcDbEntity
  8
1
  6
Continuous
 62
     2
100
AcDbLine
 10
60.53669524902095
 20
152.264802157768
 30
0.0
 11
60.53669524902095
 21
207.264802157768
 31
0.0
  0
LINE
  5
2A1
330
74
100
AcDbEntity
  8
1
  6
Continuous
 62
     2
100
AcDbLine
 10
60.53669524902095
 20
2.2648021577681
 30
0.0
 11
60.53669524902095
 21
52.2648021577681
 31
0.0
  0
LINE
  5
2A2
330
74
100
AcDbEntity
  8
1
  6
Continuous
 62
     2
100
AcDbLine
 10
-87.96330475097807
 20
207.264802157768
 30
0.0
 11
-236.4633047509772
 21
207.264802157768
 31
0.0
  0
LINE
  5
2A3
330
74
100
AcDbEntity
  8
1
  6
Continuous
 62
     2
100
AcDbLine
 10
-87.96330475097807
 20
207.264802157768
 30
0.0
 11
-87.96330475097807
 21
198.0561103130667
 31
0.0
  0
LINE
  5
2A4
330
74
100
AcDbEntity
  8
1
  6
Continuous
 62
     2
100
AcDbLine
 10
-236.4633047509772
 20
-2.73519784223201
 30
0.0
 11
-231.4633047509761
 21
-2.73519784223201
 31
0.0
  0
LINE
  5
2A5
330
74
100
AcDbEntity
  8
1
  6
Continuous
 62
     2
100
AcDbLine
 10
-236.4633047509772
 20
207.264802157768
 30
0.0
 11
-236.4633047509772
 21
152.264802157768
 31
0.0
  0
LINE
  5
2A6
330
74
100
AcDbEntity
  8
1
  6
Continuous
 62
     6
100
AcDbLine
 10
-231.4633047509772
 20
187.264802157768
 30
0.0
 11
-231.4633047509769
 21
152.264802157768
 31
0.0
  0
LINE
  5
2A7
330
74
100
AcDbEntity
  8
1
  6
Continuous
 62
     2
100
AcDbLine
 10
-236.4633047509772
 20
152.264802157768
 30
0.0
 11
-231.4633047509769
 21
152.264802157768
 31
0.0
  0
LINE
  5
2A8
330
74
100
AcDbEntity
  8
1
  6
Continuous
 62
     2
100
AcDbLine
 10
-236.4633047509772
 20
152.264802157768
 30
0.0
 11
-236.4633047509772
 21
102.2648021577679
 31
0.0
  0
LINE
  5
2A9
330
74
100
AcDbEntity
  8
1
  6
Continuous
 62
     6
100
AcDbLine
 10
-231.4633047509769
 20
152.264802157768
 30
0.0
 11
-231.4633047509765
 21
102.2648021577679
 31
0.0
  0
LINE
  5
2AA
330
74
100
AcDbEntity
  8
1
  6
Continuous
 62
     2
100
AcDbLine
 10
-236.4633047509772
 20
102.2648021577679
 30
0.0
 11
-231.4633047509765
 21
102.2648021577679
 31
0.0
  0
LINE
  5
2AB
330
74
100
AcDbEntity
  8
1
  6
Continuous
 62
     2
100
AcDbLine
 10
-236.4633047509772
 20
102.2648021577679
 30
0.0
 11
-236.4633047509772
 21
52.2648021577681
 31
0.0
  0
LINE
  5
2AC
330
74
100
AcDbEntity
  8
1
  6
Continuous
 62
     6
100
AcDbLine
 10
-231.4633047509765
 20
102.2648021577679
 30
0.0
 11
-231.4633047509763
 21
52.2648021577681
 31
0.0
  0
LINE
  5
2AD
330
74
100
AcDbEntity
  8
1
  6
Continuous
 62
     2
100
AcDbLine
 10
-236.4633047509772
 20
52.2648021577681
 30
0.0
 11
-231.4633047509763
 21
52.2648021577681
 31
0.0
  0
LINE
  5
2AE
330
74
100
AcDbEntity
  8
1
  6
Continuous
 62
     2
100
AcDbLine
 10
-236.4633047509772
 20
52.2648021577681
 30
0.0
 11
-236.4633047509772
 21
2.2648021577681
 31
0.0
  0
LINE
  5
2AF
330
74
100
AcDbEntity
  8
1
  6
Continuous
 62
     6
100
AcDbLine
 10
-231.4633047509763
 20
52.2648021577681
 30
0.0
 11
-231.4633047509761
 21
2.2648021577681
 31
0.0
  0
LINE
  5
2B0
330
74
100
AcDbEntity
  8
1
  6
Continuous
 62
     2
100
AcDbLine
 10
-187.9633047509781
 20
-2.73519784223201
 30
0.0
 11
-187.9633047509781
 21
2.2648021577681
 31
0.0
  0
LINE
  5
2B1
330
74
100
AcDbEntity
  8
1
  6
Continuous
 62
     2
100
AcDbLine
 10
-187.9633047509781
 20
-2.73519784223201
 30
0.0
 11
-137.9633047509782
 21
-2.73519784223201
 31
0.0
  0
LINE
  5
2B2
330
74
100
AcDbEntity
  8
1
  6
Continuous
 62
     2
100
AcDbLine
 10
-137.9633047509782
 20
-2.73519784223201
 30
0.0
 11
-137.9633047509782
 21
2.2648021577681
 31
0.0
  0
LINE
  5
2B3
330
74
100
AcDbEntity
  8
1
  6
Continuous
 62
     2
100
AcDbLine
 10
-137.9633047509782
 20
-2.73519784223201
 30
0.0
 11
-87.96330475097807
 21
-2.73519784223201
 31
0.0
  0
LINE
  5
2B4
330
74
100
AcDbEntity
  8
1
  6
Continuous
 62
     2
100
AcDbLine
 10
-87.96330475097807
 20
-2.73519784223201
 30
0.0
 11
-87.96330475097807
 21
2.2648021577681
 31
0.0
  0
LINE
  5
2B5
330
74
100
AcDbEntity
  8
1
  6
Continuous
 62
     2
100
AcDbLine
 10
-87.96330475097807
 20
-2.73519784223201
 30
0.0
 11
-37.96330475097805
 21
-2.73519784223201
 31
0.0
  0
LINE
  5
2B6
330
74
100
AcDbEntity
  8
1
  6
Continuous
 62
     2
100
AcDbLine
 10
-37.96330475097805
 20
-2.73519784223201
 30
0.0
 11
-37.96330475097805
 21
2.2648021577681
 31
0.0
  0
LINE
  5
2B7
330
74
100
AcDbEntity
  8
1
  6
Continuous
 62
     2
100
AcDbLine
 10
12.03669524902195
 20
-2.73519784223201
 30
0.0
 11
12.03669524902195
 21
2.2648021577681
 31
0.0
  0
LINE
  5
2B8
330
74
100
AcDbEntity
  8
1
  6
Continuous
 62
     2
100
AcDbLine
 10
12.03669524902195
 20
-2.73519784223201
 30
0.0
 11
-37.96330475097805
 21
-2.73519784223201
 31
0.0
  0
LINE
  5
2B9
330
74
100
AcDbEntity
  8
1
  6
Continuous
 62
     2
100
AcDbLine
 10
-231.4633047509761
 20
2.2648021577681
 30
0.0
 11
-231.4633047509761
 21
-2.73519784223201
 31
0.0
  0
LINE
  5
2BA
330
74
100
AcDbEntity
  8
1
  6
Continuous
 62
     2
100
AcDbLine
 10
-231.4633047509761
 20
-2.73519784223201
 30
0.0
 11
-187.9633047509781
 21
-2.73519784223201
 31
0.0
  0
LINE
  5
2BB
330
74
100
AcDbEntity
  8
1
  6
Continuous
 62
     2
100
AcDbLine
 10
-231.4633047509761
 20
2.2648021577681
 30
0.0
 11
-236.4633047509772
 21
2.2648021577681
 31
0.0
  0
LINE
  5
2BC
330
74
100
AcDbEntity
  8
1
  6
Continuous
 62
     2
100
AcDbLine
 10
-236.4633047509772
 20
2.2648021577681
 30
0.0
 11
-236.4633047509772
 21
-2.73519784223201
 31
0.0
  0
LINE
  5
2BD
330
74
100
AcDbEntity
  8
1
  6
Continuous
 62
     7
100
AcDbLine
 10
-176.7633047509781
 20
6.5148021577681
 30
0.0
 11
-114.508109277728
 21
6.5148021577681
 31
0.0
  0
LINE
  5
2BE
330
74
100
AcDbEntity
  8
1
  6
Continuous
 62
     2
100
AcDbLine
 10
-176.7633047509781
 20
6.5148021577681
 30
0.0
 11
-176.7633047509781
 21
2.2648021577681
 31
0.0
  0
LINE
  5
2BF
330
74
100
AcDbEntity
  8
1
  6
Continuous
 62
     2
100
AcDbLine
 10
-176.7633047509781
 20
10.76480215776799
 30
0.0
 11
-190.2633047509781
 21
10.76480215776799
 31
0.0
  0
LINE
  5
2C0
330
74
100
AcDbEntity
  8
1
  6
Continuous
 62
     2
100
AcDbLine
 10
-176.7633047509781
 20
10.76480215776799
 30
0.0
 11
-176.7633047509781
 21
6.5148021577681
 31
0.0
  0
LINE
  5
2C1
330
74
100
AcDbEntity
  8
1
  6
Continuous
 62
     2
100
AcDbLine
 10
-176.7633047509781
 20
19.26480215776799
 30
0.0
 11
-190.2633047509781
 21
19.26480215776799
 31
0.0
  0
LINE
  5
2C2
330
74
100
AcDbEntity
  8
1
  6
Continuous
 62
     2
100
AcDbLine
 10
-176.7633047509781
 20
19.26480215776799
 30
0.0
 11
-176.7633047509781
 21
15.01480215776799
 31
0.0
  0
LINE
  5
2C3
330
74
100
AcDbEntity
  8
1
  6
Continuous
 62
     2
100
AcDbLine
 10
-176.7633047509781
 20
15.01480215776799
 30
0.0
 11
-190.2633047509781
 21
15.01480215776799
 31
0.0
  0
LINE
  5
2C4
330
74
100
AcDbEntity
  8
1
  6
Continuous
 62
     2
100
AcDbLine
 10
-176.7633047509781
 20
15.01480215776799
 30
0.0
 11
-176.7633047509781
 21
10.76480215776799
 31
0.0
  0
LINE
  5
2C5
330
74
100
AcDbEntity
  8
1
  6
Continuous
 62
     2
100
AcDbLine
 10
-176.7633047509781
 20
27.76480215776799
 30
0.0
 11
-190.2633047509781
 21
27.76480215776799
 31
0.0
  0
LINE
  5
2C6
330
74
100
AcDbEntity
  8
1
  6
Continuous
 62
     2
100
AcDbLine
 10
-176.7633047509781
 20
23.51480215776799
 30
0.0
 11
-190.2633047509781
 21
23.51480215776799
 31
0.0
  0
LINE
  5
2C7
330
74
100
AcDbEntity
  8
1
  6
Continuous
 62
     2
100
AcDbLine
 10
-176.7633047509781
 20
23.51480215776799
 30
0.0
 11
-176.7633047509781
 21
19.26480215776799
 31
0.0
  0
LINE
  5
2C8
330
74
100
AcDbEntity
  8
1
  6
Continuous
 62
     2
100
AcDbLine
 10
-176.7633047509781
 20
27.76480215776799
 30
0.0
 11
-176.7633047509781
 21
23.51480215776799
 31
0.0
  0
LINE
  5
2C9
330
74
100
AcDbEntity
  8
1
  6
Continuous
 62
     6
100
AcDbLine
 10
-176.7633047509781
 20
32.01480215776799
 30
0.0
 11
-190.2633047509781
 21
32.01480215776799
 31
0.0
  0
LINE
  5
2CA
330
74
100
AcDbEntity
  8
1
  6
Continuous
 62
     2
100
AcDbLine
 10
-176.7633047509781
 20
32.01480215776799
 30
0.0
 11
-176.7633047509781
 21
27.76480215776799
 31
0.0
  0
LINE
  5
2CB
330
74
100
AcDbEntity
  8
1
  6
Continuous
 62
     6
100
AcDbLine
 10
55.53669524902195
 20
2.2648021577681
 30
0.0
 11
55.53669524902325
 21
10.76480215776799
 31
0.0
  0
LINE
  5
2CC
330
74
100
AcDbEntity
  8
1
  6
Continuous
 62
     6
100
AcDbLine
 10
55.53669524902274
 20
23.51480215776799
 30
0.0
 11
55.53669524902374
 21
19.26480215776799
 31
0.0
  0
LINE
  5
2CD
330
74
100
AcDbEntity
  8
1
  6
Continuous
 62
     6
100
AcDbLine
 10
-37.60810927772807
 20
2.26480215776799
 30
0.0
 11
12.03669524902195
 21
2.2648021577681
 31
0.0
  0
LINE
  5
2CE
330
74
100
AcDbEntity
  8
1
  6
Continuous
 62
     6
100
AcDbLine
 10
-74.00810927772797
 20
2.26480215776799
 30
0.0
 11
-55.80810927772809
 21
2.2648021577681
 31
0.0
  0
LINE
  5
2CF
330
74
100
AcDbEntity
  8
1
  6
Continuous
 62
     6
100
AcDbLine
 10
-190.2633047509781
 20
2.26480215776799
 30
0.0
 11
-187.9633047509781
 21
2.2648021577681
 31
0.0
  0
LINE
  5
2D0
330
74
100
AcDbEntity
  8
1
  6
Continuous
 62
     6
100
AcDbLine
 10
-114.508109277728
 20
2.26480215776799
 30
0.0
 11
-137.9633047509782
 21
2.2648021577681
 31
0.0
  0
LINE
  5
2D1
330
74
100
AcDbEntity
  8
1
  6
Continuous
 62
     6
100
AcDbLine
 10
55.53669524902365
 20
32.01480215776799
 30
0.0
 11
37.65510353070285
 21
32.01480215776799
 31
0.0
  0
LINE
  5
2D2
330
74
100
AcDbEntity
  8
1
  6
Continuous
 62
     7
100
AcDbLine
 10
55.53669524902325
 20
10.76480215776799
 30
0.0
 11
10.53669524902394
 21
10.76480215776799
 31
0.0
  0
LINE
  5
2D3
330
74
100
AcDbEntity
  8
1
  6
Continuous
 62
     7
100
AcDbLine
 10
55.53669524902274
 20
23.51480215776799
 30
0.0
 11
37.65510353070285
 21
23.51480215776799
 31
0.0
  0
LINE
  5
2D4
330
74
100
AcDbEntity
  8
1
  6
Continuous
 62
     7
100
AcDbLine
 10
10.53669524902394
 20
19.26480215776799
 30
0.0
 11
55.53669524902374
 21
19.26480215776799
 31
0.0
  0
LINE
  5
2D5
330
74
100
AcDbEntity
  8
1
  6
Continuous
 62
     7
100
AcDbLine
 10
-37.60810927772807
 20
27.76480215776799
 30
0.0
 11
-37.60810927772807
 21
23.51480215776799
 31
0.0
  0
LINE
  5
2D6
330
74
100
AcDbEntity
  8
1
  6
Continuous
 62
     7
100
AcDbLine
 10
-51.10810927772808
 20
27.76480215776799
 30
0.0
 11
-37.60810927772807
 21
27.76480215776799
 31
0.0
  0
LINE
  5
2D7
330
74
100
AcDbEntity
  8
1
  6
Continuous
 62
     7
100
AcDbLine
 10
-51.10810927772808
 20
27.76480215776799
 30
0.0
 11
-64.60810927772799
 21
27.76480215776799
 31
0.0
  0
LINE
  5
2D8
330
74
100
AcDbEntity
  8
1
  6
Continuous
 62
     7
100
AcDbLine
 10
37.65510353070285
 20
23.51480215776799
 30
0.0
 11
37.65510353070285
 21
32.01480215776799
 31
0.0
  0
LINE
  5
2D9
330
74
100
AcDbEntity
  8
1
  6
Continuous
 62
     6
100
AcDbLine
 10
28.73669524902364
 20
32.01480215776799
 30
0.0
 11
37.65510353070285
 21
32.01480215776799
 31
0.0
  0
LINE
  5
2DA
330
74
100
AcDbEntity
  8
1
  6
Continuous
 62
     7
100
AcDbLine
 10
28.73669524902364
 20
32.01480215776799
 30
0.0
 11
28.73669524902395
 21
23.5148021577681
 31
0.0
  0
LINE
  5
2DB
330
74
100
AcDbEntity
  8
1
  6
Continuous
 62
     7
100
AcDbLine
 10
10.53669524902394
 20
10.76480215776799
 30
0.0
 11
-7.96330475097568
 21
10.76480215776799
 31
0.0
  0
LINE
  5
2DC
330
74
100
AcDbEntity
  8
1
  6
Continuous
 62
     7
100
AcDbLine
 10
10.53669524902394
 20
19.26480215776799
 30
0.0
 11
10.53669524902394
 21
10.76480215776799
 31
0.0
  0
LINE
  5
2DD
330
74
100
AcDbEntity
  8
1
  6
Continuous
 62
     2
100
AcDbLine
 10
-87.50810927772807
 20
32.01480215776799
 30
0.0
 11
-87.50810927772807
 21
27.76480215776799
 31
0.0
  0
LINE
  5
2DE
330
74
100
AcDbEntity
  8
1
  6
Continuous
 62
     2
100
AcDbLine
 10
-101.008109277728
 20
32.01480215776799
 30
0.0
 11
-101.008109277728
 21
27.76480215776799
 31
0.0
  0
LINE
  5
2DF
330
74
100
AcDbEntity
  8
1
  6
Continuous
 62
     6
100
AcDbLine
 10
-87.50810927772807
 20
32.01480215776799
 30
0.0
 11
-101.008109277728
 21
32.01480215776799
 31
0.0
  0
LINE
  5
2E0
330
74
100
AcDbEntity
  8
1
  6
Continuous
 62
     6
100
AcDbLine
 10
-101.008109277728
 20
32.01480215776799
 30
0.0
 11
-114.508109277728
 21
32.01480215776799
 31
0.0
  0
LINE
  5
2E1
330
74
100
AcDbEntity
  8
1
  6
Continuous
 62
     2
100
AcDbLine
 10
-114.508109277728
 20
32.01480215776799
 30
0.0
 11
-114.508109277728
 21
27.76480215776799
 31
0.0
  0
LINE
  5
2E2
330
74
100
AcDbEntity
  8
1
  6
Continuous
 62
     7
100
AcDbLine
 10
-55.80810927772809
 20
6.5148021577681
 30
0.0
 11
-55.80810927772809
 21
2.2648021577681
 31
0.0
  0
LINE
  5
2E3
330
74
100
AcDbEntity
  8
1
  6
Continuous
 62
     7
100
AcDbLine
 10
-55.80810927772809
 20
6.5148021577681
 30
0.0
 11
-74.00810927772797
 21
6.5148021577681
 31
0.0
  0
LINE
  5
2E4
330
74
100
AcDbEntity
  8
1
  6
Continuous
 62
     7
100
AcDbLine
 10
-51.10810927772808
 20
19.26480215776799
 30
0.0
 11
-64.60810927772799
 21
19.2648021577681
 31
0.0
  0
LINE
  5
2E5
330
74
100
AcDbEntity
  8
1
  6
Continuous
 62
     7
100
AcDbLine
 10
-37.60810927772807
 20
6.5148021577681
 30
0.0
 11
-55.80810927772809
 21
6.5148021577681
 31
0.0
  0
LINE
  5
2E6
330
74
100
AcDbEntity
  8
1
  6
Continuous
 62
     6
100
AcDbLine
 10
-37.60810927772807
 20
32.01480215776799
 30
0.0
 11
-14.70810927772805
 21
32.01480215776799
 31
0.0
  0
LINE
  5
2E7
330
74
100
AcDbEntity
  8
1
  6
Continuous
 62
     6
100
AcDbLine
 10
28.73669524902364
 20
32.01480215776799
 30
0.0
 11
-14.70810927772805
 21
32.01480215776799
 31
0.0
  0
LINE
  5
2E8
330
74
100
AcDbEntity
  8
1
  6
Continuous
 62
     7
100
AcDbLine
 10
-14.70810927772805
 20
32.01480215776799
 30
0.0
 11
-14.70810927772805
 21
23.51480215776793
 31
0.0
  0
LINE
  5
2E9
330
74
100
AcDbEntity
  8
1
  6
Continuous
 62
     6
100
AcDbLine
 10
-190.2633047509781
 20
32.01480215776799
 30
0.0
 11
-196.4633047509761
 21
32.01480215776799
 31
0.0
  0
LINE
  5
2EA
330
74
100
AcDbEntity
  8
1
  6
Continuous
 62
     6
100
AcDbLine
 10
-196.4633047509761
 20
2.2648021577681
 30
0.0
 11
-196.4633047509761
 21
6.5148021577681
 31
0.0
  0
LINE
  5
2EB
330
74
100
AcDbEntity
  8
1
  6
Continuous
 62
     6
100
AcDbLine
 10
-196.4633047509761
 20
6.5148021577681
 30
0.0
 11
-196.4633047509761
 21
10.76480215776799
 31
0.0
  0
LINE
  5
2EC
330
74
100
AcDbEntity
  8
1
  6
Continuous
 62
     7
100
AcDbLine
 10
-51.10810927772808
 20
23.51480215776799
 30
0.0
 11
-51.10810927772808
 21
19.26480215776799
 31
0.0
  0
LINE
  5
2ED
330
74
100
AcDbEntity
  8
1
  6
Continuous
 62
     7
100
AcDbLine
 10
-64.60810927772799
 20
23.51480215776799
 30
0.0
 11
-64.60810927772799
 21
19.2648021577681
 31
0.0
  0
LINE
  5
2EE
330
74
100
AcDbEntity
  8
1
  6
Continuous
 62
     7
100
AcDbLine
 10
-51.10810927772808
 20
23.51480215776799
 30
0.0
 11
-64.60810927772799
 21
23.51480215776799
 31
0.0
  0
LINE
  5
2EF
330
74
100
AcDbEntity
  8
1
  6
Continuous
 62
     2
100
AcDbLine
 10
-74.00810927772797
 20
19.26480215776799
 30
0.0
 11
-87.50810927772807
 21
19.26480215776799
 31
0.0
  0
LINE
  5
2F0
330
74
100
AcDbEntity
  8
1
  6
Continuous
 62
     2
100
AcDbLine
 10
-190.2633047509781
 20
19.26480215776799
 30
0.0
 11
-190.2633047509781
 21
23.51480215776799
 31
0.0
  0
LINE
  5
2F1
330
74
100
AcDbEntity
  8
1
  6
Continuous
 62
     2
100
AcDbLine
 10
-190.2633047509781
 20
19.26480215776799
 30
0.0
 11
-196.4633047509761
 21
19.26480215776799
 31
0.0
  0
LINE
  5
2F2
330
74
100
AcDbEntity
  8
1
  6
Continuous
 62
     2
100
AcDbLine
 10
-74.00810927772797
 20
23.51480215776799
 30
0.0
 11
-87.50810927772807
 21
23.51480215776799
 31
0.0
  0
LINE
  5
2F3
330
74
100
AcDbEntity
  8
1
  6
Continuous
 62
     2
100
AcDbLine
 10
-190.2633047509781
 20
23.51480215776799
 30
0.0
 11
-190.2633047509781
 21
27.76480215776799
 31
0.0
  0
LINE
  5
2F4
330
74
100
AcDbEntity
  8
1
  6
Continuous
 62
     2
100
AcDbLine
 10
-74.00810927772797
 20
27.76480215776799
 30
0.0
 11
-87.50810927772807
 21
27.76480215776799
 31
0.0
  0
LINE
  5
2F5
330
74
100
AcDbEntity
  8
1
  6
Continuous
 62
     2
100
AcDbLine
 10
-190.2633047509781
 20
27.76480215776799
 30
0.0
 11
-190.2633047509781
 21
32.01480215776799
 31
0.0
  0
LINE
  5
2F6
330
74
100
AcDbEntity
  8
1
  6
Continuous
 62
     2
100
AcDbLine
 10
-190.2633047509781
 20
27.76480215776799
 30
0.0
 11
-196.4633047509761
 21
27.76480215776799
 31
0.0
  0
LINE
  5
2F7
330
74
100
AcDbEntity
  8
1
  6
Continuous
 62
     6
100
AcDbLine
 10
-74.00810927772797
 20
32.01480215776799
 30
0.0
 11
-87.50810927772807
 21
32.01480215776799
 31
0.0
  0
LINE
  5
2F8
330
74
100
AcDbEntity
  8
1
  6
Continuous
 62
     2
100
AcDbLine
 10
-74.00810927772797
 20
10.76480215776799
 30
0.0
 11
-87.50810927772807
 21
10.76480215776799
 31
0.0
  0
LINE
  5
2F9
330
74
100
AcDbEntity
  8
1
  6
Continuous
 62
     2
100
AcDbLine
 10
-74.00810927772797
 20
15.01480215776799
 30
0.0
 11
-87.50810927772807
 21
15.01480215776799
 31
0.0
  0
LINE
  5
2FA
330
74
100
AcDbEntity
  8
1
  6
Continuous
 62
     2
100
AcDbLine
 10
-190.2633047509781
 20
10.76480215776799
 30
0.0
 11
-190.2633047509781
 21
15.01480215776799
 31
0.0
  0
LINE
  5
2FB
330
74
100
AcDbEntity
  8
1
  6
Continuous
 62
     2
100
AcDbLine
 10
-190.2633047509781
 20
15.01480215776799
 30
0.0
 11
-190.2633047509781
 21
19.26480215776799
 31
0.0
  0
LINE
  5
2FC
330
74
100
AcDbEntity
  8
1
  6
Continuous
 62
     7
100
AcDbLine
 10
-190.2633047509781
 20
6.5148021577681
 30
0.0
 11
-176.7633047509781
 21
6.5148021577681
 31
0.0
  0
LINE
  5
2FD
330
74
100
AcDbEntity
  8
1
  6
Continuous
 62
     2
100
AcDbLine
 10
-190.2633047509781
 20
6.5148021577681
 30
0.0
 11
-190.2633047509781
 21
10.76480215776799
 31
0.0
  0
LINE
  5
2FE
330
74
100
AcDbEntity
  8
1
  6
Continuous
 62
     7
100
AcDbLine
 10
-37.60810927772807
 20
10.76480215776799
 30
0.0
 11
-37.60810927772807
 21
15.01480215776799
 31
0.0
  0
LINE
  5
2FF
330
74
100
AcDbEntity
  8
1
  6
Continuous
 62
     6
100
AcDbLine
 10
-51.10810927772808
 20
32.01480215776799
 30
0.0
 11
-37.60810927772807
 21
32.01480215776799
 31
0.0
  0
LINE
  5
300
330
74
100
AcDbEntity
  8
1
  6
Continuous
 62
     7
100
AcDbLine
 10
-37.60810927772807
 20
32.01480215776799
 30
0.0
 11
-37.60810927772807
 21
27.76480215776799
 31
0.0
  0
LINE
  5
301
330
74
100
AcDbEntity
  8
1
  6
Continuous
 62
     6
100
AcDbLine
 10
-64.60810927772799
 20
32.01480215776799
 30
0.0
 11
-51.10810927772808
 21
32.01480215776799
 31
0.0
  0
LINE
  5
302
330
74
100
AcDbEntity
  8
1
  6
Continuous
 62
     7
100
AcDbLine
 10
-74.00810927772797
 20
19.26480215776799
 30
0.0
 11
-74.00810927772797
 21
15.01480215776799
 31
0.0
  0
LINE
  5
303
330
74
100
AcDbEntity
  8
1
  6
Continuous
 62
     7
100
AcDbLine
 10
-74.00810927772797
 20
23.51480215776799
 30
0.0
 11
-74.00810927772797
 21
19.26480215776799
 31
0.0
  0
LINE
  5
304
330
74
100
AcDbEntity
  8
1
  6
Continuous
 62
     2
100
AcDbLine
 10
-196.4633047509761
 20
23.51480215776799
 30
0.0
 11
-190.2633047509781
 21
23.51480215776799
 31
0.0
  0
LINE
  5
305
330
74
100
AcDbEntity
  8
1
  6
Continuous
 62
     7
100
AcDbLine
 10
-74.00810927772797
 20
27.76480215776799
 30
0.0
 11
-74.00810927772797
 21
23.51480215776799
 31
0.0
  0
LINE
  5
306
330
74
100
AcDbEntity
  8
1
  6
Continuous
 62
     7
100
AcDbLine
 10
-37.60810927772807
 20
23.51480215776799
 30
0.0
 11
-37.60810927772807
 21
19.26480215776799
 31
0.0
  0
LINE
  5
307
330
74
100
AcDbEntity
  8
1
  6
Continuous
 62
     7
100
AcDbLine
 10
-51.10810927772808
 20
32.01480215776799
 30
0.0
 11
-51.10810927772808
 21
27.76480215776799
 31
0.0
  0
LINE
  5
308
330
74
100
AcDbEntity
  8
1
  6
Continuous
 62
     7
100
AcDbLine
 10
-64.60810927772799
 20
32.01480215776799
 30
0.0
 11
-64.60810927772799
 21
27.76480215776799
 31
0.0
  0
LINE
  5
309
330
74
100
AcDbEntity
  8
1
  6
Continuous
 62
     2
100
AcDbLine
 10
-190.2633047509781
 20
2.26480215776799
 30
0.0
 11
-190.2633047509781
 21
6.5148021577681
 31
0.0
  0
LINE
  5
30A
330
74
100
AcDbEntity
  8
1
  6
Continuous
 62
     2
100
AcDbLine
 10
-196.4633047509761
 20
10.76480215776799
 30
0.0
 11
-190.2633047509781
 21
10.76480215776799
 31
0.0
  0
LINE
  5
30B
330
74
100
AcDbEntity
  8
1
  6
Continuous
 62
     2
100
AcDbLine
 10
-196.4633047509761
 20
15.01480215776799
 30
0.0
 11
-190.2633047509781
 21
15.01480215776799
 31
0.0
  0
LINE
  5
30C
330
74
100
AcDbEntity
  8
1
  6
Continuous
 62
     7
100
AcDbLine
 10
-196.4633047509761
 20
6.5148021577681
 30
0.0
 11
-190.2633047509781
 21
6.5148021577681
 31
0.0
  0
LINE
  5
30D
330
74
100
AcDbEntity
  8
1
  6
Continuous
 62
     7
100
AcDbLine
 10
-37.60810927772807
 20
10.76480215776799
 30
0.0
 11
-37.60810927772807
 21
6.5148021577681
 31
0.0
  0
LINE
  5
30E
330
74
100
AcDbEntity
  8
1
  6
Continuous
 62
     7
100
AcDbLine
 10
-74.00810927772797
 20
15.01480215776799
 30
0.0
 11
-74.00810927772797
 21
10.76480215776799
 31
0.0
  0
LINE
  5
30F
330
74
100
AcDbEntity
  8
1
  6
Continuous
 62
     7
100
AcDbLine
 10
-74.00810927772797
 20
10.76480215776799
 30
0.0
 11
-74.00810927772797
 21
6.5148021577681
 31
0.0
  0
LINE
  5
310
330
74
100
AcDbEntity
  8
1
  6
Continuous
 62
     7
100
AcDbLine
 10
-51.10810927772808
 20
27.76480215776799
 30
0.0
 11
-51.10810927772808
 21
23.51480215776799
 31
0.0
  0
LINE
  5
311
330
74
100
AcDbEntity
  8
1
  6
Continuous
 62
     7
100
AcDbLine
 10
-64.60810927772799
 20
27.76480215776799
 30
0.0
 11
-64.60810927772799
 21
23.51480215776799
 31
0.0
  0
LINE
  5
312
330
74
100
AcDbEntity
  8
1
  6
Continuous
 62
     7
100
AcDbLine
 10
-74.00810927772797
 20
23.51480215776799
 30
0.0
 11
-64.60810927772799
 21
23.51480215776799
 31
0.0
  0
LINE
  5
313
330
74
100
AcDbEntity
  8
1
  6
Continuous
 62
     7
100
AcDbLine
 10
-37.60810927772807
 20
19.26480215776799
 30
0.0
 11
-51.10810927772808
 21
19.26480215776799
 31
0.0
  0
LINE
  5
314
330
74
100
AcDbEntity
  8
1
  6
Continuous
 62
     7
100
AcDbLine
 10
-37.60810927772807
 20
6.5148021577681
 30
0.0
 11
-37.60810927772807
 21
2.26480215776799
 31
0.0
  0
LINE
  5
315
330
74
100
AcDbEntity
  8
1
  6
Continuous
 62
     7
100
AcDbLine
 10
-74.00810927772797
 20
6.5148021577681
 30
0.0
 11
-74.00810927772797
 21
2.26480215776799
 31
0.0
  0
LINE
  5
316
330
74
100
AcDbEntity
  8
1
  6
Continuous
 62
     7
100
AcDbLine
 10
-74.00810927772797
 20
32.01480215776799
 30
0.0
 11
-74.00810927772797
 21
27.76480215776799
 31
0.0
  0
LINE
  5
317
330
74
100
AcDbEntity
  8
1
  6
Continuous
 62
     7
100
AcDbLine
 10
-37.60810927772807
 20
10.76480215776799
 30
0.0
 11
-7.96330475097568
 21
10.76480215776799
 31
0.0
  0
LINE
  5
318
330
74
100
AcDbEntity
  8
1
  6
Continuous
 62
     7
100
AcDbLine
 10
-37.60810927772807
 20
19.26480215776799
 30
0.0
 11
-7.96330475097568
 21
19.26480215776799
 31
0.0
  0
LINE
  5
319
330
74
100
AcDbEntity
  8
1
  6
Continuous
 62
     7
100
AcDbLine
 10
28.73669524902395
 20
23.5148021577681
 30
0.0
 11
37.65510353070285
 21
23.51480215776799
 31
0.0
  0
LINE
  5
31A
330
74
100
AcDbEntity
  8
1
  6
Continuous
 62
     7
100
AcDbLine
 10
28.73669524902395
 20
23.5148021577681
 30
0.0
 11
-7.96330475097568
 21
23.51480215776797
 31
0.0
  0
LINE
  5
31B
330
74
100
AcDbEntity
  8
1
  6
Continuous
 62
     7
100
AcDbLine
 10
-7.96330475097568
 20
19.26480215776799
 30
0.0
 11
10.53669524902394
 21
19.26480215776799
 31
0.0
  0
LINE
  5
31C
330
74
100
AcDbEntity
  8
1
  6
Continuous
 62
     7
100
AcDbLine
 10
-7.96330475097568
 20
19.26480215776799
 30
0.0
 11
-7.96330475097568
 21
10.76480215776799
 31
0.0
  0
LINE
  5
31D
330
74
100
AcDbEntity
  8
1
  6
Continuous
 62
     6
100
AcDbLine
 10
-190.2633047509781
 20
2.26480215776799
 30
0.0
 11
-196.4633047509761
 21
2.2648021577681
 31
0.0
  0
LINE
  5
31E
330
74
100
AcDbEntity
  8
1
  6
Continuous
 62
     6
100
AcDbLine
 10
-196.4633047509761
 20
27.76480215776799
 30
0.0
 11
-196.4633047509761
 21
32.01480215776799
 31
0.0
  0
LINE
  5
31F
330
74
100
AcDbEntity
  8
1
  6
Continuous
 62
     6
100
AcDbLine
 10
-196.4633047509761
 20
23.51480215776799
 30
0.0
 11
-196.4633047509761
 21
27.76480215776799
 31
0.0
  0
LINE
  5
320
330
74
100
AcDbEntity
  8
1
  6
Continuous
 62
     6
100
AcDbLine
 10
-196.4633047509761
 20
19.26480215776799
 30
0.0
 11
-196.4633047509761
 21
23.51480215776799
 31
0.0
  0
LINE
  5
321
330
74
100
AcDbEntity
  8
1
  6
Continuous
 62
     6
100
AcDbLine
 10
-196.4633047509761
 20
10.76480215776799
 30
0.0
 11
-196.4633047509761
 21
15.01480215776799
 31
0.0
  0
LINE
  5
322
330
74
100
AcDbEntity
  8
1
  6
Continuous
 62
     6
100
AcDbLine
 10
-114.508109277728
 20
32.01480215776799
 30
0.0
 11
-176.7633047509781
 21
32.01480215776799
 31
0.0
  0
LINE
  5
323
330
74
100
AcDbEntity
  8
1
  6
Continuous
 62
     2
100
AcDbLine
 10
-176.7633047509781
 20
27.76480215776799
 30
0.0
 11
-114.508109277728
 21
27.76480215776799
 31
0.0
  0
LINE
  5
324
330
74
100
AcDbEntity
  8
1
  6
Continuous
 62
     2
100
AcDbLine
 10
-176.7633047509781
 20
23.51480215776799
 30
0.0
 11
-114.508109277728
 21
23.51480215776799
 31
0.0
  0
LINE
  5
325
330
74
100
AcDbEntity
  8
1
  6
Continuous
 62
     6
100
AcDbLine
 10
-37.60810927772807
 20
2.26480215776799
 30
0.0
 11
-37.96330475097805
 21
2.2648021577681
 31
0.0
  0
LINE
  5
326
330
74
100
AcDbEntity
  8
1
  6
Continuous
 62
     7
100
AcDbLine
 10
-51.10810927772808
 20
23.51480215776799
 30
0.0
 11
-37.60810927772807
 21
23.51480215776799
 31
0.0
  0
LINE
  5
327
330
74
100
AcDbEntity
  8
1
  6
Continuous
 62
     7
100
AcDbLine
 10
-14.70810927772805
 20
23.51480215776793
 30
0.0
 11
-37.60810927772807
 21
23.51480215776799
 31
0.0
  0
LINE
  5
328
330
74
100
AcDbEntity
  8
1
  6
Continuous
 62
     6
100
AcDbLine
 10
55.53669524902374
 20
19.26480215776799
 30
0.0
 11
55.53669524902325
 21
10.76480215776799
 31
0.0
  0
LINE
  5
329
330
74
100
AcDbEntity
  8
1
  6
Continuous
 62
     6
100
AcDbLine
 10
-87.50810927772807
 20
2.26480215776799
 30
0.0
 11
-74.00810927772797
 21
2.26480215776799
 31
0.0
  0
LINE
  5
32A
330
74
100
AcDbEntity
  8
1
  6
Continuous
 62
     2
100
AcDbLine
 10
-87.50810927772807
 20
10.76480215776799
 30
0.0
 11
-87.50810927772807
 21
6.5148021577681
 31
0.0
  0
LINE
  5
32B
330
74
100
AcDbEntity
  8
1
  6
Continuous
 62
     2
100
AcDbLine
 10
-87.50810927772807
 20
10.76480215776799
 30
0.0
 11
-101.008109277728
 21
10.76480215776799
 31
0.0
  0
LINE
  5
32C
330
74
100
AcDbEntity
  8
1
  6
Continuous
 62
     2
100
AcDbLine
 10
-87.50810927772807
 20
6.5148021577681
 30
0.0
 11
-87.50810927772807
 21
2.26480215776799
 31
0.0
  0
LINE
  5
32D
330
74
100
AcDbEntity
  8
1
  6
Continuous
 62
     7
100
AcDbLine
 10
-87.50810927772807
 20
6.5148021577681
 30
0.0
 11
-74.00810927772797
 21
6.5148021577681
 31
0.0
  0
LINE
  5
32E
330
74
100
AcDbEntity
  8
1
  6
Continuous
 62
     2
100
AcDbLine
 10
-87.50810927772807
 20
19.26480215776799
 30
0.0
 11
-87.50810927772807
 21
15.01480215776799
 31
0.0
  0
LINE
  5
32F
330
74
100
AcDbEntity
  8
1
  6
Continuous
 62
     2
100
AcDbLine
 10
-87.50810927772807
 20
19.26480215776799
 30
0.0
 11
-101.008109277728
 21
19.26480215776799
 31
0.0
  0
LINE
  5
330
330
74
100
AcDbEntity
  8
1
  6
Continuous
 62
     2
100
AcDbLine
 10
-87.50810927772807
 20
23.51480215776799
 30
0.0
 11
-87.50810927772807
 21
19.26480215776799
 31
0.0
  0
LINE
  5
331
330
74
100
AcDbEntity
  8
1
  6
Continuous
 62
     2
100
AcDbLine
 10
-87.50810927772807
 20
23.51480215776799
 30
0.0
 11
-101.008109277728
 21
23.51480215776799
 31
0.0
  0
LINE
  5
332
330
74
100
AcDbEntity
  8
1
  6
Continuous
 62
     2
100
AcDbLine
 10
-87.50810927772807
 20
27.76480215776799
 30
0.0
 11
-87.50810927772807
 21
23.51480215776799
 31
0.0
  0
LINE
  5
333
330
74
100
AcDbEntity
  8
1
  6
Continuous
 62
     2
100
AcDbLine
 10
-87.50810927772807
 20
27.76480215776799
 30
0.0
 11
-101.008109277728
 21
27.76480215776799
 31
0.0
  0
LINE
  5
334
330
74
100
AcDbEntity
  8
1
  6
Continuous
 62
     2
100
AcDbLine
 10
-87.50810927772807
 20
15.01480215776799
 30
0.0
 11
-87.50810927772807
 21
10.76480215776799
 31
0.0
  0
LINE
  5
335
330
74
100
AcDbEntity
  8
1
  6
Continuous
 62
     2
100
AcDbLine
 10
-87.50810927772807
 20
15.01480215776799
 30
0.0
 11
-101.008109277728
 21
15.01480215776799
 31
0.0
  0
LINE
  5
336
330
74
100
AcDbEntity
  8
1
  6
Continuous
 62
     6
100
AcDbLine
 10
-101.008109277728
 20
2.26480215776799
 30
0.0
 11
-87.96330475097807
 21
2.2648021577681
 31
0.0
  0
LINE
  5
337
330
74
100
AcDbEntity
  8
1
  6
Continuous
 62
     2
100
AcDbLine
 10
-101.008109277728
 20
10.76480215776799
 30
0.0
 11
-101.008109277728
 21
6.5148021577681
 31
0.0
  0
LINE
  5
338
330
74
100
AcDbEntity
  8
1
  6
Continuous
 62
     2
100
AcDbLine
 10
-101.008109277728
 20
10.76480215776799
 30
0.0
 11
-114.508109277728
 21
10.76480215776799
 31
0.0
  0
LINE
  5
339
330
74
100
AcDbEntity
  8
1
  6
Continuous
 62
     2
100
AcDbLine
 10
-101.008109277728
 20
6.5148021577681
 30
0.0
 11
-101.008109277728
 21
2.26480215776799
 31
0.0
  0
LINE
  5
33A
330
74
100
AcDbEntity
  8
1
  6
Continuous
 62
     7
100
AcDbLine
 10
-101.008109277728
 20
6.5148021577681
 30
0.0
 11
-87.50810927772807
 21
6.5148021577681
 31
0.0
  0
LINE
  5
33B
330
74
100
AcDbEntity
  8
1
  6
Continuous
 62
     2
100
AcDbLine
 10
-101.008109277728
 20
19.26480215776799
 30
0.0
 11
-101.008109277728
 21
15.01480215776799
 31
0.0
  0
LINE
  5
33C
330
74
100
AcDbEntity
  8
1
  6
Continuous
 62
     2
100
AcDbLine
 10
-101.008109277728
 20
19.26480215776799
 30
0.0
 11
-114.508109277728
 21
19.26480215776799
 31
0.0
  0
LINE
  5
33D
330
74
100
AcDbEntity
  8
1
  6
Continuous
 62
     2
100
AcDbLine
 10
-101.008109277728
 20
23.51480215776799
 30
0.0
 11
-101.008109277728
 21
19.26480215776799
 31
0.0
  0
LINE
  5
33E
330
74
100
AcDbEntity
  8
1
  6
Continuous
 62
     2
100
AcDbLine
 10
-101.008109277728
 20
23.51480215776799
 30
0.0
 11
-114.508109277728
 21
23.51480215776799
 31
0.0
  0
LINE
  5
33F
330
74
100
AcDbEntity
  8
1
  6
Continuous
 62
     2
100
AcDbLine
 10
-101.008109277728
 20
27.76480215776799
 30
0.0
 11
-101.008109277728
 21
23.51480215776799
 31
0.0
  0
LINE
  5
340
330
74
100
AcDbEntity
  8
1
  6
Continuous
 62
     2
100
AcDbLine
 10
-101.008109277728
 20
27.76480215776799
 30
0.0
 11
-114.508109277728
 21
27.76480215776799
 31
0.0
  0
LINE
  5
341
330
74
100
AcDbEntity
  8
1
  6
Continuous
 62
     2
100
AcDbLine
 10
-101.008109277728
 20
15.01480215776799
 30
0.0
 11
-101.008109277728
 21
10.76480215776799
 31
0.0
  0
LINE
  5
342
330
74
100
AcDbEntity
  8
1
  6
Continuous
 62
     2
100
AcDbLine
 10
-101.008109277728
 20
15.01480215776799
 30
0.0
 11
-114.508109277728
 21
15.01480215776799
 31
0.0
  0
LINE
  5
343
330
74
100
AcDbEntity
  8
1
  6
Continuous
 62
     6
100
AcDbLine
 10
-114.508109277728
 20
2.26480215776799
 30
0.0
 11
-101.008109277728
 21
2.26480215776799
 31
0.0
  0
LINE
  5
344
330
74
100
AcDbEntity
  8
1
  6
Continuous
 62
     2
100
AcDbLine
 10
-114.508109277728
 20
10.76480215776799
 30
0.0
 11
-114.508109277728
 21
6.5148021577681
 31
0.0
  0
LINE
  5
345
330
74
100
AcDbEntity
  8
1
  6
Continuous
 62
     2
100
AcDbLine
 10
-114.508109277728
 20
10.76480215776799
 30
0.0
 11
-176.7633047509781
 21
10.76480215776799
 31
0.0
  0
LINE
  5
346
330
74
100
AcDbEntity
  8
1
  6
Continuous
 62
     2
100
AcDbLine
 10
-114.508109277728
 20
6.5148021577681
 30
0.0
 11
-114.508109277728
 21
2.26480215776799
 31
0.0
  0
LINE
  5
347
330
74
100
AcDbEntity
  8
1
  6
Continuous
 62
     7
100
AcDbLine
 10
-114.508109277728
 20
6.5148021577681
 30
0.0
 11
-101.008109277728
 21
6.5148021577681
 31
0.0
  0
LINE
  5
348
330
74
100
AcDbEntity
  8
1
  6
Continuous
 62
     2
100
AcDbLine
 10
-114.508109277728
 20
19.26480215776799
 30
0.0
 11
-114.508109277728
 21
15.01480215776799
 31
0.0
  0
LINE
  5
349
330
74
100
AcDbEntity
  8
1
  6
Continuous
 62
     2
100
AcDbLine
 10
-114.508109277728
 20
19.26480215776799
 30
0.0
 11
-176.7633047509781
 21
19.26480215776799
 31
0.0
  0
LINE
  5
34A
330
74
100
AcDbEntity
  8
1
  6
Continuous
 62
     2
100
AcDbLine
 10
-114.508109277728
 20
23.51480215776799
 30
0.0
 11
-114.508109277728
 21
19.26480215776799
 31
0.0
  0
LINE
  5
34B
330
74
100
AcDbEntity
  8
1
  6
Continuous
 62
     2
100
AcDbLine
 10
-114.508109277728
 20
27.76480215776799
 30
0.0
 11
-114.508109277728
 21
23.51480215776799
 31
0.0
  0
LINE
  5
34C
330
74
100
AcDbEntity
  8
1
  6
Continuous
 62
     2
100
AcDbLine
 10
-114.508109277728
 20
15.01480215776799
 30
0.0
 11
-114.508109277728
 21
10.76480215776799
 31
0.0
  0
LINE
  5
34D
330
74
100
AcDbEntity
  8
1
  6
Continuous
 62
     2
100
AcDbLine
 10
-114.508109277728
 20
15.01480215776799
 30
0.0
 11
-176.7633047509781
 21
15.01480215776799
 31
0.0
  0
LINE
  5
34E
330
74
100
AcDbEntity
  8
1
  6
Continuous
 62
     7
100
AcDbLine
 10
-64.60810927772799
 20
19.2648021577681
 30
0.0
 11
-74.00810927772797
 21
19.26480215776799
 31
0.0
  0
LINE
  5
34F
330
74
100
AcDbEntity
  8
1
  6
Continuous
 62
     6
100
AcDbLine
 10
-64.60810927772799
 20
32.01480215776799
 30
0.0
 11
-74.00810927772797
 21
32.01480215776799
 31
0.0
  0
LINE
  5
350
330
74
100
AcDbEntity
  8
1
  6
Continuous
 62
     7
100
AcDbLine
 10
-74.00810927772797
 20
27.76480215776799
 30
0.0
 11
-64.60810927772799
 21
27.76480215776799
 31
0.0
  0
LINE
  5
351
330
74
100
AcDbEntity
  8
1
  6
Continuous
 62
     6
100
AcDbLine
 10
-196.4633047509761
 20
15.01480215776799
 30
0.0
 11
-196.4633047509761
 21
19.26480215776799
 31
0.0
  0
LINE
  5
352
330
74
100
AcDbEntity
  8
1
  6
Continuous
 62
     6
100
AcDbLine
 10
55.53669524902365
 20
32.01480215776799
 30
0.0
 11
55.53669524902274
 21
23.51480215776799
 31
0.0
  0
LINE
  5
353
330
74
100
AcDbEntity
  8
1
  6
Continuous
 62
     6
100
AcDbLine
 10
-196.4633047509761
 20
2.2648021577681
 30
0.0
 11
-231.4633047509761
 21
2.2648021577681
 31
0.0
  0
LINE
  5
354
330
74
100
AcDbEntity
  8
1
  6
Continuous
 62
     2
100
AcDbLine
 10
-65.7278401432127
 20
18.63980215776799
 30
0.0
 11
-61.7278401432127
 21
18.13980215776799
 31
0.0
  0
LINE
  5
355
330
74
100
AcDbEntity
  8
1
  6
Continuous
 62
     2
100
AcDbLine
 10
-61.7278401432127
 20
18.13980215776799
 30
0.0
 11
-61.7278401432127
 21
16.13980215776799
 31
0.0
  0
LINE
  5
356
330
74
100
AcDbEntity
  8
1
  6
Continuous
 62
     2
100
AcDbLine
 10
-61.7278401432127
 20
16.13980215776799
 30
0.0
 11
-65.7278401432127
 21
15.63980215776799
 31
0.0
  0
LINE
  5
357
330
74
100
AcDbEntity
  8
1
  6
Continuous
 62
     2
100
AcDbLine
 10
-65.7278401432127
 20
15.63980215776799
 30
0.0
 11
-65.7278401432127
 21
18.63980215776799
 31
0.0
  0
LINE
  5
358
330
74
100
AcDbEntity
  8
1
  6
Continuous
 62
     7
100
AcDbLine
 10
-7.96330475097568
 20
23.51480215776797
 30
0.0
 11
-14.70810927772805
 21
23.51480215776793
 31
0.0
  0
LINE
  5
359
330
74
100
AcDbEntity
  8
1
  6
Continuous
 62
     7
100
AcDbLine
 10
-7.96330475097568
 20
19.26480215776799
 30
0.0
 11
-5.96330475097568
 21
19.26480215776799
 31
0.0
  0
LINE
  5
35A
330
74
100
AcDbEntity
  8
1
  6
Continuous
 62
     2
100
AcDbLine
 10
26.97143193381093
 20
17.71458287873523
 30
0.0
 11
26.97143193381093
 21
15.65718691388173
 31
0.0
  0
ARC
  5
35B
102
{ACAD_REACTORS
330
404
330
405
102
}
330
74
100
AcDbEntity
  8
0
  6
Continuous
 62
     2
100
AcDbCircle
 10
-58.12906134470318
 20
9.37670691967914
 30
0.0
 40
0.6378510567600122
100
AcDbArc
 50
321.8795802028409
 51
38.12041979715823
  0
ARC
  5
35C
102
{ACAD_REACTORS
330
404
330
405
102
}
330
74
100
AcDbEntity
  8
0
  6
Continuous
 62
     2
100
AcDbCircle
 10
-57.96398693449957
 20
9.24717702040646
 30
0.0
 40
0.4280236140609635
100
AcDbArc
 50
218.1204197971923
 51
321.8795802027983
  0
ARC
  5
35D
102
{ACAD_REACTORS
330
404
330
405
102
}
330
74
100
AcDbEntity
  8
0
  6
Continuous
 62
     2
100
AcDbCircle
 10
-57.7989125242962
 20
9.37670691967914
 30
0.0
 40
0.6378510567599095
100
AcDbArc
 50
141.8795802028351
 51
218.1204197971658
  0
ARC
  5
35E
102
{ACAD_REACTORS
330
404
330
405
102
}
330
74
100
AcDbEntity
  8
0
  6
Continuous
 62
     2
100
AcDbCircle
 10
-57.96398693449957
 20
9.50623681895226
 30
0.0
 40
0.4280236140605955
100
AcDbArc
 50
38.12041979715423
 51
141.8795802028552
  0
ARC
  5
35F
102
{ACAD_REACTORS
330
3FC
330
3FD
102
}
330
74
100
AcDbEntity
  8
0
  6
Continuous
 62
     2
100
AcDbCircle
 10
-60.49457712918051
 20
8.21103223752364
 30
0.0
 40
1.840813230556617
100
AcDbArc
 50
58.06909105003761
 51
71.55192388186693
  0
ARC
  5
360
102
{ACAD_REACTORS
330
3FC
330
3FD
102
}
330
74
100
AcDbEntity
  8
0
  6
Continuous
 62
     2
100
AcDbCircle
 10
-60.27827324409059
 20
9.54618743979405
 30
0.0
 40
0.4227934381775664
100
AcDbArc
 50
113.3722778881974
 51
151.4785267423092
  0
ARC
  5
361
102
{ACAD_REACTORS
330
3FC
330
3FD
102
}
330
74
100
AcDbEntity
  8
0
  6
Continuous
 62
     2
100
AcDbCircle
 10
-59.96640774154484
 20
9.37670691967914
 30
0.0
 40
0.7777353184572794
100
AcDbArc
 50
151.4785267422687
 51
208.5214732577029
  0
ARC
  5
362
102
{ACAD_REACTORS
330
3FC
330
3FD
102
}
330
74
100
AcDbEntity
  8
0
  6
Continuous
 62
     2
100
AcDbCircle
 10
-60.62505057967046
 20
12.11445976699849
 30
0.0
 40
4.010410630990217
100
AcDbArc
 50
275.1581447696245
 51
285.9799912583532
  0
ARC
  5
363
102
{ACAD_REACTORS
330
3FC
330
3FD
102
}
330
74
100
AcDbEntity
  8
0
  6
Continuous
 62
     2
100
AcDbCircle
 10
-60.38632653443419
 20
9.46992209491453
 30
0.0
 40
1.355119937140023
100
AcDbArc
 50
195.0618917770909
 51
275.1581447696391
  0
ARC
  5
364
102
{ACAD_REACTORS
330
3FC
330
3FD
102
}
330
74
100
AcDbEntity
  8
0
  6
Continuous
 62
     2
100
AcDbCircle
 10
-60.7327131819241
 20
9.37670691967914
 30
0.0
 40
0.9964100565214622
100
AcDbArc
 50
164.9381082228799
 51
195.0618917770962
  0
ARC
  5
365
102
{ACAD_REACTORS
330
3FC
330
3FD
102
}
330
74
100
AcDbEntity
  8
0
  6
Continuous
 62
     2
100
AcDbCircle
 10
-60.38632653443419
 20
9.28349174444373
 30
0.0
 40
1.355119937140911
100
AcDbArc
 50
84.84185523036267
 51
164.9381082228906
  0
ARC
  5
366
102
{ACAD_REACTORS
330
400
330
401
102
}
330
74
100
AcDbEntity
  8
0
  6
Continuous
 62
     2
100
AcDbCircle
 10
-64.37807385192336
 20
10.23110922906287
 30
0.0
 40
0.2609230769227325
100
AcDbArc
 50
115.3740086783589
 51
180.0
  0
ARC
  5
367
102
{ACAD_REACTORS
330
400
330
401
102
}
330
74
100
AcDbEntity
  8
0
  6
Continuous
 62
     2
100
AcDbCircle
 10
-64.37807385192336
 20
12.06440112983658
 30
0.0
 40
0.2609230769229498
100
AcDbArc
 50
180.0
 51
244.6259913216401
  0
ARC
  5
368
102
{ACAD_REACTORS
330
400
330
401
102
}
330
74
100
AcDbEntity
  8
0
  6
Continuous
 62
     2
100
AcDbCircle
 10
-64.3734324177829
 20
11.15754190747107
 30
0.0
 40
1.668232340440706
100
AcDbArc
 50
269.8110329575862
 51
90.18896704241376
  0
ARC
  5
369
102
{ACAD_REACTORS
330
400
330
401
102
}
330
74
100
AcDbEntity
  8
0
  6
Continuous
 62
     2
100
AcDbCircle
 10
-64.37807385192336
 20
9.7502402979099
 30
0.0
 40
0.2609230769229498
100
AcDbArc
 50
180.0
 51
269.8110329574465
  0
ARC
  5
36A
102
{ACAD_REACTORS
330
3FE
330
3FF
102
}
330
74
100
AcDbEntity
  8
0
  6
Continuous
 62
     2
100
AcDbCircle
 10
-46.9702554926419
 20
9.54618743979405
 30
0.0
 40
0.4227934381772285
100
AcDbArc
 50
109.3371432194869
 51
151.478526742422
  0
ARC
  5
36B
102
{ACAD_REACTORS
330
3FE
330
3FF
102
}
330
74
100
AcDbEntity
  8
0
  6
Continuous
 62
     2
100
AcDbCircle
 10
-46.9702554926419
 20
9.20722639956468
 30
0.0
 40
0.4227934381785468
100
AcDbArc
 50
208.5214732576875
 51
246.6277221118393
  0
ARC
  5
36C
102
{ACAD_REACTORS
330
3FE
330
3FF
102
}
330
74
100
AcDbEntity
  8
0
  6
Continuous
 62
     2
100
AcDbCircle
 10
-47.42469543047449
 20
9.37670691967914
 30
0.0
 40
0.996410056523109
100
AcDbArc
 50
164.9381082229054
 51
195.0618917770958
  0
ARC
  5
36D
102
{ACAD_REACTORS
330
3FE
330
3FF
102
}
330
74
100
AcDbEntity
  8
0
  6
Continuous
 62
     2
100
AcDbCircle
 10
-47.07830878298551
 20
9.28349174444373
 30
0.0
 40
1.355119937140595
100
AcDbArc
 50
90.0
 51
164.9381082228992
  0
ARC
  5
36E
102
{ACAD_REACTORS
330
402
330
403
102
}
330
74
100
AcDbEntity
  8
0
  6
Continuous
 62
     2
100
AcDbCircle
 10
-54.86921381827783
 20
12.15289739585629
 30
0.0
 40
1.26190476190564
100
AcDbArc
 50
90.0
 51
270.0
  0
ARC
  5
36F
102
{ACAD_REACTORS
330
406
330
407
102
}
330
74
100
AcDbEntity
  8
0
  6
Continuous
 62
     2
100
AcDbCircle
 10
-60.44168550854708
 20
12.57515780229815
 30
0.0
 40
0.2916229955959899
100
AcDbArc
 50
270.0
 51
90.0
  0
ARC
  5
370
102
{ACAD_REACTORS
330
400
330
401
102
}
330
74
100
AcDbEntity
  8
0
  6
Continuous
 62
     2
100
AcDbCircle
 10
-66.50662648542065
 20
12.5649901919481
 30
0.0
 40
0.2609230769224506
100
AcDbArc
 50
90.0
 51
180.0
  0
ARC
  5
371
102
{ACAD_REACTORS
330
400
330
401
102
}
330
74
100
AcDbEntity
  8
0
  6
Continuous
 62
     2
100
AcDbCircle
 10
-64.85504160229293
 20
11.14775517944996
 30
0.0
 40
0.7536343169897672
100
AcDbArc
 50
115.1944106485235
 51
244.8055893514914
  0
ARC
  5
372
102
{ACAD_REACTORS
330
400
330
401
102
}
330
74
100
AcDbEntity
  8
0
  6
Continuous
 62
     2
100
AcDbCircle
 10
-65.28692957549542
 20
10.22971406700142
 30
0.0
 40
0.2609230769228361
100
AcDbArc
 50
0.0
 51
64.8055893514401
  0
ARC
  5
373
102
{ACAD_REACTORS
330
400
330
401
102
}
330
74
100
AcDbEntity
  8
0
  6
Continuous
 62
     2
100
AcDbCircle
 10
-66.99744853231861
 20
8.46541754238823
 30
0.0
 40
0.3506153846138886
100
AcDbArc
 50
180.0
 51
270.0
  0
ARC
  5
374
102
{ACAD_REACTORS
330
402
330
403
102
}
330
74
100
AcDbEntity
  8
0
  6
Continuous
 62
     2
100
AcDbCircle
 10
-54.69047661979418
 20
12.28242729512941
 30
0.0
 40
0.4280236140606917
100
AcDbArc
 50
38.12041979714444
 51
141.8795802028555
  0
ARC
  5
375
102
{ACAD_REACTORS
330
402
330
403
102
}
330
74
100
AcDbEntity
  8
0
  6
Continuous
 62
     2
100
AcDbCircle
 10
-54.5254022095907
 20
12.15289739585629
 30
0.0
 40
0.6378510567600001
100
AcDbArc
 50
141.8795802028413
 51
218.1204197971586
  0
ARC
  5
376
102
{ACAD_REACTORS
330
404
330
405
102
}
330
74
100
AcDbEntity
  8
0
  6
Continuous
 62
     2
100
AcDbCircle
 10
-57.96398693449957
 20
9.82181023397941
 30
0.0
 40
1.70700807620544
100
AcDbArc
 50
242.4518518243401
 51
297.5481481756868
  0
ARC
  5
377
102
{ACAD_REACTORS
330
404
330
405
102
}
330
74
100
AcDbEntity
  8
0
  6
Continuous
 62
     2
100
AcDbCircle
 10
-57.96398693449957
 20
8.93160360537932
 30
0.0
 40
1.707008076205446
100
AcDbArc
 50
62.451851824306
 51
117.5481481756672
  0
ARC
  5
378
102
{ACAD_REACTORS
330
404
330
405
102
}
330
74
100
AcDbEntity
  8
0
  6
Continuous
 62
     2
100
AcDbCircle
 10
-58.19616866328742
 20
9.37670691967914
 30
0.0
 40
1.204986845992998
100
AcDbArc
 50
117.5481481756634
 51
242.451851824337
  0
ARC
  5
379
102
{ACAD_REACTORS
330
404
330
405
102
}
330
74
100
AcDbEntity
  8
0
  6
Continuous
 62
     2
100
AcDbCircle
 10
-57.73180520571172
 20
9.37670691967914
 30
0.0
 40
1.20498684599343
100
AcDbArc
 50
297.548148175701
 51
62.45185182429859
  0
ARC
  5
37A
102
{ACAD_REACTORS
330
402
330
403
102
}
330
74
100
AcDbEntity
  8
0
  6
Continuous
 62
     2
100
AcDbCircle
 10
-54.69047661979418
 20
12.02336749658316
 30
0.0
 40
0.4280236140606851
100
AcDbArc
 50
218.1204197971433
 51
321.8795802028567
  0
ARC
  5
37B
102
{ACAD_REACTORS
330
402
330
403
102
}
330
74
100
AcDbEntity
  8
0
  6
Continuous
 62
     2
100
AcDbCircle
 10
-54.85555102999766
 20
12.15289739585629
 30
0.0
 40
0.637851056759999
100
AcDbArc
 50
321.8795802028414
 51
38.12041979715874
  0
ARC
  5
37C
102
{ACAD_REACTORS
330
400
330
401
102
}
330
74
100
AcDbEntity
  8
0
  6
Continuous
 62
     2
100
AcDbCircle
 10
-62.47405011023857
 20
8.46541754238823
 30
0.0
 40
0.3506153846142812
100
AcDbArc
 50
270.0
 51
0.0
  0
ARC
  5
37D
102
{ACAD_REACTORS
330
400
330
401
102
}
330
74
100
AcDbEntity
  8
0
  6
Continuous
 62
     2
100
AcDbCircle
 10
-62.47405011023857
 20
13.0641867731322
 30
0.0
 40
0.3506153846148052
100
AcDbArc
 50
0.0
 51
90.0
  0
ARC
  5
37E
102
{ACAD_REACTORS
330
400
330
401
102
}
330
74
100
AcDbEntity
  8
0
  6
Continuous
 62
     2
100
AcDbCircle
 10
-66.99744853231861
 20
13.0641867731322
 30
0.0
 40
0.3506153846147413
100
AcDbArc
 50
90.0
 51
180.0
  0
ARC
  5
37F
102
{ACAD_REACTORS
330
400
330
401
102
}
330
74
100
AcDbEntity
  8
0
  6
Continuous
 62
     2
100
AcDbCircle
 10
-65.28692957549542
 20
8.96461412358686
 30
0.0
 40
0.2609230769228894
100
AcDbArc
 50
270.0
 51
0.0
  0
ARC
  5
380
102
{ACAD_REACTORS
330
400
330
401
102
}
330
74
100
AcDbEntity
  8
0
  6
Continuous
 62
     2
100
AcDbCircle
 10
-65.28692957549542
 20
12.06579629189804
 30
0.0
 40
0.2609230769224081
100
AcDbArc
 50
295.1944106485599
 51
0.0
  0
ARC
  5
381
102
{ACAD_REACTORS
330
400
330
401
102
}
330
74
100
AcDbEntity
  8
0
  6
Continuous
 62
     2
100
AcDbCircle
 10
-65.28692957549542
 20
12.5649901919481
 30
0.0
 40
0.2609230769228361
100
AcDbArc
 50
0.0
 51
90.0
  0
ARC
  5
382
102
{ACAD_REACTORS
330
400
330
401
102
}
330
74
100
AcDbEntity
  8
0
  6
Continuous
 62
     2
100
AcDbCircle
 10
-66.50662648542065
 20
8.96461412358686
 30
0.0
 40
0.2609230769220403
100
AcDbArc
 50
180.0
 51
270.0
  0
ARC
  5
383
102
{ACAD_REACTORS
330
406
330
407
102
}
330
74
100
AcDbEntity
  8
0
  6
Continuous
 62
     2
100
AcDbCircle
 10
-60.07683218107734
 20
12.54259914839524
 30
0.0
 40
0.87220300936667
100
AcDbArc
 50
270.0
 51
90.0
  0
ARC
  5
384
102
{ACAD_REACTORS
330
3FE
330
3FF
102
}
330
74
100
AcDbEntity
  8
0
  6
Continuous
 62
     2
100
AcDbCircle
 10
-47.07830878298551
 20
9.46992209491453
 30
0.0
 40
1.355119937140895
100
AcDbArc
 50
195.0618917771008
 51
275.158144769676
  0
ARC
  5
385
102
{ACAD_REACTORS
330
3FE
330
3FF
102
}
330
74
100
AcDbEntity
  8
0
  6
Continuous
 62
     2
100
AcDbCircle
 10
-47.31703282822177
 20
12.11445976699849
 30
0.0
 40
4.010410630990748
100
AcDbArc
 50
275.1581447696369
 51
285.9799912583388
  0
ARC
  5
386
102
{ACAD_REACTORS
330
3FE
330
3FF
102
}
330
74
100
AcDbEntity
  8
0
  6
Continuous
 62
     2
100
AcDbCircle
 10
-47.18655937773183
 20
10.54238160183462
 30
0.0
 40
1.840813230556008
100
AcDbArc
 50
288.4480761181334
 51
301.9309089499383
  0
ARC
  5
387
102
{ACAD_REACTORS
330
3FE
330
3FF
102
}
330
74
100
AcDbEntity
  8
0
  6
Continuous
 62
     2
100
AcDbCircle
 10
-46.84096620941617
 20
9.50639335717626
 30
0.0
 40
0.7487023016407038
100
AcDbArc
 50
246.627722111814
 51
288.4480761180797
  0
ARC
  5
388
102
{ACAD_REACTORS
330
3FE
330
3FF
102
}
330
74
100
AcDbEntity
  8
0
  6
Continuous
 62
     2
100
AcDbCircle
 10
-46.65838999009525
 20
9.37670691967914
 30
0.0
 40
0.7777353184586567
100
AcDbArc
 50
151.4785267423615
 51
208.5214732576689
  0
ARC
  5
389
102
{ACAD_REACTORS
330
3FE
330
3FF
102
}
330
74
100
AcDbEntity
  8
0
  6
Continuous
 62
     2
100
AcDbCircle
 10
-46.84904061817603
 20
9.20077010063462
 30
0.0
 40
0.7888619891124407
100
AcDbArc
 50
90.0
 51
109.3371432194319
  0
ARC
  5
38A
102
{ACAD_REACTORS
330
400
330
401
102
}
330
74
100
AcDbEntity
  8
0
  6
Continuous
 62
     2
100
AcDbCircle
 10
-64.37807385192336
 20
12.56484351703225
 30
0.0
 40
0.2609230769224198
100
AcDbArc
 50
90.18896704255353
 51
180.0
  0
ARC
  5
38B
102
{ACAD_REACTORS
330
400
330
401
102
}
330
74
100
AcDbEntity
  8
0
  6
Continuous
 62
     2
100
AcDbCircle
 10
-64.81281988340099
 20
11.14775517944996
 30
0.0
 40
0.7535935125161003
100
AcDbArc
 50
295.3740086781779
 51
64.62599132180708
  0
ARC
  5
38C
102
{ACAD_REACTORS
330
3FC
330
3FD
102
}
330
74
100
AcDbEntity
  8
0
  6
Continuous
 62
     2
100
AcDbCircle
 10
-60.49457712918051
 20
10.54238160183508
 30
0.0
 40
1.840813230556014
100
AcDbArc
 50
288.4480761181331
 51
301.9309089499624
  0
ARC
  5
38D
102
{ACAD_REACTORS
330
3FC
330
3FD
102
}
330
74
100
AcDbEntity
  8
0
  6
Continuous
 62
     2
100
AcDbCircle
 10
-60.14898396086578
 20
9.50639335717626
 30
0.0
 40
0.7487023016403824
100
AcDbArc
 50
246.6277221118709
 51
288.4480761181571
  0
ARC
  5
38E
102
{ACAD_REACTORS
330
3FC
330
3FD
102
}
330
74
100
AcDbEntity
  8
0
  6
Continuous
 62
     2
100
AcDbCircle
 10
-60.27827324409059
 20
9.20722639956468
 30
0.0
 40
0.4227934381775217
100
AcDbArc
 50
208.5214732576921
 51
246.6277221118268
  0
ARC
  5
38F
102
{ACAD_REACTORS
330
3FC
330
3FD
102
}
330
74
100
AcDbEntity
  8
0
  6
Continuous
 62
     2
100
AcDbCircle
 10
-60.14898396086578
 20
9.247020482182
 30
0.0
 40
0.7487023016407717
100
AcDbArc
 50
71.55192388185432
 51
113.3722778881285
  0
ARC
  5
390
102
{ACAD_REACTORS
330
3FC
330
3FD
102
}
330
74
100
AcDbEntity
  8
0
  6
Continuous
 62
     2
100
AcDbCircle
 10
-60.62505057967046
 20
6.63895407236024
 30
0.0
 40
4.010410630990092
100
AcDbArc
 50
74.02000874164682
 51
84.84185523037544
  0
CIRCLE
  5
391
102
{ACAD_REACTORS
330
400
330
401
102
}
330
74
100
AcDbEntity
  8
0
  6
Continuous
 62
     2
100
AcDbCircle
 10
-64.83250171370905
 20
11.14775517944996
 30
0.0
 40
0.3892387874202541
  0
CIRCLE
  5
392
330
74
100
AcDbEntity
  8
1
  6
Continuous
 62
     2
100
AcDbCircle
 10
-68.9158494526247
 20
17.13980215776799
 30
0.0
 40
1.0
  0
CIRCLE
  5
393
330
74
100
AcDbEntity
  8
1
  6
Continuous
 62
     2
100
AcDbCircle
 10
-68.9158494526247
 20
17.13980215776799
 30
0.0
 40
1.5
  0
MTEXT
  5
395
330
74
100
AcDbEntity
  8
1
 62
     2
100
AcDbMText
 10
-36.50810927772805
 20
21.58980215776798
 30
0.0
 40
1.4
 41
0.0
 71
     4
 72
     1
  1
SAP\Pchange-No.
  7
CONVERTER_12
 73
     1
 44
0.66026410564226
  0
MTEXT
  5
396
330
74
100
AcDbEntity
  8
1
 62
     3
100
AcDbMText
 10
-27.27587245961317
 20
21.38980215776798
 30
0.0
 40
2.5
 41
0.0
 71
     4
 72
     1
  1
MIGRATION_1
  7
CONVERTER_12
 73
     1
 44
1.20048019207683
  0
TEXT
  5
398
330
74
100
AcDbEntity
  8
1
 62
     3
100
AcDbText
 10
-36.50810927772814
 20
34.30957373137224
 30
0.0
 40
2.5
  1
 
 41
0.72
  7
CONVERTER_13
100
AcDbText
  0
TEXT
  5
399
330
74
100
AcDbEntity
  8
1
 62
     3
100
AcDbText
 10
-36.50810927772814
 20
37.80957373137224
 30
0.0
 40
2.5
  1
 
 41
0.72
  7
CONVERTER_13
100
AcDbText
  0
TEXT
  5
39A
330
74
100
AcDbEntity
  8
1
 62
     3
100
AcDbText
 10
-36.50810927772814
 20
41.30957373137224
 30
0.0
 40
2.5
  1
 
 41
0.72
  7
CONVERTER_13
100
AcDbText
  0
MTEXT
  5
39C
330
74
100
AcDbEntity
  8
1
 62
     2
100
AcDbMText
 10
-175.7633047509781
 20
8.6398021577681
 30
0.0
 40
2.0
 41
0.0
 71
     4
 72
     1
  1
 
  7
CONVERTER_14
 73
     1
 44
1.20048019207683
  0
MTEXT
  5
39D
330
74
100
AcDbEntity
  8
1
 62
     2
100
AcDbMText
 10
-175.7633047509781
 20
12.88980215776799
 30
0.0
 40
2.0
 41
0.0
 71
     4
 72
     1
  1
 
  7
CONVERTER_14
 73
     1
 44
1.20048019207683
  0
MTEXT
  5
39E
330
74
100
AcDbEntity
  8
1
 62
     2
100
AcDbMText
 10
-175.7633047509781
 20
17.13980215776799
 30
0.0
 40
2.0
 41
0.0
 71
     4
 72
     1
  1
 
  7
CONVERTER_14
 73
     1
 44
1.20048019207683
  0
MTEXT
  5
39F
330
74
100
AcDbEntity
  8
1
 62
     2
100
AcDbMText
 10
-175.7633047509781
 20
21.38980215776799
 30
0.0
 40
2.0
 41
0.0
 71
     4
 72
     1
  1
 
  7
CONVERTER_14
 73
     1
 44
1.20048019207683
  0
MTEXT
  5
3A0
330
74
100
AcDbEntity
  8
1
 62
     2
100
AcDbMText
 10
-175.7633047509781
 20
25.63980215776799
 30
0.0
 40
2.0
 41
0.0
 71
     4
 72
     1
  1
 
  7
CONVERTER_14
 73
     1
 44
1.20048019207683
  0
MTEXT
  5
3A1
330
74
100
AcDbEntity
  8
1
 62
     2
100
AcDbMText
 10
-175.7633047509781
 20
29.88980215776799
 30
0.0
 40
2.0
 41
0.0
 71
     4
 72
     1
  1
 
  7
CONVERTER_14
 73
     1
 44
1.20048019207683
  0
MTEXT
  5
3A2
330
74
100
AcDbEntity
  8
1
 62
     2
100
AcDbMText
 10
-80.75810927772804
 20
8.6398021577681
 30
0.0
 40
2.0
 41
0.0
 71
     5
 72
     1
  1
 
  7
CONVERTER_11
 73
     1
 44
1.20048019207683
  0
MTEXT
  5
3A3
330
74
100
AcDbEntity
  8
1
 62
     2
100
AcDbMText
 10
-80.75810927772804
 20
12.88980215776799
 30
0.0
 40
2.0
 41
0.0
 71
     5
 72
     1
  1
 
  7
CONVERTER_11
 73
     1
 44
1.20048019207683
  0
MTEXT
  5
3A4
330
74
100
AcDbEntity
  8
1
 62
     2
100
AcDbMText
 10
-80.75810927772804
 20
17.13980215776799
 30
0.0
 40
2.0
 41
0.0
 71
     5
 72
     1
  1
 
  7
CONVERTER_11
 73
     1
 44
1.20048019207683
  0
MTEXT
  5
3A5
330
74
100
AcDbEntity
  8
1
 62
     2
100
AcDbMText
 10
-80.75810927772804
 20
21.38980215776799
 30
0.0
 40
2.0
 41
0.0
 71
     5
 72
     1
  1
 
  7
CONVERTER_11
 73
     1
 44
1.20048019207683
  0
MTEXT
  5
3A6
330
74
100
AcDbEntity
  8
1
 62
     2
100
AcDbMText
 10
-80.75810927772804
 20
25.63980215776799
 30
0.0
 40
2.0
 41
0.0
 71
     5
 72
     1
  1
 
  7
CONVERTER_11
 73
     1
 44
1.20048019207683
  0
MTEXT
  5
3A7
330
74
100
AcDbEntity
  8
1
 62
     2
100
AcDbMText
 10
-80.75810927772804
 20
29.88980215776799
 30
0.0
 40
2.0
 41
0.0
 71
     5
 72
     1
  1
 
  7
CONVERTER_11
 73
     1
 44
1.20048019207683
  0
MTEXT
  5
3A8
330
74
100
AcDbEntity
  8
1
 62
     2
100
AcDbMText
 10
-94.25810927772805
 20
8.6398021577681
 30
0.0
 40
2.0
 41
0.0
 71
     5
 72
     1
  1
 
  7
CONVERTER_11
 73
     1
 44
1.20048019207683
  0
MTEXT
  5
3A9
330
74
100
AcDbEntity
  8
1
 62
     2
100
AcDbMText
 10
-94.25810927772805
 20
12.88980215776799
 30
0.0
 40
2.0
 41
0.0
 71
     5
 72
     1
  1
 
  7
CONVERTER_11
 73
     1
 44
1.20048019207683
  0
MTEXT
  5
3AA
330
74
100
AcDbEntity
  8
1
 62
     2
100
AcDbMText
 10
-94.25810927772805
 20
17.13980215776799
 30
0.0
 40
2.0
 41
0.0
 71
     5
 72
     1
  1
 
  7
CONVERTER_11
 73
     1
 44
1.20048019207683
  0
MTEXT
  5
3AB
330
74
100
AcDbEntity
  8
1
 62
     2
100
AcDbMText
 10
-94.25810927772805
 20
21.38980215776799
 30
0.0
 40
2.0
 41
0.0
 71
     5
 72
     1
  1
 
  7
CONVERTER_11
 73
     1
 44
1.20048019207683
  0
MTEXT
  5
3AC
330
74
100
AcDbEntity
  8
1
 62
     2
100
AcDbMText
 10
-94.25810927772805
 20
25.63980215776799
 30
0.0
 40
2.0
 41
0.0
 71
     5
 72
     1
  1
 
  7
CONVERTER_11
 73
     1
 44
1.20048019207683
  0
MTEXT
  5
3AD
330
74
100
AcDbEntity
  8
1
 62
     2
100
AcDbMText
 10
-94.25810927772805
 20
29.88980215776799
 30
0.0
 40
2.0
 41
0.0
 71
     5
 72
     1
  1
 
  7
CONVERTER_11
 73
     1
 44
1.20048019207683
  0
MTEXT
  5
3AE
330
74
100
AcDbEntity
  8
1
 62
     2
100
AcDbMText
 10
-107.758109277728
 20
29.88980215776799
 30
0.0
 40
2.0
 41
0.0
 71
     5
 72
     1
  1
 
  7
CONVERTER_11
 73
     1
 44
1.20048019207683
  0
MTEXT
  5
3AF
330
74
100
AcDbEntity
  8
1
 62
     2
100
AcDbMText
 10
-107.758109277728
 20
25.63980215776799
 30
0.0
 40
2.0
 41
0.0
 71
     5
 72
     1
  1
 
  7
CONVERTER_11
 73
     1
 44
1.20048019207683
  0
MTEXT
  5
3B0
330
74
100
AcDbEntity
  8
1
 62
     2
100
AcDbMText
 10
-107.758109277728
 20
21.38980215776799
 30
0.0
 40
2.0
 41
0.0
 71
     5
 72
     1
  1
 
  7
CONVERTER_11
 73
     1
 44
1.20048019207683
  0
MTEXT
  5
3B1
330
74
100
AcDbEntity
  8
1
 62
     2
100
AcDbMText
 10
-107.758109277728
 20
17.13980215776799
 30
0.0
 40
2.0
 41
0.0
 71
     5
 72
     1
  1
 
  7
CONVERTER_11
 73
     1
 44
1.20048019207683
  0
MTEXT
  5
3B2
330
74
100
AcDbEntity
  8
1
 62
     2
100
AcDbMText
 10
-107.758109277728
 20
12.88980215776799
 30
0.0
 40
2.0
 41
0.0
 71
     5
 72
     1
  1
 
  7
CONVERTER_11
 73
     1
 44
1.20048019207683
  0
MTEXT
  5
3B3
330
74
100
AcDbEntity
  8
1
 62
     2
100
AcDbMText
 10
-107.758109277728
 20
8.6398021577681
 30
0.0
 40
2.0
 41
0.0
 71
     5
 72
     1
  1
 
  7
CONVERTER_11
 73
     1
 44
1.20048019207683
  0
MTEXT
  5
3B4
330
74
100
AcDbEntity
  8
1
 62
     2
100
AcDbMText
 10
-183.5133047509781
 20
29.88980215776799
 30
0.0
 40
2.0
 41
0.0
 71
     5
 72
     1
  1
 
  7
CONVERTER_11
 73
     1
 44
1.20048019207683
  0
MTEXT
  5
3B5
330
74
100
AcDbEntity
  8
1
 62
     2
100
AcDbMText
 10
-183.5133047509781
 20
25.63980215776799
 30
0.0
 40
2.0
 41
0.0
 71
     5
 72
     1
  1
 
  7
CONVERTER_11
 73
     1
 44
1.20048019207683
  0
MTEXT
  5
3B6
330
74
100
AcDbEntity
  8
1
 62
     2
100
AcDbMText
 10
-183.5133047509781
 20
21.38980215776799
 30
0.0
 40
2.0
 41
0.0
 71
     5
 72
     1
  1
 
  7
CONVERTER_11
 73
     1
 44
1.20048019207683
  0
MTEXT
  5
3B7
330
74
100
AcDbEntity
  8
1
 62
     2
100
AcDbMText
 10
-183.5133047509781
 20
17.13980215776799
 30
0.0
 40
2.0
 41
0.0
 71
     5
 72
     1
  1
 
  7
CONVERTER_11
 73
     1
 44
1.20048019207683
  0
MTEXT
  5
3B8
330
74
100
AcDbEntity
  8
1
 62
     2
100
AcDbMText
 10
-183.5133047509781
 20
12.88980215776799
 30
0.0
 40
2.0
 41
0.0
 71
     5
 72
     1
  1
 
  7
CONVERTER_11
 73
     1
 44
1.20048019207683
  0
MTEXT
  5
3B9
330
74
100
AcDbEntity
  8
1
 62
     2
100
AcDbMText
 10
-183.5133047509781
 20
8.6398021577681
 30
0.0
 40
2.0
 41
0.0
 71
     5
 72
     1
  1
 
  7
CONVERTER_11
 73
     1
 44
1.20048019207683
  0
MTEXT
  5
3BA
330
74
100
AcDbEntity
  8
1
 62
     2
100
AcDbMText
 10
-193.3633047509771
 20
8.6398021577681
 30
0.0
 40
2.0
 41
0.0
 71
     5
 72
     1
  1
 
  7
CONVERTER_11
 73
     1
 44
1.20048019207683
  0
MTEXT
  5
3BB
330
74
100
AcDbEntity
  8
1
 62
     2
100
AcDbMText
 10
-193.3633047509771
 20
12.88980215776799
 30
0.0
 40
2.0
 41
0.0
 71
     5
 72
     1
  1
 
  7
CONVERTER_11
 73
     1
 44
1.20048019207683
  0
MTEXT
  5
3BC
330
74
100
AcDbEntity
  8
1
 62
     2
100
AcDbMText
 10
-193.3633047509771
 20
17.13980215776799
 30
0.0
 40
2.0
 41
0.0
 71
     5
 72
     1
  1
 
  7
CONVERTER_11
 73
     1
 44
1.20048019207683
  0
MTEXT
  5
3BD
330
74
100
AcDbEntity
  8
1
 62
     2
100
AcDbMText
 10
-193.3633047509771
 20
21.38980215776799
 30
0.0
 40
2.0
 41
0.0
 71
     5
 72
     1
  1
 
  7
CONVERTER_11
 73
     1
 44
1.20048019207683
  0
MTEXT
  5
3BE
330
74
100
AcDbEntity
  8
1
 62
     2
100
AcDbMText
 10
-193.3633047509771
 20
25.63980215776799
 30
0.0
 40
2.0
 41
0.0
 71
     5
 72
     1
  1
 
  7
CONVERTER_11
 73
     1
 44
1.20048019207683
  0
MTEXT
  5
3BF
330
74
100
AcDbEntity
  8
1
 62
     2
100
AcDbMText
 10
-193.3633047509771
 20
29.88980215776799
 30
0.0
 40
2.0
 41
0.0
 71
     5
 72
     1
  1
 
  7
CONVERTER_11
 73
     1
 44
1.20048019207683
  0
MTEXT
  5
3C0
330
74
100
AcDbEntity
  8
1
 62
     2
100
AcDbMText
 10
-6.96330475097568
 20
22.51480215776799
 30
0.0
 40
1.8
 41
0.0
 71
     1
 72
     1
  1
part-rev.
  7
CONVERTER_13
 73
     1
 44
1.20048019207683
  0
MTEXT
  5
3C1
330
74
100
AcDbEntity
  8
1
 62
     2
100
AcDbMText
 10
11.53669524902394
 20
18.26480215776799
 30
0.0
 40
1.8
 41
0.0
 71
     1
 72
     1
  1
surface in um
  7
CONVERTER_11
 73
     1
 44
1.32052821128451
  0
MTEXT
  5
3C2
330
74
100
AcDbEntity
  8
1
 62
     7
100
AcDbMText
 10
58.03669524902104
 20
77.26480215776992
 30
0.0
 40
3.5
 41
0.0
 71
     5
 72
     1
  1
C
  7
CONVERTER_11
 73
     1
 44
1.20048019207683
  0
MTEXT
  5
3C3
330
74
100
AcDbEntity
  8
1
 62
     7
100
AcDbMText
 10
58.03669524902104
 20
179.764802157768
 30
0.0
 40
3.5
 41
0.0
 71
     5
 72
     1
  1
A
  7
CONVERTER_11
 73
     1
 44
1.20048019207683
  0
MTEXT
  5
3C4
330
74
100
AcDbEntity
  8
1
 62
     7
100
AcDbMText
 10
58.03669524902104
 20
127.2648021577699
 30
0.0
 40
3.5
 41
0.0
 71
     5
 72
     1
  1
B
  7
CONVERTER_11
 73
     1
 44
1.20048019207683
  0
MTEXT
  5
3C5
330
74
100
AcDbEntity
  8
1
 62
     7
100
AcDbMText
 10
58.03669524902104
 20
24.76480215776799
 30
0.0
 40
3.5
 41
0.0
 71
     5
 72
     1
  1
D
  7
CONVERTER_11
 73
     1
 44
1.20048019207683
  0
MTEXT
  5
3C6
330
74
100
AcDbEntity
  8
1
 62
     3
100
AcDbMText
 10
-231.4582369649062
 20
189.0561103130668
 30
0.0
 40
1.8
 41
0.0
 71
     7
 72
     1
  3
Weitergabe sowie Vervielf\U+00e4ltigung dieses Dokuments, Verwertung und\PMitteilung seines Inhalts gem\U+00e4\U+00df \U+00a718 UWG verboten, soweit nicht aus-\Pdr\U+00fccklich gestattet. Zuwiderhandlungen verpflichten zu Schadenersatz\P(\U+00a719 U
  1
WG). Alle Rechte vorbehalten, insbesondere das Recht, Patent-,\PGebrauchsmuster- oder Geschmacksmusteranmeldungen durchzuf\U+00fchren.\PPhoenix Contact GmbH & Co. KG
  7
CONVERTER_11
 73
     1
 44
0.99639855942377
  0
MTEXT
  5
3C7
330
74
100
AcDbEntity
  8
1
 62
     3
100
AcDbMText
 10
-58.60512712611809
 20
189.0561103130668
 30
0.0
 40
1.8
 41
0.0
 71
     7
 72
     1
  3
The copying, distribution and utilistion of this document as well as the communication\Pof the contents to others without expressed authorization is prohibited according to\P\U+00a718 UWG German Law. Offenders will be held liable for the payment of 
  1
damages\Paccording to (\U+00a719 UWG German Law). All rights reserved, in particular the right to\Pcarry out patent, utility model or ornamental design registrations.\PFlachsmarktstra\U+00dfe 8  D-32825 Blomberg
  7
CONVERTER_11
 73
     1
 44
0.99639855942377
  0
MTEXT
  5
3C8
330
74
100
AcDbEntity
  8
1
 62
     7
100
AcDbMText
 10
-212.2133047509777
 20
-0.23519784223201
 30
0.0
 40
3.5
 41
0.0
 71
     5
 72
     1
  1
1
  7
CONVERTER_11
 73
     1
 44
1.20048019207683
  0
MTEXT
  5
3C9
330
74
100
AcDbEntity
  8
1
 62
     7
100
AcDbMText
 10
-162.9633047509781
 20
-0.23519784223201
 30
0.0
 40
3.5
 41
0.0
 71
     5
 72
     1
  1
2
  7
CONVERTER_11
 73
     1
 44
1.20048019207683
  0
MTEXT
  5
3CA
330
74
100
AcDbEntity
  8
1
 62
     7
100
AcDbMText
 10
-112.9633047509781
 20
-0.23519784223201
 30
0.0
 40
3.5
 41
0.0
 71
     5
 72
     1
  1
3
  7
CONVERTER_11
 73
     1
 44
1.20048019207683
  0
MTEXT
  5
3CB
330
74
100
AcDbEntity
  8
1
 62
     7
100
AcDbMText
 10
-62.9633047509781
 20
-0.23519784223201
 30
0.0
 40
3.5
 41
0.0
 71
     5
 72
     1
  1
4
  7
CONVERTER_11
 73
     1
 44
1.20048019207683
  0
MTEXT
  5
3CC
330
74
100
AcDbEntity
  8
1
 62
     7
100
AcDbMText
 10
-12.96330475097805
 20
-0.23519784223201
 30
0.0
 40
3.5
 41
0.0
 71
     5
 72
     1
  1
5
  7
CONVERTER_11
 73
     1
 44
1.20048019207683
  0
MTEXT
  5
3CD
330
74
100
AcDbEntity
  8
1
 62
     7
100
AcDbMText
 10
36.28669524902124
 20
-0.23519784223201
 30
0.0
 40
3.5
 41
0.0
 71
     5
 72
     1
  1
6
  7
CONVERTER_11
 73
     1
 44
1.20048019207683
  0
MTEXT
  5
3CE
330
74
100
AcDbEntity
  8
1
 62
     7
100
AcDbMText
 10
-233.963304750977
 20
179.764802157768
 30
0.0
 40
3.5
 41
0.0
 71
     5
 72
     1
  1
A
  7
CONVERTER_11
 73
     1
 44
1.20048019207683
  0
MTEXT
  5
3CF
330
74
100
AcDbEntity
  8
1
 62
     7
100
AcDbMText
 10
-233.963304750977
 20
127.264802157768
 30
0.0
 40
3.5
 41
0.0
 71
     5
 72
     1
  1
B
  7
CONVERTER_11
 73
     1
 44
1.20048019207683
  0
MTEXT
  5
3D0
330
74
100
AcDbEntity
  8
1
 62
     7
100
AcDbMText
 10
-233.963304750977
 20
77.26480215776799
 30
0.0
 40
3.5
 41
0.0
 71
     5
 72
     1
  1
C
  7
CONVERTER_11
 73
     1
 44
1.20048019207683
  0
MTEXT
  5
3D1
330
74
100
AcDbEntity
  8
1
 62
     7
100
AcDbMText
 10
-233.963304750977
 20
24.76480215776799
 30
0.0
 40
3.5
 41
0.0
 71
     5
 72
     1
  1
D
  7
CONVERTER_11
 73
     1
 44
1.20048019207683
  0
MTEXT
  5
3D2
330
74
100
AcDbEntity
  8
1
 62
     2
100
AcDbMText
 10
38.95510353070274
 20
31.01480215776799
 30
0.0
 40
1.8
 41
0.0
 71
     1
 72
     1
  1
dim.var.
  7
CONVERTER_11
 73
     1
 44
1.20048019207683
  0
MTEXT
  5
3D4
330
74
100
AcDbEntity
  8
1
 62
     2
100
AcDbMText
 10
-6.96330475097568
 20
18.26480215776799
 30
0.0
 40
1.8
 41
0.0
 71
     1
 72
     1
  1
document-No.
  7
CONVERTER_15
 73
     1
 44
1.32052821128451
  0
TEXT
  5
3D5
330
74
100
AcDbEntity
  8
1
 62
     2
100
AcDbText
 10
-54.80810927772809
 20
3.50578494277643
 30
0.0
 40
1.8
  1
of
 41
0.9
  7
CONVERTER_11
100
AcDbText
  0
TEXT
  5
3D6
330
74
100
AcDbEntity
  8
1
 62
     2
100
AcDbText
 10
-73.00810927772797
 20
3.50578494277631
 30
0.0
 40
1.8
  1
page
 41
0.9
  7
CONVERTER_11
100
AcDbText
  0
MTEXT
  5
3D7
330
74
100
AcDbEntity
  8
1
 62
     2
100
AcDbMText
 10
-80.75810927772807
 20
3.51480215776799
 30
0.0
 40
1.8
 41
0.0
 71
     8
 72
     1
  1
name
  7
CONVERTER_11
 73
     1
 44
1.32052821128451
  0
MTEXT
  5
3D8
330
74
100
AcDbEntity
  8
1
 62
     2
100
AcDbMText
 10
-94.25810927772795
 20
3.51480215776799
 30
0.0
 40
1.8
 41
0.0
 71
     8
 72
     1
  1
check.on
  7
CONVERTER_11
 73
     1
 44
1.32052821128451
  0
MTEXT
  5
3D9
330
74
100
AcDbEntity
  8
1
 62
     2
100
AcDbMText
 10
-107.758109277728
 20
3.51480215776799
 30
0.0
 40
1.8
 41
0.0
 71
     8
 72
     1
  1
name
  7
CONVERTER_11
 73
     1
 44
1.32052821128451
  0
MTEXT
  5
3DA
330
74
100
AcDbEntity
  8
1
 62
     2
100
AcDbMText
 10
-183.5133047509781
 20
3.51480215776799
 30
0.0
 40
1.8
 41
0.0
 71
     8
 72
     1
  1
date
  7
CONVERTER_11
 73
     1
 44
1.32052821128451
  0
MTEXT
  5
3DB
330
74
100
AcDbEntity
  8
1
 62
     2
100
AcDbMText
 10
-13.48292012013657
 20
31.01480215776782
 30
0.0
 40
1.8
 41
0.0
 71
     1
 72
     1
  1
material
  7
CONVERTER_11
 73
     1
 44
1.20048019207683
  0
MTEXT
  5
3DC
330
74
100
AcDbEntity
  8
1
 62
     2
100
AcDbMText
 10
-193.3633047509771
 20
3.51480215776799
 30
0.0
 40
1.8
 41
0.0
 71
     8
 72
     1
  1
RI
  7
CONVERTER_11
 73
     1
 44
1.32052821128451
  0
MTEXT
  5
3DD
330
74
100
AcDbEntity
  8
1
 62
     2
100
AcDbMText
 10
-57.85810927772809
 20
28.96480215776803
 30
0.0
 40
1.8
 41
0.0
 71
     8
 72
     1
  1
date
  7
CONVERTER_11
 73
     1
 44
1.32052821128451
  0
MTEXT
  5
3DE
330
74
100
AcDbEntity
  8
1
 62
     2
100
AcDbMText
 10
-44.3581092777281
 20
28.96480215776803
 30
0.0
 40
1.8
 41
0.0
 71
     8
 72
     1
  1
name
  7
CONVERTER_11
 73
     1
 44
1.32052821128451
  0
MTEXT
  5
3DF
330
74
100
AcDbEntity
  8
1
 62
     2
100
AcDbMText
 10
-145.635707014353
 20
3.51480215776799
 30
0.0
 40
1.8
 41
0.0
 71
     8
 72
     1
  1
revision
  7
CONVERTER_11
 73
     1
 44
1.32052821128451
  0
MTEXT
  5
3E0
330
74
100
AcDbEntity
  8
1
 62
     2
100
AcDbMText
 10
29.83669524902383
 20
31.01480215776799
 30
0.0
 40
1.8
 41
0.0
 71
     1
 72
     1
  1
scale
  7
CONVERTER_11
 73
     1
 44
1.20048019207683
  0
MTEXT
  5
3E1
330
74
100
AcDbEntity
  8
1
 62
     2
100
AcDbMText
 10
-69.308109277728
 20
25.63980215776799
 30
0.0
 40
1.8
 41
0.0
 71
     5
 72
     1
  1
creat.
  7
CONVERTER_11
 73
     1
 44
1.20048019207683
  0
MTEXT
  5
3E2
330
74
100
AcDbEntity
  8
1
 62
     2
100
AcDbMText
 10
-69.308109277728
 20
21.38980215776799
 30
0.0
 40
1.8
 41
0.0
 71
     5
 72
     1
  1
check.
  7
CONVERTER_11
 73
     1
 44
1.20048019207683
  0
MTEXT
  5
3E3
330
74
100
AcDbEntity
  8
1
 62
     3
100
AcDbMText
 10
-47.80810927772809
 20
17.1398021577681
 30
0.0
 40
2.5
 41
0.0
 71
     5
 72
     1
  1
DIN A4
  7
CONVERTER_11
 73
     1
 44
1.20048019207683
  0
MTEXT
  5
3E4
330
74
100
AcDbEntity
  8
1
 62
     2
100
AcDbMText
 10
-36.50810927772805
 20
31.01480215776799
 30
0.0
 40
1.8
 41
0.0
 71
     1
 72
     1
  1
ident.-No. / RI
  7
CONVERTER_11
 73
     1
 44
1.20048019207683
  0
TEXT
  5
3E5
330
74
100
AcDbEntity
  8
1
 62
     2
100
AcDbText
 10
-64.3618443073859
 20
3.46555350396603
 30
0.0
 40
1.8
  1
 
 41
0.9
  7
CONVERTER_11
100
AcDbText
  0
TEXT
  5
3E6
330
74
100
AcDbEntity
  8
1
 62
     2
100
AcDbText
 10
-49.5728004679144
 20
3.51480215776799
 30
0.0
 40
1.8
  1
1
 41
0.9
  7
CONVERTER_11
100
AcDbText
  0
MTEXT
  5
3E7
330
74
100
AcDbEntity
  8
1
 62
     2
100
AcDbMText
 10
-36.60810927772807
 20
9.76480215776799
 30
0.0
 40
1.8
 41
0.0
 71
     1
 72
     1
  1
description
  7
CONVERTER_11
 73
     1
 44
1.20048019207683
  0
MTEXT
  5
3E8
330
74
100
AcDbEntity
  8
1
 62
     2
100
AcDbMText
 10
-69.308109277728
 20
28.96480215776803
 30
0.0
 40
1.8
 41
0.0
 71
     8
 72
     1
  1
00
  7
CONVERTER_11
 73
     1
 44
1.20048019207683
  0
MTEXT
  5
3E9
330
74
100
AcDbEntity
  8
1
 62
     2
100
AcDbMText
 10
-36.60810927772807
 20
18.26480215776793
 30
0.0
 40
1.8
 41
0.0
 71
     1
 72
     1
  1
document-type
  7
CONVERTER_11
 73
     1
 44
1.20048019207683
  0
MTEXT
  5
3EA
330
74
100
AcDbEntity
  8
1
 62
     2
100
AcDbMText
 10
-44.3581092777281
 20
21.38980215776799
 30
0.0
 40
1.8
 41
0.0
 71
     5
 72
     1
  1
Schr\U+00f6der
  7
CONVERTER_11
 73
     1
 44
1.32052821128451
  0
MTEXT
  5
3EB
330
74
100
AcDbEntity
  8
1
 62
     2
100
AcDbMText
 10
-44.3581092777281
 20
25.63980215776799
 30
0.0
 40
1.8
 41
0.0
 71
     5
 72
     1
  1
H\U+00e4nig-Fl
  7
CONVERTER_11
 73
     1
 44
1.32052821128451
  0
MTEXT
  5
3EC
330
74
100
AcDbEntity
  8
1
 62
     2
100
AcDbMText
 10
-57.85810927772805
 20
21.38980215776799
 30
0.0
 40
1.8
 41
0.0
 71
     5
 72
     1
  1
29.01.14
  7
CONVERTER_11
 73
     1
 44
1.32052821128451
  0
MTEXT
  5
3ED
330
74
100
AcDbEntity
  8
1
 62
     2
100
AcDbMText
 10
-57.85810927772805
 20
25.63980215776799
 30
0.0
 40
1.8
 41
0.0
 71
     5
 72
     1
  1
07.06.11
  7
CONVERTER_11
 73
     1
 44
1.32052821128451
  0
TEXT
  5
3EE
330
74
100
AcDbEntity
  8
1
 62
     7
100
AcDbText
 10
-21.63456155571426
 20
24.81480215776799
 30
0.0
 40
2.5
  1
/
 41
0.9
  7
CONVERTER_11
100
AcDbText
  0
TEXT
  5
3F0
330
74
100
AcDbEntity
  8
1
 62
     3
100
AcDbText
 10
11.53669524902394
 20
12.06480215776799
 30
0.0
 40
2.5
  1
 
 41
0.54
  7
CONVERTER_16
100
AcDbText
  0
MTEXT
  5
3F2
330
74
100
AcDbEntity
  8
1
 62
     7
100
AcDbMText
 10
8.96429298564745
 20
5.51480215776822
 30
0.0
 40
3.0
 41
0.0
 71
     5
 72
     1
  1
DFK-WW(1  X1)
  7
CONVERTER_17
 73
     1
 44
1.20048019207683
  0
MTEXT
  5
3F3
330
74
100
AcDbEntity
  8
1
 62
     3
100
AcDbMText
 10
33.19589938986336
 20
24.8148021577681
 30
0.0
 40
2.5
 41
0.0
 71
     8
 72
     1
  1
1:1
  7
CONVERTER_13
 73
     1
 44
1.32052821128451
  0
TEXT
  5
3F4
330
74
100
AcDbEntity
  8
1
 62
     3
100
AcDbText
 10
-13.70810927772805
 20
24.81480215776799
 30
0.0
 40
2.5
  1
-
 41
0.54
  7
CONVERTER_16
100
AcDbText
  0
TEXT
  5
3F5
330
74
100
AcDbEntity
  8
1
 62
     7
100
AcDbText
 10
-36.10810927772825
 20
24.81480215776799
 30
0.0
 40
2.5
  1
0735032
 41
0.81
  7
CONVERTER_17
100
AcDbText
  0
TEXT
  5
3F6
330
74
100
AcDbEntity
  8
1
 62
     7
100
AcDbText
 10
-6.96330475097568
 20
12.06480215776799
 30
0.0
 40
2.5
  1
00603172
 41
0.81
  7
CONVERTER_17
100
AcDbText
  0
TEXT
  5
3F7
330
74
100
AcDbEntity
  8
1
 62
     3
100
AcDbText
 10
38.65510353070285
 20
24.81480215776799
 30
0.0
 40
2.5
  1
 
 41
0.54
  7
CONVERTER_16
100
AcDbText
  0
TEXT
  5
3F9
330
74
100
AcDbEntity
  8
1
 62
     3
100
AcDbText
 10
-36.60810927772807
 20
12.06480215776799
 30
0.0
 40
2.5
  1
KUNDENZCHNG-SELECT
 41
0.45
  7
CONVERTER_18
100
AcDbText
  0
TEXT
  5
3FA
330
74
100
AcDbEntity
  8
1
 62
     7
100
AcDbText
 10
-19.47819705867225
 20
24.81480215776799
 30
0.0
 40
2.5
  1
00
 41
0.81
  7
CONVERTER_17
100
AcDbText
  0
MTEXT
  5
3FB
330
74
100
AcDbEntity
  8
1
 62
     3
100
AcDbMText
 10
3.24371513563234
 20
22.61480215776799
 30
0.0
 40
2.0
 41
0.0
 71
     1
 72
     1
  1
geladen von HOST
  7
CONVERTER_13
 73
     1
 44
1.20048019207683
  0
HATCH
  5
3FC
330
74
100
AcDbEntity
  8
1
  6
Continuous
 62
     2
100
AcDbHatch
 10
0.0
 20
0.0
 30
0.0
210
0.0
220
0.0
230
1.0
  2
_USER
 70
     0
 71
     1
 91
        1
 92
        1
 93
       14
 72
     2
 10
-60.7327131819241
 20
9.376706919679137
 40
0.9964100565214622
 50
164.9381082228799
 51
195.0618917770962
 73
     1
 72
     2
 10
-60.38632653443419
 20
9.469922094914526
 40
1.355119937140023
 50
195.0618917770909
 51
275.1581447696391
 73
     1
 72
     2
 10
-60.62505057967046
 20
12.11445976699849
 40
4.010410630990217
 50
275.1581447696245
 51
285.9799912583532
 73
     1
 72
     1
 10
-59.52097792089539
 20
8.259019844849036
 11
-59.52097792089539
 21
8.980108280223627
 72
     2
 10
-60.49457712918051
 20
10.54238160183508
 40
1.840813230556014
 50
58.06909105003766
 51
71.55192388186687
 73
     0
 72
     2
 10
-60.14898396086578
 20
9.506393357176256
 40
0.7487023016403824
 50
71.55192388184291
 51
113.3722778881291
 73
     0
 72
     2
 10
-60.27827324409059
 20
9.207226399564677
 40
0.4227934381775217
 50
113.3722778881731
 51
151.4785267423079
 73
     0
 72
     2
 10
-59.96640774154484
 20
9.376706919679137
 40
0.7777353184572794
 50
151.4785267422971
 51
208.5214732577313
 73
     0
 72
     2
 10
-60.27827324409059
 20
9.546187439794046
 40
0.4227934381775664
 50
208.5214732576908
 51
246.6277221118026
 73
     0
 72
     2
 10
-60.14898396086578
 20
9.247020482181997
 40
0.7487023016407717
 50
246.6277221118715
 51
288.4480761181457
 73
     0
 72
     2
 10
-60.49457712918051
 20
8.211032237523636
 40
1.840813230556617
 50
288.4480761181331
 51
301.9309089499624
 73
     0
 72
     1
 10
-59.52097792089539
 20
9.773305559135085
 11
-59.52097792089539
 21
10.49439399450968
 72
     2
 10
-60.62505057967046
 20
6.638954072360237
 40
4.010410630990092
 50
74.02000874164682
 51
84.84185523037544
 73
     1
 72
     2
 10
-60.38632653443419
 20
9.283491744443726
 40
1.355119937140911
 50
84.84185523036267
 51
164.9381082228906
 73
     1
 97
       14
330
390
330
21A
330
35F
330
38F
330
360
330
361
330
38E
330
38D
330
38C
330
21B
330
362
330
363
330
364
330
365
 75
     1
 76
     0
 52
45.0
 41
0.1
 77
     0
 78
     1
 53
45.0
 43
0.0
 44
0.0
 45
-0.0707106781186548
 46
0.0707106781186548
 79
     0
 98
        1
 10
0.0
 20
0.0
  0
HATCH
  5
3FD
330
74
100
AcDbEntity
  8
1
  6
Continuous
 62
     2
100
AcDbHatch
 10
0.0
 20
0.0
 30
0.0
210
0.0
220
0.0
230
1.0
  2
_USER
 70
     0
 71
     1
 91
        1
 92
        1
 93
       14
 72
     2
 10
-60.7327131819241
 20
9.376706919679137
 40
0.9964100565214622
 50
164.9381082228799
 51
195.0618917770962
 73
     1
 72
     2
 10
-60.38632653443419
 20
9.469922094914526
 40
1.355119937140023
 50
195.0618917770909
 51
275.1581447696391
 73
     1
 72
     2
 10
-60.62505057967046
 20
12.11445976699849
 40
4.010410630990217
 50
275.1581447696245
 51
285.9799912583532
 73
     1
 72
     1
 10
-59.52097792089539
 20
8.259019844849036
 11
-59.52097792089539
 21
8.980108280223627
 72
     2
 10
-60.49457712918051
 20
10.54238160183508
 40
1.840813230556014
 50
58.06909105003766
 51
71.55192388186687
 73
     0
 72
     2
 10
-60.14898396086578
 20
9.506393357176256
 40
0.7487023016403824
 50
71.55192388184291
 51
113.3722778881291
 73
     0
 72
     2
 10
-60.27827324409059
 20
9.207226399564677
 40
0.4227934381775217
 50
113.3722778881731
 51
151.4785267423079
 73
     0
 72
     2
 10
-59.96640774154484
 20
9.376706919679137
 40
0.7777353184572794
 50
151.4785267422971
 51
208.5214732577313
 73
     0
 72
     2
 10
-60.27827324409059
 20
9.546187439794046
 40
0.4227934381775664
 50
208.5214732576908
 51
246.6277221118026
 73
     0
 72
     2
 10
-60.14898396086578
 20
9.247020482181997
 40
0.7487023016407717
 50
246.6277221118715
 51
288.4480761181457
 73
     0
 72
     2
 10
-60.49457712918051
 20
8.211032237523636
 40
1.840813230556617
 50
288.4480761181331
 51
301.9309089499624
 73
     0
 72
     1
 10
-59.52097792089539
 20
9.773305559135085
 11
-59.52097792089539
 21
10.49439399450968
 72
     2
 10
-60.62505057967046
 20
6.638954072360237
 40
4.010410630990092
 50
74.02000874164682
 51
84.84185523037544
 73
     1
 72
     2
 10
-60.38632653443419
 20
9.283491744443726
 40
1.355119937140911
 50
84.84185523036267
 51
164.9381082228906
 73
     1
 97
       14
330
390
330
21A
330
35F
330
38F
330
360
330
361
330
38E
330
38D
330
38C
330
21B
330
362
330
363
330
364
330
365
 75
     1
 76
     0
 52
45.0
 41
0.1
 77
     0
 78
     1
 53
45.0
 43
0.0
 44
0.0
 45
-0.0707106781186548
 46
0.0707106781186548
 79
     0
 98
        1
 10
0.0
 20
0.0
  0
HATCH
  5
3FE
330
74
100
AcDbEntity
  8
1
  6
Continuous
 62
     2
100
AcDbHatch
 10
0.0
 20
0.0
 30
0.0
210
0.0
220
0.0
230
1.0
  2
_USER
 70
     0
 71
     1
 91
        1
 92
        1
 93
       18
 72
     2
 10
-47.07830878298551
 20
9.283491744443726
 40
1.355119937140595
 50
90.0
 51
164.9381082228992
 73
     1
 72
     2
 10
-47.42469543047449
 20
9.376706919679137
 40
0.996410056523109
 50
164.9381082229054
 51
195.0618917770958
 73
     1
 72
     2
 10
-47.07830878298551
 20
9.469922094914526
 40
1.355119937140895
 50
195.0618917771008
 51
275.158144769676
 73
     1
 72
     2
 10
-47.31703282822177
 20
12.11445976699849
 40
4.010410630990748
 50
275.1581447696369
 51
285.9799912583388
 73
     1
 72
     1
 10
-46.21296016944762
 20
8.259019844848597
 11
-46.21296016944762
 21
8.980108280223167
 72
     2
 10
-47.18655937773183
 20
10.54238160183462
 40
1.840813230556008
 50
58.06909105006173
 51
71.55192388186657
 73
     0
 72
     2
 10
-46.84096620941617
 20
9.506393357176256
 40
0.7487023016407038
 50
71.55192388192036
 51
113.372277888186
 73
     0
 72
     2
 10
-46.9702554926419
 20
9.207226399564677
 40
0.4227934381785468
 50
113.3722778881607
 51
151.4785267423125
 73
     0
 72
     2
 10
-46.65838999009525
 20
9.376706919679137
 40
0.7777353184586567
 50
151.4785267423311
 51
208.5214732576385
 73
     0
 72
     2
 10
-46.9702554926419
 20
9.546187439794046
 40
0.4227934381772285
 50
208.521473257578
 51
250.6628567805131
 73
     0
 72
     2
 10
-46.84904061817603
 20
9.200770100634616
 40
0.7888619891124407
 50
250.6628567805681
 51
270.0
 73
     0
 72
     1
 10
-46.84904061817603
 20
9.989632089747056
 11
-45.93694202349165
 21
9.989632089747056
 72
     1
 10
-45.93694202349165
 20
9.989632089747056
 11
-45.93694202349165
 21
8.114802157773946
 72
     1
 10
-45.93694202349165
 20
8.114802157773946
 11
-44.95116293079109
 21
8.114802157773946
 72
     1
 10
-44.95116293079109
 20
8.114802157773946
 11
-44.95116293079109
 21
9.989632089747056
 72
     1
 10
-44.95116293079109
 20
9.989632089747056
 11
-44.28083314775522
 21
9.989632089747056
 72
     1
 10
-44.28083314775522
 20
9.989632089747056
 11
-44.28083314775522
 21
10.63861168158478
 72
     1
 10
-44.28083314775522
 20
10.63861168158478
 11
-47.07830878298551
 21
10.63861168158432
 97
       18
330
280
330
27F
330
27E
330
27D
330
282
330
21C
330
389
330
36A
330
388
330
36B
330
387
330
386
330
21D
330
385
330
384
330
36C
330
36D
330
281
 75
     1
 76
     0
 52
45.0
 41
0.1
 77
     0
 78
     1
 53
45.0
 43
0.0
 44
0.0
 45
-0.0707106781186548
 46
0.0707106781186548
 79
     0
 98
        1
 10
0.0
 20
0.0
  0
HATCH
  5
3FF
330
74
100
AcDbEntity
  8
1
  6
Continuous
 62
     2
100
AcDbHatch
 10
0.0
 20
0.0
 30
0.0
210
0.0
220
0.0
230
1.0
  2
_USER
 70
     0
 71
     1
 91
        1
 92
        1
 93
       18
 72
     2
 10
-47.07830878298551
 20
9.283491744443726
 40
1.355119937140595
 50
90.0
 51
164.9381082228992
 73
     1
 72
     2
 10
-47.42469543047449
 20
9.376706919679137
 40
0.996410056523109
 50
164.9381082229054
 51
195.0618917770958
 73
     1
 72
     2
 10
-47.07830878298551
 20
9.469922094914526
 40
1.355119937140895
 50
195.0618917771008
 51
275.158144769676
 73
     1
 72
     2
 10
-47.31703282822177
 20
12.11445976699849
 40
4.010410630990748
 50
275.1581447696369
 51
285.9799912583388
 73
     1
 72
     1
 10
-46.21296016944762
 20
8.259019844848597
 11
-46.21296016944762
 21
8.980108280223167
 72
     2
 10
-47.18655937773183
 20
10.54238160183462
 40
1.840813230556008
 50
58.06909105006173
 51
71.55192388186657
 73
     0
 72
     2
 10
-46.84096620941617
 20
9.506393357176256
 40
0.7487023016407038
 50
71.55192388192036
 51
113.372277888186
 73
     0
 72
     2
 10
-46.9702554926419
 20
9.207226399564677
 40
0.4227934381785468
 50
113.3722778881607
 51
151.4785267423125
 73
     0
 72
     2
 10
-46.65838999009525
 20
9.376706919679137
 40
0.7777353184586567
 50
151.4785267423311
 51
208.5214732576385
 73
     0
 72
     2
 10
-46.9702554926419
 20
9.546187439794046
 40
0.4227934381772285
 50
208.521473257578
 51
250.6628567805131
 73
     0
 72
     2
 10
-46.84904061817603
 20
9.200770100634616
 40
0.7888619891124407
 50
250.6628567805681
 51
270.0
 73
     0
 72
     1
 10
-46.84904061817603
 20
9.989632089747056
 11
-45.93694202349165
 21
9.989632089747056
 72
     1
 10
-45.93694202349165
 20
9.989632089747056
 11
-45.93694202349165
 21
8.114802157773946
 72
     1
 10
-45.93694202349165
 20
8.114802157773946
 11
-44.95116293079109
 21
8.114802157773946
 72
     1
 10
-44.95116293079109
 20
8.114802157773946
 11
-44.95116293079109
 21
9.989632089747056
 72
     1
 10
-44.95116293079109
 20
9.989632089747056
 11
-44.28083314775522
 21
9.989632089747056
 72
     1
 10
-44.28083314775522
 20
9.989632089747056
 11
-44.28083314775522
 21
10.63861168158478
 72
     1
 10
-44.28083314775522
 20
10.63861168158478
 11
-47.07830878298551
 21
10.63861168158432
 97
       18
330
280
330
27F
330
27E
330
27D
330
282
330
21C
330
389
330
36A
330
388
330
36B
330
387
330
386
330
21D
330
385
330
384
330
36C
330
36D
330
281
 75
     1
 76
     0
 52
45.0
 41
0.1
 77
     0
 78
     1
 53
45.0
 43
0.0
 44
0.0
 45
-0.0707106781186548
 46
0.0707106781186548
 79
     0
 98
        1
 10
0.0
 20
0.0
  0
HATCH
  5
400
330
74
100
AcDbEntity
  8
1
  6
Continuous
 62
     2
100
AcDbHatch
 10
0.0
 20
0.0
 30
0.0
210
0.0
220
0.0
230
1.0
  2
_USER
 70
     0
 71
     1
 91
        4
 92
        1
 93
        8
 72
     2
 10
-66.99744853231861
 20
13.0641867731322
 40
0.3506153846147413
 50
90.0
 51
180.0
 73
     1
 72
     1
 10
-67.3480639169325
 20
13.0641867731322
 11
-67.3480639169325
 21
8.465417542388227
 72
     2
 10
-66.99744853231861
 20
8.465417542388227
 40
0.3506153846138886
 50
180.0
 51
270.0
 73
     1
 72
     1
 10
-66.99744853231861
 20
8.114802157773946
 11
-62.47405011023857
 21
8.114802157773946
 72
     2
 10
-62.47405011023857
 20
8.465417542388227
 40
0.3506153846142812
 50
270.0
 51
360.0
 73
     1
 72
     1
 10
-62.12343472562377
 20
8.465417542388227
 11
-62.12343472562377
 21
13.0641867731322
 72
     2
 10
-62.47405011023857
 20
13.0641867731322
 40
0.3506153846148052
 50
0.0
 51
90.0
 73
     1
 72
     1
 10
-62.47405011023857
 20
13.41480215774694
 11
-66.99744853231861
 21
13.41480215774694
 97
        8
330
37D
330
24B
330
37C
330
24C
330
373
330
249
330
37E
330
24A
 92
       16
 93
        1
 72
     2
 10
-64.83250171370905
 20
11.14775517944996
 40
0.3892387874202541
 50
0.0
 51
360.0
 73
     1
 97
        1
330
391
 92
       16
 93
        8
 72
     2
 10
-64.81281988340099
 20
11.14775517944996
 40
0.7535935125161003
 50
295.3740086781779
 51
424.6259913218071
 73
     1
 72
     2
 10
-64.37807385192336
 20
12.06440112983658
 40
0.2609230769229498
 50
115.3740086783599
 51
180.0
 73
     0
 72
     1
 10
-64.63899692884631
 20
12.06440112983658
 11
-64.63899692884631
 21
12.56484351703225
 72
     2
 10
-64.37807385192336
 20
12.56484351703225
 40
0.2609230769224198
 50
180.0
 51
269.8110329574465
 73
     0
 72
     2
 10
-64.3734324177829
 20
11.15754190747107
 40
1.668232340440706
 50
269.8110329575862
 51
450.1889670424138
 73
     0
 72
     2
 10
-64.37807385192336
 20
9.750240297909896
 40
0.2609230769229498
 50
90.18896704255353
 51
180.0
 73
     0
 72
     1
 10
-64.63899692884631
 20
9.750240297909896
 11
-64.63899692884631
 21
10.23110922906287
 72
     2
 10
-64.37807385192336
 20
10.23110922906287
 40
0.2609230769227325
 50
180.0
 51
244.625991321641
 73
     0
 97
        8
330
38B
330
367
330
284
330
38A
330
368
330
369
330
283
330
366
 92
       16
 93
       12
 72
     1
 10
-66.50662648542065
 20
8.703691046663966
 11
-65.28692957549542
 21
8.703691046663966
 72
     2
 10
-65.28692957549542
 20
8.964614123586855
 40
0.2609230769228894
 50
270.0
 51
360.0
 73
     1
 72
     1
 10
-65.02600649857258
 20
8.964614123586855
 11
-65.02600649857258
 21
10.22971406700142
 72
     2
 10
-65.28692957549542
 20
10.22971406700142
 40
0.2609230769228361
 50
0.0
 51
64.8055893514401
 73
     1
 72
     2
 10
-64.85504160229293
 20
11.14775517944996
 40
0.7536343169897672
 50
115.1944106485086
 51
244.8055893514766
 73
     0
 72
     2
 10
-65.28692957549542
 20
12.06579629189804
 40
0.2609230769224081
 50
295.1944106485599
 51
360.0
 73
     1
 72
     1
 10
-65.02600649857258
 20
12.06579629189804
 11
-65.02600649857258
 21
12.5649901919481
 72
     2
 10
-65.28692957549542
 20
12.5649901919481
 40
0.2609230769228361
 50
0.0
 51
90.0
 73
     1
 72
     1
 10
-65.28692957549542
 20
12.82591326887055
 11
-66.50662648542065
 21
12.82591326887055
 72
     2
 10
-66.50662648542065
 20
12.5649901919481
 40
0.2609230769224506
 50
90.0
 51
180.0
 73
     1
 72
     1
 10
-66.7675495623427
 20
12.5649901919481
 11
-66.7675495623427
 21
8.964614123586855
 72
     2
 10
-66.50662648542065
 20
8.964614123586855
 40
0.2609230769220403
 50
180.0
 51
270.0
 73
     1
 97
       12
330
250
330
370
330
24F
330
381
330
24E
330
380
330
371
330
372
330
24D
330
37F
330
248
330
382
 75
     1
 76
     0
 52
45.0
 41
0.1
 77
     0
 78
     1
 53
45.0
 43
0.0
 44
0.0
 45
-0.0707106781186548
 46
0.0707106781186548
 79
     0
 98
        1
 10
0.0
 20
0.0
  0
HATCH
  5
401
330
74
100
AcDbEntity
  8
1
  6
Continuous
 62
     2
100
AcDbHatch
 10
0.0
 20
0.0
 30
0.0
210
0.0
220
0.0
230
1.0
  2
_USER
 70
     0
 71
     1
 91
        4
 92
        1
 93
        8
 72
     2
 10
-66.99744853231861
 20
13.0641867731322
 40
0.3506153846147413
 50
90.0
 51
180.0
 73
     1
 72
     1
 10
-67.3480639169325
 20
13.0641867731322
 11
-67.3480639169325
 21
8.465417542388227
 72
     2
 10
-66.99744853231861
 20
8.465417542388227
 40
0.3506153846138886
 50
180.0
 51
270.0
 73
     1
 72
     1
 10
-66.99744853231861
 20
8.114802157773946
 11
-62.47405011023857
 21
8.114802157773946
 72
     2
 10
-62.47405011023857
 20
8.465417542388227
 40
0.3506153846142812
 50
270.0
 51
360.0
 73
     1
 72
     1
 10
-62.12343472562377
 20
8.465417542388227
 11
-62.12343472562377
 21
13.0641867731322
 72
     2
 10
-62.47405011023857
 20
13.0641867731322
 40
0.3506153846148052
 50
0.0
 51
90.0
 73
     1
 72
     1
 10
-62.47405011023857
 20
13.41480215774694
 11
-66.99744853231861
 21
13.41480215774694
 97
        8
330
37D
330
24B
330
37C
330
24C
330
373
330
249
330
37E
330
24A
 92
       16
 93
        1
 72
     2
 10
-64.83250171370905
 20
11.14775517944996
 40
0.3892387874202541
 50
0.0
 51
360.0
 73
     1
 97
        1
330
391
 92
       16
 93
        8
 72
     2
 10
-64.81281988340099
 20
11.14775517944996
 40
0.7535935125161003
 50
295.3740086781779
 51
424.6259913218071
 73
     1
 72
     2
 10
-64.37807385192336
 20
12.06440112983658
 40
0.2609230769229498
 50
115.3740086783599
 51
180.0
 73
     0
 72
     1
 10
-64.63899692884631
 20
12.06440112983658
 11
-64.63899692884631
 21
12.56484351703225
 72
     2
 10
-64.37807385192336
 20
12.56484351703225
 40
0.2609230769224198
 50
180.0
 51
269.8110329574465
 73
     0
 72
     2
 10
-64.3734324177829
 20
11.15754190747107
 40
1.668232340440706
 50
269.8110329575862
 51
450.1889670424138
 73
     0
 72
     2
 10
-64.37807385192336
 20
9.750240297909896
 40
0.2609230769229498
 50
90.18896704255353
 51
180.0
 73
     0
 72
     1
 10
-64.63899692884631
 20
9.750240297909896
 11
-64.63899692884631
 21
10.23110922906287
 72
     2
 10
-64.37807385192336
 20
10.23110922906287
 40
0.2609230769227325
 50
180.0
 51
244.625991321641
 73
     0
 97
        8
330
38B
330
367
330
284
330
38A
330
368
330
369
330
283
330
366
 92
       16
 93
       12
 72
     1
 10
-66.50662648542065
 20
8.703691046663966
 11
-65.28692957549542
 21
8.703691046663966
 72
     2
 10
-65.28692957549542
 20
8.964614123586855
 40
0.2609230769228894
 50
270.0
 51
360.0
 73
     1
 72
     1
 10
-65.02600649857258
 20
8.964614123586855
 11
-65.02600649857258
 21
10.22971406700142
 72
     2
 10
-65.28692957549542
 20
10.22971406700142
 40
0.2609230769228361
 50
0.0
 51
64.8055893514401
 73
     1
 72
     2
 10
-64.85504160229293
 20
11.14775517944996
 40
0.7536343169897672
 50
115.1944106485086
 51
244.8055893514766
 73
     0
 72
     2
 10
-65.28692957549542
 20
12.06579629189804
 40
0.2609230769224081
 50
295.1944106485599
 51
360.0
 73
     1
 72
     1
 10
-65.02600649857258
 20
12.06579629189804
 11
-65.02600649857258
 21
12.5649901919481
 72
     2
 10
-65.28692957549542
 20
12.5649901919481
 40
0.2609230769228361
 50
0.0
 51
90.0
 73
     1
 72
     1
 10
-65.28692957549542
 20
12.82591326887055
 11
-66.50662648542065
 21
12.82591326887055
 72
     2
 10
-66.50662648542065
 20
12.5649901919481
 40
0.2609230769224506
 50
90.0
 51
180.0
 73
     1
 72
     1
 10
-66.7675495623427
 20
12.5649901919481
 11
-66.7675495623427
 21
8.964614123586855
 72
     2
 10
-66.50662648542065
 20
8.964614123586855
 40
0.2609230769220403
 50
180.0
 51
270.0
 73
     1
 97
       12
330
250
330
370
330
24F
330
381
330
24E
330
380
330
371
330
372
330
24D
330
37F
330
248
330
382
 75
     1
 76
     0
 52
45.0
 41
0.1
 77
     0
 78
     1
 53
45.0
 43
0.0
 44
0.0
 45
-0.0707106781186548
 46
0.0707106781186548
 79
     0
 98
        1
 10
0.0
 20
0.0
  0
HATCH
  5
402
330
74
100
AcDbEntity
  8
1
  6
Continuous
 62
     2
100
AcDbHatch
 10
0.0
 20
0.0
 30
0.0
210
0.0
220
0.0
230
1.0
  2
_USER
 70
     0
 71
     1
 91
        2
 92
        1
 93
       12
 72
     2
 10
-54.86921381827783
 20
12.15289739585629
 40
1.26190476190564
 50
90.0
 51
270.0
 73
     1
 72
     1
 10
-54.86921381827783
 20
10.8909926339511
 11
-52.26564379862412
 21
10.8909926339511
 72
     1
 10
-52.26564379862412
 20
10.8909926339511
 11
-52.26564379862412
 21
11.46786338225059
 72
     1
 10
-52.26564379862412
 20
11.46786338225059
 11
-53.36971638244863
 21
11.46786338225059
 72
     1
 10
-53.36971638244863
 20
11.46786338225059
 11
-53.36971638244863
 21
11.86446202170655
 72
     1
 10
-53.36971638244863
 20
11.86446202170655
 11
-52.26564379862412
 21
11.86446202170655
 72
     1
 10
-52.26564379862412
 20
11.86446202170655
 11
-52.26564379862412
 21
12.44133277000603
 72
     1
 10
-52.26564379862412
 20
12.44133277000603
 11
-53.36971638244863
 21
12.44133277000603
 72
     1
 10
-53.36971638244863
 20
12.44133277000603
 11
-53.36971638244863
 21
12.83793140946199
 72
     1
 10
-53.36971638244863
 20
12.83793140946199
 11
-52.26564379862412
 21
12.83793140946199
 72
     1
 10
-52.26564379862412
 20
12.83793140946199
 11
-52.26564379862412
 21
13.41480215776193
 72
     1
 10
-52.26564379862412
 20
13.41480215776193
 11
-54.86921381827783
 21
13.41480215776193
 97
       12
330
23F
330
239
330
260
330
25F
330
25E
330
25D
330
23A
330
23B
330
23C
330
23D
330
36E
330
23E
 92
       16
 93
        4
 72
     2
 10
-54.5254022095907
 20
12.15289739585629
 40
0.6378510567600001
 50
141.8795802028413
 51
218.1204197971586
 73
     1
 72
     2
 10
-54.69047661979418
 20
12.02336749658316
 40
0.4280236140606851
 50
218.1204197971433
 51
321.8795802028567
 73
     1
 72
     2
 10
-54.85555102999766
 20
12.15289739585629
 40
0.637851056759999
 50
321.8795802028414
 51
398.1204197971587
 73
     1
 72
     2
 10
-54.69047661979418
 20
12.28242729512941
 40
0.4280236140606917
 50
38.12041979714444
 51
141.8795802028555
 73
     1
 97
        4
330
37B
330
37A
330
375
330
374
 75
     1
 76
     0
 52
45.0
 41
0.1
 77
     0
 78
     1
 53
45.0
 43
0.0
 44
0.0
 45
-0.0707106781186548
 46
0.0707106781186548
 79
     0
 98
        1
 10
0.0
 20
0.0
  0
HATCH
  5
403
330
74
100
AcDbEntity
  8
1
  6
Continuous
 62
     2
100
AcDbHatch
 10
0.0
 20
0.0
 30
0.0
210
0.0
220
0.0
230
1.0
  2
_USER
 70
     0
 71
     1
 91
        2
 92
        1
 93
       12
 72
     2
 10
-54.86921381827783
 20
12.15289739585629
 40
1.26190476190564
 50
90.0
 51
270.0
 73
     1
 72
     1
 10
-54.86921381827783
 20
10.8909926339511
 11
-52.26564379862412
 21
10.8909926339511
 72
     1
 10
-52.26564379862412
 20
10.8909926339511
 11
-52.26564379862412
 21
11.46786338225059
 72
     1
 10
-52.26564379862412
 20
11.46786338225059
 11
-53.36971638244863
 21
11.46786338225059
 72
     1
 10
-53.36971638244863
 20
11.46786338225059
 11
-53.36971638244863
 21
11.86446202170655
 72
     1
 10
-53.36971638244863
 20
11.86446202170655
 11
-52.26564379862412
 21
11.86446202170655
 72
     1
 10
-52.26564379862412
 20
11.86446202170655
 11
-52.26564379862412
 21
12.44133277000603
 72
     1
 10
-52.26564379862412
 20
12.44133277000603
 11
-53.36971638244863
 21
12.44133277000603
 72
     1
 10
-53.36971638244863
 20
12.44133277000603
 11
-53.36971638244863
 21
12.83793140946199
 72
     1
 10
-53.36971638244863
 20
12.83793140946199
 11
-52.26564379862412
 21
12.83793140946199
 72
     1
 10
-52.26564379862412
 20
12.83793140946199
 11
-52.26564379862412
 21
13.41480215776193
 72
     1
 10
-52.26564379862412
 20
13.41480215776193
 11
-54.86921381827783
 21
13.41480215776193
 97
       12
330
23F
330
239
330
260
330
25F
330
25E
330
25D
330
23A
330
23B
330
23C
330
23D
330
36E
330
23E
 92
       16
 93
        4
 72
     2
 10
-54.5254022095907
 20
12.15289739585629
 40
0.6378510567600001
 50
141.8795802028413
 51
218.1204197971586
 73
     1
 72
     2
 10
-54.69047661979418
 20
12.02336749658316
 40
0.4280236140606851
 50
218.1204197971433
 51
321.8795802028567
 73
     1
 72
     2
 10
-54.85555102999766
 20
12.15289739585629
 40
0.637851056759999
 50
321.8795802028414
 51
398.1204197971587
 73
     1
 72
     2
 10
-54.69047661979418
 20
12.28242729512941
 40
0.4280236140606917
 50
38.12041979714444
 51
141.8795802028555
 73
     1
 97
        4
330
37B
330
37A
330
375
330
374
 75
     1
 76
     0
 52
45.0
 41
0.1
 77
     0
 78
     1
 53
45.0
 43
0.0
 44
0.0
 45
-0.0707106781186548
 46
0.0707106781186548
 79
     0
 98
        1
 10
0.0
 20
0.0
  0
HATCH
  5
404
330
74
100
AcDbEntity
  8
1
  6
Continuous
 62
     2
100
AcDbHatch
 10
0.0
 20
0.0
 30
0.0
210
0.0
220
0.0
230
1.0
  2
_USER
 70
     0
 71
     1
 91
        2
 92
        1
 93
        4
 72
     2
 10
-58.19616866328742
 20
9.376706919679137
 40
1.204986845992998
 50
117.5481481756634
 51
242.451851824337
 73
     1
 72
     2
 10
-57.96398693449957
 20
9.821810233979406
 40
1.70700807620544
 50
242.4518518243401
 51
297.5481481756868
 73
     1
 72
     2
 10
-57.73180520571172
 20
9.376706919679137
 40
1.20498684599343
 50
297.548148175701
 51
422.4518518242986
 73
     1
 72
     2
 10
-57.96398693449957
 20
8.931603605379316
 40
1.707008076205446
 50
62.451851824306
 51
117.5481481756672
 73
     1
 97
        4
330
379
330
376
330
378
330
377
 92
       16
 93
        4
 72
     2
 10
-57.96398693449957
 20
9.506236818952257
 40
0.4280236140605955
 50
38.12041979715423
 51
141.8795802028552
 73
     1
 72
     2
 10
-57.7989125242962
 20
9.376706919679137
 40
0.6378510567599095
 50
141.8795802028351
 51
218.1204197971658
 73
     1
 72
     2
 10
-57.96398693449957
 20
9.247177020406456
 40
0.4280236140609635
 50
218.1204197971923
 51
321.8795802027983
 73
     1
 72
     2
 10
-58.12906134470318
 20
9.376706919679137
 40
0.6378510567600122
 50
321.8795802028409
 51
398.1204197971583
 73
     1
 97
        4
330
35C
330
35D
330
35E
330
35B
 75
     1
 76
     0
 52
45.0
 41
0.1
 77
     0
 78
     1
 53
45.0
 43
0.0
 44
0.0
 45
-0.0707106781186548
 46
0.0707106781186548
 79
     0
 98
        1
 10
0.0
 20
0.0
  0
HATCH
  5
405
330
74
100
AcDbEntity
  8
1
  6
Continuous
 62
     2
100
AcDbHatch
 10
0.0
 20
0.0
 30
0.0
210
0.0
220
0.0
230
1.0
  2
_USER
 70
     0
 71
     1
 91
        2
 92
        1
 93
        4
 72
     2
 10
-58.19616866328742
 20
9.376706919679137
 40
1.204986845992998
 50
117.5481481756634
 51
242.451851824337
 73
     1
 72
     2
 10
-57.96398693449957
 20
9.821810233979406
 40
1.70700807620544
 50
242.4518518243401
 51
297.5481481756868
 73
     1
 72
     2
 10
-57.73180520571172
 20
9.376706919679137
 40
1.20498684599343
 50
297.548148175701
 51
422.4518518242986
 73
     1
 72
     2
 10
-57.96398693449957
 20
8.931603605379316
 40
1.707008076205446
 50
62.451851824306
 51
117.5481481756672
 73
     1
 97
        4
330
379
330
376
330
378
330
377
 92
       16
 93
        4
 72
     2
 10
-57.96398693449957
 20
9.506236818952257
 40
0.4280236140605955
 50
38.12041979715423
 51
141.8795802028552
 73
     1
 72
     2
 10
-57.7989125242962
 20
9.376706919679137
 40
0.6378510567599095
 50
141.8795802028351
 51
218.1204197971658
 73
     1
 72
     2
 10
-57.96398693449957
 20
9.247177020406456
 40
0.4280236140609635
 50
218.1204197971923
 51
321.8795802027983
 73
     1
 72
     2
 10
-58.12906134470318
 20
9.376706919679137
 40
0.6378510567600122
 50
321.8795802028409
 51
398.1204197971583
 73
     1
 97
        4
330
35C
330
35D
330
35E
330
35B
 75
     1
 76
     0
 52
45.0
 41
0.1
 77
     0
 78
     1
 53
45.0
 43
0.0
 44
0.0
 45
-0.0707106781186548
 46
0.0707106781186548
 79
     0
 98
        1
 10
0.0
 20
0.0
  0
HATCH
  5
406
330
74
100
AcDbEntity
  8
1
  6
Continuous
 62
     2
100
AcDbHatch
 10
0.0
 20
0.0
 30
0.0
210
0.0
220
0.0
230
1.0
  2
_USER
 70
     0
 71
     1
 91
        2
 92
        1
 93
        6
 72
     1
 10
-61.72912308854374
 20
13.41480215776193
 11
-61.72912308854374
 21
10.8909926339511
 72
     1
 10
-61.72912308854374
 20
10.8909926339511
 11
-60.70391283213546
 21
10.8909926339511
 72
     1
 10
-60.70391283213546
 20
10.8909926339511
 11
-60.70391283213546
 21
11.67039613902857
 72
     1
 10
-60.70391283213546
 20
11.67039613902857
 11
-60.07683218107734
 21
11.67039613902857
 72
     2
 10
-60.07683218107734
 20
12.54259914839524
 40
0.87220300936667
 50
270.0
 51
450.0
 73
     1
 72
     1
 10
-60.07683218107734
 20
13.41480215776193
 11
-61.72912308854374
 21
13.41480215776193
 97
        6
330
383
330
251
330
247
330
246
330
253
330
252
 92
       16
 93
        4
 72
     1
 10
-60.44168550854708
 20
12.86678079789412
 11
-60.70391283213546
 21
12.86678079789412
 72
     1
 10
-60.70391283213546
 20
12.86678079789412
 11
-60.70391283213546
 21
12.28353480670216
 72
     1
 10
-60.70391283213546
 20
12.28353480670216
 11
-60.44168550854708
 21
12.28353480670216
 72
     2
 10
-60.44168550854708
 20
12.57515780229815
 40
0.2916229955959899
 50
270.0
 51
450.0
 73
     1
 97
        4
330
254
330
245
330
255
330
36F
 75
     1
 76
     0
 52
45.0
 41
0.1
 77
     0
 78
     1
 53
45.0
 43
0.0
 44
0.0
 45
-0.0707106781186548
 46
0.0707106781186548
 79
     0
 98
        1
 10
0.0
 20
0.0
  0
HATCH
  5
407
330
74
100
AcDbEntity
  8
1
  6
Continuous
 62
     2
100
AcDbHatch
 10
0.0
 20
0.0
 30
0.0
210
0.0
220
0.0
230
1.0
  2
_USER
 70
     0
 71
     1
 91
        2
 92
        1
 93
        6
 72
     1
 10
-61.72912308854374
 20
13.41480215776193
 11
-61.72912308854374
 21
10.8909926339511
 72
     1
 10
-61.72912308854374
 20
10.8909926339511
 11
-60.70391283213546
 21
10.8909926339511
 72
     1
 10
-60.70391283213546
 20
10.8909926339511
 11
-60.70391283213546
 21
11.67039613902857
 72
     1
 10
-60.70391283213546
 20
11.67039613902857
 11
-60.07683218107734
 21
11.67039613902857
 72
     2
 10
-60.07683218107734
 20
12.54259914839524
 40
0.87220300936667
 50
270.0
 51
450.0
 73
     1
 72
     1
 10
-60.07683218107734
 20
13.41480215776193
 11
-61.72912308854374
 21
13.41480215776193
 97
        6
330
383
330
251
330
247
330
246
330
253
330
252
 92
       16
 93
        4
 72
     1
 10
-60.44168550854708
 20
12.86678079789412
 11
-60.70391283213546
 21
12.86678079789412
 72
     1
 10
-60.70391283213546
 20
12.86678079789412
 11
-60.70391283213546
 21
12.28353480670216
 72
     1
 10
-60.70391283213546
 20
12.28353480670216
 11
-60.44168550854708
 21
12.28353480670216
 72
     2
 10
-60.44168550854708
 20
12.57515780229815
 40
0.2916229955959899
 50
270.0
 51
450.0
 73
     1
 97
        4
330
254
330
245
330
255
330
36F
 75
     1
 76
     0
 52
45.0
 41
0.1
 77
     0
 78
     1
 53
45.0
 43
0.0
 44
0.0
 45
-0.0707106781186548
 46
0.0707106781186548
 79
     0
 98
        1
 10
0.0
 20
0.0
  0
HATCH
  5
408
330
74
100
AcDbEntity
  8
1
  6
Continuous
 62
     2
100
AcDbHatch
 10
0.0
 20
0.0
 30
0.0
210
0.0
220
0.0
230
1.0
  2
_USER
 70
     0
 71
     1
 91
        1
 92
        1
 93
       12
 72
     1
 10
-45.51897168818578
 20
13.41480215776193
 11
-44.35969547517156
 21
13.41480215776193
 72
     1
 10
-44.35969547517156
 20
13.41480215776193
 11
-45.4361662444001
 21
12.19748767012871
 72
     1
 10
-45.4361662444001
 20
12.19748767012871
 11
-44.28083314775522
 21
10.8909926339511
 72
     1
 10
-44.28083314775522
 20
10.8909926339511
 11
-45.44010936077034
 21
10.8909926339511
 72
     1
 10
-45.44010936077034
 20
10.8909926339511
 11
-46.01580435090709
 21
11.54201063832604
 72
     1
 10
-46.01580435090709
 20
11.54201063832604
 11
-46.59149934104406
 21
10.8909926339511
 72
     1
 10
-46.59149934104406
 20
10.8909926339511
 11
-47.75077555405908
 21
10.8909926339511
 72
     1
 10
-47.75077555405908
 20
10.8909926339511
 11
-46.59544245741419
 21
12.19748767012871
 72
     1
 10
-46.59544245741419
 20
12.19748767012871
 11
-47.67191322664353
 21
13.41480215776193
 72
     1
 10
-47.67191322664353
 20
13.41480215776193
 11
-46.51263701362762
 21
13.41480215776193
 72
     1
 10
-46.51263701362762
 20
13.41480215776193
 11
-46.01580435090709
 21
12.85296470193094
 72
     1
 10
-46.01580435090709
 20
12.85296470193094
 11
-45.51897168818578
 21
13.41480215776193
 97
       12
330
220
330
279
330
278
330
277
330
276
330
221
330
222
330
21E
330
21F
330
27C
330
27B
330
27A
 75
     1
 76
     0
 52
45.0
 41
0.1
 77
     0
 78
     1
 53
45.0
 43
0.0
 44
0.0
 45
-0.0707106781186548
 46
0.0707106781186548
 79
     0
 98
        1
 10
0.0
 20
0.0
  0
HATCH
  5
409
330
74
100
AcDbEntity
  8
1
  6
Continuous
 62
     2
100
AcDbHatch
 10
0.0
 20
0.0
 30
0.0
210
0.0
220
0.0
230
1.0
  2
_USER
 70
     0
 71
     1
 91
        1
 92
        1
 93
       12
 72
     1
 10
-45.51897168818578
 20
13.41480215776193
 11
-44.35969547517156
 21
13.41480215776193
 72
     1
 10
-44.35969547517156
 20
13.41480215776193
 11
-45.4361662444001
 21
12.19748767012871
 72
     1
 10
-45.4361662444001
 20
12.19748767012871
 11
-44.28083314775522
 21
10.8909926339511
 72
     1
 10
-44.28083314775522
 20
10.8909926339511
 11
-45.44010936077034
 21
10.8909926339511
 72
     1
 10
-45.44010936077034
 20
10.8909926339511
 11
-46.01580435090709
 21
11.54201063832604
 72
     1
 10
-46.01580435090709
 20
11.54201063832604
 11
-46.59149934104406
 21
10.8909926339511
 72
     1
 10
-46.59149934104406
 20
10.8909926339511
 11
-47.75077555405908
 21
10.8909926339511
 72
     1
 10
-47.75077555405908
 20
10.8909926339511
 11
-46.59544245741419
 21
12.19748767012871
 72
     1
 10
-46.59544245741419
 20
12.19748767012871
 11
-47.67191322664353
 21
13.41480215776193
 72
     1
 10
-47.67191322664353
 20
13.41480215776193
 11
-46.51263701362762
 21
13.41480215776193
 72
     1
 10
-46.51263701362762
 20
13.41480215776193
 11
-46.01580435090709
 21
12.85296470193094
 72
     1
 10
-46.01580435090709
 20
12.85296470193094
 11
-45.51897168818578
 21
13.41480215776193
 97
       12
330
220
330
279
330
278
330
277
330
276
330
221
330
222
330
21E
330
21F
330
27C
330
27B
330
27A
 75
     1
 76
     0
 52
45.0
 41
0.1
 77
     0
 78
     1
 53
45.0
 43
0.0
 44
0.0
 45
-0.0707106781186548
 46
0.0707106781186548
 79
     0
 98
        1
 10
0.0
 20
0.0
  0
HATCH
  5
40A
330
74
100
AcDbEntity
  8
1
  6
Continuous
 62
     2
100
AcDbHatch
 10
0.0
 20
0.0
 30
0.0
210
0.0
220
0.0
230
1.0
  2
_USER
 70
     0
 71
     1
 91
        1
 92
        1
 93
        4
 72
     1
 10
-47.84935346332922
 20
13.41480215776193
 11
-47.84935346332922
 21
10.8909926339511
 72
     1
 10
-47.84935346332922
 20
10.8909926339511
 11
-48.8745637197366
 21
10.8909926339511
 72
     1
 10
-48.8745637197366
 20
10.8909926339511
 11
-48.8745637197366
 21
13.41480215776193
 72
     1
 10
-48.8745637197366
 20
13.41480215776193
 11
-47.84935346332922
 21
13.41480215776193
 97
        4
330
274
330
223
330
273
330
275
 75
     1
 76
     0
 52
45.0
 41
0.1
 77
     0
 78
     1
 53
45.0
 43
0.0
 44
0.0
 45
-0.0707106781186548
 46
0.0707106781186548
 79
     0
 98
        1
 10
0.0
 20
0.0
  0
HATCH
  5
40B
330
74
100
AcDbEntity
  8
1
  6
Continuous
 62
     2
100
AcDbHatch
 10
0.0
 20
0.0
 30
0.0
210
0.0
220
0.0
230
1.0
  2
_USER
 70
     0
 71
     1
 91
        1
 92
        1
 93
        4
 72
     1
 10
-47.84935346332922
 20
13.41480215776193
 11
-47.84935346332922
 21
10.8909926339511
 72
     1
 10
-47.84935346332922
 20
10.8909926339511
 11
-48.8745637197366
 21
10.8909926339511
 72
     1
 10
-48.8745637197366
 20
10.8909926339511
 11
-48.8745637197366
 21
13.41480215776193
 72
     1
 10
-48.8745637197366
 20
13.41480215776193
 11
-47.84935346332922
 21
13.41480215776193
 97
        4
330
274
330
223
330
273
330
275
 75
     1
 76
     0
 52
45.0
 41
0.1
 77
     0
 78
     1
 53
45.0
 43
0.0
 44
0.0
 45
-0.0707106781186548
 46
0.0707106781186548
 79
     0
 98
        1
 10
0.0
 20
0.0
  0
HATCH
  5
40C
330
74
100
AcDbEntity
  8
1
  6
Continuous
 62
     2
100
AcDbHatch
 10
0.0
 20
0.0
 30
0.0
210
0.0
220
0.0
230
1.0
  2
_USER
 70
     0
 71
     1
 91
        2
 92
        1
 93
        8
 72
     1
 10
-48.17203445798376
 20
8.114802157773946
 11
-49.19724471439195
 21
8.114802157773946
 72
     1
 10
-49.19724471439195
 20
8.114802157773946
 11
-49.37202161809096
 21
8.561876987706066
 72
     1
 10
-49.37202161809096
 20
8.561876987706066
 11
-50.3079237475735
 21
8.561876987706066
 72
     1
 10
-50.3079237475735
 20
8.561876987706066
 11
-50.48270065127251
 21
8.114802157773946
 72
     1
 10
-50.48270065127251
 20
8.114802157773946
 11
-51.50791090767989
 21
8.114802157773946
 72
     1
 10
-51.50791090767989
 20
8.114802157773946
 11
-50.35257781103591
 21
10.63861168158478
 72
     1
 10
-50.35257781103591
 20
10.63861168158478
 11
-49.32736755462866
 21
10.63861168158478
 72
     1
 10
-49.32736755462866
 20
10.63861168158478
 11
-48.17203445798376
 21
8.114802157773946
 97
        8
330
26F
330
229
330
26E
330
271
330
226
330
270
330
227
330
228
 92
       16
 93
        3
 72
     1
 10
-50.08804312679245
 20
9.124325967298267
 11
-49.59190223887303
 21
9.124325967298267
 72
     1
 10
-49.59190223887303
 20
9.124325967298267
 11
-49.83997268283183
 21
9.758883790427806
 72
     1
 10
-49.83997268283183
 20
9.758883790427806
 11
-50.08804312679245
 21
9.124325967298267
 97
        3
330
225
330
224
330
272
 75
     1
 76
     0
 52
45.0
 41
0.1
 77
     0
 78
     1
 53
45.0
 43
0.0
 44
0.0
 45
-0.0707106781186548
 46
0.0707106781186548
 79
     0
 98
        1
 10
0.0
 20
0.0
  0
HATCH
  5
40D
330
74
100
AcDbEntity
  8
1
  6
Continuous
 62
     2
100
AcDbHatch
 10
0.0
 20
0.0
 30
0.0
210
0.0
220
0.0
230
1.0
  2
_USER
 70
     0
 71
     1
 91
        2
 92
        1
 93
        8
 72
     1
 10
-48.17203445798376
 20
8.114802157773946
 11
-49.19724471439195
 21
8.114802157773946
 72
     1
 10
-49.19724471439195
 20
8.114802157773946
 11
-49.37202161809096
 21
8.561876987706066
 72
     1
 10
-49.37202161809096
 20
8.561876987706066
 11
-50.3079237475735
 21
8.561876987706066
 72
     1
 10
-50.3079237475735
 20
8.561876987706066
 11
-50.48270065127251
 21
8.114802157773946
 72
     1
 10
-50.48270065127251
 20
8.114802157773946
 11
-51.50791090767989
 21
8.114802157773946
 72
     1
 10
-51.50791090767989
 20
8.114802157773946
 11
-50.35257781103591
 21
10.63861168158478
 72
     1
 10
-50.35257781103591
 20
10.63861168158478
 11
-49.32736755462866
 21
10.63861168158478
 72
     1
 10
-49.32736755462866
 20
10.63861168158478
 11
-48.17203445798376
 21
8.114802157773946
 97
        8
330
26F
330
229
330
26E
330
271
330
226
330
270
330
227
330
228
 92
       16
 93
        3
 72
     1
 10
-50.08804312679245
 20
9.124325967298267
 11
-49.59190223887303
 21
9.124325967298267
 72
     1
 10
-49.59190223887303
 20
9.124325967298267
 11
-49.83997268283183
 21
9.758883790427806
 72
     1
 10
-49.83997268283183
 20
9.758883790427806
 11
-50.08804312679245
 21
9.124325967298267
 97
        3
330
225
330
224
330
272
 75
     1
 76
     0
 52
45.0
 41
0.1
 77
     0
 78
     1
 53
45.0
 43
0.0
 44
0.0
 45
-0.0707106781186548
 46
0.0707106781186548
 79
     0
 98
        1
 10
0.0
 20
0.0
  0
HATCH
  5
40E
330
74
100
AcDbEntity
  8
1
  6
Continuous
 62
     2
100
AcDbHatch
 10
0.0
 20
0.0
 30
0.0
210
0.0
220
0.0
230
1.0
  2
_USER
 70
     0
 71
     1
 91
        1
 92
        1
 93
        8
 72
     1
 10
-53.29097879130158
 20
10.63861168158478
 11
-53.29097879130158
 21
9.989632089747056
 72
     1
 10
-53.29097879130158
 20
9.989632089747056
 11
-52.6206490082647
 21
9.989632089747056
 72
     1
 10
-52.6206490082647
 20
9.989632089747056
 11
-52.6206490082647
 21
8.114802157773946
 72
     1
 10
-52.6206490082647
 20
8.114802157773946
 11
-51.63486991556515
 21
8.114802157773946
 72
     1
 10
-51.63486991556515
 20
8.114802157773946
 11
-51.63486991556515
 21
9.989632089747056
 72
     1
 10
-51.63486991556515
 20
9.989632089747056
 11
-50.96454013252997
 21
9.989632089747056
 72
     1
 10
-50.96454013252997
 20
9.989632089747056
 11
-50.96454013252997
 21
10.63861168158478
 72
     1
 10
-50.96454013252997
 20
10.63861168158478
 11
-53.29097879130158
 21
10.63861168158478
 97
        8
330
26B
330
26A
330
269
330
22A
330
22B
330
26D
330
22C
330
26C
 75
     1
 76
     0
 52
45.0
 41
0.1
 77
     0
 78
     1
 53
45.0
 43
0.0
 44
0.0
 45
-0.0707106781186548
 46
0.0707106781186548
 79
     0
 98
        1
 10
0.0
 20
0.0
  0
HATCH
  5
40F
330
74
100
AcDbEntity
  8
1
  6
Continuous
 62
     2
100
AcDbHatch
 10
0.0
 20
0.0
 30
0.0
210
0.0
220
0.0
230
1.0
  2
_USER
 70
     0
 71
     1
 91
        1
 92
        1
 93
        8
 72
     1
 10
-53.29097879130158
 20
10.63861168158478
 11
-53.29097879130158
 21
9.989632089747056
 72
     1
 10
-53.29097879130158
 20
9.989632089747056
 11
-52.6206490082647
 21
9.989632089747056
 72
     1
 10
-52.6206490082647
 20
9.989632089747056
 11
-52.6206490082647
 21
8.114802157773946
 72
     1
 10
-52.6206490082647
 20
8.114802157773946
 11
-51.63486991556515
 21
8.114802157773946
 72
     1
 10
-51.63486991556515
 20
8.114802157773946
 11
-51.63486991556515
 21
9.989632089747056
 72
     1
 10
-51.63486991556515
 20
9.989632089747056
 11
-50.96454013252997
 21
9.989632089747056
 72
     1
 10
-50.96454013252997
 20
9.989632089747056
 11
-50.96454013252997
 21
10.63861168158478
 72
     1
 10
-50.96454013252997
 20
10.63861168158478
 11
-53.29097879130158
 21
10.63861168158478
 97
        8
330
26B
330
26A
330
269
330
22A
330
22B
330
26D
330
22C
330
26C
 75
     1
 76
     0
 52
45.0
 41
0.1
 77
     0
 78
     1
 53
45.0
 43
0.0
 44
0.0
 45
-0.0707106781186548
 46
0.0707106781186548
 79
     0
 98
        1
 10
0.0
 20
0.0
  0
HATCH
  5
410
330
74
100
AcDbEntity
  8
1
  6
Continuous
 62
     2
100
AcDbHatch
 10
0.0
 20
0.0
 30
0.0
210
0.0
220
0.0
230
1.0
  2
_USER
 70
     0
 71
     1
 91
        1
 92
        1
 93
       10
 72
     1
 10
-51.08270888738495
 20
13.41480215776193
 11
-52.0684879800845
 21
13.41480215776193
 72
     1
 10
-52.0684879800845
 20
13.41480215776193
 11
-52.0684879800845
 21
10.8909926339511
 72
     1
 10
-52.0684879800845
 20
10.8909926339511
 11
-51.08270888738495
 21
10.8909926339511
 72
     1
 10
-51.08270888738495
 20
10.8909926339511
 11
-51.08270888738495
 21
11.97262528701276
 72
     1
 10
-51.08270888738495
 20
11.97262528701276
 11
-50.05749863097667
 21
10.8909926339511
 72
     1
 10
-50.05749863097667
 20
10.8909926339511
 11
-49.07171953827701
 21
10.8909926339511
 72
     1
 10
-49.07171953827701
 20
10.8909926339511
 11
-49.07171953827701
 21
13.41480215776193
 72
     1
 10
-49.07171953827701
 20
13.41480215776193
 11
-50.05749863097667
 21
13.41480215776193
 72
     1
 10
-50.05749863097667
 20
13.41480215776193
 11
-50.05749863097667
 21
12.33316950469982
 72
     1
 10
-50.05749863097667
 20
12.33316950469982
 11
-51.08270888738495
 21
13.41480215776193
 97
       10
330
265
330
22F
330
230
330
231
330
232
330
268
330
22D
330
267
330
266
330
22E
 75
     1
 76
     0
 52
45.0
 41
0.1
 77
     0
 78
     1
 53
45.0
 43
0.0
 44
0.0
 45
-0.0707106781186548
 46
0.0707106781186548
 79
     0
 98
        1
 10
0.0
 20
0.0
  0
HATCH
  5
411
330
74
100
AcDbEntity
  8
1
  6
Continuous
 62
     2
100
AcDbHatch
 10
0.0
 20
0.0
 30
0.0
210
0.0
220
0.0
230
1.0
  2
_USER
 70
     0
 71
     1
 91
        1
 92
        1
 93
       10
 72
     1
 10
-51.08270888738495
 20
13.41480215776193
 11
-52.0684879800845
 21
13.41480215776193
 72
     1
 10
-52.0684879800845
 20
13.41480215776193
 11
-52.0684879800845
 21
10.8909926339511
 72
     1
 10
-52.0684879800845
 20
10.8909926339511
 11
-51.08270888738495
 21
10.8909926339511
 72
     1
 10
-51.08270888738495
 20
10.8909926339511
 11
-51.08270888738495
 21
11.97262528701276
 72
     1
 10
-51.08270888738495
 20
11.97262528701276
 11
-50.05749863097667
 21
10.8909926339511
 72
     1
 10
-50.05749863097667
 20
10.8909926339511
 11
-49.07171953827701
 21
10.8909926339511
 72
     1
 10
-49.07171953827701
 20
10.8909926339511
 11
-49.07171953827701
 21
13.41480215776193
 72
     1
 10
-49.07171953827701
 20
13.41480215776193
 11
-50.05749863097667
 21
13.41480215776193
 72
     1
 10
-50.05749863097667
 20
13.41480215776193
 11
-50.05749863097667
 21
12.33316950469982
 72
     1
 10
-50.05749863097667
 20
12.33316950469982
 11
-51.08270888738495
 21
13.41480215776193
 97
       10
330
265
330
22F
330
230
330
231
330
232
330
268
330
22D
330
267
330
266
330
22E
 75
     1
 76
     0
 52
45.0
 41
0.1
 77
     0
 78
     1
 53
45.0
 43
0.0
 44
0.0
 45
-0.0707106781186548
 46
0.0707106781186548
 79
     0
 98
        1
 10
0.0
 20
0.0
  0
HATCH
  5
412
330
74
100
AcDbEntity
  8
1
  6
Continuous
 62
     2
100
AcDbHatch
 10
0.0
 20
0.0
 30
0.0
210
0.0
220
0.0
230
1.0
  2
_USER
 70
     0
 71
     1
 91
        1
 92
        1
 93
       10
 72
     1
 10
-55.42026163153257
 20
10.63861168158478
 11
-56.40604072423302
 21
10.63861168158478
 72
     1
 10
-56.40604072423302
 20
10.63861168158478
 11
-56.40604072423302
 21
8.114802157773946
 72
     1
 10
-56.40604072423302
 20
8.114802157773946
 11
-55.42026163153257
 21
8.114802157773946
 72
     1
 10
-55.42026163153257
 20
8.114802157773946
 11
-55.42026163153257
 21
9.196434810835596
 72
     1
 10
-55.42026163153257
 20
9.196434810835596
 11
-54.3950513751252
 21
8.114802157773946
 72
     1
 10
-54.3950513751252
 20
8.114802157773946
 11
-53.40927228242565
 21
8.114802157773946
 72
     1
 10
-53.40927228242565
 20
8.114802157773946
 11
-53.40927228242565
 21
10.63861168158478
 72
     1
 10
-53.40927228242565
 20
10.63861168158478
 11
-54.3950513751252
 21
10.63861168158478
 72
     1
 10
-54.3950513751252
 20
10.63861168158478
 11
-54.3950513751252
 21
9.556979028522667
 72
     1
 10
-54.3950513751252
 20
9.556979028522667
 11
-55.42026163153257
 21
10.63861168158478
 97
       10
330
234
330
235
330
236
330
262
330
237
330
238
330
261
330
264
330
263
330
233
 75
     1
 76
     0
 52
45.0
 41
0.1
 77
     0
 78
     1
 53
45.0
 43
0.0
 44
0.0
 45
-0.0707106781186548
 46
0.0707106781186548
 79
     0
 98
        1
 10
0.0
 20
0.0
  0
HATCH
  5
413
330
74
100
AcDbEntity
  8
1
  6
Continuous
 62
     2
100
AcDbHatch
 10
0.0
 20
0.0
 30
0.0
210
0.0
220
0.0
230
1.0
  2
_USER
 70
     0
 71
     1
 91
        1
 92
        1
 93
       10
 72
     1
 10
-55.42026163153257
 20
10.63861168158478
 11
-56.40604072423302
 21
10.63861168158478
 72
     1
 10
-56.40604072423302
 20
10.63861168158478
 11
-56.40604072423302
 21
8.114802157773946
 72
     1
 10
-56.40604072423302
 20
8.114802157773946
 11
-55.42026163153257
 21
8.114802157773946
 72
     1
 10
-55.42026163153257
 20
8.114802157773946
 11
-55.42026163153257
 21
9.196434810835596
 72
     1
 10
-55.42026163153257
 20
9.196434810835596
 11
-54.3950513751252
 21
8.114802157773946
 72
     1
 10
-54.3950513751252
 20
8.114802157773946
 11
-53.40927228242565
 21
8.114802157773946
 72
     1
 10
-53.40927228242565
 20
8.114802157773946
 11
-53.40927228242565
 21
10.63861168158478
 72
     1
 10
-53.40927228242565
 20
10.63861168158478
 11
-54.3950513751252
 21
10.63861168158478
 72
     1
 10
-54.3950513751252
 20
10.63861168158478
 11
-54.3950513751252
 21
9.556979028522667
 72
     1
 10
-54.3950513751252
 20
9.556979028522667
 11
-55.42026163153257
 21
10.63861168158478
 97
       10
330
234
330
235
330
236
330
262
330
237
330
238
330
261
330
264
330
263
330
233
 75
     1
 76
     0
 52
45.0
 41
0.1
 77
     0
 78
     1
 53
45.0
 43
0.0
 44
0.0
 45
-0.0707106781186548
 46
0.0707106781186548
 79
     0
 98
        1
 10
0.0
 20
0.0
  0
HATCH
  5
414
330
74
100
AcDbEntity
  8
1
  6
Continuous
 62
     2
100
AcDbHatch
 10
0.0
 20
0.0
 30
0.0
210
0.0
220
0.0
230
1.0
  2
_USER
 70
     0
 71
     1
 91
        1
 92
        1
 93
       12
 72
     1
 10
-56.24819133313206
 20
13.41480215776193
 11
-56.24819133313206
 21
10.8909926339511
 72
     1
 10
-56.24819133313206
 20
10.8909926339511
 11
-57.2339704258316
 21
10.8909926339511
 72
     1
 10
-57.2339704258316
 20
10.8909926339511
 11
-57.2339704258316
 21
11.82840759993766
 72
     1
 10
-57.2339704258316
 20
11.82840759993766
 11
-58.10145602740799
 21
11.82840759993766
 72
     1
 10
-58.10145602740799
 20
11.82840759993766
 11
-58.10145602740799
 21
10.8909926339511
 72
     1
 10
-58.10145602740799
 20
10.8909926339511
 11
-59.08723512010765
 21
10.8909926339511
 72
     1
 10
-59.08723512010765
 20
10.8909926339511
 11
-59.08723512010765
 21
13.41480215776193
 72
     1
 10
-59.08723512010765
 20
13.41480215776193
 11
-58.10145602740799
 21
13.41480215776193
 72
     1
 10
-58.10145602740799
 20
13.41480215776193
 11
-58.10145602740799
 21
12.53146882442757
 72
     1
 10
-58.10145602740799
 20
12.53146882442757
 11
-57.2339704258316
 21
12.53146882442757
 72
     1
 10
-57.2339704258316
 20
12.53146882442757
 11
-57.2339704258316
 21
13.41480215776193
 72
     1
 10
-57.2339704258316
 20
13.41480215776193
 11
-56.24819133313206
 21
13.41480215776193
 97
       12
330
25C
330
25B
330
25A
330
242
330
243
330
259
330
244
330
258
330
257
330
256
330
240
330
241
 75
     1
 76
     0
 52
45.0
 41
0.1
 77
     0
 78
     1
 53
45.0
 43
0.0
 44
0.0
 45
-0.0707106781186548
 46
0.0707106781186548
 79
     0
 98
        1
 10
0.0
 20
0.0
  0
HATCH
  5
415
330
74
100
AcDbEntity
  8
1
  6
Continuous
 62
     2
100
AcDbHatch
 10
0.0
 20
0.0
 30
0.0
210
0.0
220
0.0
230
1.0
  2
_USER
 70
     0
 71
     1
 91
        1
 92
        1
 93
       12
 72
     1
 10
-56.24819133313206
 20
13.41480215776193
 11
-56.24819133313206
 21
10.8909926339511
 72
     1
 10
-56.24819133313206
 20
10.8909926339511
 11
-57.2339704258316
 21
10.8909926339511
 72
     1
 10
-57.2339704258316
 20
10.8909926339511
 11
-57.2339704258316
 21
11.82840759993766
 72
     1
 10
-57.2339704258316
 20
11.82840759993766
 11
-58.10145602740799
 21
11.82840759993766
 72
     1
 10
-58.10145602740799
 20
11.82840759993766
 11
-58.10145602740799
 21
10.8909926339511
 72
     1
 10
-58.10145602740799
 20
10.8909926339511
 11
-59.08723512010765
 21
10.8909926339511
 72
     1
 10
-59.08723512010765
 20
10.8909926339511
 11
-59.08723512010765
 21
13.41480215776193
 72
     1
 10
-59.08723512010765
 20
13.41480215776193
 11
-58.10145602740799
 21
13.41480215776193
 72
     1
 10
-58.10145602740799
 20
13.41480215776193
 11
-58.10145602740799
 21
12.53146882442757
 72
     1
 10
-58.10145602740799
 20
12.53146882442757
 11
-57.2339704258316
 21
12.53146882442757
 72
     1
 10
-57.2339704258316
 20
12.53146882442757
 11
-57.2339704258316
 21
13.41480215776193
 72
     1
 10
-57.2339704258316
 20
13.41480215776193
 11
-56.24819133313206
 21
13.41480215776193
 97
       12
330
25C
330
25B
330
25A
330
242
330
243
330
259
330
244
330
258
330
257
330
256
330
240
330
241
 75
     1
 76
     0
 52
45.0
 41
0.1
 77
     0
 78
     1
 53
45.0
 43
0.0
 44
0.0
 45
-0.0707106781186548
 46
0.0707106781186548
 79
     0
 98
        1
 10
0.0
 20
0.0
  0
ENDBLK
  5
76
330
74
100
AcDbEntity
  8
0
100
AcDbBlockEnd
  0
BLOCK
  5
7A
330
77
100
AcDbEntity
  8
0
100
AcDbBlockBegin
  2
A4I
 70
     0
 10
55.53669524902195
 20
-2.73519784223201
 30
0.0
  3
A4I
  1

  0
INSERT
  5
78
330
77
100
AcDbEntity
  8
1
100
AcDbBlockReference
  2
_punkt
 10
55.53669524902195
 20
2.2648021577681
 30
0.0
  0
INSERT
  5
79
330
77
100
AcDbEntity
  8
1
100
AcDbBlockReference
  2
_rahmen
 10
55.53669524902195
 20
-2.73519784223201
 30
0.0
  0
ENDBLK
  5
7B
330
77
100
AcDbEntity
  8
0
100
AcDbBlockEnd
  0
BLOCK
  5
18B
330
182
100
AcDbEntity
  8
0
100
AcDbBlockBegin
  2
*D16
 70
     1
 10
0.0
 20
0.0
 30
0.0
  3
*D16
  1

  0
LINE
  5
183
330
182
100
AcDbEntity
  8
1
  6
Continuous
 62
     2
100
AcDbLine
 10
-66.76340077677192
 20
175.558484082724
 30
0.0
 11
-59.76340077677192
 21
175.558484082724
 31
0.0
  0
LINE
  5
184
330
182
100
AcDbEntity
  8
1
  6
Continuous
 62
     2
100
AcDbLine
 10
-59.76340077677192
 20
175.558484082724
 30
0.0
 11
-53.86340077677192
 21
175.558484082724
 31
0.0
  0
LINE
  5
185
330
182
100
AcDbEntity
  8
1
  6
Continuous
 62
     2
100
AcDbLine
 10
-53.86340077677192
 20
175.558484082724
 30
0.0
 11
-42.2013308616564
 21
175.558484082724
 31
0.0
  0
LINE
  5
186
330
182
100
AcDbEntity
  8
1
  6
Continuous
 62
     2
100
AcDbLine
 10
-59.76340077677192
 20
148.5799998542168
 30
0.0
 11
-59.76340077677192
 21
177.558484082724
 31
0.0
  0
LINE
  5
187
330
182
100
AcDbEntity
  8
1
  6
Continuous
 62
     2
100
AcDbLine
 10
-53.86340077677192
 20
148.5799998542168
 30
0.0
 11
-53.86340077677192
 21
177.558484082724
 31
0.0
  0
SOLID
  5
188
330
182
100
AcDbEntity
  8
1
 62
     2
100
AcDbTrace
 10
-63.26340077677192
 20
175.0977003411681
 30
0.0
 11
-63.26340077677192
 21
176.0192678242799
 31
0.0
 12
-59.76340077677192
 22
175.558484082724
 32
0.0
 13
-59.76340077677192
 23
175.558484082724
 33
0.0
  0
SOLID
  5
189
330
182
100
AcDbEntity
  8
1
 62
     2
100
AcDbTrace
 10
-50.36340077677192
 20
176.0192678242799
 30
0.0
 11
-50.36340077677192
 21
175.0977003411681
 31
0.0
 12
-53.86340077677192
 22
175.558484082724
 32
0.0
 13
-53.86340077677192
 23
175.558484082724
 33
0.0
  0
MTEXT
  5
18A
330
182
100
AcDbEntity
  8
1
 62
     3
100
AcDbMText
 10
-48.6763308616564
 20
177.908484082724
 30
0.0
 40
3.5
 41
0.0
 71
     7
 72
     1
  1
5,9
  7
CONVERTER_11
 11
0.9999999999970619
 21
2.424068405545306E-6
 31
0.0
 73
     1
 44
0.60024009603842
  0
ENDBLK
  5
18C
330
182
100
AcDbEntity
  8
0
100
AcDbBlockEnd
  0
BLOCK
  5
1FD
330
1F6
100
AcDbEntity
  8
0
100
AcDbBlockBegin
  2
*D17
 70
     1
 10
0.0
 20
0.0
 30
0.0
  3
*D17
  1

  0
LINE
  5
1F7
330
1F6
100
AcDbEntity
  8
1
  6
Continuous
 62
     2
100
AcDbLine
 10
-80.187652634234
 20
167.4799998541419
 30
0.0
 11
-80.187652634234
 21
114.5199998541418
 31
0.0
  0
LINE
  5
1F8
330
1F6
100
AcDbEntity
  8
1
  6
Continuous
 62
     2
100
AcDbLine
 10
-112.601970858051
 20
167.4799998541419
 30
0.0
 11
-78.187652634234
 21
167.4799998541419
 31
0.0
  0
LINE
  5
1F9
330
1F6
100
AcDbEntity
  8
1
  6
Continuous
 62
     2
100
AcDbLine
 10
-119.6999992450586
 20
114.5199998541418
 30
0.0
 11
-78.187652634234
 21
114.5199998541418
 31
0.0
  0
SOLID
  5
1FA
330
1F6
100
AcDbEntity
  8
1
 62
     2
100
AcDbTrace
 10
-79.72686889267811
 20
163.9799998541419
 30
0.0
 11
-80.64843637578988
 21
163.9799998541419
 31
0.0
 12
-80.187652634234
 22
167.4799998541419
 32
0.0
 13
-80.187652634234
 23
167.4799998541419
 33
0.0
  0
SOLID
  5
1FB
330
1F6
100
AcDbEntity
  8
1
 62
     2
100
AcDbTrace
 10
-80.64843637578988
 20
118.0199998541418
 30
0.0
 11
-79.72686889267811
 21
118.0199998541418
 31
0.0
 12
-80.187652634234
 22
114.5199998541418
 32
0.0
 13
-80.187652634234
 23
114.5199998541418
 33
0.0
  0
MTEXT
  5
1FC
330
1F6
100
AcDbEntity
  8
1
 62
     3
100
AcDbMText
 10
-82.187652634234
 20
138.213970112356
 30
0.0
 40
3.5
 41
0.0
 71
     7
 72
     1
  1
53
  7
CONVERTER_11
 11
0.0
 21
1.0
 31
0.0
 73
     1
 44
0.60024009603842
  0
ENDBLK
  5
1FE
330
1F6
100
AcDbEntity
  8
0
100
AcDbBlockEnd
  0
BLOCK
  5
208
330
201
100
AcDbEntity
  8
0
100
AcDbBlockBegin
  2
*D18
 70
     1
 10
0.0
 20
0.0
 30
0.0
  3
*D18
  1

  0
LINE
  5
202
330
201
100
AcDbEntity
  8
1
  6
Continuous
 62
     2
100
AcDbLine
 10
-93.19163924045088
 20
137.5799998541418
 30
0.0
 11
-93.19163924045088
 21
167.4799998541419
 31
0.0
  0
LINE
  5
203
330
201
100
AcDbEntity
  8
1
  6
Continuous
 62
     2
100
AcDbLine
 10
-112.7499992450587
 20
137.5799998541418
 30
0.0
 11
-91.19163924045088
 21
137.5799998541418
 31
0.0
  0
LINE
  5
204
330
201
100
AcDbEntity
  8
1
  6
Continuous
 62
     2
100
AcDbLine
 10
-112.601970858051
 20
167.4799998541419
 30
0.0
 11
-91.19163924045088
 21
167.4799998541419
 31
0.0
  0
SOLID
  5
205
330
201
100
AcDbEntity
  8
1
 62
     2
100
AcDbTrace
 10
-93.65242298200677
 20
141.0799998541418
 30
0.0
 11
-92.730855498895
 21
141.0799998541418
 31
0.0
 12
-93.19163924045088
 22
137.5799998541418
 32
0.0
 13
-93.19163924045088
 23
137.5799998541418
 33
0.0
  0
SOLID
  5
206
330
201
100
AcDbEntity
  8
1
 62
     2
100
AcDbTrace
 10
-92.730855498895
 20
163.9799998541419
 30
0.0
 11
-93.65242298200677
 21
163.9799998541419
 31
0.0
 12
-93.19163924045088
 22
167.4799998541419
 32
0.0
 13
-93.19163924045088
 23
167.4799998541419
 33
0.0
  0
MTEXT
  5
207
330
201
100
AcDbEntity
  8
1
 62
     3
100
AcDbMText
 10
-95.19163924045088
 20
150.542461548537
 30
0.0
 40
3.5
 41
0.0
 71
     7
 72
     1
  1
30
  7
CONVERTER_11
 11
0.0
 21
1.0
 31
0.0
 73
     1
 44
0.60024009603842
  0
ENDBLK
  5
209
330
201
100
AcDbEntity
  8
0
100
AcDbBlockEnd
  0
BLOCK
  5
213
330
20C
100
AcDbEntity
  8
0
100
AcDbBlockBegin
  2
*D19
 70
     1
 10
0.0
 20
0.0
 30
0.0
  3
*D19
  1

  0
LINE
  5
20D
330
20C
100
AcDbEntity
  8
1
  6
Continuous
 62
     2
100
AcDbLine
 10
-105.9499992450583
 20
175.558484082724
 30
0.0
 11
-126.7499992450587
 21
175.558484082724
 31
0.0
  0
LINE
  5
20E
330
20C
100
AcDbEntity
  8
1
  6
Continuous
 62
     2
100
AcDbLine
 10
-105.9499992450583
 20
157.979999854142
 30
0.0
 11
-105.9499992450583
 21
177.558484082724
 31
0.0
  0
LINE
  5
20F
330
20C
100
AcDbEntity
  8
1
  6
Continuous
 62
     2
100
AcDbLine
 10
-126.7499992450587
 20
146.4999998541418
 30
0.0
 11
-126.7499992450587
 21
177.558484082724
 31
0.0
  0
SOLID
  5
210
330
20C
100
AcDbEntity
  8
1
 62
     2
100
AcDbTrace
 10
-109.4499992450583
 20
175.0977003411681
 30
0.0
 11
-109.4499992450583
 21
176.0192678242799
 31
0.0
 12
-105.9499992450583
 22
175.558484082724
 32
0.0
 13
-105.9499992450583
 23
175.558484082724
 33
0.0
  0
SOLID
  5
211
330
20C
100
AcDbEntity
  8
1
 62
     2
100
AcDbTrace
 10
-123.2499992450587
 20
176.0192678242799
 30
0.0
 11
-123.2499992450587
 21
175.0977003411681
 31
0.0
 12
-126.7499992450587
 22
175.558484082724
 32
0.0
 13
-126.7499992450587
 23
175.558484082724
 33
0.0
  0
MTEXT
  5
212
330
20C
100
AcDbEntity
  8
1
 62
     3
100
AcDbMText
 10
-119.21155312274
 20
177.558484082724
 30
0.0
 40
3.5
 41
0.0
 71
     7
 72
     1
  1
21
  7
CONVERTER_11
 11
0.9999999999970619
 21
2.424068405545306E-6
 31
0.0
 73
     1
 44
0.60024009603842
  0
ENDBLK
  5
214
330
20C
100
AcDbEntity
  8
0
100
AcDbBlockEnd
  0
ENDSEC
  0
SECTION
  2
ENTITIES
  0
INSERT
  5
7C
330
1F
100
AcDbEntity
  8
0
100
AcDbBlockReference
  2
AllgSicht1
 10
16.99999999987924
 20
70.92093376150595
 30
0.0
  0
INSERT
  5
7D
330
1F
100
AcDbEntity
  8
0
100
AcDbBlockReference
  2
Drfsicht1
 10
-116.0126197893524
 20
83.56999958992031
 30
0.0
  0
INSERT
  5
7E
330
1F
100
AcDbEntity
  8
0
100
AcDbBlockReference
  2
Rckans1
 10
-17.98738021064754
 20
142.0000000000751
 30
0.0
  0
INSERT
  5
7F
330
1F
100
AcDbEntity
  8
0
100
AcDbBlockReference
  2
SA_Links1
 10
-56.8134007290882
 20
142.00000000015
 30
0.0
  0
INSERT
  5
80
330
1F
100
AcDbEntity
  8
0
100
AcDbBlockReference
  2
SA_Rechts1
 10
-160.0252395787049
 20
142.000000000075
 30
0.0
  0
INSERT
  5
81
330
1F
100
AcDbEntity
  8
0
100
AcDbBlockReference
  2
Vordans1
 10
-116.0126197893524
 20
142.000000000075
 30
0.0
  0
INSERT
  5
82
330
1F
100
AcDbEntity
  8
0
100
AcDbBlockReference
  2
A4I
 10
55.53669524902195
 20
-2.73519784223201
 30
0.0
  0
ENDSEC
  0
SECTION
  2
OBJECTS
  0
DICTIONARY
  5
C
330
0
100
AcDbDictionary
281
     1
  3
ACAD_GROUP
350
D
  3
ACAD_LAYOUT
350
1A
  3
ACAD_MATERIAL
350
3B
  3
ACAD_MLEADERSTYLE
350
418
  3
ACAD_MLINESTYLE
350
17
  3
ACAD_PLOTSETTINGS
350
19
  3
ACAD_PLOTSTYLENAME
350
E
  3
ACAD_VISUALSTYLE
350
2A
  3
AcDbVariableDictionary
350
416
  0
DICTIONARY
  5
D
102
{ACAD_REACTORS
330
C
102
}
330
C
100
AcDbDictionary
281
     1
  0
DICTIONARY
  5
1A
102
{ACAD_REACTORS
330
C
102
}
330
C
100
AcDbDictionary
281
     1
  3
Layout1
350
1E
  3
Layout2
350
26
  3
Model
350
22
  0
DICTIONARY
  5
3B
102
{ACAD_REACTORS
330
C
102
}
330
C
100
AcDbDictionary
281
     1
  3
ByBlock
350
3D
  3
ByLayer
350
3C
  3
Global
350
3E
  0
DICTIONARY
  5
418
102
{ACAD_REACTORS
330
C
102
}
330
C
100
AcDbDictionary
281
     1
  0
DICTIONARY
  5
17
102
{ACAD_REACTORS
330
C
102
}
330
C
100
AcDbDictionary
281
     1
  3
Standard
350
18
  0
DICTIONARY
  5
19
102
{ACAD_REACTORS
330
C
102
}
330
C
100
AcDbDictionary
281
     1
  0
ACDBDICTIONARYWDFLT
  5
E
102
{ACAD_REACTORS
330
C
102
}
330
C
100
AcDbDictionary
281
     1
  3
Normal
350
F
100
AcDbDictionaryWithDefault
340
F
  0
DICTIONARY
  5
2A
102
{ACAD_REACTORS
330
C
102
}
330
C
100
AcDbDictionary
281
     1
  3
2dWireframe
350
2F
  3
3D Hidden
350
31
  3
3dWireframe
350
30
  3
Basic
350
32
  3
Brighten
350
36
  3
ColorChange
350
3A
  3
Conceptual
350
34
  3
Dim
350
35
  3
Facepattern
350
39
  3
Flat
350
2B
  3
FlatWithEdges
350
2C
  3
Gouraud
350
2D
  3
GouraudWithEdges
350
2E
  3
Linepattern
350
38
  3
Realistic
350
33
  3
Thicken
350
37
  0
DICTIONARY
  5
416
102
{ACAD_REACTORS
330
C
102
}
330
C
100
AcDbDictionary
281
     1
  3
DIMASSOC
350
419
  3
HIDETEXT
350
41A
  0
LAYOUT
  5
1E
102
{ACAD_REACTORS
330
1A
102
}
330
1A
100
AcDbPlotSettings
  1

  2
none_device
  4

  6

 40
0.0
 41
0.0
 42
0.0
 43
0.0
 44
0.0
 45
0.0
 46
0.0
 47
0.0
 48
0.0
 49
0.0
140
0.0
141
0.0
142
1.0
143
1.0
 70
   688
 72
     0
 73
     0
 74
     5
  7

 75
    16
147
1.0
148
0.0
149
0.0
100
AcDbLayout
  1
Layout1
 70
     1
 71
     1
 10
0.0
 20
0.0
 11
12.0
 21
9.0
 12
0.0
 22
0.0
 32
0.0
 14
1.00000000000000E+20
 24
1.00000000000000E+20
 34
1.00000000000000E+20
 15
-1.00000000000000E+20
 25
-1.00000000000000E+20
 35
-1.00000000000000E+20
146
0.0
 13
0.0
 23
0.0
 33
0.0
 16
1.0
 26
0.0
 36
0.0
 17
0.0
 27
1.0
 37
0.0
 76
     0
330
1B
  0
LAYOUT
  5
26
102
{ACAD_REACTORS
330
1A
102
}
330
1A
100
AcDbPlotSettings
  1

  2
none_device
  4

  6

 40
0.0
 41
0.0
 42
0.0
 43
0.0
 44
0.0
 45
0.0
 46
0.0
 47
0.0
 48
0.0
 49
0.0
140
0.0
141
0.0
142
1.0
143
1.0
 70
   688
 72
     0
 73
     0
 74
     5
  7

 75
    16
147
1.0
148
0.0
149
0.0
100
AcDbLayout
  1
Layout2
 70
     1
 71
     2
 10
0.0
 20
0.0
 11
0.0
 21
0.0
 12
0.0
 22
0.0
 32
0.0
 14
0.0
 24
0.0
 34
0.0
 15
0.0
 25
0.0
 35
0.0
146
0.0
 13
0.0
 23
0.0
 33
0.0
 16
1.0
 26
0.0
 36
0.0
 17
0.0
 27
1.0
 37
0.0
 76
     0
330
23
  0
LAYOUT
  5
22
102
{ACAD_REACTORS
330
1A
102
}
330
1A
100
AcDbPlotSettings
  1

  2
none_device
  4

  6

 40
0.0
 41
0.0
 42
0.0
 43
0.0
 44
0.0
 45
0.0
 46
0.0
 47
0.0
 48
0.0
 49
0.0
140
0.0
141
0.0
142
1.0
143
1.0
 70
  1712
 72
     0
 73
     0
 74
     0
  7

 75
     0
147
1.0
148
0.0
149
0.0
100
AcDbLayout
  1
Model
 70
     1
 71
     0
 10
0.0
 20
0.0
 11
12.0
 21
9.0
 12
0.0
 22
0.0
 32
0.0
 14
-236.4633047509772
 24
-2.73519784223201
 34
0.0
 15
60.53669524902095
 25
207.264802157768
 35
0.0
146
0.0
 13
0.0
 23
0.0
 33
0.0
 16
1.0
 26
0.0
 36
0.0
 17
0.0
 27
1.0
 37
0.0
 76
     0
330
1F
331
29
  0
MATERIAL
  5
3D
102
{ACAD_REACTORS
330
3B
102
}
102
{ACAD_XDICTIONARY
360
43D
102
}
330
3B
100
AcDbMaterial
  1
ByBlock
  0
MATERIAL
  5
3C
102
{ACAD_REACTORS
330
3B
102
}
102
{ACAD_XDICTIONARY
360
43B
102
}
330
3B
100
AcDbMaterial
  1
ByLayer
  0
MATERIAL
  5
3E
102
{ACAD_REACTORS
330
3B
102
}
102
{ACAD_XDICTIONARY
360
43F
102
}
330
3B
100
AcDbMaterial
  1
Global
  0
MLINESTYLE
  5
18
102
{ACAD_REACTORS
330
17
102
}
330
17
100
AcDbMlineStyle
  2
Standard
 70
     0
  3

 62
   256
 51
90.0
 52
90.0
 71
     2
 49
0.5
 62
   256
  6
BYLAYER
 49
-0.5
 62
   256
  6
BYLAYER
  0
ACDBPLACEHOLDER
  5
F
102
{ACAD_REACTORS
330
E
102
}
330
E
  0
VISUALSTYLE
  5
2F
102
{ACAD_REACTORS
330
2A
102
}
102
{ACAD_XDICTIONARY
360
423
102
}
330
2A
100
AcDbVisualStyle
  2
2dWireframe
 70
     4
 71
     0
 72
     2
 73
     0
 90
        0
 40
-0.6
 41
-30.0
 62
     5
 63
     7
 74
     1
 91
        4
 64
     7
 65
   257
 75
     1
175
     1
 42
1.0
 92
        0
 66
   257
 43
1.0
 76
     1
 77
     6
 78
     2
 67
     7
 79
     5
170
     0
171
     0
290
     0
174
     0
 93
        1
 44
0.0
173
     0
291
     0
 45
0.0
1001
ACAD
1000
AcDbSavedByObjectVersion
1070
     0
  0
VISUALSTYLE
  5
31
102
{ACAD_REACTORS
330
2A
102
}
102
{ACAD_XDICTIONARY
360
427
102
}
330
2A
100
AcDbVisualStyle
  2
3D Hidden
 70
     6
 71
     1
 72
     2
 73
     2
 90
        0
 40
-0.6
 41
-30.0
 62
     5
 63
     7
 74
     2
 91
        2
 64
     7
 65
   257
 75
     2
175
     1
 42
40.0
 92
        0
 66
   257
 43
1.0
 76
     1
 77
     6
 78
     2
 67
     7
 79
     3
170
     0
171
     0
290
     0
174
     0
 93
        1
 44
0.0
173
     0
291
     0
 45
0.0
1001
ACAD
1000
AcDbSavedByObjectVersion
1070
     0
  0
VISUALSTYLE
  5
30
102
{ACAD_REACTORS
330
2A
102
}
102
{ACAD_XDICTIONARY
360
425
102
}
330
2A
100
AcDbVisualStyle
  2
3dWireframe
 70
     5
 71
     0
 72
     2
 73
     0
 90
        0
 40
-0.6
 41
-30.0
 62
     5
 63
     7
 74
     1
 91
        4
 64
     7
 65
   257
 75
     1
175
     1
 42
1.0
 92
        0
 66
   257
 43
1.0
 76
     1
 77
     6
 78
     2
 67
     7
 79
     5
170
     0
171
     0
290
     0
174
     0
 93
        1
 44
0.0
173
     0
291
     0
 45
0.0
1001
ACAD
1000
AcDbSavedByObjectVersion
1070
     0
  0
VISUALSTYLE
  5
32
102
{ACAD_REACTORS
330
2A
102
}
102
{ACAD_XDICTIONARY
360
429
102
}
330
2A
100
AcDbVisualStyle
  2
Basic
 70
     7
 71
     1
 72
     0
 73
     1
 90
        0
 40
-0.6
 41
-30.0
 62
     5
 63
     7
 74
     0
 91
        4
 64
     7
 65
   257
 75
     1
175
     1
 42
1.0
 92
        8
 66
     7
 43
1.0
 76
     1
 77
     6
 78
     2
 67
     7
 79
     5
170
     0
171
     0
290
     0
174
     0
 93
        1
 44
0.0
173
     0
291
     1
 45
0.0
1001
ACAD
1000
AcDbSavedByObjectVersion
1070
     0
  0
VISUALSTYLE
  5
36
102
{ACAD_REACTORS
330
2A
102
}
102
{ACAD_XDICTIONARY
360
431
102
}
330
2A
100
AcDbVisualStyle
  2
Brighten
 70
    12
 71
     2
 72
     2
 73
     0
 90
        0
 40
-0.6
 41
-30.0
 62
     5
 63
     7
 74
     1
 91
        4
 64
     7
 65
   257
 75
     1
175
     1
 42
1.0
 92
        8
 66
     7
 43
1.0
 76
     1
 77
     6
 78
     2
 67
     7
 79
     5
170
     0
171
     0
290
     0
174
     0
 93
        1
 44
50.0
173
     0
291
     1
 45
0.0
1001
ACAD
1000
AcDbSavedByObjectVersion
1070
     0
  0
VISUALSTYLE
  5
3A
102
{ACAD_REACTORS
330
2A
102
}
102
{ACAD_XDICTIONARY
360
439
102
}
330
2A
100
AcDbVisualStyle
  2
ColorChange
 70
    16
 71
     2
 72
     2
 73
     3
 90
        0
 40
-0.6
 41
-30.0
 62
     5
 63
     8
 74
     1
 91
        4
 64
     7
 65
   257
 75
     1
175
     1
 42
1.0
 92
        8
 66
     8
 43
1.0
 76
     1
 77
     6
 78
     2
 67
     7
 79
     5
170
     0
171
     0
290
     0
174
     0
 93
        1
 44
0.0
173
     0
291
     1
 45
0.0
1001
ACAD
1000
AcDbSavedByObjectVersion
1070
     0
  0
VISUALSTYLE
  5
34
102
{ACAD_REACTORS
330
2A
102
}
102
{ACAD_XDICTIONARY
360
42D
102
}
330
2A
100
AcDbVisualStyle
  2
Conceptual
 70
     9
 71
     3
 72
     2
 73
     0
 90
        0
 40
-0.6
 41
-30.0
 62
     5
 63
     7
 74
     2
 91
        2
 64
     7
 65
   257
 75
     1
175
     1
 42
40.0
 92
        8
 66
     7
 43
1.0
 76
     1
 77
     6
 78
     2
 67
     7
 79
     3
170
     0
171
     0
290
     0
174
     0
 93
        1
 44
0.0
173
     0
291
     0
 45
0.0
1001
ACAD
1000
AcDbSavedByObjectVersion
1070
     0
  0
VISUALSTYLE
  5
35
102
{ACAD_REACTORS
330
2A
102
}
102
{ACAD_XDICTIONARY
360
42F
102
}
330
2A
100
AcDbVisualStyle
  2
Dim
 70
    11
 71
     2
 72
     2
 73
     0
 90
        0
 40
-0.6
 41
-30.0
 62
     5
 63
     7
 74
     1
 91
        4
 64
     7
 65
   257
 75
     1
175
     1
 42
1.0
 92
        8
 66
     7
 43
1.0
 76
     1
 77
     6
 78
     2
 67
     7
 79
     5
170
     0
171
     0
290
     0
174
     0
 93
        1
 44
-50.0
173
     0
291
     1
 45
0.0
1001
ACAD
1000
AcDbSavedByObjectVersion
1070
     0
  0
VISUALSTYLE
  5
39
102
{ACAD_REACTORS
330
2A
102
}
102
{ACAD_XDICTIONARY
360
437
102
}
330
2A
100
AcDbVisualStyle
  2
Facepattern
 70
    15
 71
     2
 72
     2
 73
     0
 90
        0
 40
-0.6
 41
-30.0
 62
     5
 63
     7
 74
     1
 91
        4
 64
     7
 65
   257
 75
     1
175
     1
 42
1.0
 92
        8
 66
     7
 43
1.0
 76
     1
 77
     6
 78
     2
 67
     7
 79
     5
170
     0
171
     0
290
     0
174
     0
 93
        1
 44
0.0
173
     0
291
     1
 45
0.0
1001
ACAD
1000
AcDbSavedByObjectVersion
1070
     0
  0
VISUALSTYLE
  5
2B
102
{ACAD_REACTORS
330
2A
102
}
102
{ACAD_XDICTIONARY
360
41B
102
}
330
2A
100
AcDbVisualStyle
  2
Flat
 70
     0
 71
     2
 72
     1
 73
     1
 90
        2
 40
-0.6
 41
30.0
 62
     5
 63
     7
 74
     0
 91
        4
 64
     7
 65
   257
 75
     1
175
     1
 42
1.0
 92
        8
 66
     7
 43
1.0
 76
     1
 77
     6
 78
     2
 67
     7
 79
     5
170
     0
171
     0
290
     0
174
     0
 93
       13
 44
0.0
173
     0
291
     1
 45
0.0
1001
ACAD
1000
AcDbSavedByObjectVersion
1070
     0
  0
VISUALSTYLE
  5
2C
102
{ACAD_REACTORS
330
2A
102
}
102
{ACAD_XDICTIONARY
360
41D
102
}
330
2A
100
AcDbVisualStyle
  2
FlatWithEdges
 70
     1
 71
     2
 72
     1
 73
     1
 90
        2
 40
-0.6
 41
30.0
 62
     5
 63
     7
 74
     1
 91
        4
 64
     7
 65
   257
 75
     1
175
     1
 42
1.0
 92
        0
 66
   257
 43
1.0
 76
     1
 77
     6
 78
     2
 67
     7
 79
     5
170
     0
171
     0
290
     0
174
     0
 93
       13
 44
0.0
173
     0
291
     1
 45
0.0
1001
ACAD
1000
AcDbSavedByObjectVersion
1070
     0
  0
VISUALSTYLE
  5
2D
102
{ACAD_REACTORS
330
2A
102
}
102
{ACAD_XDICTIONARY
360
41F
102
}
330
2A
100
AcDbVisualStyle
  2
Gouraud
 70
     2
 71
     2
 72
     2
 73
     1
 90
        2
 40
-0.6
 41
30.0
 62
     5
 63
     7
 74
     0
 91
        4
 64
     7
 65
   257
 75
     1
175
     1
 42
1.0
 92
        0
 66
     7
 43
1.0
 76
     1
 77
     6
 78
     2
 67
     7
 79
     5
170
     0
171
     0
290
     0
174
     0
 93
       13
 44
0.0
173
     0
291
     1
 45
0.0
1001
ACAD
1000
AcDbSavedByObjectVersion
1070
     0
  0
VISUALSTYLE
  5
2E
102
{ACAD_REACTORS
330
2A
102
}
102
{ACAD_XDICTIONARY
360
421
102
}
330
2A
100
AcDbVisualStyle
  2
GouraudWithEdges
 70
     3
 71
     2
 72
     2
 73
     1
 90
        2
 40
-0.6
 41
30.0
 62
     5
 63
     7
 74
     1
 91
        4
 64
     7
 65
   257
 75
     1
175
     1
 42
1.0
 92
        0
 66
   257
 43
1.0
 76
     1
 77
     6
 78
     2
 67
     7
 79
     5
170
     0
171
     0
290
     0
174
     0
 93
       13
 44
0.0
173
     0
291
     1
 45
0.0
1001
ACAD
1000
AcDbSavedByObjectVersion
1070
     0
  0
VISUALSTYLE
  5
38
102
{ACAD_REACTORS
330
2A
102
}
102
{ACAD_XDICTIONARY
360
435
102
}
330
2A
100
AcDbVisualStyle
  2
Linepattern
 70
    14
 71
     2
 72
     2
 73
     0
 90
        0
 40
-0.6
 41
-30.0
 62
     5
 63
     7
 74
     1
 91
        4
 64
     7
 65
   257
 75
     7
175
     7
 42
1.0
 92
        8
 66
     7
 43
1.0
 76
     1
 77
     6
 78
     2
 67
     7
 79
     5
170
     0
171
     0
290
     0
174
     0
 93
        1
 44
0.0
173
     0
291
     1
 45
0.0
1001
ACAD
1000
AcDbSavedByObjectVersion
1070
     0
  0
VISUALSTYLE
  5
33
102
{ACAD_REACTORS
330
2A
102
}
102
{ACAD_XDICTIONARY
360
42B
102
}
330
2A
100
AcDbVisualStyle
  2
Realistic
 70
     8
 71
     2
 72
     2
 73
     0
 90
        0
 40
-0.6
 41
-30.0
 62
     5
 63
     7
 74
     1
 91
        0
 64
     7
 65
   257
 75
     1
175
     1
 42
1.0
 92
        8
 66
     8
 43
1.0
 76
     1
 77
     6
 78
     2
 67
     7
 79
     5
170
     0
171
     0
290
     0
174
     0
 93
       13
 44
0.0
173
     0
291
     0
 45
0.0
1001
ACAD
1000
AcDbSavedByObjectVersion
1070
     0
  0
VISUALSTYLE
  5
37
102
{ACAD_REACTORS
330
2A
102
}
102
{ACAD_XDICTIONARY
360
433
102
}
330
2A
100
AcDbVisualStyle
  2
Thicken
 70
    13
 71
     2
 72
     2
 73
     0
 90
        0
 40
-0.6
 41
-30.0
 62
     5
 63
     7
 74
     1
 91
        4
 64
     7
 65
   257
 75
     1
175
     1
 42
1.0
 92
       12
 66
     7
 43
1.0
 76
     1
 77
     6
 78
     2
 67
     7
 79
     5
170
     0
171
     0
290
     0
174
     0
 93
        1
 44
0.0
173
     0
291
     1
 45
0.0
1001
ACAD
1000
AcDbSavedByObjectVersion
1070
     0
  0
DICTIONARYVAR
  5
419
102
{ACAD_REACTORS
330
416
102
}
330
416
100
DictionaryVariables
280
     0
  1
2
  0
DICTIONARYVAR
  5
41A
102
{ACAD_REACTORS
330
416
102
}
330
416
100
DictionaryVariables
280
     0
  1
1
  0
DICTIONARY
  5
43D
330
3D
100
AcDbDictionary
280
     1
281
     1
  3
ACAD_XREC_ROUNDTRIP
360
43E
  0
DICTIONARY
  5
43B
330
3C
100
AcDbDictionary
280
     1
281
     1
  3
ACAD_XREC_ROUNDTRIP
360
43C
  0
DICTIONARY
  5
43F
330
3E
100
AcDbDictionary
280
     1
281
     1
  3
ACAD_XREC_ROUNDTRIP
360
440
  0
DICTIONARY
  5
423
330
2F
100
AcDbDictionary
280
     1
281
     1
  3
ACAD_XREC_ROUNDTRIP
360
424
  0
DICTIONARY
  5
427
330
31
100
AcDbDictionary
280
     1
281
     1
  3
ACAD_XREC_ROUNDTRIP
360
428
  0
DICTIONARY
  5
425
330
30
100
AcDbDictionary
280
     1
281
     1
  3
ACAD_XREC_ROUNDTRIP
360
426
  0
DICTIONARY
  5
429
330
32
100
AcDbDictionary
280
     1
281
     1
  3
ACAD_XREC_ROUNDTRIP
360
42A
  0
DICTIONARY
  5
431
330
36
100
AcDbDictionary
280
     1
281
     1
  3
ACAD_XREC_ROUNDTRIP
360
432
  0
DICTIONARY
  5
439
330
3A
100
AcDbDictionary
280
     1
281
     1
  3
ACAD_XREC_ROUNDTRIP
360
43A
  0
DICTIONARY
  5
42D
330
34
100
AcDbDictionary
280
     1
281
     1
  3
ACAD_XREC_ROUNDTRIP
360
42E
  0
DICTIONARY
  5
42F
330
35
100
AcDbDictionary
280
     1
281
     1
  3
ACAD_XREC_ROUNDTRIP
360
430
  0
DICTIONARY
  5
437
330
39
100
AcDbDictionary
280
     1
281
     1
  3
ACAD_XREC_ROUNDTRIP
360
438
  0
DICTIONARY
  5
41B
330
2B
100
AcDbDictionary
280
     1
281
     1
  3
ACAD_XREC_ROUNDTRIP
360
41C
  0
DICTIONARY
  5
41D
330
2C
100
AcDbDictionary
280
     1
281
     1
  3
ACAD_XREC_ROUNDTRIP
360
41E
  0
DICTIONARY
  5
41F
330
2D
100
AcDbDictionary
280
     1
281
     1
  3
ACAD_XREC_ROUNDTRIP
360
420
  0
DICTIONARY
  5
421
330
2E
100
AcDbDictionary
280
     1
281
     1
  3
ACAD_XREC_ROUNDTRIP
360
422
  0
DICTIONARY
  5
435
330
38
100
AcDbDictionary
280
     1
281
     1
  3
ACAD_XREC_ROUNDTRIP
360
436
  0
DICTIONARY
  5
42B
330
33
100
AcDbDictionary
280
     1
281
     1
  3
ACAD_XREC_ROUNDTRIP
360
42C
  0
DICTIONARY
  5
433
330
37
100
AcDbDictionary
280
     1
281
     1
  3
ACAD_XREC_ROUNDTRIP
360
434
  0
XRECORD
  5
43E
102
{ACAD_REACTORS
330
43D
102
}
330
43D
100
AcDbXrecord
280
     1
102
MATERIAL
148
0.0
149
0.0
149
0.0
 93
        0
 94
      127
282
     0
 72
     1
 77
     1
171
     1
175
     1
179
     1
273
     0
  0
XRECORD
  5
43C
102
{ACAD_REACTORS
330
43B
102
}
330
43B
100
AcDbXrecord
280
     1
102
MATERIAL
148
0.0
149
0.0
149
0.0
 93
        0
 94
      127
282
     0
 72
     1
 77
     1
171
     1
175
     1
179
     1
273
     0
  0
XRECORD
  5
440
102
{ACAD_REACTORS
330
43F
102
}
330
43F
100
AcDbXrecord
280
     1
102
MATERIAL
148
0.0
149
0.0
149
0.0
 93
        0
 94
      127
282
     0
 72
     1
 77
     1
171
     1
175
     1
179
     1
273
     0
  0
XRECORD
  5
424
102
{ACAD_REACTORS
330
423
102
}
330
423
100
AcDbXrecord
280
     1
102
RTVSPropertyOp0
 70
     1
102
RTVSPropertyOp1
 70
     1
102
RTVSPropertyOp2
 70
     1
102
RTVSPropertyOp3
 70
     1
102
RTVSPropertyOp4
 70
     1
102
RTVSPropertyOp5
 70
     1
102
RTVSPropertyOp6
 70
     1
102
RTVSPropertyOp7
 70
     1
102
RTVSPropertyOp8
 70
     1
102
RTVSPropertyOp9
 70
     1
102
RTVSPropertyOp10
 70
     1
102
RTVSPropertyOp11
 70
     1
102
RTVSPropertyOp12
 70
     1
102
RTVSPropertyOp13
 70
     1
102
RTVSPropertyOp14
 70
     1
102
RTVSPropertyOp15
 70
     1
102
RTVSPropertyOp16
 70
     1
102
RTVSPropertyOp17
 70
     1
102
RTVSPropertyOp18
 70
     1
102
RTVSPropertyOp19
 70
     1
102
RTVSPropertyOp20
 70
     1
102
RTVSPropertyOp21
 70
     1
102
RTVSPropertyOp22
 70
     1
102
RTVSPropertyOp23
 70
     1
102
RTVSPropertyOp24
 70
     1
102
RTVSPropertyOp25
 70
     1
102
RTVSPropertyOp26
 70
     1
102
RTVSPropertyOp27
 70
     1
102
RTVSPropertyOp28
 70
     1
102
RTVSPropertyOp29
 70
     1
102
RTVSPropertyOp30
 70
     1
102
RTVSPropertyOp31
 70
     1
102
RTVSPropertyOp32
 70
     1
  0
XRECORD
  5
428
102
{ACAD_REACTORS
330
427
102
}
330
427
100
AcDbXrecord
280
     1
102
RTVSPropertyOp0
 70
     1
102
RTVSPropertyOp1
 70
     1
102
RTVSPropertyOp2
 70
     1
102
RTVSPropertyOp3
 70
     1
102
RTVSPropertyOp4
 70
     1
102
RTVSPropertyOp5
 70
     1
102
RTVSPropertyOp6
 70
     1
102
RTVSPropertyOp7
 70
     1
102
RTVSPropertyOp8
 70
     1
102
RTVSPropertyOp9
 70
     1
102
RTVSPropertyOp10
 70
     1
102
RTVSPropertyOp11
 70
     1
102
RTVSPropertyOp12
 70
     1
102
RTVSPropertyOp13
 70
     1
102
RTVSPropertyOp14
 70
     1
102
RTVSPropertyOp15
 70
     1
102
RTVSPropertyOp16
 70
     1
102
RTVSPropertyOp17
 70
     1
102
RTVSPropertyOp18
 70
     1
102
RTVSPropertyOp19
 70
     1
102
RTVSPropertyOp20
 70
     1
102
RTVSPropertyOp21
 70
     1
102
RTVSPropertyOp22
 70
     1
102
RTVSPropertyOp23
 70
     1
102
RTVSPropertyOp24
 70
     1
102
RTVSPropertyOp25
 70
     1
102
RTVSPropertyOp26
 70
     1
102
RTVSPropertyOp27
 70
     1
102
RTVSPropertyOp28
 70
     1
102
RTVSPropertyOp29
 70
     1
102
RTVSPropertyOp30
 70
     1
102
RTVSPropertyOp31
 70
     1
102
RTVSPropertyOp32
 70
     1
  0
XRECORD
  5
426
102
{ACAD_REACTORS
330
425
102
}
330
425
100
AcDbXrecord
280
     1
102
RTVSPropertyOp0
 70
     1
102
RTVSPropertyOp1
 70
     1
102
RTVSPropertyOp2
 70
     1
102
RTVSPropertyOp3
 70
     1
102
RTVSPropertyOp4
 70
     1
102
RTVSPropertyOp5
 70
     1
102
RTVSPropertyOp6
 70
     1
102
RTVSPropertyOp7
 70
     1
102
RTVSPropertyOp8
 70
     1
102
RTVSPropertyOp9
 70
     1
102
RTVSPropertyOp10
 70
     1
102
RTVSPropertyOp11
 70
     1
102
RTVSPropertyOp12
 70
     1
102
RTVSPropertyOp13
 70
     1
102
RTVSPropertyOp14
 70
     1
102
RTVSPropertyOp15
 70
     1
102
RTVSPropertyOp16
 70
     1
102
RTVSPropertyOp17
 70
     1
102
RTVSPropertyOp18
 70
     1
102
RTVSPropertyOp19
 70
     1
102
RTVSPropertyOp20
 70
     1
102
RTVSPropertyOp21
 70
     1
102
RTVSPropertyOp22
 70
     1
102
RTVSPropertyOp23
 70
     1
102
RTVSPropertyOp24
 70
     1
102
RTVSPropertyOp25
 70
     1
102
RTVSPropertyOp26
 70
     1
102
RTVSPropertyOp27
 70
     1
102
RTVSPropertyOp28
 70
     1
102
RTVSPropertyOp29
 70
     1
102
RTVSPropertyOp30
 70
     1
102
RTVSPropertyOp31
 70
     1
102
RTVSPropertyOp32
 70
     1
  0
XRECORD
  5
42A
102
{ACAD_REACTORS
330
429
102
}
330
429
100
AcDbXrecord
280
     1
102
RTVSPropertyOp0
 70
     1
102
RTVSPropertyOp1
 70
     1
102
RTVSPropertyOp2
 70
     1
102
RTVSPropertyOp3
 70
     1
102
RTVSPropertyOp4
 70
     1
102
RTVSPropertyOp5
 70
     1
102
RTVSPropertyOp6
 70
     1
102
RTVSPropertyOp7
 70
     1
102
RTVSPropertyOp8
 70
     1
102
RTVSPropertyOp9
 70
     1
102
RTVSPropertyOp10
 70
     1
102
RTVSPropertyOp11
 70
     1
102
RTVSPropertyOp12
 70
     1
102
RTVSPropertyOp13
 70
     1
102
RTVSPropertyOp14
 70
     1
102
RTVSPropertyOp15
 70
     1
102
RTVSPropertyOp16
 70
     1
102
RTVSPropertyOp17
 70
     1
102
RTVSPropertyOp18
 70
     1
102
RTVSPropertyOp19
 70
     1
102
RTVSPropertyOp20
 70
     1
102
RTVSPropertyOp21
 70
     1
102
RTVSPropertyOp22
 70
     1
102
RTVSPropertyOp23
 70
     1
102
RTVSPropertyOp24
 70
     1
102
RTVSPropertyOp25
 70
     1
102
RTVSPropertyOp26
 70
     1
102
RTVSPropertyOp27
 70
     1
102
RTVSPropertyOp28
 70
     1
102
RTVSPropertyOp29
 70
     1
102
RTVSPropertyOp30
 70
     1
102
RTVSPropertyOp31
 70
     1
102
RTVSPropertyOp32
 70
     1
  0
XRECORD
  5
432
102
{ACAD_REACTORS
330
431
102
}
330
431
100
AcDbXrecord
280
     1
102
RTVSPropertyOp0
 70
     1
102
RTVSPropertyOp1
 70
     1
102
RTVSPropertyOp2
 70
     1
102
RTVSPropertyOp3
 70
     1
102
RTVSPropertyOp4
 70
     1
102
RTVSPropertyOp5
 70
     1
102
RTVSPropertyOp6
 70
     1
102
RTVSPropertyOp7
 70
     1
102
RTVSPropertyOp8
 70
     1
102
RTVSPropertyOp9
 70
     1
102
RTVSPropertyOp10
 70
     1
102
RTVSPropertyOp11
 70
     1
102
RTVSPropertyOp12
 70
     1
102
RTVSPropertyOp13
 70
     1
102
RTVSPropertyOp14
 70
     1
102
RTVSPropertyOp15
 70
     1
102
RTVSPropertyOp16
 70
     1
102
RTVSPropertyOp17
 70
     1
102
RTVSPropertyOp18
 70
     1
102
RTVSPropertyOp19
 70
     1
102
RTVSPropertyOp20
 70
     1
102
RTVSPropertyOp21
 70
     1
102
RTVSPropertyOp22
 70
     1
102
RTVSPropertyOp23
 70
     1
102
RTVSPropertyOp24
 70
     1
102
RTVSPropertyOp25
 70
     1
102
RTVSPropertyOp26
 70
     1
102
RTVSPropertyOp27
 70
     1
102
RTVSPropertyOp28
 70
     1
102
RTVSPropertyOp29
 70
     1
102
RTVSPropertyOp30
 70
     1
102
RTVSPropertyOp31
 70
     1
102
RTVSPropertyOp32
 70
     1
  0
XRECORD
  5
43A
102
{ACAD_REACTORS
330
439
102
}
330
439
100
AcDbXrecord
280
     1
102
RTVSPropertyOp0
 70
     1
102
RTVSPropertyOp1
 70
     1
102
RTVSPropertyOp2
 70
     1
102
RTVSPropertyOp3
 70
     1
102
RTVSPropertyOp4
 70
     1
102
RTVSPropertyOp5
 70
     1
102
RTVSPropertyOp6
 70
     1
102
RTVSPropertyOp7
 70
     1
102
RTVSPropertyOp8
 70
     1
102
RTVSPropertyOp9
 70
     1
102
RTVSPropertyOp10
 70
     1
102
RTVSPropertyOp11
 70
     1
102
RTVSPropertyOp12
 70
     1
102
RTVSPropertyOp13
 70
     1
102
RTVSPropertyOp14
 70
     1
102
RTVSPropertyOp15
 70
     1
102
RTVSPropertyOp16
 70
     1
102
RTVSPropertyOp17
 70
     1
102
RTVSPropertyOp18
 70
     1
102
RTVSPropertyOp19
 70
     1
102
RTVSPropertyOp20
 70
     1
102
RTVSPropertyOp21
 70
     1
102
RTVSPropertyOp22
 70
     1
102
RTVSPropertyOp23
 70
     1
102
RTVSPropertyOp24
 70
     1
102
RTVSPropertyOp25
 70
     1
102
RTVSPropertyOp26
 70
     1
102
RTVSPropertyOp27
 70
     1
102
RTVSPropertyOp28
 70
     1
102
RTVSPropertyOp29
 70
     1
102
RTVSPropertyOp30
 70
     1
102
RTVSPropertyOp31
 70
     1
102
RTVSPropertyOp32
 70
     1
  0
XRECORD
  5
42E
102
{ACAD_REACTORS
330
42D
102
}
330
42D
100
AcDbXrecord
280
     1
102
RTVSPropertyOp0
 70
     1
102
RTVSPropertyOp1
 70
     1
102
RTVSPropertyOp2
 70
     1
102
RTVSPropertyOp3
 70
     1
102
RTVSPropertyOp4
 70
     1
102
RTVSPropertyOp5
 70
     1
102
RTVSPropertyOp6
 70
     1
102
RTVSPropertyOp7
 70
     1
102
RTVSPropertyOp8
 70
     1
102
RTVSPropertyOp9
 70
     1
102
RTVSPropertyOp10
 70
     1
102
RTVSPropertyOp11
 70
     1
102
RTVSPropertyOp12
 70
     1
102
RTVSPropertyOp13
 70
     1
102
RTVSPropertyOp14
 70
     1
102
RTVSPropertyOp15
 70
     1
102
RTVSPropertyOp16
 70
     1
102
RTVSPropertyOp17
 70
     1
102
RTVSPropertyOp18
 70
     1
102
RTVSPropertyOp19
 70
     1
102
RTVSPropertyOp20
 70
     1
102
RTVSPropertyOp21
 70
     1
102
RTVSPropertyOp22
 70
     1
102
RTVSPropertyOp23
 70
     1
102
RTVSPropertyOp24
 70
     1
102
RTVSPropertyOp25
 70
     1
102
RTVSPropertyOp26
 70
     1
102
RTVSPropertyOp27
 70
     1
102
RTVSPropertyOp28
 70
     1
102
RTVSPropertyOp29
 70
     1
102
RTVSPropertyOp30
 70
     1
102
RTVSPropertyOp31
 70
     1
102
RTVSPropertyOp32
 70
     1
  0
XRECORD
  5
430
102
{ACAD_REACTORS
330
42F
102
}
330
42F
100
AcDbXrecord
280
     1
102
RTVSPropertyOp0
 70
     1
102
RTVSPropertyOp1
 70
     1
102
RTVSPropertyOp2
 70
     1
102
RTVSPropertyOp3
 70
     1
102
RTVSPropertyOp4
 70
     1
102
RTVSPropertyOp5
 70
     1
102
RTVSPropertyOp6
 70
     1
102
RTVSPropertyOp7
 70
     1
102
RTVSPropertyOp8
 70
     1
102
RTVSPropertyOp9
 70
     1
102
RTVSPropertyOp10
 70
     1
102
RTVSPropertyOp11
 70
     1
102
RTVSPropertyOp12
 70
     1
102
RTVSPropertyOp13
 70
     1
102
RTVSPropertyOp14
 70
     1
102
RTVSPropertyOp15
 70
     1
102
RTVSPropertyOp16
 70
     1
102
RTVSPropertyOp17
 70
     1
102
RTVSPropertyOp18
 70
     1
102
RTVSPropertyOp19
 70
     1
102
RTVSPropertyOp20
 70
     1
102
RTVSPropertyOp21
 70
     1
102
RTVSPropertyOp22
 70
     1
102
RTVSPropertyOp23
 70
     1
102
RTVSPropertyOp24
 70
     1
102
RTVSPropertyOp25
 70
     1
102
RTVSPropertyOp26
 70
     1
102
RTVSPropertyOp27
 70
     1
102
RTVSPropertyOp28
 70
     1
102
RTVSPropertyOp29
 70
     1
102
RTVSPropertyOp30
 70
     1
102
RTVSPropertyOp31
 70
     1
102
RTVSPropertyOp32
 70
     1
  0
XRECORD
  5
438
102
{ACAD_REACTORS
330
437
102
}
330
437
100
AcDbXrecord
280
     1
102
RTVSPropertyOp0
 70
     1
102
RTVSPropertyOp1
 70
     1
102
RTVSPropertyOp2
 70
     1
102
RTVSPropertyOp3
 70
     1
102
RTVSPropertyOp4
 70
     1
102
RTVSPropertyOp5
 70
     1
102
RTVSPropertyOp6
 70
     1
102
RTVSPropertyOp7
 70
     1
102
RTVSPropertyOp8
 70
     1
102
RTVSPropertyOp9
 70
     1
102
RTVSPropertyOp10
 70
     1
102
RTVSPropertyOp11
 70
     1
102
RTVSPropertyOp12
 70
     1
102
RTVSPropertyOp13
 70
     1
102
RTVSPropertyOp14
 70
     1
102
RTVSPropertyOp15
 70
     1
102
RTVSPropertyOp16
 70
     1
102
RTVSPropertyOp17
 70
     1
102
RTVSPropertyOp18
 70
     1
102
RTVSPropertyOp19
 70
     1
102
RTVSPropertyOp20
 70
     1
102
RTVSPropertyOp21
 70
     1
102
RTVSPropertyOp22
 70
     1
102
RTVSPropertyOp23
 70
     1
102
RTVSPropertyOp24
 70
     1
102
RTVSPropertyOp25
 70
     1
102
RTVSPropertyOp26
 70
     1
102
RTVSPropertyOp27
 70
     1
102
RTVSPropertyOp28
 70
     1
102
RTVSPropertyOp29
 70
     1
102
RTVSPropertyOp30
 70
     1
102
RTVSPropertyOp31
 70
     1
102
RTVSPropertyOp32
 70
     1
  0
XRECORD
  5
41C
102
{ACAD_REACTORS
330
41B
102
}
330
41B
100
AcDbXrecord
280
     1
102
RTVSPropertyOp0
 70
     1
102
RTVSPropertyOp1
 70
     1
102
RTVSPropertyOp2
 70
     1
102
RTVSPropertyOp3
 70
     1
102
RTVSPropertyOp4
 70
     1
102
RTVSPropertyOp5
 70
     1
102
RTVSPropertyOp6
 70
     1
102
RTVSPropertyOp7
 70
     1
102
RTVSPropertyOp8
 70
     1
102
RTVSPropertyOp9
 70
     1
102
RTVSPropertyOp10
 70
     1
102
RTVSPropertyOp11
 70
     1
102
RTVSPropertyOp12
 70
     1
102
RTVSPropertyOp13
 70
     1
102
RTVSPropertyOp14
 70
     1
102
RTVSPropertyOp15
 70
     1
102
RTVSPropertyOp16
 70
     1
102
RTVSPropertyOp17
 70
     1
102
RTVSPropertyOp18
 70
     1
102
RTVSPropertyOp19
 70
     1
102
RTVSPropertyOp20
 70
     1
102
RTVSPropertyOp21
 70
     1
102
RTVSPropertyOp22
 70
     1
102
RTVSPropertyOp23
 70
     1
102
RTVSPropertyOp24
 70
     1
102
RTVSPropertyOp25
 70
     1
102
RTVSPropertyOp26
 70
     1
102
RTVSPropertyOp27
 70
     1
102
RTVSPropertyOp28
 70
     1
102
RTVSPropertyOp29
 70
     1
102
RTVSPropertyOp30
 70
     1
102
RTVSPropertyOp31
 70
     1
102
RTVSPropertyOp32
 70
     1
  0
XRECORD
  5
41E
102
{ACAD_REACTORS
330
41D
102
}
330
41D
100
AcDbXrecord
280
     1
102
RTVSPropertyOp0
 70
     1
102
RTVSPropertyOp1
 70
     1
102
RTVSPropertyOp2
 70
     1
102
RTVSPropertyOp3
 70
     1
102
RTVSPropertyOp4
 70
     1
102
RTVSPropertyOp5
 70
     1
102
RTVSPropertyOp6
 70
     1
102
RTVSPropertyOp7
 70
     1
102
RTVSPropertyOp8
 70
     1
102
RTVSPropertyOp9
 70
     1
102
RTVSPropertyOp10
 70
     1
102
RTVSPropertyOp11
 70
     1
102
RTVSPropertyOp12
 70
     1
102
RTVSPropertyOp13
 70
     1
102
RTVSPropertyOp14
 70
     1
102
RTVSPropertyOp15
 70
     1
102
RTVSPropertyOp16
 70
     1
102
RTVSPropertyOp17
 70
     1
102
RTVSPropertyOp18
 70
     1
102
RTVSPropertyOp19
 70
     1
102
RTVSPropertyOp20
 70
     1
102
RTVSPropertyOp21
 70
     1
102
RTVSPropertyOp22
 70
     1
102
RTVSPropertyOp23
 70
     1
102
RTVSPropertyOp24
 70
     1
102
RTVSPropertyOp25
 70
     1
102
RTVSPropertyOp26
 70
     1
102
RTVSPropertyOp27
 70
     1
102
RTVSPropertyOp28
 70
     1
102
RTVSPropertyOp29
 70
     1
102
RTVSPropertyOp30
 70
     1
102
RTVSPropertyOp31
 70
     1
102
RTVSPropertyOp32
 70
     1
  0
XRECORD
  5
420
102
{ACAD_REACTORS
330
41F
102
}
330
41F
100
AcDbXrecord
280
     1
102
RTVSPropertyOp0
 70
     1
102
RTVSPropertyOp1
 70
     1
102
RTVSPropertyOp2
 70
     1
102
RTVSPropertyOp3
 70
     1
102
RTVSPropertyOp4
 70
     1
102
RTVSPropertyOp5
 70
     1
102
RTVSPropertyOp6
 70
     1
102
RTVSPropertyOp7
 70
     1
102
RTVSPropertyOp8
 70
     1
102
RTVSPropertyOp9
 70
     1
102
RTVSPropertyOp10
 70
     1
102
RTVSPropertyOp11
 70
     1
102
RTVSPropertyOp12
 70
     1
102
RTVSPropertyOp13
 70
     1
102
RTVSPropertyOp14
 70
     1
102
RTVSPropertyOp15
 70
     1
102
RTVSPropertyOp16
 70
     1
102
RTVSPropertyOp17
 70
     1
102
RTVSPropertyOp18
 70
     1
102
RTVSPropertyOp19
 70
     1
102
RTVSPropertyOp20
 70
     1
102
RTVSPropertyOp21
 70
     1
102
RTVSPropertyOp22
 70
     1
102
RTVSPropertyOp23
 70
     1
102
RTVSPropertyOp24
 70
     1
102
RTVSPropertyOp25
 70
     1
102
RTVSPropertyOp26
 70
     1
102
RTVSPropertyOp27
 70
     1
102
RTVSPropertyOp28
 70
     1
102
RTVSPropertyOp29
 70
     1
102
RTVSPropertyOp30
 70
     1
102
RTVSPropertyOp31
 70
     1
102
RTVSPropertyOp32
 70
     1
  0
XRECORD
  5
422
102
{ACAD_REACTORS
330
421
102
}
330
421
100
AcDbXrecord
280
     1
102
RTVSPropertyOp0
 70
     1
102
RTVSPropertyOp1
 70
     1
102
RTVSPropertyOp2
 70
     1
102
RTVSPropertyOp3
 70
     1
102
RTVSPropertyOp4
 70
     1
102
RTVSPropertyOp5
 70
     1
102
RTVSPropertyOp6
 70
     1
102
RTVSPropertyOp7
 70
     1
102
RTVSPropertyOp8
 70
     1
102
RTVSPropertyOp9
 70
     1
102
RTVSPropertyOp10
 70
     1
102
RTVSPropertyOp11
 70
     1
102
RTVSPropertyOp12
 70
     1
102
RTVSPropertyOp13
 70
     1
102
RTVSPropertyOp14
 70
     1
102
RTVSPropertyOp15
 70
     1
102
RTVSPropertyOp16
 70
     1
102
RTVSPropertyOp17
 70
     1
102
RTVSPropertyOp18
 70
     1
102
RTVSPropertyOp19
 70
     1
102
RTVSPropertyOp20
 70
     1
102
RTVSPropertyOp21
 70
     1
102
RTVSPropertyOp22
 70
     1
102
RTVSPropertyOp23
 70
     1
102
RTVSPropertyOp24
 70
     1
102
RTVSPropertyOp25
 70
     1
102
RTVSPropertyOp26
 70
     1
102
RTVSPropertyOp27
 70
     1
102
RTVSPropertyOp28
 70
     1
102
RTVSPropertyOp29
 70
     1
102
RTVSPropertyOp30
 70
     1
102
RTVSPropertyOp31
 70
     1
102
RTVSPropertyOp32
 70
     1
  0
XRECORD
  5
436
102
{ACAD_REACTORS
330
435
102
}
330
435
100
AcDbXrecord
280
     1
102
RTVSPropertyOp0
 70
     1
102
RTVSPropertyOp1
 70
     1
102
RTVSPropertyOp2
 70
     1
102
RTVSPropertyOp3
 70
     1
102
RTVSPropertyOp4
 70
     1
102
RTVSPropertyOp5
 70
     1
102
RTVSPropertyOp6
 70
     1
102
RTVSPropertyOp7
 70
     1
102
RTVSPropertyOp8
 70
     1
102
RTVSPropertyOp9
 70
     1
102
RTVSPropertyOp10
 70
     1
102
RTVSPropertyOp11
 70
     1
102
RTVSPropertyOp12
 70
     1
102
RTVSPropertyOp13
 70
     1
102
RTVSPropertyOp14
 70
     1
102
RTVSPropertyOp15
 70
     1
102
RTVSPropertyOp16
 70
     1
102
RTVSPropertyOp17
 70
     1
102
RTVSPropertyOp18
 70
     1
102
RTVSPropertyOp19
 70
     1
102
RTVSPropertyOp20
 70
     1
102
RTVSPropertyOp21
 70
     1
102
RTVSPropertyOp22
 70
     1
102
RTVSPropertyOp23
 70
     1
102
RTVSPropertyOp24
 70
     1
102
RTVSPropertyOp25
 70
     1
102
RTVSPropertyOp26
 70
     1
102
RTVSPropertyOp27
 70
     1
102
RTVSPropertyOp28
 70
     1
102
RTVSPropertyOp29
 70
     1
102
RTVSPropertyOp30
 70
     1
102
RTVSPropertyOp31
 70
     1
102
RTVSPropertyOp32
 70
     1
  0
XRECORD
  5
42C
102
{ACAD_REACTORS
330
42B
102
}
330
42B
100
AcDbXrecord
280
     1
102
RTVSPropertyOp0
 70
     1
102
RTVSPropertyOp1
 70
     1
102
RTVSPropertyOp2
 70
     1
102
RTVSPropertyOp3
 70
     1
102
RTVSPropertyOp4
 70
     1
102
RTVSPropertyOp5
 70
     1
102
RTVSPropertyOp6
 70
     1
102
RTVSPropertyOp7
 70
     1
102
RTVSPropertyOp8
 70
     1
102
RTVSPropertyOp9
 70
     1
102
RTVSPropertyOp10
 70
     1
102
RTVSPropertyOp11
 70
     1
102
RTVSPropertyOp12
 70
     1
102
RTVSPropertyOp13
 70
     1
102
RTVSPropertyOp14
 70
     1
102
RTVSPropertyOp15
 70
     1
102
RTVSPropertyOp16
 70
     1
102
RTVSPropertyOp17
 70
     1
102
RTVSPropertyOp18
 70
     1
102
RTVSPropertyOp19
 70
     1
102
RTVSPropertyOp20
 70
     1
102
RTVSPropertyOp21
 70
     1
102
RTVSPropertyOp22
 70
     1
102
RTVSPropertyOp23
 70
     1
102
RTVSPropertyOp24
 70
     1
102
RTVSPropertyOp25
 70
     1
102
RTVSPropertyOp26
 70
     1
102
RTVSPropertyOp27
 70
     1
102
RTVSPropertyOp28
 70
     1
102
RTVSPropertyOp29
 70
     1
102
RTVSPropertyOp30
 70
     1
102
RTVSPropertyOp31
 70
     1
102
RTVSPropertyOp32
 70
     1
  0
XRECORD
  5
434
102
{ACAD_REACTORS
330
433
102
}
330
433
100
AcDbXrecord
280
     1
102
RTVSPropertyOp0
 70
     1
102
RTVSPropertyOp1
 70
     1
102
RTVSPropertyOp2
 70
     1
102
RTVSPropertyOp3
 70
     1
102
RTVSPropertyOp4
 70
     1
102
RTVSPropertyOp5
 70
     1
102
RTVSPropertyOp6
 70
     1
102
RTVSPropertyOp7
 70
     1
102
RTVSPropertyOp8
 70
     1
102
RTVSPropertyOp9
 70
     1
102
RTVSPropertyOp10
 70
     1
102
RTVSPropertyOp11
 70
     1
102
RTVSPropertyOp12
 70
     1
102
RTVSPropertyOp13
 70
     1
102
RTVSPropertyOp14
 70
     1
102
RTVSPropertyOp15
 70
     1
102
RTVSPropertyOp16
 70
     1
102
RTVSPropertyOp17
 70
     1
102
RTVSPropertyOp18
 70
     1
102
RTVSPropertyOp19
 70
     1
102
RTVSPropertyOp20
 70
     1
102
RTVSPropertyOp21
 70
     1
102
RTVSPropertyOp22
 70
     1
102
RTVSPropertyOp23
 70
     1
102
RTVSPropertyOp24
 70
     1
102
RTVSPropertyOp25
 70
     1
102
RTVSPropertyOp26
 70
     1
102
RTVSPropertyOp27
 70
     1
102
RTVSPropertyOp28
 70
     1
102
RTVSPropertyOp29
 70
     1
102
RTVSPropertyOp30
 70
     1
102
RTVSPropertyOp31
 70
     1
102
RTVSPropertyOp32
 70
     1
  0
ENDSEC
  0
EOF
