  0
SECTION
  2
HEADER
  9
$ACADVER
  1
AC1015
  9
$ACADMAINTVER
 70
     6
  9
$DWGCODEPAGE
  3
ANSI_1252
  9
$INSBASE
 10
0.0
 20
0.0
 30
0.0
  9
$EXTMIN
 10
-244.037669747061
 20
2.28207210725108
 30
0.0
  9
$EXTMAX
 10
52.96233025293711
 20
212.2820721072511
 30
0.0
  9
$LIMMIN
 10
0.0
 20
0.0
  9
$LIMMAX
 10
12.0
 20
9.0
  9
$ORTHOMODE
 70
     0
  9
$REGENMODE
 70
     1
  9
$FILLMODE
 70
     1
  9
$QTEXTMODE
 70
     0
  9
$MIRRTEXT
 70
     1
  9
$LTSCALE
 40
1.0
  9
$ATTMODE
 70
     1
  9
$TEXTSIZE
 40
0.2
  9
$TRACEWID
 40
0.05
  9
$TEXTSTYLE
  7
Standard
  9
$CLAYER
  8
0
  9
$CELTYPE
  6
ByLayer
  9
$CECOLOR
 62
   256
  9
$CELTSCALE
 40
1.0
  9
$DISPSILH
 70
     0
  9
$DIMSCALE
 40
1.0
  9
$DIMASZ
 40
0.18
  9
$DIMEXO
 40
0.0625
  9
$DIMDLI
 40
0.38
  9
$DIMRND
 40
0.0
  9
$DIMDLE
 40
0.0
  9
$DIMEXE
 40
0.18
  9
$DIMTP
 40
0.0
  9
$DIMTM
 40
0.0
  9
$DIMTXT
 40
0.18
  9
$DIMCEN
 40
0.09
  9
$DIMTSZ
 40
0.0
  9
$DIMTOL
 70
     0
  9
$DIMLIM
 70
     0
  9
$DIMTIH
 70
     1
  9
$DIMTOH
 70
     1
  9
$DIMSE1
 70
     0
  9
$DIMSE2
 70
     0
  9
$DIMTAD
 70
     0
  9
$DIMZIN
 70
     0
  9
$DIMBLK
  1

  9
$DIMASO
 70
     1
  9
$DIMSHO
 70
     1
  9
$DIMPOST
  1

  9
$DIMAPOST
  1

  9
$DIMALT
 70
     0
  9
$DIMALTD
 70
     2
  9
$DIMALTF
 40
25.4
  9
$DIMLFAC
 40
1.0
  9
$DIMTOFL
 70
     0
  9
$DIMTVP
 40
0.0
  9
$DIMTIX
 70
     0
  9
$DIMSOXD
 70
     0
  9
$DIMSAH
 70
     0
  9
$DIMBLK1
  1

  9
$DIMBLK2
  1

  9
$DIMSTYLE
  2
Standard
  9
$DIMCLRD
 70
     0
  9
$DIMCLRE
 70
     0
  9
$DIMCLRT
 70
     0
  9
$DIMTFAC
 40
1.0
  9
$DIMGAP
 40
0.09
  9
$DIMJUST
 70
     0
  9
$DIMSD1
 70
     0
  9
$DIMSD2
 70
     0
  9
$DIMTOLJ
 70
     1
  9
$DIMTZIN
 70
     0
  9
$DIMALTZ
 70
     0
  9
$DIMALTTZ
 70
     0
  9
$DIMUPT
 70
     0
  9
$DIMDEC
 70
     4
  9
$DIMTDEC
 70
     4
  9
$DIMALTU
 70
     2
  9
$DIMALTTD
 70
     2
  9
$DIMTXSTY
  7
Standard
  9
$DIMAUNIT
 70
     0
  9
$DIMADEC
 70
     0
  9
$DIMALTRND
 40
0.0
  9
$DIMAZIN
 70
     0
  9
$DIMDSEP
 70
    46
  9
$DIMATFIT
 70
     3
  9
$DIMFRAC
 70
     0
  9
$DIMLDRBLK
  1

  9
$DIMLUNIT
 70
     2
  9
$DIMLWD
 70
    -2
  9
$DIMLWE
 70
    -2
  9
$DIMTMOVE
 70
     0
  9
$LUNITS
 70
     2
  9
$LUPREC
 70
     4
  9
$SKETCHINC
 40
0.1
  9
$FILLETRAD
 40
0.5
  9
$AUNITS
 70
     0
  9
$AUPREC
 70
     0
  9
$MENU
  1
.
  9
$ELEVATION
 40
0.0
  9
$PELEVATION
 40
0.0
  9
$THICKNESS
 40
0.0
  9
$LIMCHECK
 70
     0
  9
$CHAMFERA
 40
0.5
  9
$CHAMFERB
 40
0.5
  9
$CHAMFERC
 40
1.0
  9
$CHAMFERD
 40
0.0
  9
$SKPOLY
 70
     0
  9
$TDCREATE
 40
2456429.576231204
  9
$TDUCREATE
 40
2456429.49289787
  9
$TDUPDATE
 40
2456429.576232905
  9
$TDUUPDATE
 40
2456429.492899572
  9
$TDINDWG
 40
0.0000000116
  9
$TDUSRTIMER
 40
0.0000000116
  9
$USRTIMER
 70
     1
  9
$ANGBASE
 50
0.0
  9
$ANGDIR
 70
     0
  9
$PDMODE
 70
     0
  9
$PDSIZE
 40
0.0
  9
$PLINEWID
 40
0.0
  9
$SPLFRAME
 70
     0
  9
$SPLINETYPE
 70
     6
  9
$SPLINESEGS
 70
     8
  9
$HANDSEED
  5
3D4
  9
$SURFTAB1
 70
     6
  9
$SURFTAB2
 70
     6
  9
$SURFTYPE
 70
     6
  9
$SURFU
 70
     6
  9
$SURFV
 70
     6
  9
$UCSBASE
  2

  9
$UCSNAME
  2

  9
$UCSORG
 10
0.0
 20
0.0
 30
0.0
  9
$UCSXDIR
 10
1.0
 20
0.0
 30
0.0
  9
$UCSYDIR
 10
0.0
 20
1.0
 30
0.0
  9
$UCSORTHOREF
  2

  9
$UCSORTHOVIEW
 70
     0
  9
$UCSORGTOP
 10
0.0
 20
0.0
 30
0.0
  9
$UCSORGBOTTOM
 10
0.0
 20
0.0
 30
0.0
  9
$UCSORGLEFT
 10
0.0
 20
0.0
 30
0.0
  9
$UCSORGRIGHT
 10
0.0
 20
0.0
 30
0.0
  9
$UCSORGFRONT
 10
0.0
 20
0.0
 30
0.0
  9
$UCSORGBACK
 10
0.0
 20
0.0
 30
0.0
  9
$PUCSBASE
  2

  9
$PUCSNAME
  2

  9
$PUCSORG
 10
0.0
 20
0.0
 30
0.0
  9
$PUCSXDIR
 10
1.0
 20
0.0
 30
0.0
  9
$PUCSYDIR
 10
0.0
 20
1.0
 30
0.0
  9
$PUCSORTHOREF
  2

  9
$PUCSORTHOVIEW
 70
     0
  9
$PUCSORGTOP
 10
0.0
 20
0.0
 30
0.0
  9
$PUCSORGBOTTOM
 10
0.0
 20
0.0
 30
0.0
  9
$PUCSORGLEFT
 10
0.0
 20
0.0
 30
0.0
  9
$PUCSORGRIGHT
 10
0.0
 20
0.0
 30
0.0
  9
$PUCSORGFRONT
 10
0.0
 20
0.0
 30
0.0
  9
$PUCSORGBACK
 10
0.0
 20
0.0
 30
0.0
  9
$USERI1
 70
     0
  9
$USERI2
 70
     0
  9
$USERI3
 70
     0
  9
$USERI4
 70
     0
  9
$USERI5
 70
     0
  9
$USERR1
 40
18.1
  9
$USERR2
 40
0.0
  9
$USERR3
 40
0.0
  9
$USERR4
 40
0.0
  9
$USERR5
 40
0.0
  9
$WORLDVIEW
 70
     1
  9
$SHADEDGE
 70
     3
  9
$SHADEDIF
 70
    70
  9
$TILEMODE
 70
     1
  9
$MAXACTVP
 70
    64
  9
$PINSBASE
 10
0.0
 20
0.0
 30
0.0
  9
$PLIMCHECK
 70
     0
  9
$PEXTMIN
 10
1.00000000000000E+20
 20
1.00000000000000E+20
 30
1.00000000000000E+20
  9
$PEXTMAX
 10
-1.00000000000000E+20
 20
-1.00000000000000E+20
 30
-1.00000000000000E+20
  9
$PLIMMIN
 10
0.0
 20
0.0
  9
$PLIMMAX
 10
12.0
 20
9.0
  9
$UNITMODE
 70
     0
  9
$VISRETAIN
 70
     1
  9
$PLINEGEN
 70
     0
  9
$PSLTSCALE
 70
     1
  9
$TREEDEPTH
 70
  3020
  9
$CMLSTYLE
  2
Standard
  9
$CMLJUST
 70
     0
  9
$CMLSCALE
 40
1.0
  9
$PROXYGRAPHICS
 70
     1
  9
$MEASUREMENT
 70
     1
  9
$CELWEIGHT
370
    -1
  9
$ENDCAPS
280
     0
  9
$JOINSTYLE
280
     0
  9
$LWDISPLAY
290
     0
  9
$INSUNITS
 70
     1
  9
$HYPERLINKBASE
  1

  9
$STYLESHEET
  1

  9
$XEDIT
290
     1
  9
$CEPSNTYPE
380
     0
  9
$PSTYLEMODE
290
     1
  9
$FINGERPRINTGUID
  2
{8E513F95-9760-4F7A-BF2A-684494DCE46A}
  9
$VERSIONGUID
  2
{FAEB1C32-E019-11D5-929B-00C0DF256EC4}
  9
$EXTNAMES
290
     1
  9
$PSVPSCALE
 40
0.0
  9
$OLESTARTUP
290
     0
  0
ENDSEC
  0
SECTION
  2
CLASSES
  0
CLASS
  1
ACDBDICTIONARYWDFLT
  2
AcDbDictionaryWithDefault
  3
ObjectDBX Classes
 90
        0
280
     0
281
     0
  0
CLASS
  1
VISUALSTYLE
  2
AcDbVisualStyle
  3
ObjectDBX Classes
 90
     4095
280
     0
281
     0
  0
CLASS
  1
MATERIAL
  2
AcDbMaterial
  3
ObjectDBX Classes
 90
     1153
280
     0
281
     0
  0
CLASS
  1
DICTIONARYVAR
  2
AcDbDictionaryVar
  3
ObjectDBX Classes
 90
        0
280
     0
281
     0
  0
CLASS
  1
ACDBPLACEHOLDER
  2
AcDbPlaceHolder
  3
ObjectDBX Classes
 90
        0
280
     0
281
     0
  0
CLASS
  1
LAYOUT
  2
AcDbLayout
  3
ObjectDBX Classes
 90
        0
280
     0
281
     0
  0
ENDSEC
  0
SECTION
  2
TABLES
  0
TABLE
  2
VPORT
  5
8
330
0
100
AcDbSymbolTable
 70
     1
  0
VPORT
  5
29
330
8
100
AcDbSymbolTableRecord
100
AcDbViewportTableRecord
  2
*Active
 70
     0
 10
0.0
 20
0.0
 11
1.0
 21
1.0
 12
-95.53766974706194
 22
107.2820721072511
 13
0.0
 23
0.0
 14
0.5
 24
0.5
 15
0.5
 25
0.5
 16
0.0
 26
0.0
 36
1.0
 17
0.0
 27
0.0
 37
0.0
 40
231.0000000000001
 41
1.60267857142857
 42
50.0
 43
0.0
 44
0.0
 50
0.0
 51
0.0
 71
     0
 72
   100
 73
     1
 74
     3
 75
     0
 76
     0
 77
     0
 78
     0
281
     0
 65
     1
110
0.0
120
0.0
130
0.0
111
1.0
121
0.0
131
0.0
112
0.0
122
1.0
132
0.0
 79
     0
146
0.0
  0
ENDTAB
  0
TABLE
  2
LTYPE
  5
5
330
0
100
AcDbSymbolTable
 70
     8
  0
LTYPE
  5
14
330
5
100
AcDbSymbolTableRecord
100
AcDbLinetypeTableRecord
  2
ByBlock
 70
     0
  3

 72
    65
 73
     0
 40
0.0
  0
LTYPE
  5
15
330
5
100
AcDbSymbolTableRecord
100
AcDbLinetypeTableRecord
  2
ByLayer
 70
     0
  3

 72
    65
 73
     0
 40
0.0
  0
LTYPE
  5
16
330
5
100
AcDbSymbolTableRecord
100
AcDbLinetypeTableRecord
  2
Continuous
 70
     0
  3
Solid line
 72
    65
 73
     0
 40
0.0
  0
LTYPE
  5
3F
330
5
100
AcDbSymbolTableRecord
100
AcDbLinetypeTableRecord
  2
DASHED
 70
     0
  3
Dashed
 72
    65
 73
     2
 40
15.0
 49
7.0
 74
     0
 49
-8.0
 74
     0
  0
LTYPE
  5
40
330
5
100
AcDbSymbolTableRecord
100
AcDbLinetypeTableRecord
  2
DOTTED
 70
     0
  3
Dotted
 72
    65
 73
     2
 40
1.0
 49
0.0
 74
     0
 49
-1.0
 74
     0
  0
LTYPE
  5
41
330
5
100
AcDbSymbolTableRecord
100
AcDbLinetypeTableRecord
  2
DOT_CENTER
 70
     0
  3
Dot_Center
 72
    65
 73
     4
 40
14.0
 49
12.0
 74
     0
 49
-1.0
 74
     0
 49
0.0
 74
     0
 49
-1.0
 74
     0
  0
LTYPE
  5
42
330
5
100
AcDbSymbolTableRecord
100
AcDbLinetypeTableRecord
  2
LONG_DASHED
 70
     0
  3
Long_Dashed
 72
    65
 73
     2
 40
15.0
 49
10.0
 74
     0
 49
-5.0
 74
     0
  0
LTYPE
  5
43
330
5
100
AcDbSymbolTableRecord
100
AcDbLinetypeTableRecord
  2
DASH_CENTER
 70
     0
  3
Dash_Center
 72
    65
 73
     4
 40
14.0
 49
11.0
 74
     0
 49
-1.0
 74
     0
 49
1.0
 74
     0
 49
-1.0
 74
     0
  0
LTYPE
  5
44
330
5
100
AcDbSymbolTableRecord
100
AcDbLinetypeTableRecord
  2
PHANTOM
 70
     0
  3
Phantom
 72
    65
 73
     6
 40
13.0
 49
10.0
 74
     0
 49
-1.0
 74
     0
 49
0.0
 74
     0
 49
-1.0
 74
     0
 49
0.0
 74
     0
 49
-1.0
 74
     0
  0
LTYPE
  5
45
330
5
100
AcDbSymbolTableRecord
100
AcDbLinetypeTableRecord
  2
CENTER_DASH_DASH
 70
     0
  3
Center_Dash_Dash
 72
    65
 73
     6
 40
14.0
 49
9.0
 74
     0
 49
-1.0
 74
     0
 49
1.0
 74
     0
 49
-1.0
 74
     0
 49
1.0
 74
     0
 49
-1.0
 74
     0
  0
ENDTAB
  0
TABLE
  2
LAYER
  5
2
330
0
100
AcDbSymbolTable
 70
     2
  0
LAYER
  5
10
330
2
100
AcDbSymbolTableRecord
100
AcDbLayerTableRecord
  2
0
 70
     0
 62
     7
  6
Continuous
370
    -3
390
F
  0
LAYER
  5
46
330
2
100
AcDbSymbolTableRecord
100
AcDbLayerTableRecord
  2
1
 70
     0
 62
     7
  6
Continuous
370
    -3
390
F
  0
ENDTAB
  0
TABLE
  2
STYLE
  5
3
330
0
100
AcDbSymbolTable
 70
     9
  0
STYLE
  5
11
330
3
100
AcDbSymbolTableRecord
100
AcDbTextStyleTableRecord
  2
Standard
 70
     0
 40
0.0
 41
1.0
 50
0.0
 71
     0
 42
0.2
  3
txt
  4

  0
STYLE
  5
CB
330
3
100
AcDbSymbolTableRecord
100
AcDbTextStyleTableRecord
  2
CONVERTER_11
 70
     0
 40
0.0
 41
0.9
 50
0.0
 71
     0
 42
0.2
  3
txt.shx
  4

  0
STYLE
  5
327
330
3
100
AcDbSymbolTableRecord
100
AcDbTextStyleTableRecord
  2
CONVERTER_12
 70
     0
 40
0.0
 41
0.63
 50
0.0
 71
     0
 42
0.2
  3
txt.shx
  4

  0
STYLE
  5
32A
330
3
100
AcDbSymbolTableRecord
100
AcDbTextStyleTableRecord
  2
CONVERTER_13
 70
     0
 40
0.0
 41
0.72
 50
0.0
 71
     0
 42
0.2
  3
txt.shx
  4

  0
STYLE
  5
32E
330
3
100
AcDbSymbolTableRecord
100
AcDbTextStyleTableRecord
  2
CONVERTER_14
 70
     0
 40
0.0
 41
0.765
 50
0.0
 71
     0
 42
0.2
  3
txt.shx
  4

  0
STYLE
  5
366
330
3
100
AcDbSymbolTableRecord
100
AcDbTextStyleTableRecord
  2
CONVERTER_15
 70
     0
 40
0.0
 41
0.855
 50
0.0
 71
     0
 42
0.2
  3
txt.shx
  4

  0
STYLE
  5
382
330
3
100
AcDbSymbolTableRecord
100
AcDbTextStyleTableRecord
  2
CONVERTER_16
 70
     0
 40
0.0
 41
0.54
 50
0.0
 71
     0
 42
0.2
  3
txt.shx
  4

  0
STYLE
  5
384
330
3
100
AcDbSymbolTableRecord
100
AcDbTextStyleTableRecord
  2
CONVERTER_17
 70
     0
 40
0.0
 41
0.81
 50
0.0
 71
     0
 42
0.2
  3
txt.shx
  4

  0
STYLE
  5
38B
330
3
100
AcDbSymbolTableRecord
100
AcDbTextStyleTableRecord
  2
CONVERTER_18
 70
     0
 40
0.0
 41
0.45
 50
0.0
 71
     0
 42
0.2
  3
txt.shx
  4

  0
ENDTAB
  0
TABLE
  2
VIEW
  5
6
330
0
100
AcDbSymbolTable
 70
     0
  0
ENDTAB
  0
TABLE
  2
UCS
  5
7
330
0
100
AcDbSymbolTable
 70
     0
  0
ENDTAB
  0
TABLE
  2
APPID
  5
9
330
0
100
AcDbSymbolTable
 70
     1
  0
APPID
  5
12
330
9
100
AcDbSymbolTableRecord
100
AcDbRegAppTableRecord
  2
ACAD
 70
     0
  0
ENDTAB
  0
TABLE
  2
DIMSTYLE
  5
A
330
0
100
AcDbSymbolTable
 70
     4
100
AcDbDimStyleTable
  0
DIMSTYLE
105
27
330
A
100
AcDbSymbolTableRecord
100
AcDbDimStyleTableRecord
  2
Standard
 70
     0
178
     0
340
11
  0
DIMSTYLE
105
100
102
{ACAD_REACTORS
330
101
102
}
330
A
100
AcDbSymbolTableRecord
100
AcDbDimStyleTableRecord
  2
ME10_DIM_10
 70
     0
 41
3.5
 42
0.0
 44
2.0
 73
     0
 74
     0
 77
     1
 78
     8
140
3.5
147
2.0
172
     1
173
     1
174
     1
175
     1
176
     2
177
     2
178
     3
340
CB
  0
DIMSTYLE
105
159
102
{ACAD_REACTORS
330
15A
102
}
330
A
100
AcDbSymbolTableRecord
100
AcDbDimStyleTableRecord
  2
ME10_DIM_11
 70
     0
 41
3.5
 42
0.0
 44
2.0
 73
     0
 74
     0
 77
     1
 78
     8
140
3.5
147
2.0
172
     1
173
     1
174
     1
175
     1
176
     2
177
     2
271
     1
178
     3
271
     1
340
CB
  0
DIMSTYLE
105
164
102
{ACAD_REACTORS
330
165
102
}
330
A
100
AcDbSymbolTableRecord
100
AcDbDimStyleTableRecord
  2
ME10_DIM_12
 70
     0
 41
3.5
 42
0.0
 44
2.0
 73
     0
 74
     0
 77
     1
 78
     8
140
3.5
147
2.0
172
     1
173
     1
174
     1
175
     1
176
     2
177
     2
271
     1
178
     3
271
     1
340
CB
  0
ENDTAB
  0
TABLE
  2
BLOCK_RECORD
  5
1
330
0
100
AcDbSymbolTable
 70
    19
  0
BLOCK_RECORD
  5
1F
330
1
100
AcDbSymbolTableRecord
100
AcDbBlockTableRecord
  2
*Model_Space
340
22
  0
BLOCK_RECORD
  5
1B
330
1
100
AcDbSymbolTableRecord
100
AcDbBlockTableRecord
  2
*Paper_Space
340
1E
  0
BLOCK_RECORD
  5
23
330
1
100
AcDbSymbolTableRecord
100
AcDbBlockTableRecord
  2
*Paper_Space0
340
26
  0
BLOCK_RECORD
  5
47
330
1
100
AcDbSymbolTableRecord
100
AcDbBlockTableRecord
  2
0707840_HDFK_10I-select__1
340
0
102
{BLKREFS
331
4B
102
}
  0
BLOCK_RECORD
  5
4A
330
1
100
AcDbSymbolTableRecord
100
AcDbBlockTableRecord
  2
Allg1
340
0
102
{BLKREFS
331
7C
102
}
  0
BLOCK_RECORD
  5
4E
330
1
100
AcDbSymbolTableRecord
100
AcDbBlockTableRecord
  2
0707840_HDFK_10I-select__2
340
0
102
{BLKREFS
331
52
102
}
  0
BLOCK_RECORD
  5
51
330
1
100
AcDbSymbolTableRecord
100
AcDbBlockTableRecord
  2
SA_Links1
340
0
102
{BLKREFS
331
7D
102
}
  0
BLOCK_RECORD
  5
55
330
1
100
AcDbSymbolTableRecord
100
AcDbBlockTableRecord
  2
0707840_HDFK_10I-select__3
340
0
102
{BLKREFS
331
59
102
}
  0
BLOCK_RECORD
  5
58
330
1
100
AcDbSymbolTableRecord
100
AcDbBlockTableRecord
  2
Drfsicht1
340
0
102
{BLKREFS
331
7E
102
}
  0
BLOCK_RECORD
  5
5C
330
1
100
AcDbSymbolTableRecord
100
AcDbBlockTableRecord
  2
0707840_HDFK_10I-select__4
340
0
102
{BLKREFS
331
60
102
}
  0
BLOCK_RECORD
  5
5F
330
1
100
AcDbSymbolTableRecord
100
AcDbBlockTableRecord
  2
Vordans1
340
0
102
{BLKREFS
331
7F
102
}
  0
BLOCK_RECORD
  5
63
330
1
100
AcDbSymbolTableRecord
100
AcDbBlockTableRecord
  2
0707840_HDFK_10I-select__5
340
0
102
{BLKREFS
331
67
102
}
  0
BLOCK_RECORD
  5
66
330
1
100
AcDbSymbolTableRecord
100
AcDbBlockTableRecord
  2
SA_Rechts1
340
0
102
{BLKREFS
331
80
102
}
  0
BLOCK_RECORD
  5
6A
330
1
100
AcDbSymbolTableRecord
100
AcDbBlockTableRecord
  2
0707840_HDFK_10I-select__6
340
0
102
{BLKREFS
331
6E
102
}
  0
BLOCK_RECORD
  5
6D
330
1
100
AcDbSymbolTableRecord
100
AcDbBlockTableRecord
  2
Rckans1
340
0
102
{BLKREFS
331
81
102
}
  0
BLOCK_RECORD
  5
71
330
1
100
AcDbSymbolTableRecord
100
AcDbBlockTableRecord
  2
_punkt
340
0
102
{BLKREFS
331
78
102
}
  0
BLOCK_RECORD
  5
74
330
1
100
AcDbSymbolTableRecord
100
AcDbBlockTableRecord
  2
_rahmen
340
0
102
{BLKREFS
331
79
102
}
  0
BLOCK_RECORD
  5
77
330
1
100
AcDbSymbolTableRecord
100
AcDbBlockTableRecord
  2
A4I
340
0
102
{BLKREFS
331
82
102
}
  0
BLOCK_RECORD
  5
F5
330
1
100
AcDbSymbolTableRecord
100
AcDbBlockTableRecord
  2
*D16
340
0
  0
BLOCK_RECORD
  5
150
330
1
100
AcDbSymbolTableRecord
100
AcDbBlockTableRecord
  2
*D17
340
0
  0
BLOCK_RECORD
  5
15B
330
1
100
AcDbSymbolTableRecord
100
AcDbBlockTableRecord
  2
*D18
340
0
  0
ENDTAB
  0
ENDSEC
  0
SECTION
  2
BLOCKS
  0
BLOCK
  5
20
330
1F
100
AcDbEntity
  8
0
100
AcDbBlockBegin
  2
*Model_Space
 70
     0
 10
0.0
 20
0.0
 30
0.0
  3
*Model_Space
  1

  0
ENDBLK
  5
21
330
1F
100
AcDbEntity
  8
0
100
AcDbBlockEnd
  0
BLOCK
  5
1C
330
1B
100
AcDbEntity
 67
     1
  8
0
100
AcDbBlockBegin
  2
*Paper_Space
 70
     0
 10
0.0
 20
0.0
 30
0.0
  3
*Paper_Space
  1

  0
ENDBLK
  5
1D
330
1B
100
AcDbEntity
 67
     1
  8
0
100
AcDbBlockEnd
  0
BLOCK
  5
24
330
23
100
AcDbEntity
  8
0
100
AcDbBlockBegin
  2
*Paper_Space0
 70
     0
 10
0.0
 20
0.0
 30
0.0
  3
*Paper_Space0
  1

  0
ENDBLK
  5
25
330
23
100
AcDbEntity
  8
0
100
AcDbBlockEnd
  0
BLOCK
  5
48
330
47
100
AcDbEntity
  8
0
100
AcDbBlockBegin
  2
0707840_HDFK_10I-select__1
 70
     0
 10
-36.86347443794141
 20
53.38410327438551
 30
0.0
  3
0707840_HDFK_10I-select__1
  1

  0
LINE
  5
83
330
47
100
AcDbEntity
  8
0
  6
Continuous
 62
     2
100
AcDbLine
 10
-23.44520769820481
 20
86.09632616912158
 30
0.0
 11
-28.49520769820482
 21
81.72289788001015
 31
0.0
  0
LINE
  5
84
330
47
100
AcDbEntity
  8
0
  6
Continuous
 62
     7
100
AcDbLine
 10
-29.88084834425992
 20
81.4906755702748
 30
0.0
 11
-29.88084834425992
 21
81.08366739546884
 31
0.0
  0
LINE
  5
85
330
47
100
AcDbEntity
  8
0
  6
Continuous
 62
     2
100
AcDbLine
 10
-25.01016343869353
 20
86.58508071139698
 30
0.0
 11
-30.06016343869354
 21
82.21165242228555
 31
0.0
  0
LINE
  5
86
330
47
100
AcDbEntity
  8
0
  6
Continuous
 62
     7
100
AcDbLine
 10
-29.88084834425992
 20
81.08366739546884
 30
0.0
 11
-24.83084834425993
 21
85.45709568458025
 31
0.0
  0
LINE
  5
87
330
47
100
AcDbEntity
  8
0
  6
Continuous
 62
     7
100
AcDbLine
 10
-24.83084834425993
 20
85.86410385938626
 30
0.0
 11
-29.88084834425992
 21
81.4906755702748
 31
0.0
  0
LINE
  5
88
330
47
100
AcDbEntity
  8
0
  6
Continuous
 62
     7
100
AcDbLine
 10
-28.49520769820482
 20
81.72289788001015
 30
0.0
 11
-19.54324270288748
 21
79.13868818009888
 31
0.0
  0
LINE
  5
89
330
47
100
AcDbEntity
  8
0
  6
Continuous
 62
     2
100
AcDbLine
 10
-25.22229547304949
 20
86.76879244210569
 30
0.0
 11
-30.27229547304948
 21
82.39536415299426
 31
0.0
  0
LINE
  5
8A
330
47
100
AcDbEntity
  8
0
  6
Continuous
 62
     7
100
AcDbLine
 10
-26.61973975912324
 20
86.79775579155584
 30
0.0
 11
-25.22229547304949
 21
86.76879244210569
 31
0.0
  0
LINE
  5
8B
330
47
100
AcDbEntity
  8
0
  6
Continuous
 62
     7
100
AcDbLine
 10
-23.5761384323464
 20
86.07430687756838
 30
0.0
 11
-28.6261384323464
 21
81.70087858845697
 31
0.0
  0
LINE
  5
8C
330
47
100
AcDbEntity
  8
0
  6
Continuous
 62
     7
100
AcDbLine
 10
-30.74687374804435
 20
81.0738599247716
 30
0.0
 11
-30.74687374804435
 21
58.78749779702681
 31
0.0
  0
LINE
  5
8D
330
47
100
AcDbEntity
  8
0
  6
Continuous
 62
     7
100
AcDbLine
 10
-36.86347443794141
 20
72.1694156392915
 30
0.0
 11
-36.86347443794141
 21
68.68366338905913
 31
0.0
  0
LINE
  5
8E
330
47
100
AcDbEntity
  8
0
  6
Continuous
 62
     7
100
AcDbLine
 10
-33.26347443794141
 20
75.28710709291548
 30
0.0
 11
-36.86347443794141
 21
72.1694156392915
 31
0.0
  0
LINE
  5
8F
330
47
100
AcDbEntity
  8
0
  6
Continuous
 62
     7
100
AcDbLine
 10
-30.74687374804435
 20
66.91795286164037
 30
0.0
 11
-36.86347443794141
 21
68.68366338905913
 31
0.0
  0
LINE
  5
90
330
47
100
AcDbEntity
  8
0
  6
Continuous
 62
     7
100
AcDbLine
 10
-11.19011520973525
 20
66.53711572552861
 30
0.0
 11
-13.99011520973522
 21
64.1122445949322
 31
0.0
  0
LINE
  5
91
330
47
100
AcDbEntity
  8
0
  6
Continuous
 62
     7
100
AcDbLine
 10
-10.06511520973524
 20
71.32277992897178
 30
0.0
 11
-10.06511520973523
 21
58.41812756504951
 31
0.0
  0
LINE
  5
92
330
47
100
AcDbEntity
  8
0
  6
Continuous
 62
     7
100
AcDbLine
 10
-15.11511520973524
 20
54.0446992759381
 30
0.0
 11
-15.11511520973524
 21
66.94935163986038
 31
0.0
  0
LINE
  5
93
330
47
100
AcDbEntity
  8
0
  6
Continuous
 62
     7
100
AcDbLine
 10
-31.61289915182879
 20
59.0374977970268
 30
0.0
 11
-30.74687374804435
 21
59.7874977970268
 31
0.0
  0
LINE
  5
94
330
47
100
AcDbEntity
  8
0
  6
Continuous
 62
     7
100
AcDbLine
 10
-11.19011520973525
 20
66.53711572552861
 30
0.0
 11
-11.19011520973525
 21
57.73122011638844
 31
0.0
  0
LINE
  5
95
330
47
100
AcDbEntity
  8
0
  6
Continuous
 62
     2
100
AcDbLine
 10
-26.61973975912324
 20
86.79775579155584
 30
0.0
 11
-31.66973975912325
 21
82.42432750244441
 31
0.0
  0
LINE
  5
96
330
47
100
AcDbEntity
  8
0
  6
Continuous
 62
     7
100
AcDbLine
 10
-33.26347443794141
 20
75.28710709291548
 30
0.0
 11
-30.74687374804435
 21
74.56062705003804
 31
0.0
  0
LINE
  5
97
330
47
100
AcDbEntity
  8
0
  6
Continuous
 62
     7
100
AcDbLine
 10
-26.70584171965644
 20
86.76869736775683
 30
0.0
 11
-31.75584171965643
 21
82.39526907864541
 31
0.0
  0
LINE
  5
98
330
47
100
AcDbEntity
  8
0
  6
Continuous
 62
     7
100
AcDbLine
 10
-15.32648694281168
 20
53.53877032991964
 30
0.0
 11
-10.27648694281169
 21
57.91219861903106
 31
0.0
  0
LINE
  5
99
330
47
100
AcDbEntity
  8
0
  6
Continuous
 62
     7
100
AcDbLine
 10
-11.19011520973525
 20
57.73122011638844
 30
0.0
 11
-13.99011520973521
 21
60.15609124698483
 31
0.0
  0
LINE
  5
9A
330
47
100
AcDbEntity
  8
0
  6
Continuous
 62
     7
100
AcDbLine
 10
-13.99011520973522
 20
64.1122445949322
 30
0.0
 11
-13.99011520973522
 21
55.30634898579203
 31
0.0
  0
LINE
  5
9B
330
47
100
AcDbEntity
  8
0
  6
Continuous
 62
     7
100
AcDbLine
 10
-30.00512585675536
 20
57.47704969980039
 30
0.0
 11
-30.0965359652995
 21
57.39788622363849
 31
0.0
  0
LINE
  5
9C
330
47
100
AcDbEntity
  8
0
  6
Continuous
 62
     2
100
AcDbLine
 10
-30.02812852399021
 20
57.48368999786045
 30
0.0
 11
-30.06016343869352
 21
57.45594694791933
 31
0.0
  0
LINE
  5
9D
330
47
100
AcDbEntity
  8
0
  6
Continuous
 62
     7
100
AcDbLine
 10
-31.61289915182879
 20
59.0374977970268
 30
0.0
 11
-30.74687374804435
 21
58.78749779702681
 31
0.0
  0
LINE
  5
9E
330
47
100
AcDbEntity
  8
0
  6
Continuous
 62
     7
100
AcDbLine
 10
-31.7922142462624
 20
58.42004856305705
 30
0.0
 11
-31.61289915182879
 21
59.0374977970268
 31
0.0
  0
LINE
  5
9F
330
47
100
AcDbEntity
  8
0
  6
Continuous
 62
     7
100
AcDbLine
 10
-30.27229547304948
 20
57.39470970434973
 30
0.0
 11
-31.66973975912325
 21
58.17256118964177
 31
0.0
  0
LINE
  5
A0
330
47
100
AcDbEntity
  8
0
  6
Continuous
 62
     7
100
AcDbLine
 10
-30.05025180159046
 20
57.49007643799938
 30
0.0
 11
-30.06016343869352
 21
57.45594694791933
 31
0.0
  0
LINE
  5
A1
330
47
100
AcDbEntity
  8
0
  6
Continuous
 62
     7
100
AcDbLine
 10
-13.99011520973522
 20
55.30634898579203
 30
0.0
 11
-11.19011520973525
 21
57.73122011638844
 31
0.0
  0
LINE
  5
A2
330
47
100
AcDbEntity
  8
0
  6
Continuous
 62
     2
100
AcDbLine
 10
-15.11511520973524
 20
54.0446992759381
 30
0.0
 11
-10.06511520973523
 21
58.41812756504951
 31
0.0
  0
LINE
  5
A3
330
47
100
AcDbEntity
  8
0
  6
Continuous
 62
     7
100
AcDbLine
 10
-36.86347443794141
 20
72.1694156392915
 30
0.0
 11
-30.74687374804435
 21
70.40370511187274
 31
0.0
  0
LINE
  5
A4
330
47
100
AcDbEntity
  8
0
  6
Continuous
 62
     7
100
AcDbLine
 10
-10.06511520973524
 20
71.32277992897178
 30
0.0
 11
-15.11511520973524
 21
66.94935163986038
 31
0.0
  0
LINE
  5
A5
330
47
100
AcDbEntity
  8
0
  6
Continuous
 62
     7
100
AcDbLine
 10
-14.49324270288749
 20
83.5121164692103
 30
0.0
 11
-19.54324270288748
 21
79.13868818009888
 31
0.0
  0
LINE
  5
A6
330
47
100
AcDbEntity
  8
0
  6
Continuous
 62
     7
100
AcDbLine
 10
-14.49324270288749
 20
83.5121164692103
 30
0.0
 11
-23.44520769820481
 21
86.09632616912158
 31
0.0
  0
LINE
  5
A7
330
47
100
AcDbEntity
  8
0
  6
Continuous
 62
     2
100
AcDbLine
 10
-13.83407638690387
 20
82.76592103314555
 30
0.0
 11
-18.88407638690389
 21
78.39249274403414
 31
0.0
  0
LINE
  5
A8
330
47
100
AcDbEntity
  8
0
  6
Continuous
 62
     7
100
AcDbLine
 10
-10.06511520973524
 20
71.32277992897178
 30
0.0
 11
-13.83407638690387
 21
82.76592103314555
 31
0.0
  0
LINE
  5
A9
330
47
100
AcDbEntity
  8
0
  6
Continuous
 62
     7
100
AcDbLine
 10
-31.66973975912325
 20
82.42432750244441
 30
0.0
 11
-30.27229547304948
 21
82.39536415299426
 31
0.0
  0
LINE
  5
AA
330
47
100
AcDbEntity
  8
0
  6
Continuous
 62
     7
100
AcDbLine
 10
-30.74687374804435
 20
81.0738599247716
 30
0.0
 11
-31.55858209109791
 21
81.3081799399543
 31
0.0
  0
LINE
  5
AB
330
47
100
AcDbEntity
  8
0
  6
Continuous
 62
     7
100
AcDbLine
 10
-28.6684127789617
 20
81.59969279925328
 30
0.0
 11
-28.6684127789617
 21
80.73366739546884
 31
0.0
  0
LINE
  5
AC
330
47
100
AcDbEntity
  8
0
  6
Continuous
 62
     7
100
AcDbLine
 10
-29.88084834425992
 20
81.08366739546884
 30
0.0
 11
-28.6684127789617
 21
80.73366739546884
 31
0.0
  0
LINE
  5
AD
330
47
100
AcDbEntity
  8
0
  6
Continuous
 62
     7
100
AcDbLine
 10
-30.06016343869354
 20
82.21165242228555
 30
0.0
 11
-29.88084834425992
 21
81.4906755702748
 31
0.0
  0
LINE
  5
AE
330
47
100
AcDbEntity
  8
0
  6
Continuous
 62
     7
100
AcDbLine
 10
-30.74687374804435
 20
80.52778079139097
 30
0.0
 11
-34.99385945228625
 21
81.75377996118524
 31
0.0
  0
LINE
  5
AF
330
47
100
AcDbEntity
  8
0
  6
Continuous
 62
     7
100
AcDbLine
 10
-30.74687374804435
 20
77.40528179219177
 30
0.0
 11
-35.82590974662411
 21
78.87147319269368
 31
0.0
  0
LINE
  5
B0
330
47
100
AcDbEntity
  8
0
  6
Continuous
 62
     7
100
AcDbLine
 10
-31.55858209109791
 20
81.3081799399543
 30
0.0
 11
-31.79221424626241
 21
82.24755080714782
 31
0.0
  0
LINE
  5
B1
330
47
100
AcDbEntity
  8
0
  6
Continuous
 62
     7
100
AcDbLine
 10
-24.42433648295261
 20
85.33974581830297
 30
0.0
 11
-24.83084834425993
 21
85.45709568458025
 31
0.0
  0
LINE
  5
B2
330
47
100
AcDbEntity
  8
0
  6
Continuous
 62
     7
100
AcDbLine
 10
-25.01016343869353
 20
86.58508071139698
 30
0.0
 11
-24.83084834425993
 21
85.86410385938626
 31
0.0
  0
LINE
  5
B3
330
47
100
AcDbEntity
  8
0
  6
Continuous
 62
     7
100
AcDbLine
 10
-24.83084834425993
 20
85.86410385938626
 30
0.0
 11
-24.83084834425993
 21
85.45709568458025
 31
0.0
  0
LINE
  5
B4
330
47
100
AcDbEntity
  8
0
  6
Continuous
 62
     7
100
AcDbLine
 10
-15.11511520973524
 20
66.94935163986038
 30
0.0
 11
-18.88407638690389
 21
78.39249274403414
 31
0.0
  0
LINE
  5
B5
330
47
100
AcDbEntity
  8
0
  6
Continuous
 62
     7
100
AcDbLine
 10
-30.05025180159046
 20
57.49007643799938
 30
0.0
 11
-15.98114061351967
 21
53.42867387215366
 31
0.0
  0
SPLINE
  5
B6
330
47
100
AcDbEntity
  8
0
  6
Continuous
 62
     7
100
AcDbSpline
210
0.0
220
0.0
230
1.0
 70
     8
 71
     3
 72
     9
 73
     5
 74
     3
 42
0.000000001
 43
0.0000000001
 44
0.00000001
 40
0.0
 40
0.0
 40
0.0
 40
0.0
 40
0.0475964792529995
 40
0.0924559726347032
 40
0.0924559726347032
 40
0.0924559726347032
 40
0.0924559726347032
 10
-26.61973975912324
 20
86.79775579155584
 30
0.0
 10
-26.63592657144012
 20
86.79687681921526
 30
0.0
 10
-26.66736938565121
 20
86.79516940008463
 30
0.0
 10
-26.69327322246293
 20
86.77734550322229
 30
0.0
 10
-26.70584171965644
 20
86.76869736775683
 30
0.0
 11
-26.61973975912324
 21
86.79775579155584
 31
0.0
 11
-26.66683225112545
 21
86.79084766519875
 31
0.0
 11
-26.70584171965644
 21
86.76869736775683
 31
0.0
  0
SPLINE
  5
B7
330
47
100
AcDbEntity
  8
0
  6
Continuous
 62
     7
100
AcDbSpline
210
0.0
220
0.0
230
1.0
 70
     8
 71
     3
 72
    11
 73
     7
 74
     5
 42
0.000000001
 43
0.0000000001
 44
0.00000001
 40
0.0
 40
0.0
 40
0.0
 40
0.0
 40
0.0754166511381184
 40
0.1534519954081092
 40
0.2290237606622588
 40
0.2981187408330319
 40
0.2981187408330319
 40
0.2981187408330319
 40
0.2981187408330319
 10
-25.01016343869353
 20
86.58508071139698
 30
0.0
 10
-25.01872824257497
 20
86.60895539216376
 30
0.0
 10
-25.03615525964307
 20
86.65753374830089
 30
0.0
 10
-25.08809448710832
 20
86.71530626407556
 30
0.0
 10
-25.15102048830545
 20
86.75811699607928
 30
0.0
 10
-25.19925699931555
 20
86.76534178355632
 30
0.0
 10
-25.22229547304949
 20
86.76879244210569
 30
0.0
 11
-25.01016343869353
 21
86.58508071139698
 31
0.0
 11
-25.04005428787022
 21
86.65432093457942
 31
0.0
 11
-25.09086415906266
 21
86.71354822910301
 31
0.0
 11
-25.15485896851563
 21
86.75374470449168
 31
0.0
 11
-25.22229547304949
 21
86.76879244210569
 31
0.0
  0
SPLINE
  5
B8
330
47
100
AcDbEntity
  8
0
  6
Continuous
 62
     7
100
AcDbSpline
210
0.0
220
0.0
230
1.0
 70
     8
 71
     3
 72
    11
 73
     7
 74
     5
 42
0.000000001
 43
0.0000000001
 44
0.00000001
 40
0.0
 40
0.0
 40
0.0
 40
0.0
 40
0.1642822065646654
 40
0.3632574842566455
 40
0.6118818347379869
 40
0.9091995671591355
 40
0.9091995671591355
 40
0.9091995671591355
 40
0.9091995671591355
 10
-35.82590974662411
 20
78.87147319269368
 30
0.0
 10
-35.87581881197951
 20
78.89666223737544
 30
0.0
 10
-35.98617671695089
 20
78.95235975487492
 30
0.0
 10
-36.08613213040801
 20
79.14114797991923
 30
0.0
 10
-36.1498697767163
 20
79.38084689832408
 30
0.0
 10
-36.15635356183017
 20
79.56358767502073
 30
0.0
 10
-36.15988459945518
 20
79.66310752410114
 30
0.0
 11
-35.82590974662411
 21
78.87147319269368
 31
0.0
 11
-35.96520253567421
 21
78.95857177842241
 31
0.0
 11
-36.07114054853113
 21
79.12700070090446
 31
0.0
 11
-36.13736022661457
 21
79.36664423480329
 31
0.0
 11
-36.15988459945518
 21
79.66310752410114
 31
0.0
  0
SPLINE
  5
B9
330
47
100
AcDbEntity
  8
0
  6
Continuous
 62
     7
100
AcDbSpline
210
0.0
220
0.0
230
1.0
 70
     8
 71
     3
 72
    11
 73
     7
 74
     5
 42
0.000000001
 43
0.0000000001
 44
0.00000001
 40
0.0
 40
0.0
 40
0.0
 40
0.0
 40
0.134057810304174
 40
0.2712905770934171
 40
0.4142835042396636
 40
0.564651490433884
 40
0.564651490433884
 40
0.564651490433884
 40
0.564651490433884
 10
-10.27648694281169
 20
57.91219861903106
 30
0.0
 10
-10.24465889965937
 20
57.94388393890792
 30
0.0
 10
-10.18024902537593
 20
58.00800500737709
 30
0.0
 10
-10.114740369574
 20
58.13149817170036
 30
0.0
 10
-10.07244573561993
 20
58.26986958326627
 30
0.0
 10
-10.06759932610406
 20
58.36788685632088
 30
0.0
 10
-10.06511520973523
 20
58.41812756504951
 30
0.0
 11
-10.27648694281169
 21
57.91219861903106
 31
0.0
 11
-10.18625567375258
 21
58.01134404257483
 31
0.0
 11
-10.11967690221958
 21
58.13134445970377
 31
0.0
 11
-10.07886480410374
 21
58.26838952686289
 31
0.0
 11
-10.06511520973523
 21
58.41812756504951
 31
0.0
  0
SPLINE
  5
BA
330
47
100
AcDbEntity
  8
0
  6
Continuous
 62
     7
100
AcDbSpline
210
0.0
220
0.0
230
1.0
 70
     8
 71
     3
 72
    11
 73
     7
 74
     5
 42
0.000000001
 43
0.0000000001
 44
0.00000001
 40
0.0
 40
0.0
 40
0.0
 40
0.0
 40
0.0663081472720374
 40
0.1398549819723586
 40
0.217571404404674
 40
0.2945087948700292
 40
0.2945087948700292
 40
0.2945087948700292
 40
0.2945087948700292
 10
-31.7922142462624
 20
58.42004856305705
 30
0.0
 10
-31.79539578175437
 20
58.39788080717629
 30
0.0
 10
-31.80210615776058
 20
58.35112529861048
 30
0.0
 10
-31.77707650899414
 20
58.28075886337792
 30
0.0
 10
-31.7339436975088
 20
58.21662176077021
 30
0.0
 10
-31.69106908478152
 20
58.18719863889572
 30
0.0
 10
-31.66973975912325
 20
58.17256118964177
 30
0.0
 11
-31.7922142462624
 21
58.42004856305705
 31
0.0
 11
-31.79663375067131
 21
58.35388785955328
 31
0.0
 11
-31.77491098551484
 21
58.28362222794498
 31
0.0
 11
-31.73035123739644
 21
58.21994906546695
 31
0.0
 11
-31.66973975912325
 21
58.17256118964177
 31
0.0
  0
SPLINE
  5
BB
330
47
100
AcDbEntity
  8
0
  6
Continuous
 62
     7
100
AcDbSpline
210
0.0
220
0.0
230
1.0
 70
     8
 71
     3
 72
    11
 73
     7
 74
     5
 42
0.000000001
 43
0.0000000001
 44
0.00000001
 40
0.0
 40
0.0
 40
0.0
 40
0.0
 40
0.0518267084170162
 40
0.099916345509458
 40
0.1443544744557313
 40
0.1864903656627775
 40
0.1864903656627775
 40
0.1864903656627775
 40
0.1864903656627775
 10
-30.27229547304948
 20
57.39470970434973
 30
0.0
 10
-30.25660764255915
 20
57.38722395150535
 30
0.0
 10
-30.22636317967903
 20
57.37279223486541
 30
0.0
 10
-30.17800274148448
 20
57.3666900661161
 30
0.0
 10
-30.13231189748612
 20
57.37330131301135
 30
0.0
 10
-30.10824796532764
 20
57.38983783292372
 30
0.0
 10
-30.0965359652995
 20
57.39788622363849
 30
0.0
 11
-30.27229547304948
 21
57.39470970434973
 31
0.0
 11
-30.22436330084075
 21
57.37499893156734
 31
0.0
 11
-30.17667236350474
 21
57.36881929126669
 31
0.0
 11
-30.13292987338479
 21
57.37665141711233
 31
0.0
 11
-30.0965359652995
 21
57.39788622363849
 31
0.0
  0
SPLINE
  5
BC
330
47
100
AcDbEntity
  8
0
  6
Continuous
 62
     7
100
AcDbSpline
210
0.0
220
0.0
230
1.0
 70
     8
 71
     3
 72
     9
 73
     5
 74
     3
 42
0.000000001
 43
0.0000000001
 44
0.00000001
 40
0.0
 40
0.0
 40
0.0
 40
0.0
 40
0.0339890816466475
 40
0.0692354867127818
 40
0.0692354867127818
 40
0.0692354867127818
 40
0.0692354867127818
 10
-30.0965359652995
 20
57.39788622363849
 30
0.0
 10
-30.08849913422966
 20
57.40607353125117
 30
0.0
 10
-30.07212818958622
 20
57.42275102288986
 30
0.0
 10
-30.06419967731183
 20
57.44474847776031
 30
0.0
 10
-30.06016343869352
 20
57.45594694791933
 30
0.0
 11
-30.0965359652995
 21
57.39788622363849
 31
0.0
 11
-30.07446012556784
 21
57.42373027651919
 31
0.0
 11
-30.06016343869352
 21
57.45594694791933
 31
0.0
  0
SPLINE
  5
BD
330
47
100
AcDbEntity
  8
0
  6
Continuous
 62
     7
100
AcDbSpline
210
0.0
220
0.0
230
1.0
 70
     8
 71
     3
 72
    11
 73
     7
 74
     5
 42
0.000000001
 43
0.0000000001
 44
0.00000001
 40
0.0
 40
0.0
 40
0.0
 40
0.0
 40
0.1871411907843812
 40
0.3630362754382462
 40
0.5295381944253277
 40
0.6906435563658332
 40
0.6906435563658332
 40
0.6906435563658332
 40
0.6906435563658332
 10
-15.98114061351967
 20
53.42867387215366
 30
0.0
 10
-15.92007999888865
 20
53.41459307149334
 30
0.0
 10
-15.80162815804892
 20
53.3872776594641
 30
0.0
 10
-15.62356360500411
 20
53.3962246444362
 30
0.0
 10
-15.45908912851295
 20
53.44215386729799
 30
0.0
 10
-15.37019958699436
 20
53.50692046390277
 30
0.0
 10
-15.32648694281168
 20
53.53877032991964
 30
0.0
 11
-15.98114061351967
 21
53.42867387215366
 31
0.0
 11
-15.79699573123556
 21
53.3953198955923
 31
0.0
 11
-15.62127275793305
 21
53.40309924398269
 31
0.0
 11
-15.4620085373033
 21
53.45165640617662
 31
0.0
 11
-15.32648694281168
 21
53.53877032991964
 31
0.0
  0
SPLINE
  5
BE
330
47
100
AcDbEntity
  8
0
  6
Continuous
 62
     7
100
AcDbSpline
210
0.0
220
0.0
230
1.0
 70
     8
 71
     3
 72
    11
 73
     7
 74
     5
 42
0.000000001
 43
0.0000000001
 44
0.00000001
 40
0.0
 40
0.0
 40
0.0
 40
0.0
 40
0.1340578103041729
 40
0.2712905770934142
 40
0.4142835042396602
 40
0.5646514904338865
 40
0.5646514904338865
 40
0.5646514904338865
 40
0.5646514904338865
 10
-15.32648694281168
 20
53.53877032991964
 30
0.0
 10
-15.29465889965936
 20
53.57045564979648
 30
0.0
 10
-15.23024902537592
 20
53.63457671826568
 30
0.0
 10
-15.164740369574
 20
53.75806988258895
 30
0.0
 10
-15.12244573561993
 20
53.89644129415484
 30
0.0
 10
-15.11759932610406
 20
53.99445856720946
 30
0.0
 10
-15.11511520973524
 20
54.0446992759381
 30
0.0
 11
-15.32648694281168
 21
53.53877032991964
 31
0.0
 11
-15.23625567375257
 21
53.63791575346342
 31
0.0
 11
-15.16967690221957
 21
53.75791617059235
 31
0.0
 11
-15.12886480410374
 21
53.89496123775147
 31
0.0
 11
-15.11511520973524
 21
54.0446992759381
 31
0.0
  0
SPLINE
  5
BF
330
47
100
AcDbEntity
  8
0
  6
Continuous
 62
     7
100
AcDbSpline
210
0.0
220
0.0
230
1.0
 70
     8
 71
     3
 72
    11
 73
     7
 74
     5
 42
0.000000001
 43
0.0000000001
 44
0.00000001
 40
0.0
 40
0.0
 40
0.0
 40
0.0
 40
0.2519679948520058
 40
0.5110073322997768
 40
0.7696616226575931
 40
1.020545625304327
 40
1.020545625304327
 40
1.020545625304327
 40
1.020545625304327
 10
-13.83407638690387
 20
82.76592103314555
 30
0.0
 10
-13.8654936160864
 20
82.8441667117003
 30
0.0
 10
-13.92920979520871
 20
83.00285398420154
 30
0.0
 10
-14.0841618302252
 20
83.21007801459214
 30
0.0
 10
-14.27040156985164
 20
83.38923511983879
 30
0.0
 10
-14.41972134807051
 20
83.47157457325328
 30
0.0
 10
-14.49324270288749
 20
83.5121164692103
 30
0.0
 11
-13.83407638690387
 21
82.76592103314555
 31
0.0
 11
-13.93784956690115
 21
82.99552721335581
 31
0.0
 11
-14.0895526297323
 21
83.20549759257261
 31
0.0
 11
-14.27894548782863
 21
83.38165771378436
 31
0.0
 11
-14.49324270288749
 21
83.5121164692103
 31
0.0
  0
SPLINE
  5
C0
330
47
100
AcDbEntity
  8
0
  6
Continuous
 62
     7
100
AcDbSpline
210
0.0
220
0.0
230
1.0
 70
     8
 71
     3
 72
     9
 73
     5
 74
     3
 42
0.000000001
 43
0.0000000001
 44
0.00000001
 40
0.0
 40
0.0
 40
0.0
 40
0.0
 40
0.0475964792529974
 40
0.0924559726346857
 40
0.0924559726346857
 40
0.0924559726346857
 40
0.0924559726346857
 10
-31.66973975912325
 20
82.42432750244441
 30
0.0
 10
-31.68592657144013
 20
82.42344853010384
 30
0.0
 10
-31.71736938565122
 20
82.42174111097324
 30
0.0
 10
-31.74327322246293
 20
82.40391721411088
 30
0.0
 10
-31.75584171965643
 20
82.39526907864541
 30
0.0
 11
-31.66973975912325
 21
82.42432750244441
 31
0.0
 11
-31.71683225112546
 21
82.41741937608734
 31
0.0
 11
-31.75584171965643
 21
82.39526907864541
 31
0.0
  0
SPLINE
  5
C1
330
47
100
AcDbEntity
  8
0
  6
Continuous
 62
     7
100
AcDbSpline
210
0.0
220
0.0
230
1.0
 70
     8
 71
     3
 72
    11
 73
     7
 74
     5
 42
0.000000001
 43
0.0000000001
 44
0.00000001
 40
0.0
 40
0.0
 40
0.0
 40
0.0
 40
0.0754166511381099
 40
0.1534519954081031
 40
0.2290237606622663
 40
0.2981187408330292
 40
0.2981187408330292
 40
0.2981187408330292
 40
0.2981187408330292
 10
-30.06016343869354
 20
82.21165242228555
 30
0.0
 10
-30.06872824257497
 20
82.23552710305235
 30
0.0
 10
-30.08615525964306
 20
82.28410545918948
 30
0.0
 10
-30.13809448710831
 20
82.34187797496409
 30
0.0
 10
-30.20102048830543
 20
82.38468870696788
 30
0.0
 10
-30.24925699931555
 20
82.39191349444492
 30
0.0
 10
-30.27229547304948
 20
82.39536415299426
 30
0.0
 11
-30.06016343869354
 21
82.21165242228555
 31
0.0
 11
-30.09005428787021
 21
82.28089264546799
 31
0.0
 11
-30.14086415906265
 21
82.34011993999158
 31
0.0
 11
-30.20485896851563
 21
82.38031641538026
 31
0.0
 11
-30.27229547304948
 21
82.39536415299426
 31
0.0
  0
SPLINE
  5
C2
330
47
100
AcDbEntity
  8
0
  6
Continuous
 62
     7
100
AcDbSpline
210
0.0
220
0.0
230
1.0
 70
     8
 71
     3
 72
    11
 73
     7
 74
     5
 42
0.000000001
 43
0.0000000001
 44
0.00000001
 40
0.0
 40
0.0
 40
0.0
 40
0.0
 40
0.0367009166514446
 40
0.0749653037894656
 40
0.1158461274810636
 40
0.1596626890902567
 40
0.1596626890902567
 40
0.1596626890902567
 40
0.1596626890902567
 10
-31.75584171965643
 20
82.39526907864541
 30
0.0
 10
-31.76435279415278
 20
82.38632668872111
 30
0.0
 10
-31.78173750615975
 20
82.36806095104771
 30
0.0
 10
-31.79553012164661
 20
82.33107453443596
 30
0.0
 10
-31.80016258131861
 20
82.28987538881987
 30
0.0
 10
-31.79492421940093
 20
82.26198128425554
 30
0.0
 10
-31.79221424626241
 20
82.24755080714782
 30
0.0
 11
-31.75584171965643
 21
82.39526907864541
 31
0.0
 11
-31.77934739520184
 21
82.36708325473543
 31
0.0
 11
-31.79371300548458
 21
82.33161787989333
 31
0.0
 11
-31.79808823130741
 21
82.29097185488894
 31
0.0
 11
-31.79221424626241
 21
82.24755080714782
 31
0.0
  0
SPLINE
  5
C3
330
47
100
AcDbEntity
  8
0
  6
Continuous
 62
     7
100
AcDbSpline
210
0.0
220
0.0
230
1.0
 70
     8
 71
     3
 72
     9
 73
     5
 74
     3
 42
0.000000001
 43
0.0000000001
 44
0.00000001
 40
0.0
 40
0.0
 40
0.0
 40
0.0
 40
0.0538940626129873
 40
0.1122793847777729
 40
0.1122793847777729
 40
0.1122793847777729
 40
0.1122793847777729
 10
-28.6261384323464
 20
81.70087858845697
 30
0.0
 10
-28.63829542553607
 20
81.68699800227293
 30
0.0
 10
-28.66362249777507
 20
81.6580800822027
 30
0.0
 10
-28.66677400404478
 20
81.61966740748768
 30
0.0
 10
-28.6684127789617
 20
81.59969279925328
 30
0.0
 11
-28.6261384323464
 21
81.70087858845697
 31
0.0
 11
-28.65750016267328
 21
81.65704923656335
 31
0.0
 11
-28.6684127789617
 21
81.59969279925328
 31
0.0
  0
SPLINE
  5
C4
330
47
100
AcDbEntity
  8
0
  6
Continuous
 62
     7
100
AcDbSpline
210
0.0
220
0.0
230
1.0
 70
     8
 71
     3
 72
    11
 73
     7
 74
     5
 42
0.000000001
 43
0.0000000001
 44
0.00000001
 40
0.0
 40
0.0
 40
0.0
 40
0.0
 40
0.037428237866844
 40
0.0726072529732053
 40
0.1059076344961881
 40
0.1381287053015143
 40
0.1381287053015143
 40
0.1381287053015143
 40
0.1381287053015143
 10
-28.49520769820482
 20
81.72289788001015
 30
0.0
 10
-28.50741982103638
 20
81.72571404012037
 30
0.0
 10
-28.53111019036859
 20
81.73117711085507
 30
0.0
 10
-28.56672309951207
 20
81.72938771931904
 30
0.0
 10
-28.59961799044412
 20
81.72020186989485
 30
0.0
 10
-28.61739590393931
 20
81.70724856134744
 30
0.0
 10
-28.6261384323464
 20
81.70087858845697
 30
0.0
 11
-28.49520769820482
 21
81.72289788001015
 31
0.0
 11
-28.53203667466163
 21
81.72956867532243
 31
0.0
 11
-28.56718126932213
 21
81.72801280564435
 31
0.0
 11
-28.59903411344808
 21
81.71830137320556
 31
0.0
 11
-28.6261384323464
 21
81.70087858845697
 31
0.0
  0
SPLINE
  5
C5
330
47
100
AcDbEntity
  8
0
  6
Continuous
 62
     7
100
AcDbSpline
210
0.0
220
0.0
230
1.0
 70
     8
 71
     3
 72
    15
 73
    11
 74
     9
 42
0.000000001
 43
0.0000000001
 44
0.00000001
 40
0.0
 40
0.0
 40
0.0
 40
0.0
 40
0.3708066175107547
 40
0.7688744696031935
 40
1.171193240508583
 40
1.554256379438842
 40
1.896875088935436
 40
2.183502489667239
 40
2.409456085454505
 40
2.590918908706946
 40
2.590918908706946
 40
2.590918908706946
 40
2.590918908706946
 10
-36.15988459945518
 20
79.66310752410114
 30
0.0
 10
-36.15411748520756
 20
79.78675526064005
 30
0.0
 10
-36.14215926349286
 20
80.04314115899021
 30
0.0
 10
-36.05949505796897
 20
80.42627367258238
 30
0.0
 10
-35.93703153750333
 20
80.80201494977892
 30
0.0
 10
-35.77769025461625
 20
81.1432760106237
 30
0.0
 10
-35.59364452925761
 20
81.42932501200944
 30
0.0
 10
-35.39793128118645
 20
81.63450229875717
 30
0.0
 10
-35.19417444812704
 20
81.7683306245176
 30
0.0
 10
-35.05558641174049
 20
81.75826374328275
 30
0.0
 10
-34.99385945228625
 20
81.75377996118524
 30
0.0
 11
-36.15988459945518
 21
79.66310752410114
 31
0.0
 11
-36.13274256648054
 21
80.03291943610488
 31
0.0
 11
-36.05328186519066
 21
80.42297585781077
 31
0.0
 11
-35.9272528710944
 21
80.8050453359963
 31
0.0
 11
-35.76377804360421
 21
81.15147476468039
 31
0.0
 11
-35.57468884936573
 21
81.4371894062381
 31
0.0
 11
-35.37367153192554
 21
81.64151097702727
 31
0.0
 11
-35.17527527121337
 21
81.74964954993197
 31
0.0
 11
-34.99385945228625
 21
81.75377996118524
 31
0.0
  0
SPLINE
  5
C6
330
47
100
AcDbEntity
  8
0
  6
Continuous
 62
     7
100
AcDbSpline
210
0.0
220
0.0
230
1.0
 70
     8
 71
     3
 72
    11
 73
     7
 74
     5
 42
0.000000001
 43
0.0000000001
 44
0.00000001
 40
0.0
 40
0.0
 40
0.0
 40
0.0
 40
0.037428237866859
 40
0.0726072529732173
 40
0.1059076344961858
 40
0.1381287053015226
 40
0.1381287053015226
 40
0.1381287053015226
 40
0.1381287053015226
 10
-23.44520769820481
 20
86.09632616912158
 30
0.0
 10
-23.45741982103639
 20
86.09914232923181
 30
0.0
 10
-23.4811101903686
 20
86.10460539996646
 30
0.0
 10
-23.51672309951207
 20
86.10281600843045
 30
0.0
 10
-23.54961799044412
 20
86.09363015900627
 30
0.0
 10
-23.56739590393931
 20
86.08067685045884
 30
0.0
 10
-23.5761384323464
 20
86.07430687756838
 30
0.0
 11
-23.44520769820481
 21
86.09632616912158
 31
0.0
 11
-23.48203667466164
 21
86.10299696443384
 31
0.0
 11
-23.51718126932214
 21
86.10144109475576
 31
0.0
 11
-23.54903411344808
 21
86.09172966231698
 31
0.0
 11
-23.5761384323464
 21
86.07430687756838
 31
0.0
  0
SPLINE
  5
C7
330
47
100
AcDbEntity
  8
0
  6
Continuous
 62
     7
100
AcDbSpline
210
0.0
220
0.0
230
1.0
 70
     8
 71
     3
 72
     9
 73
     5
 74
     3
 42
0.000000001
 43
0.0000000001
 44
0.00000001
 40
0.0
 40
0.0
 40
0.0
 40
0.0
 40
0.3679991520906385
 40
0.6824769407123787
 40
0.6824769407123787
 40
0.6824769407123787
 40
0.6824769407123787
 10
-22.81048543365896
 20
82.99747877456586
 30
0.0
 10
-22.90141763368458
 20
82.90953004310906
 30
0.0
 10
-23.07005694536815
 20
82.74642372982672
 30
0.0
 10
-23.10789184289931
 20
82.51610642960308
 30
0.0
 10
-23.12532573476553
 20
82.40997877456587
 30
0.0
 11
-22.81048543365896
 21
82.99747877456586
 31
0.0
 11
-23.04525082136956
 21
82.71409107148321
 31
0.0
 11
-23.12532573476553
 21
82.40997877456587
 31
0.0
  0
SPLINE
  5
C8
330
47
100
AcDbEntity
  8
0
  6
Continuous
 62
     7
100
AcDbSpline
210
0.0
220
0.0
230
1.0
 70
     8
 71
     3
 72
    19
 73
    15
 74
    13
 42
0.000000001
 43
0.0000000001
 44
0.00000001
 40
0.0
 40
0.0
 40
0.0
 40
0.0
 40
0.3144777864523525
 40
0.6824769370621699
 40
1.128224761871851
 40
1.64951673080014
 40
2.228319859123266
 40
2.837860800290922
 40
3.447401741458575
 40
4.026204869781701
 40
4.547496838709996
 40
4.993244663519675
 40
5.361243814129487
 40
5.67572160058184
 40
5.67572160058184
 40
5.67572160058184
 40
5.67572160058184
 10
-23.12532573476553
 20
82.40997877456587
 30
0.0
 10
-23.10741926768467
 20
82.30468201561007
 30
0.0
 10
-23.06855879144394
 20
82.0761679192698
 30
0.0
 10
-22.79911840637154
 20
81.79010493542847
 30
0.0
 10
-22.42252174887762
 20
81.5531684983917
 30
0.0
 10
-21.93525753591386
 20
81.37326304772816
 30
0.0
 10
-21.37518680920902
 20
81.26041192466278
 30
0.0
 10
-20.77532573476553
 20
81.22193325633273
 30
0.0
 10
-20.17546466032206
 20
81.26041192466279
 30
0.0
 10
-19.61539393361721
 20
81.37326304772813
 30
0.0
 10
-19.12812972065344
 20
81.55316849839173
 30
0.0
 10
-18.75153306315953
 20
81.79010493542843
 30
0.0
 10
-18.48209267808713
 20
82.07616791926984
 30
0.0
 10
-18.44323220184641
 20
82.30468201561008
 30
0.0
 10
-18.42532573476554
 20
82.40997877456587
 30
0.0
 11
-23.12532573476553
 21
82.40997877456587
 31
0.0
 11
-23.04525082136956
 21
82.1058664776485
 31
0.0
 11
-22.81048543365896
 21
81.82247877456587
 31
0.0
 11
-22.43702622753486
 21
81.57912852818122
 31
0.0
 11
-21.95032573476553
 21
81.39239892511915
 31
0.0
 11
-21.38355032860024
 21
81.27501623126385
 31
0.0
 11
-20.77532573476553
 21
81.23497877456586
 31
0.0
 11
-20.16710114093084
 21
81.27501623126386
 31
0.0
 11
-19.60032573476553
 21
81.39239892511915
 31
0.0
 11
-19.1136252419962
 21
81.57912852818122
 31
0.0
 11
-18.7401660358721
 21
81.82247877456587
 31
0.0
 11
-18.50540064816151
 21
82.1058664776485
 31
0.0
 11
-18.42532573476554
 21
82.40997877456587
 31
0.0
  0
SPLINE
  5
C9
330
47
100
AcDbEntity
  8
0
  6
Continuous
 62
     7
100
AcDbSpline
210
0.0
220
0.0
230
1.0
 70
     8
 71
     3
 72
    17
 73
    13
 74
    11
 42
0.000000001
 43
0.0000000001
 44
0.00000001
 40
0.0
 40
0.0
 40
0.0
 40
0.0
 40
0.3144777818313212
 40
0.6824769359787024
 40
1.128224759743301
 40
1.649516727054137
 40
2.228319852936624
 40
2.837860790873121
 40
3.447401728586585
 40
4.026204853559988
 40
4.547496821478012
 40
4.993244650916249
 40
4.993244650916249
 40
4.993244650916249
 40
4.993244650916249
 10
-18.42532573476554
 20
82.40997877456587
 30
0.0
 10
-18.44323221527769
 20
82.51527555605229
 30
0.0
 10
-18.48209271387265
 20
82.74378970665083
 30
0.0
 10
-18.75153283648972
 20
83.02985220867575
 30
0.0
 10
-19.12813084439292
 20
83.26679102814767
 30
0.0
 10
-19.61538872698006
 20
83.44668534766157
 30
0.0
 10
-20.17548683575907
 20
83.55958461886802
 30
0.0
 10
-20.77523838862982
 20
83.59787072854314
 30
0.0
 10
-21.37550515802451
 20
83.56010537125596
 30
0.0
 10
-21.93418289654206
 20
83.44480506367834
 30
0.0
 10
-22.42588039426743
 20
83.27269433357293
 30
0.0
 10
-22.68913891609227
 20
83.0843118842036
 30
0.0
 10
-22.81048543365896
 20
82.99747877456586
 30
0.0
 11
-18.42532573476554
 21
82.40997877456587
 31
0.0
 11
-18.50540064816151
 21
82.71409107148321
 31
0.0
 11
-18.7401660358721
 21
82.99747877456586
 31
0.0
 11
-19.1136252419962
 21
83.24082902095053
 31
0.0
 11
-19.60032573476553
 21
83.42755862401259
 31
0.0
 11
-20.16710114093084
 21
83.54494131786787
 31
0.0
 11
-20.77532573476553
 21
83.58497877456587
 31
0.0
 11
-21.38355032860024
 21
83.5449413178679
 31
0.0
 11
-21.95032573476553
 21
83.42755862401259
 31
0.0
 11
-22.43702622753486
 21
83.24082902095053
 31
0.0
 11
-22.81048543365896
 21
82.99747877456586
 31
0.0
  0
SPLINE
  5
CA
330
47
100
AcDbEntity
  8
0
  6
Continuous
 62
     7
100
AcDbSpline
210
0.0
220
0.0
230
1.0
 70
     8
 71
     3
 72
    11
 73
     7
 74
     5
 42
0.000000001
 43
0.0000000001
 44
0.00000001
 40
0.0
 40
0.0
 40
0.0
 40
0.0
 40
0.2519679948519984
 40
0.5110073322997579
 40
0.769661622657573
 40
1.020545625304298
 40
1.020545625304298
 40
1.020545625304298
 40
1.020545625304298
 10
-18.88407638690389
 20
78.39249274403414
 30
0.0
 10
-18.91549361608641
 20
78.47073842258888
 30
0.0
 10
-18.9792097952087
 20
78.62942569509015
 30
0.0
 10
-19.1341618302252
 20
78.83664972548071
 30
0.0
 10
-19.32040156985164
 20
79.01580683072737
 30
0.0
 10
-19.4697213480705
 20
79.09814628414183
 30
0.0
 10
-19.54324270288748
 20
79.13868818009888
 30
0.0
 11
-18.88407638690389
 21
78.39249274403414
 31
0.0
 11
-18.98784956690115
 21
78.62209892424441
 31
0.0
 11
-19.1395526297323
 21
78.8320693034612
 31
0.0
 11
-19.32894548782863
 21
79.00822942467295
 31
0.0
 11
-19.54324270288748
 21
79.13868818009888
 31
0.0
  0
ENDBLK
  5
49
330
47
100
AcDbEntity
  8
0
100
AcDbBlockEnd
  0
BLOCK
  5
4C
330
4A
100
AcDbEntity
  8
0
100
AcDbBlockBegin
  2
Allg1
 70
     0
 10
-23.99999999997994
 20
70.999999999995
 30
0.0
  3
Allg1
  1

  0
INSERT
  5
4B
330
4A
100
AcDbEntity
  8
0
100
AcDbBlockReference
  2
0707840_HDFK_10I-select__1
 10
-36.86347443794141
 20
53.38410327438551
 30
0.0
  0
MTEXT
  5
CC
330
4A
100
AcDbEntity
  8
1
 62
     6
100
AcDbMText
 10
-23.99999999998011
 20
48.01330679053649
 30
0.0
 40
5.0
 41
0.0
 71
     2
 72
     1
  1
 
  7
CONVERTER_11
 73
     1
 44
1.32052821128451
  0
ENDBLK
  5
4D
330
4A
100
AcDbEntity
  8
0
100
AcDbBlockEnd
  0
BLOCK
  5
4F
330
4E
100
AcDbEntity
  8
0
100
AcDbBlockBegin
  2
0707840_HDFK_10I-select__2
 70
     0
 10
-68.05000019074123
 20
130.5590505178789
 30
0.0
  3
0707840_HDFK_10I-select__2
  1

  0
LINE
  5
CD
330
4E
100
AcDbEntity
  8
0
  6
Continuous
 62
     7
100
AcDbLine
 10
-57.95000019071206
 20
131.2431850937271
 30
0.0
 11
-57.95000019071206
 21
130.998236119449
 31
0.0
  0
LINE
  5
CE
330
4E
100
AcDbEntity
  8
0
  6
Continuous
 62
     7
100
AcDbLine
 10
-57.95000019071206
 20
131.2431850937271
 30
0.0
 11
-57.95000019071476
 21
132.0159257547603
 31
0.0
  0
LINE
  5
CF
330
4E
100
AcDbEntity
  8
0
  6
Continuous
 62
     7
100
AcDbLine
 10
-57.95000019071432
 20
130.5658653526304
 30
0.0
 11
-57.95000019071206
 21
130.998236119449
 31
0.0
  0
LINE
  5
D0
330
4E
100
AcDbEntity
  8
0
  6
Continuous
 62
     7
100
AcDbLine
 10
-57.95000019071432
 20
130.5658653526304
 30
0.0
 11
-57.95000019071441
 21
130.5590505178883
 31
0.0
  0
LINE
  5
D1
330
4E
100
AcDbEntity
  8
0
  6
Continuous
 62
     7
100
AcDbLine
 10
-68.05000019071205
 20
131.2431850937177
 30
0.0
 11
-68.05000019071477
 21
132.0159257547509
 31
0.0
  0
LINE
  5
D2
330
4E
100
AcDbEntity
  8
0
  6
Continuous
 62
     7
100
AcDbLine
 10
-68.05000019073714
 20
157.7500001021713
 30
0.0
 11
-68.05000019073762
 21
158.7568147632021
 31
0.0
  0
LINE
  5
D3
330
4E
100
AcDbEntity
  8
0
  6
Continuous
 62
     7
100
AcDbLine
 10
-68.05000019073809
 20
159.0017637374806
 30
0.0
 11
-68.05000019073762
 21
158.7568147632021
 31
0.0
  0
LINE
  5
D4
330
4E
100
AcDbEntity
  8
0
  6
Continuous
 62
     7
100
AcDbLine
 10
-68.05000019071477
 20
132.0159257547509
 30
0.0
 11
-68.05000019073714
 21
157.7500001021713
 31
0.0
  0
LINE
  5
D5
330
4E
100
AcDbEntity
  8
0
  6
Continuous
 62
     7
100
AcDbLine
 10
-60.30000019071247
 20
143.5499999284564
 30
0.0
 11
-60.30000019071042
 21
141.3499999284564
 31
0.0
  0
LINE
  5
D6
330
4E
100
AcDbEntity
  8
0
  6
Continuous
 62
     7
100
AcDbLine
 10
-65.70000019071246
 20
143.5499999284514
 30
0.0
 11
-60.30000019071247
 21
143.5499999284564
 31
0.0
  0
LINE
  5
D7
330
4E
100
AcDbEntity
  8
0
  6
Continuous
 62
     7
100
AcDbLine
 10
-65.70000019071043
 20
141.3499999284514
 30
0.0
 11
-65.70000019071246
 21
143.5499999284514
 31
0.0
  0
LINE
  5
D8
330
4E
100
AcDbEntity
  8
0
  6
Continuous
 62
     7
100
AcDbLine
 10
-60.30000019071042
 20
141.3499999284564
 30
0.0
 11
-65.70000019071043
 21
141.3499999284514
 31
0.0
  0
LINE
  5
D9
330
4E
100
AcDbEntity
  8
0
  6
Continuous
 62
     7
100
AcDbLine
 10
-66.60000019071332
 20
144.4624999284505
 30
0.0
 11
-59.40000019071331
 21
144.4624999284573
 31
0.0
  0
LINE
  5
DA
330
4E
100
AcDbEntity
  8
0
  6
Continuous
 62
     7
100
AcDbLine
 10
-66.60000019071332
 20
144.4624999284505
 30
0.0
 11
-66.60000019070958
 21
140.4374999284506
 31
0.0
  0
LINE
  5
DB
330
4E
100
AcDbEntity
  8
0
  6
Continuous
 62
     7
100
AcDbLine
 10
-59.40000019071331
 20
144.4624999284573
 30
0.0
 11
-59.40000019070958
 21
140.4374999284572
 31
0.0
  0
LINE
  5
DC
330
4E
100
AcDbEntity
  8
0
  6
Continuous
 62
     7
100
AcDbLine
 10
-59.40000019070958
 20
140.4374999284572
 30
0.0
 11
-66.60000019070958
 21
140.4374999284506
 31
0.0
  0
LINE
  5
DD
330
4E
100
AcDbEntity
  8
0
  6
Continuous
 62
     7
100
AcDbLine
 10
-68.05000019071431
 20
130.565865352621
 30
0.0
 11
-68.0500001907144
 21
130.5590505178789
 31
0.0
  0
LINE
  5
DE
330
4E
100
AcDbEntity
  8
0
  6
Continuous
 62
     7
100
AcDbLine
 10
-68.05000019071431
 20
130.565865352621
 30
0.0
 11
-68.05000019071207
 21
130.9982361194396
 31
0.0
  0
LINE
  5
DF
330
4E
100
AcDbEntity
  8
0
  6
Continuous
 62
     2
100
AcDbLine
 10
-68.05000019071431
 20
130.565865352621
 30
0.0
 11
-57.95000019071432
 21
130.5658653526304
 31
0.0
  0
LINE
  5
E0
330
4E
100
AcDbEntity
  8
0
  6
Continuous
 62
     7
100
AcDbLine
 10
-68.0500001907144
 20
130.5590505178789
 30
0.0
 11
-57.95000019071441
 21
130.5590505178883
 31
0.0
  0
LINE
  5
E1
330
4E
100
AcDbEntity
  8
0
  6
Continuous
 62
     7
100
AcDbLine
 10
-57.95000019071476
 20
132.0159257547603
 30
0.0
 11
-68.05000019071477
 21
132.0159257547509
 31
0.0
  0
LINE
  5
E2
330
4E
100
AcDbEntity
  8
0
  6
Continuous
 62
     7
100
AcDbLine
 10
-68.05000019071205
 20
131.2431850937177
 30
0.0
 11
-68.05000019071207
 21
130.9982361194396
 31
0.0
  0
LINE
  5
E3
330
4E
100
AcDbEntity
  8
0
  6
Continuous
 62
     2
100
AcDbLine
 10
-68.05000019071205
 20
131.2431850937177
 30
0.0
 11
-57.95000019071206
 21
131.2431850937271
 31
0.0
  0
LINE
  5
E4
330
4E
100
AcDbEntity
  8
0
  6
Continuous
 62
     2
100
AcDbLine
 10
-68.05000019071207
 20
130.9982361194396
 30
0.0
 11
-57.95000019071206
 21
130.998236119449
 31
0.0
  0
LINE
  5
E5
330
4E
100
AcDbEntity
  8
0
  6
Continuous
 62
     7
100
AcDbLine
 10
-68.05000019073714
 20
157.7500001021713
 30
0.0
 11
-57.95000019073713
 21
157.7500001021807
 31
0.0
  0
LINE
  5
E6
330
4E
100
AcDbEntity
  8
0
  6
Continuous
 62
     7
100
AcDbLine
 10
-68.05000019074123
 20
159.4409493390467
 30
0.0
 11
-68.05000019074114
 21
159.4341345043045
 31
0.0
  0
LINE
  5
E7
330
4E
100
AcDbEntity
  8
0
  6
Continuous
 62
     7
100
AcDbLine
 10
-68.05000019073809
 20
159.0017637374806
 30
0.0
 11
-68.05000019074114
 21
159.4341345043045
 31
0.0
  0
LINE
  5
E8
330
4E
100
AcDbEntity
  8
0
  6
Continuous
 62
     2
100
AcDbLine
 10
-68.05000019074114
 20
159.4341345043045
 30
0.0
 11
-57.95000019074115
 21
159.4341345043139
 31
0.0
  0
LINE
  5
E9
330
4E
100
AcDbEntity
  8
0
  6
Continuous
 62
     2
100
AcDbLine
 10
-68.05000019073809
 20
159.0017637374806
 30
0.0
 11
-57.95000019073808
 21
159.0017637374901
 31
0.0
  0
LINE
  5
EA
330
4E
100
AcDbEntity
  8
0
  6
Continuous
 62
     7
100
AcDbLine
 10
-68.05000019074123
 20
159.4409493390467
 30
0.0
 11
-57.95000019074124
 21
159.4409493390561
 31
0.0
  0
LINE
  5
EB
330
4E
100
AcDbEntity
  8
0
  6
Continuous
 62
     7
100
AcDbLine
 10
-57.95000019073808
 20
159.0017637374901
 30
0.0
 11
-57.95000019074115
 21
159.4341345043139
 31
0.0
  0
LINE
  5
EC
330
4E
100
AcDbEntity
  8
0
  6
Continuous
 62
     7
100
AcDbLine
 10
-57.95000019074124
 20
159.4409493390561
 30
0.0
 11
-57.95000019074115
 21
159.4341345043139
 31
0.0
  0
LINE
  5
ED
330
4E
100
AcDbEntity
  8
0
  6
Continuous
 62
     7
100
AcDbLine
 10
-57.95000019073808
 20
159.0017637374901
 30
0.0
 11
-57.95000019073763
 21
158.7568147632115
 31
0.0
  0
LINE
  5
EE
330
4E
100
AcDbEntity
  8
0
  6
Continuous
 62
     7
100
AcDbLine
 10
-57.95000019073713
 20
157.7500001021807
 30
0.0
 11
-57.95000019073763
 21
158.7568147632115
 31
0.0
  0
LINE
  5
EF
330
4E
100
AcDbEntity
  8
0
  6
Continuous
 62
     7
100
AcDbLine
 10
-57.95000019073713
 20
157.7500001021807
 30
0.0
 11
-57.95000019071476
 21
132.0159257547603
 31
0.0
  0
LINE
  5
F0
330
4E
100
AcDbEntity
  8
0
  6
Continuous
 62
     2
100
AcDbLine
 10
-68.05000019073762
 20
158.7568147632021
 30
0.0
 11
-57.95000019073763
 21
158.7568147632115
 31
0.0
  0
LINE
  5
F1
330
4E
100
AcDbEntity
  8
1
  6
DOT_CENTER
 62
     2
100
AcDbLine
 10
-61.3500001907196
 20
151.9499999284533
 30
0.0
 11
-64.65000019071961
 21
151.9499999284533
 31
0.0
  0
LINE
  5
F2
330
4E
100
AcDbEntity
  8
1
  6
DOT_CENTER
 62
     2
100
AcDbLine
 10
-63.0000001907196
 20
153.5999999284533
 30
0.0
 11
-63.0000001907196
 21
150.2999999284533
 31
0.0
  0
CIRCLE
  5
F3
330
4E
100
AcDbEntity
  8
0
  6
Continuous
 62
     7
100
AcDbCircle
 10
-63.0000001907196
 20
151.9499999284533
 30
0.0
 40
1.5
  0
ENDBLK
  5
50
330
4E
100
AcDbEntity
  8
0
100
AcDbBlockEnd
  0
BLOCK
  5
53
330
51
100
AcDbEntity
  8
0
100
AcDbBlockBegin
  2
SA_Links1
 70
     0
 10
-63.0
 20
145.0
 30
0.0
  3
SA_Links1
  1

  0
INSERT
  5
52
330
51
100
AcDbEntity
  8
0
100
AcDbBlockReference
  2
0707840_HDFK_10I-select__2
 10
-68.05000019074123
 20
130.5590505178789
 30
0.0
  0
MTEXT
  5
F4
330
51
100
AcDbEntity
  8
1
 62
     6
100
AcDbMText
 10
-60.75048809873299
 20
124.977945909998
 30
0.0
 40
5.0
 41
0.0
 71
     2
 72
     1
  1
 
  7
CONVERTER_11
 73
     1
 44
1.32052821128451
  0
DIMENSION
  5
101
330
51
100
AcDbEntity
  8
1
100
AcDbDimension
  2
*D16
 10
-68.05000019071477
 20
119.127945909998
 30
0.0
 11
-49.0
 21
123.052945909998
 31
0.0
 70
    32
  1
<>
 71
     5
 42
-1.0
 53
0.00013888888889
  3
ME10_DIM_10
100
AcDbAlignedDimension
 13
-57.95000019071476
 23
132.0159257547603
 33
0.0
 14
-68.05000019071477
 24
132.0159257547509
 34
0.0
100
AcDbRotatedDimension
  0
ENDBLK
  5
54
330
51
100
AcDbEntity
  8
0
100
AcDbBlockEnd
  0
BLOCK
  5
56
330
55
100
AcDbEntity
  8
0
100
AcDbBlockBegin
  2
0707840_HDFK_10I-select__3
 70
     0
 10
-130.3999969303385
 20
90.45904844072996
 30
0.0
  3
0707840_HDFK_10I-select__3
  1

  0
LINE
  5
102
330
55
100
AcDbEntity
  8
0
  6
Continuous
 62
     7
100
AcDbLine
 10
-129.9999969303181
 20
91.90904844070562
 30
0.0
 11
-123.3138670011653
 21
91.90904844071665
 31
0.0
  0
LINE
  5
103
330
55
100
AcDbEntity
  8
0
  6
Continuous
 62
     7
100
AcDbLine
 10
-123.3138670011688
 20
94.00904844072359
 30
0.0
 11
-130.3999969303336
 21
94.00904844071191
 31
0.0
  0
LINE
  5
104
330
55
100
AcDbEntity
  8
0
  6
Continuous
 62
     7
100
AcDbLine
 10
-119.4999969303561
 20
100.5590484407367
 30
0.0
 11
-119.6999969303542
 21
100.5590484407352
 31
0.0
  0
LINE
  5
105
330
55
100
AcDbEntity
  8
0
  6
Continuous
 62
     7
100
AcDbLine
 10
-121.3070521664382
 20
100.5590484407337
 30
0.0
 11
-121.0999969303549
 21
100.5590484407334
 31
0.0
  0
LINE
  5
106
330
55
100
AcDbEntity
  8
0
  6
Continuous
 62
     7
100
AcDbLine
 10
-119.6999969303542
 20
100.5590484407352
 30
0.0
 11
-121.0999969303549
 21
100.5590484407334
 31
0.0
  0
LINE
  5
107
330
55
100
AcDbEntity
  8
0
  6
Continuous
 62
     7
100
AcDbLine
 10
-108.4020184307622
 20
100.5590484407544
 30
0.0
 11
-109.1631581307109
 21
100.5590484407537
 31
0.0
  0
LINE
  5
108
330
55
100
AcDbEntity
  8
0
  6
Continuous
 62
     7
100
AcDbLine
 10
-123.1656308102004
 20
100.5590484407304
 30
0.0
 11
-121.5520011407167
 21
100.5590484407335
 31
0.0
  0
LINE
  5
109
330
55
100
AcDbEntity
  8
0
  6
Continuous
 62
     7
100
AcDbLine
 10
-121.3070521664382
 20
100.5590484407337
 30
0.0
 11
-121.5520011407167
 21
100.5590484407335
 31
0.0
  0
LINE
  5
10A
330
55
100
AcDbEntity
  8
0
  6
Continuous
 62
     7
100
AcDbLine
 10
-123.1656308102004
 20
100.5590484407304
 30
0.0
 11
-123.3138670011796
 21
100.55904844073
 31
0.0
  0
LINE
  5
10B
330
55
100
AcDbEntity
  8
0
  6
Continuous
 62
     7
100
AcDbLine
 10
-129.99999693033
 20
99.10904844070562
 30
0.0
 11
-123.3138670011772
 21
99.10904844071663
 31
0.0
  0
LINE
  5
10C
330
55
100
AcDbEntity
  8
0
  6
Continuous
 62
     7
100
AcDbLine
 10
-123.3138670011737
 20
97.00904844072359
 30
0.0
 11
-130.3999969303385
 21
97.00904844071191
 31
0.0
  0
LINE
  5
10D
330
55
100
AcDbEntity
  8
0
  6
Continuous
 62
     2
100
AcDbLine
 10
-121.3070521664382
 20
100.5590484407337
 30
0.0
 11
-121.3070521664215
 21
90.45904844073372
 31
0.0
  0
LINE
  5
10E
330
55
100
AcDbEntity
  8
0
  6
Continuous
 62
     2
100
AcDbLine
 10
-121.5520011407167
 20
100.5590484407335
 30
0.0
 11
-121.5520011407001
 21
90.45904844073345
 31
0.0
  0
LINE
  5
10F
330
55
100
AcDbEntity
  8
0
  6
Continuous
 62
     7
100
AcDbLine
 10
-123.1656308101837
 20
90.45904844073038
 30
0.0
 11
-123.3138670011629
 21
90.45904844072996
 31
0.0
  0
LINE
  5
110
330
55
100
AcDbEntity
  8
0
  6
Continuous
 62
     2
100
AcDbLine
 10
-123.1656308102004
 20
100.5590484407304
 30
0.0
 11
-123.1656308101837
 21
90.45904844073038
 31
0.0
  0
LINE
  5
111
330
55
100
AcDbEntity
  8
0
  6
Continuous
 62
     7
100
AcDbLine
 10
-123.3138670011796
 20
100.55904844073
 30
0.0
 11
-123.3138670011629
 21
90.45904844072996
 31
0.0
  0
LINE
  5
112
330
55
100
AcDbEntity
  8
0
  6
Continuous
 62
     7
100
AcDbLine
 10
-123.1656308101837
 20
90.45904844073038
 30
0.0
 11
-121.5520011407001
 21
90.45904844073345
 31
0.0
  0
LINE
  5
113
330
55
100
AcDbEntity
  8
0
  6
Continuous
 62
     7
100
AcDbLine
 10
-121.3070521664215
 20
90.45904844073372
 30
0.0
 11
-121.5520011407001
 21
90.45904844073345
 31
0.0
  0
LINE
  5
114
330
55
100
AcDbEntity
  8
0
  6
Continuous
 62
     7
100
AcDbLine
 10
-129.9999969303216
 20
94.00904844071258
 30
0.0
 11
-129.9999969303181
 21
91.90904844070562
 31
0.0
  0
LINE
  5
115
330
55
100
AcDbEntity
  8
0
  6
Continuous
 62
     7
100
AcDbLine
 10
-129.99999693033
 20
99.10904844070562
 30
0.0
 11
-129.9999969303265
 21
97.00904844071258
 31
0.0
  0
LINE
  5
116
330
55
100
AcDbEntity
  8
0
  6
Continuous
 62
     7
100
AcDbLine
 10
-130.3999969303336
 20
94.00904844071191
 30
0.0
 11
-130.3999969303385
 21
97.00904844071191
 31
0.0
  0
LINE
  5
117
330
55
100
AcDbEntity
  8
0
  6
Continuous
 62
     7
100
AcDbLine
 10
-119.4999969303394
 20
90.45904844073667
 30
0.0
 11
-119.6999969303375
 21
90.45904844073522
 31
0.0
  0
LINE
  5
118
330
55
100
AcDbEntity
  8
0
  6
Continuous
 62
     7
100
AcDbLine
 10
-121.3070521664215
 20
90.45904844073372
 30
0.0
 11
-121.0999969303383
 21
90.45904844073334
 31
0.0
  0
LINE
  5
119
330
55
100
AcDbEntity
  8
0
  6
Continuous
 62
     7
100
AcDbLine
 10
-121.0999969303383
 20
90.45904844073334
 30
0.0
 11
-119.6999969303375
 21
90.45904844073522
 31
0.0
  0
LINE
  5
11A
330
55
100
AcDbEntity
  8
0
  6
Continuous
 62
     7
100
AcDbLine
 10
-119.4999969303394
 20
90.45904844073667
 30
0.0
 11
-109.1631581306943
 21
90.45904844075369
 31
0.0
  0
LINE
  5
11B
330
55
100
AcDbEntity
  8
0
  6
Continuous
 62
     7
100
AcDbLine
 10
-108.4020184307455
 20
90.45904844075434
 30
0.0
 11
-109.1631581306943
 21
90.45904844075369
 31
0.0
  0
LINE
  5
11C
330
55
100
AcDbEntity
  8
0
  6
Continuous
 62
     7
100
AcDbLine
 10
-104.0499969303192
 20
90.45904844075041
 30
0.0
 11
-108.4020184307455
 21
90.45904844075434
 31
0.0
  0
LINE
  5
11D
330
55
100
AcDbEntity
  8
0
  6
Continuous
 62
     7
100
AcDbLine
 10
-104.0499969303359
 20
100.5590484407504
 30
0.0
 11
-104.0499969303192
 21
90.45904844075041
 31
0.0
  0
LINE
  5
11E
330
55
100
AcDbEntity
  8
0
  6
Continuous
 62
     7
100
AcDbLine
 10
-104.0499969303359
 20
100.5590484407504
 30
0.0
 11
-108.4020184307622
 21
100.5590484407544
 31
0.0
  0
LINE
  5
11F
330
55
100
AcDbEntity
  8
0
  6
Continuous
 62
     7
100
AcDbLine
 10
-109.1631581307109
 20
100.5590484407537
 30
0.0
 11
-109.1631581306943
 21
90.45904844075369
 31
0.0
  0
LINE
  5
120
330
55
100
AcDbEntity
  8
0
  6
Continuous
 62
     7
100
AcDbLine
 10
-121.0999969303549
 20
100.5590484407334
 30
0.0
 11
-121.0999969303383
 21
90.45904844073334
 31
0.0
  0
LINE
  5
121
330
55
100
AcDbEntity
  8
0
  6
Continuous
 62
     2
100
AcDbLine
 10
-119.4999969303561
 20
100.5590484407367
 30
0.0
 11
-119.4999969303394
 21
90.45904844073667
 31
0.0
  0
LINE
  5
122
330
55
100
AcDbEntity
  8
0
  6
Continuous
 62
     7
100
AcDbLine
 10
-109.1631581307109
 20
100.5590484407537
 30
0.0
 11
-119.4999969303561
 21
100.5590484407367
 31
0.0
  0
LINE
  5
123
330
55
100
AcDbEntity
  8
0
  6
Continuous
 62
     2
100
AcDbLine
 10
-108.4020184307622
 20
100.5590484407544
 30
0.0
 11
-108.4020184307455
 21
90.45904844075434
 31
0.0
  0
LINE
  5
124
330
55
100
AcDbEntity
  8
0
  6
Continuous
 62
     7
100
AcDbLine
 10
-119.6999969303542
 20
100.5590484407352
 30
0.0
 11
-119.6999969303375
 21
90.45904844073522
 31
0.0
  0
LINE
  5
125
330
55
100
AcDbEntity
  8
1
  6
DOT_CENTER
 62
     2
100
AcDbLine
 10
-110.9164639303477
 20
95.50904844074655
 30
0.0
 11
-116.0864639303478
 21
95.50904844074655
 31
0.0
  0
LINE
  5
126
330
55
100
AcDbEntity
  8
1
  6
DOT_CENTER
 62
     2
100
AcDbLine
 10
-113.5014639303477
 20
98.09404844074656
 30
0.0
 11
-113.5014639303477
 21
92.92404844074655
 31
0.0
  0
LINE
  5
127
330
55
100
AcDbEntity
  8
1
  6
DOT_CENTER
 62
     2
100
AcDbLine
 10
-123.3138670011688
 20
95.50904844072359
 30
0.0
 11
-130.3999969303385
 21
95.50904844072359
 31
0.0
  0
CIRCLE
  5
128
330
55
100
AcDbEntity
  8
0
  6
Continuous
 62
     7
100
AcDbCircle
 10
-113.5014639303477
 20
95.50904844074655
 30
0.0
 40
2.350000000000108
  0
ENDBLK
  5
57
330
55
100
AcDbEntity
  8
0
100
AcDbBlockEnd
  0
BLOCK
  5
5A
330
58
100
AcDbEntity
  8
0
100
AcDbBlockBegin
  2
Drfsicht1
 70
     0
 10
-117.2249969303449
 20
95.5090482499923
 30
0.0
  3
Drfsicht1
  1

  0
INSERT
  5
59
330
58
100
AcDbEntity
  8
0
100
AcDbBlockReference
  2
0707840_HDFK_10I-select__3
 10
-130.3999969303385
 20
90.45904844072996
 30
0.0
  0
MTEXT
  5
129
330
58
100
AcDbEntity
  8
1
 62
     6
100
AcDbMText
 10
-117.2249969303451
 20
85.45904805922237
 30
0.0
 40
5.0
 41
0.0
 71
     2
 72
     1
  1
 
  7
CONVERTER_11
 73
     1
 44
1.32052821128451
  0
ENDBLK
  5
5B
330
58
100
AcDbEntity
  8
0
100
AcDbBlockEnd
  0
BLOCK
  5
5D
330
5C
100
AcDbEntity
  8
0
100
AcDbBlockBegin
  2
0707840_HDFK_10I-select__4
 70
     0
 10
-130.3999985721683
 20
130.5590505178883
 30
0.0
  3
0707840_HDFK_10I-select__4
  1

  0
LINE
  5
12A
330
5C
100
AcDbEntity
  8
0
  6
Continuous
 62
     7
100
AcDbLine
 10
-123.099998572134
 20
132.0159257547587
 30
0.0
 11
-122.099998572134
 21
132.0159257547603
 31
0.0
  0
LINE
  5
12B
330
5C
100
AcDbEntity
  8
0
  6
Continuous
 62
     7
100
AcDbLine
 10
-122.0999985721684
 20
153.4499999284666
 30
0.0
 11
-122.0999985721635
 21
150.4499999284666
 31
0.0
  0
LINE
  5
12C
330
5C
100
AcDbEntity
  8
0
  6
Continuous
 62
     7
100
AcDbLine
 10
-122.0999985721539
 20
144.4624999284699
 30
0.0
 11
-122.0999985721475
 21
140.4374999284699
 31
0.0
  0
LINE
  5
12D
330
5C
100
AcDbEntity
  8
0
  6
Continuous
 62
     7
100
AcDbLine
 10
-122.0999985721635
 20
150.4499999284666
 30
0.0
 11
-122.0999985721539
 21
144.4624999284699
 31
0.0
  0
LINE
  5
12E
330
5C
100
AcDbEntity
  8
0
  6
Continuous
 62
     7
100
AcDbLine
 10
-122.0999985721475
 20
140.4374999284699
 30
0.0
 11
-122.099998572134
 21
132.0159257547603
 31
0.0
  0
LINE
  5
12F
330
5C
100
AcDbEntity
  8
0
  6
Continuous
 62
     7
100
AcDbLine
 10
-123.3070538082148
 20
131.2431850937271
 30
0.0
 11
-123.099998572134
 21
132.0159257547587
 31
0.0
  0
LINE
  5
130
330
5C
100
AcDbEntity
  8
0
  6
Continuous
 62
     7
100
AcDbLine
 10
-121.3070538082597
 20
159.292713148077
 30
0.0
 11
-121.0999985721765
 21
158.5199724870461
 31
0.0
  0
LINE
  5
131
330
5C
100
AcDbEntity
  8
0
  6
Continuous
 62
     7
100
AcDbLine
 10
-123.1656324520219
 20
159.0017637374901
 30
0.0
 11
-121.5520027825383
 21
159.4341345043139
 31
0.0
  0
LINE
  5
132
330
5C
100
AcDbEntity
  8
0
  6
Continuous
 62
     7
100
AcDbLine
 10
-121.2956088355149
 20
130.7499999284726
 30
0.0
 11
-121.3070538082139
 21
130.7072867088681
 31
0.0
  0
LINE
  5
133
330
5C
100
AcDbEntity
  8
0
  6
Continuous
 62
     7
100
AcDbLine
 10
-121.2956088355149
 20
130.7499999284726
 30
0.0
 11
-105.049998572132
 21
130.7499999284986
 31
0.0
  0
LINE
  5
134
330
5C
100
AcDbEntity
  8
0
  6
Continuous
 62
     7
100
AcDbLine
 10
-104.0499985721336
 20
131.7499999285002
 30
0.0
 11
-104.0499985721575
 21
146.6510089607183
 31
0.0
  0
LINE
  5
135
330
5C
100
AcDbEntity
  8
0
  6
Continuous
 62
     7
100
AcDbLine
 10
-122.0999985721752
 20
157.7500001021822
 30
0.0
 11
-122.0999985721684
 21
153.4499999284666
 31
0.0
  0
LINE
  5
136
330
5C
100
AcDbEntity
  8
0
  6
Continuous
 62
     7
100
AcDbLine
 10
-122.0999985721752
 20
157.7500001021822
 30
0.0
 11
-123.0372786329061
 21
157.7500001021807
 31
0.0
  0
LINE
  5
137
330
5C
100
AcDbEntity
  8
0
  6
Continuous
 62
     7
100
AcDbLine
 10
-123.0372786329061
 20
157.7500001021807
 30
0.0
 11
-123.3070538082588
 21
158.7568147632116
 31
0.0
  0
LINE
  5
138
330
5C
100
AcDbEntity
  8
0
  6
Continuous
 62
     7
100
AcDbLine
 10
-121.0999985721765
 20
158.5199724870461
 30
0.0
 11
-121.0999985721757
 21
158.0499999284729
 31
0.0
  0
LINE
  5
139
330
5C
100
AcDbEntity
  8
0
  6
Continuous
 62
     7
100
AcDbLine
 10
-121.0999985721757
 20
158.0499999284729
 30
0.0
 11
-119.6999985721757
 21
158.0499999284751
 31
0.0
  0
LINE
  5
13A
330
5C
100
AcDbEntity
  8
0
  6
Continuous
 62
     7
100
AcDbLine
 10
-119.6999985721773
 20
159.0499999284751
 30
0.0
 11
-119.6999985721757
 21
158.0499999284751
 31
0.0
  0
LINE
  5
13B
330
5C
100
AcDbEntity
  8
0
  6
Continuous
 62
     7
100
AcDbLine
 10
-119.4999985721776
 20
159.2499999284754
 30
0.0
 11
-109.1631597725325
 21
159.249999928492
 31
0.0
  0
LINE
  5
13C
330
5C
100
AcDbEntity
  8
0
  6
Continuous
 62
     7
100
AcDbLine
 10
-122.0999985721684
 20
153.4499999284666
 30
0.0
 11
-130.3999985721683
 21
153.4499999284533
 31
0.0
  0
LINE
  5
13D
330
5C
100
AcDbEntity
  8
0
  6
Continuous
 62
     7
100
AcDbLine
 10
-122.0999985721635
 20
150.4499999284666
 30
0.0
 11
-130.3999985721635
 21
150.4499999284533
 31
0.0
  0
LINE
  5
13E
330
5C
100
AcDbEntity
  8
0
  6
Continuous
 62
     7
100
AcDbLine
 10
-121.552002782492
 20
130.5658653526304
 30
0.0
 11
-123.1656324519771
 21
130.9982361194491
 31
0.0
  0
LINE
  5
13F
330
5C
100
AcDbEntity
  8
0
  6
Continuous
 62
     7
100
AcDbLine
 10
-130.3999985721635
 20
150.4499999284533
 30
0.0
 11
-130.3999985721659
 21
151.9499999284547
 31
0.0
  0
LINE
  5
140
330
5C
100
AcDbEntity
  8
0
  6
Continuous
 62
     7
100
AcDbLine
 10
-130.3999985721659
 20
151.9499999284547
 30
0.0
 11
-130.3999985721683
 21
153.4499999284533
 31
0.0
  0
LINE
  5
141
330
5C
100
AcDbEntity
  8
0
  6
Continuous
 62
     7
100
AcDbLine
 10
-122.0999985721475
 20
140.4374999284699
 30
0.0
 11
-129.9999985721475
 21
140.4374999284573
 31
0.0
  0
LINE
  5
142
330
5C
100
AcDbEntity
  8
0
  6
Continuous
 62
     7
100
AcDbLine
 10
-129.9999985721539
 20
144.4624999284573
 30
0.0
 11
-122.0999985721539
 21
144.4624999284699
 31
0.0
  0
LINE
  5
143
330
5C
100
AcDbEntity
  8
0
  6
Continuous
 62
     7
100
AcDbLine
 10
-129.9999985721539
 20
144.4624999284573
 30
0.0
 11
-129.9999985721475
 21
140.4374999284573
 31
0.0
  0
LINE
  5
144
330
5C
100
AcDbEntity
  8
0
  6
Continuous
 62
     7
100
AcDbLine
 10
-104.0499985721575
 20
146.6510089607183
 30
0.0
 11
-108.4020200725837
 21
158.608089762061
 31
0.0
  0
LINE
  5
145
330
5C
100
AcDbEntity
  8
1
  6
DOT_CENTER
 62
     2
100
AcDbLine
 10
-122.0999985721635
 20
151.9499999284666
 30
0.0
 11
-130.3999985721683
 21
151.9499999284666
 31
0.0
  0
ARC
  5
146
330
5C
100
AcDbEntity
  8
0
  6
Continuous
 62
     7
100
AcDbCircle
 10
-121.5002389735174
 20
159.2409493390562
 30
0.0
 40
0.2000000000000171
100
AcDbArc
 50
90.0
 51
105.0000000001161
  0
ARC
  5
147
330
5C
100
AcDbEntity
  8
0
  6
Continuous
 62
     7
100
AcDbCircle
 10
-123.1138686429569
 20
131.191421284707
 30
0.0
 40
0.1999999999999842
100
AcDbArc
 50
165.0000000001139
 51
255.0000000000893
  0
ARC
  5
148
330
5C
100
AcDbEntity
  8
0
  6
Continuous
 62
     7
100
AcDbCircle
 10
-123.1138686430011
 20
158.8085785722323
 30
0.0
 40
0.2000000000000647
100
AcDbArc
 50
105.0000000000822
 51
195.000000000066
  0
ARC
  5
149
330
5C
100
AcDbEntity
  8
0
  6
Continuous
 62
     7
100
AcDbCircle
 10
-119.4999985721773
 20
159.0499999284754
 30
0.0
 40
0.2000000000000171
100
AcDbArc
 50
90.00000000008549
 51
180.0000000000814
  0
ARC
  5
14A
330
5C
100
AcDbEntity
  8
0
  6
Continuous
 62
     7
100
AcDbCircle
 10
-109.3417126933691
 20
158.2660696187339
 30
0.0
 40
1.000000000000026
100
AcDbArc
 50
20.00000000008788
 51
79.71451712430854
  0
ARC
  5
14B
330
5C
100
AcDbEntity
  8
0
  6
Continuous
 62
     7
100
AcDbCircle
 10
-121.5002389734718
 20
130.7590505178883
 30
0.0
 40
0.2000000000000171
100
AcDbArc
 50
270.0
 51
345.0000000000903
  0
ARC
  5
14C
330
5C
100
AcDbEntity
  8
0
  6
Continuous
 62
     7
100
AcDbCircle
 10
-105.0499985721336
 20
131.7499999284986
 30
0.0
 40
1.0
100
AcDbArc
 50
270.000000000092
 51
0.00000000009119
  0
ARC
  5
14D
330
5C
100
AcDbEntity
  8
0
  6
Continuous
 62
     7
100
AcDbCircle
 10
-121.5002389734718
 20
130.7590505178883
 30
0.0
 40
0.20000000000002
100
AcDbArc
 50
255.0000000000914
 51
270.0
  0
ARC
  5
14E
330
5C
100
AcDbEntity
  8
0
  6
Continuous
 62
     7
100
AcDbCircle
 10
-121.5002389735174
 20
159.2409493390562
 30
0.0
 40
0.1999999999999759
100
AcDbArc
 50
15.00000000009747
 51
90.0
  0
ENDBLK
  5
5E
330
5C
100
AcDbEntity
  8
0
100
AcDbBlockEnd
  0
BLOCK
  5
61
330
5F
100
AcDbEntity
  8
0
100
AcDbBlockBegin
  2
Vordans1
 70
     0
 10
-117.2249985721379
 20
145.0
 30
0.0
  3
Vordans1
  1

  0
INSERT
  5
60
330
5F
100
AcDbEntity
  8
0
100
AcDbBlockReference
  2
0707840_HDFK_10I-select__4
 10
-130.3999985721683
 20
130.5590505178883
 30
0.0
  0
MTEXT
  5
14F
330
5F
100
AcDbEntity
  8
1
 62
     6
100
AcDbMText
 10
-117.2249985721379
 20
125.5590504407625
 30
0.0
 40
5.0
 41
0.0
 71
     2
 72
     1
  1
 
  7
CONVERTER_11
 73
     1
 44
1.32052821128451
  0
DIMENSION
  5
15A
330
5F
100
AcDbEntity
  8
1
100
AcDbDimension
  2
*D17
 10
-91.0078812576851
 20
159.4409493390562
 30
0.0
 11
-94.9328812576851
 21
144.920986800149
 31
0.0
 70
    32
  1
<>
 71
     5
 42
-1.0
 53
90.0
  3
ME10_DIM_11
100
AcDbAlignedDimension
 13
-121.5002389734718
 23
130.5590505178883
 33
0.0
 14
-121.5002389735174
 24
159.4409493390562
 34
0.0
 50
90.0
100
AcDbRotatedDimension
  0
DIMENSION
  5
165
330
5F
100
AcDbEntity
  8
1
100
AcDbDimension
  2
*D18
 10
-104.0499985721336
 20
119.127945909998
 30
0.0
 11
-116.957346059842
 21
123.052945909998
 31
0.0
 70
    32
  1
<>
 71
     5
 42
-1.0
 53
0.00013888888889
  3
ME10_DIM_12
100
AcDbAlignedDimension
 13
-130.3999985721635
 23
150.4499999284533
 33
0.0
 14
-104.0499985721336
 24
131.7499999285002
 34
0.0
100
AcDbRotatedDimension
  0
ENDBLK
  5
62
330
5F
100
AcDbEntity
  8
0
100
AcDbBlockEnd
  0
BLOCK
  5
64
330
63
100
AcDbEntity
  8
0
100
AcDbBlockBegin
  2
0707840_HDFK_10I-select__5
 70
     0
 10
-163.4999994560847
 20
130.5590505178789
 30
0.0
  3
0707840_HDFK_10I-select__5
  1

  0
LINE
  5
166
330
63
100
AcDbEntity
  8
0
  6
Continuous
 62
     7
100
AcDbLine
 10
-153.3999994560577
 20
159.2927131480676
 30
0.0
 11
-153.3999994560378
 21
159.2499999284826
 31
0.0
  0
LINE
  5
167
330
63
100
AcDbEntity
  8
0
  6
Continuous
 62
     7
100
AcDbLine
 10
-153.3999994560371
 20
158.6080897620516
 30
0.0
 11
-153.399999456041
 21
146.6510089607089
 31
0.0
  0
LINE
  5
168
330
63
100
AcDbEntity
  8
0
  6
Continuous
 62
     7
100
AcDbLine
 10
-153.3999994560378
 20
159.2499999284826
 30
0.0
 11
-153.3999994560371
 21
158.6080897620516
 31
0.0
  0
LINE
  5
169
330
63
100
AcDbEntity
  8
0
  6
Continuous
 62
     7
100
AcDbLine
 10
-153.3999994560575
 20
130.7499999284892
 30
0.0
 11
-153.3999994560549
 21
131.7499999284908
 31
0.0
  0
LINE
  5
16A
330
63
100
AcDbEntity
  8
0
  6
Continuous
 62
     7
100
AcDbLine
 10
-153.3999994560847
 20
130.5590505178789
 30
0.0
 11
-153.3999994560843
 21
130.7072867088588
 31
0.0
  0
LINE
  5
16B
330
63
100
AcDbEntity
  8
0
  6
Continuous
 62
     7
100
AcDbLine
 10
-153.3999994560577
 20
159.2927131480676
 30
0.0
 11
-153.3999994560579
 21
159.4409493390468
 31
0.0
  0
LINE
  5
16C
330
63
100
AcDbEntity
  8
0
  6
Continuous
 62
     7
100
AcDbLine
 10
-163.4999994560577
 20
159.292713148077
 30
0.0
 11
-163.4999994560579
 21
159.4409493390562
 31
0.0
  0
LINE
  5
16D
330
63
100
AcDbEntity
  8
0
  6
Continuous
 62
     2
100
AcDbLine
 10
-153.3999994560577
 20
159.2927131480676
 30
0.0
 11
-163.4999994560577
 21
159.292713148077
 31
0.0
  0
LINE
  5
16E
330
63
100
AcDbEntity
  8
0
  6
Continuous
 62
     7
100
AcDbLine
 10
-153.3999994560579
 20
159.4409493390468
 30
0.0
 11
-163.4999994560579
 21
159.4409493390562
 31
0.0
  0
LINE
  5
16F
330
63
100
AcDbEntity
  8
0
  6
Continuous
 62
     7
100
AcDbLine
 10
-153.3999994560575
 20
130.7499999284892
 30
0.0
 11
-153.3999994560843
 21
130.7072867088588
 31
0.0
  0
LINE
  5
170
330
63
100
AcDbEntity
  8
0
  6
Continuous
 62
     7
100
AcDbLine
 10
-163.4999994560575
 20
130.7499999284986
 30
0.0
 11
-163.4999994560549
 21
131.7499999285002
 31
0.0
  0
LINE
  5
171
330
63
100
AcDbEntity
  8
0
  6
Continuous
 62
     7
100
AcDbLine
 10
-161.2499994560546
 20
132.0818275277124
 30
0.0
 11
-155.6499994560546
 21
132.0818275277072
 31
0.0
  0
LINE
  5
172
330
63
100
AcDbEntity
  8
0
  6
Continuous
 62
     2
100
AcDbLine
 10
-163.4999994560549
 20
131.7499999285002
 30
0.0
 11
-153.3999994560549
 21
131.7499999284908
 31
0.0
  0
LINE
  5
173
330
63
100
AcDbEntity
  8
0
  6
Continuous
 62
     7
100
AcDbLine
 10
-161.2499994560593
 20
134.5499999284912
 30
0.0
 11
-155.6499994560594
 21
134.549999928486
 31
0.0
  0
LINE
  5
174
330
63
100
AcDbEntity
  8
0
  6
Continuous
 62
     7
100
AcDbLine
 10
-163.4999994560575
 20
130.7499999284986
 30
0.0
 11
-153.3999994560575
 21
130.7499999284892
 31
0.0
  0
LINE
  5
175
330
63
100
AcDbEntity
  8
0
  6
Continuous
 62
     2
100
AcDbLine
 10
-153.3999994560843
 20
130.7072867088588
 30
0.0
 11
-163.4999994560843
 21
130.7072867088681
 31
0.0
  0
LINE
  5
176
330
63
100
AcDbEntity
  8
0
  6
Continuous
 62
     7
100
AcDbLine
 10
-153.3999994560847
 20
130.5590505178789
 30
0.0
 11
-163.4999994560847
 21
130.5590505178883
 31
0.0
  0
LINE
  5
177
330
63
100
AcDbEntity
  8
0
  6
Continuous
 62
     7
100
AcDbLine
 10
-153.3999994560378
 20
159.2499999284826
 30
0.0
 11
-163.4999994560378
 21
159.249999928492
 31
0.0
  0
LINE
  5
178
330
63
100
AcDbEntity
  8
0
  6
Continuous
 62
     2
100
AcDbLine
 10
-153.3999994560371
 20
158.6080897620516
 30
0.0
 11
-163.4999994560371
 21
158.608089762061
 31
0.0
  0
LINE
  5
179
330
63
100
AcDbEntity
  8
0
  6
Continuous
 62
     7
100
AcDbLine
 10
-153.399999456041
 20
146.6510089607089
 30
0.0
 11
-163.4999994560411
 21
146.6510089607183
 31
0.0
  0
LINE
  5
17A
330
63
100
AcDbEntity
  8
0
  6
Continuous
 62
     7
100
AcDbLine
 10
-161.2499994560593
 20
134.5499999284912
 30
0.0
 11
-161.2499994560546
 21
132.0818275277124
 31
0.0
  0
LINE
  5
17B
330
63
100
AcDbEntity
  8
0
  6
Continuous
 62
     7
100
AcDbLine
 10
-155.6499994560594
 20
134.549999928486
 30
0.0
 11
-155.6499994560546
 21
132.0818275277072
 31
0.0
  0
LINE
  5
17C
330
63
100
AcDbEntity
  8
0
  6
Continuous
 62
     7
100
AcDbLine
 10
-155.6499994560452
 20
142.2499999284929
 30
0.0
 11
-161.2499994560451
 21
142.2499999284981
 31
0.0
  0
LINE
  5
17D
330
63
100
AcDbEntity
  8
0
  6
Continuous
 62
     7
100
AcDbLine
 10
-155.6499994560452
 20
142.2499999284929
 30
0.0
 11
-155.6499994560594
 21
134.549999928486
 31
0.0
  0
LINE
  5
17E
330
63
100
AcDbEntity
  8
0
  6
Continuous
 62
     7
100
AcDbLine
 10
-161.2499994560451
 20
142.2499999284981
 30
0.0
 11
-161.2499994560593
 21
134.5499999284912
 31
0.0
  0
LINE
  5
17F
330
63
100
AcDbEntity
  8
0
  6
Continuous
 62
     7
100
AcDbLine
 10
-163.4999994560577
 20
159.292713148077
 30
0.0
 11
-163.4999994560378
 21
159.249999928492
 31
0.0
  0
LINE
  5
180
330
63
100
AcDbEntity
  8
0
  6
Continuous
 62
     7
100
AcDbLine
 10
-163.4999994560371
 20
158.608089762061
 30
0.0
 11
-163.4999994560411
 21
146.6510089607183
 31
0.0
  0
LINE
  5
181
330
63
100
AcDbEntity
  8
0
  6
Continuous
 62
     7
100
AcDbLine
 10
-163.4999994560378
 20
159.249999928492
 30
0.0
 11
-163.4999994560371
 21
158.608089762061
 31
0.0
  0
LINE
  5
182
330
63
100
AcDbEntity
  8
0
  6
Continuous
 62
     7
100
AcDbLine
 10
-163.4999994560575
 20
130.7499999284986
 30
0.0
 11
-163.4999994560843
 21
130.7072867088681
 31
0.0
  0
LINE
  5
183
330
63
100
AcDbEntity
  8
0
  6
Continuous
 62
     7
100
AcDbLine
 10
-163.4999994560549
 20
131.7499999285002
 30
0.0
 11
-163.4999994560411
 21
146.6510089607183
 31
0.0
  0
LINE
  5
184
330
63
100
AcDbEntity
  8
0
  6
Continuous
 62
     7
100
AcDbLine
 10
-163.4999994560847
 20
130.5590505178883
 30
0.0
 11
-163.4999994560843
 21
130.7072867088681
 31
0.0
  0
LINE
  5
185
330
63
100
AcDbEntity
  8
0
  6
Continuous
 62
     7
100
AcDbLine
 10
-153.399999456041
 20
146.6510089607089
 30
0.0
 11
-153.3999994560549
 21
131.7499999284908
 31
0.0
  0
ENDBLK
  5
65
330
63
100
AcDbEntity
  8
0
100
AcDbBlockEnd
  0
BLOCK
  5
68
330
66
100
AcDbEntity
  8
0
100
AcDbBlockBegin
  2
SA_Rechts1
 70
     0
 10
-158.4499996467991
 20
145.0
 30
0.0
  3
SA_Rechts1
  1

  0
INSERT
  5
67
330
66
100
AcDbEntity
  8
0
100
AcDbBlockReference
  2
0707840_HDFK_10I-select__5
 10
-163.4999994560847
 20
130.5590505178789
 30
0.0
  0
MTEXT
  5
186
330
66
100
AcDbEntity
  8
1
 62
     6
100
AcDbMText
 10
-158.4499996467991
 20
125.5590504407625
 30
0.0
 40
5.0
 41
0.0
 71
     2
 72
     1
  1
 
  7
CONVERTER_11
 73
     1
 44
1.32052821128451
  0
ENDBLK
  5
69
330
66
100
AcDbEntity
  8
0
100
AcDbBlockEnd
  0
BLOCK
  5
6B
330
6A
100
AcDbEntity
  8
0
100
AcDbBlockBegin
  2
0707840_HDFK_10I-select__6
 70
     0
 10
-33.95000142794007
 20
130.559050517879
 30
0.0
  3
0707840_HDFK_10I-select__6
  1

  0
LINE
  5
187
330
6A
100
AcDbEntity
  8
0
  6
Continuous
 62
     7
100
AcDbLine
 10
-8.00000142791973
 20
144.4624999284507
 30
0.0
 11
-8.00000142792618
 21
140.4374999284507
 31
0.0
  0
LINE
  5
188
330
6A
100
AcDbEntity
  8
0
  6
Continuous
 62
     7
100
AcDbLine
 10
-7.60000142790534
 20
153.4499999284534
 30
0.0
 11
-7.60000142791014
 21
150.4499999284534
 31
0.0
  0
LINE
  5
189
330
6A
100
AcDbEntity
  8
0
  6
Continuous
 62
     7
100
AcDbLine
 10
-15.90000142793964
 20
132.015925754751
 30
0.0
 11
-15.90000142792615
 21
140.4374999284633
 31
0.0
  0
LINE
  5
18A
330
6A
100
AcDbEntity
  8
0
  6
Continuous
 62
     7
100
AcDbLine
 10
-15.90000142792615
 20
140.4374999284633
 30
0.0
 11
-15.90000142791971
 21
144.4624999284633
 31
0.0
  0
LINE
  5
18B
330
6A
100
AcDbEntity
  8
0
  6
Continuous
 62
     7
100
AcDbLine
 10
-33.95000142791621
 20
146.651008960709
 30
0.0
 11
-33.95000142794007
 21
131.7499999284908
 31
0.0
  0
LINE
  5
18C
330
6A
100
AcDbEntity
  8
0
  6
Continuous
 62
     7
100
AcDbLine
 10
-14.90000142793964
 20
132.0159257547494
 30
0.0
 11
-15.90000142793964
 21
132.015925754751
 31
0.0
  0
LINE
  5
18D
330
6A
100
AcDbEntity
  8
0
  6
Continuous
 62
     7
100
AcDbLine
 10
-16.44799721758163
 20
130.5658653526211
 30
0.0
 11
-14.83436754809657
 21
130.9982361194397
 31
0.0
  0
LINE
  5
18E
330
6A
100
AcDbEntity
  8
0
  6
Continuous
 62
     7
100
AcDbLine
 10
-14.69294619185887
 20
131.2431850937178
 30
0.0
 11
-14.90000142793964
 21
132.0159257547494
 31
0.0
  0
LINE
  5
18F
330
6A
100
AcDbEntity
  8
0
  6
Continuous
 62
     7
100
AcDbLine
 10
-16.70439116455879
 20
130.7499999284632
 30
0.0
 11
-16.69294619185973
 21
130.7072867088588
 31
0.0
  0
LINE
  5
190
330
6A
100
AcDbEntity
  8
0
  6
Continuous
 62
     7
100
AcDbLine
 10
-15.90000142791012
 20
150.4499999284666
 30
0.0
 11
-15.90000142790532
 21
153.4499999284666
 31
0.0
  0
LINE
  5
191
330
6A
100
AcDbEntity
  8
0
  6
Continuous
 62
     7
100
AcDbLine
 10
-15.90000142790532
 20
153.4499999284666
 30
0.0
 11
-15.90000142789843
 21
157.7500001021729
 31
0.0
  0
LINE
  5
192
330
6A
100
AcDbEntity
  8
0
  6
Continuous
 62
     7
100
AcDbLine
 10
-15.90000142791971
 20
144.4624999284633
 30
0.0
 11
-15.90000142791012
 21
150.4499999284666
 31
0.0
  0
LINE
  5
193
330
6A
100
AcDbEntity
  8
0
  6
Continuous
 62
     7
100
AcDbLine
 10
-18.30000142789636
 20
159.0499999284658
 30
0.0
 11
-18.30000142789795
 21
158.0499999284658
 31
0.0
  0
LINE
  5
194
330
6A
100
AcDbEntity
  8
0
  6
Continuous
 62
     7
100
AcDbLine
 10
-14.96272136716756
 20
157.7500001021714
 30
0.0
 11
-14.69294619181479
 21
158.7568147632022
 31
0.0
  0
LINE
  5
195
330
6A
100
AcDbEntity
  8
0
  6
Continuous
 62
     7
100
AcDbLine
 10
-16.69294619181393
 20
159.2927131480677
 30
0.0
 11
-16.90000142789718
 21
158.5199724870368
 31
0.0
  0
LINE
  5
196
330
6A
100
AcDbEntity
  8
0
  6
Continuous
 62
     7
100
AcDbLine
 10
-16.90000142789718
 20
158.5199724870368
 30
0.0
 11
-16.90000142789795
 21
158.0499999284635
 31
0.0
  0
LINE
  5
197
330
6A
100
AcDbEntity
  8
0
  6
Continuous
 62
     7
100
AcDbLine
 10
-18.30000142789795
 20
158.0499999284658
 30
0.0
 11
-16.90000142789795
 21
158.0499999284635
 31
0.0
  0
LINE
  5
198
330
6A
100
AcDbEntity
  8
0
  6
Continuous
 62
     7
100
AcDbLine
 10
-28.83684022754116
 20
159.2499999284827
 30
0.0
 11
-18.50000142789603
 21
159.2499999284661
 31
0.0
  0
LINE
  5
199
330
6A
100
AcDbEntity
  8
0
  6
Continuous
 62
     7
100
AcDbLine
 10
-16.70439116455879
 20
130.7499999284632
 30
0.0
 11
-32.95000142794167
 21
130.7499999284893
 31
0.0
  0
LINE
  5
19A
330
6A
100
AcDbEntity
  8
0
  6
Continuous
 62
     7
100
AcDbLine
 10
-15.90000142792615
 20
140.4374999284633
 30
0.0
 11
-8.00000142792618
 21
140.4374999284507
 31
0.0
  0
LINE
  5
19B
330
6A
100
AcDbEntity
  8
0
  6
Continuous
 62
     7
100
AcDbLine
 10
-15.90000142789843
 20
157.7500001021729
 30
0.0
 11
-14.96272136716756
 21
157.7500001021714
 31
0.0
  0
LINE
  5
19C
330
6A
100
AcDbEntity
  8
0
  6
Continuous
 62
     7
100
AcDbLine
 10
-14.83436754805173
 20
159.0017637374808
 30
0.0
 11
-16.4479972175354
 21
159.4341345043046
 31
0.0
  0
LINE
  5
19D
330
6A
100
AcDbEntity
  8
0
  6
Continuous
 62
     7
100
AcDbLine
 10
-15.90000142790532
 20
153.4499999284666
 30
0.0
 11
-7.60000142790534
 21
153.4499999284534
 31
0.0
  0
LINE
  5
19E
330
6A
100
AcDbEntity
  8
0
  6
Continuous
 62
     7
100
AcDbLine
 10
-8.00000142791973
 20
144.4624999284507
 30
0.0
 11
-15.90000142791971
 21
144.4624999284633
 31
0.0
  0
LINE
  5
19F
330
6A
100
AcDbEntity
  8
0
  6
Continuous
 62
     7
100
AcDbLine
 10
-15.90000142791012
 20
150.4499999284666
 30
0.0
 11
-7.60000142791014
 21
150.4499999284534
 31
0.0
  0
LINE
  5
1A0
330
6A
100
AcDbEntity
  8
0
  6
Continuous
 62
     7
100
AcDbLine
 10
-33.95000142791621
 20
146.651008960709
 30
0.0
 11
-29.59797992748993
 21
158.6080897620516
 31
0.0
  0
LINE
  5
1A1
330
6A
100
AcDbEntity
  8
1
  6
DOT_CENTER
 62
     2
100
AcDbLine
 10
-15.90000142791012
 20
151.9499999284666
 30
0.0
 11
-7.60000142790534
 21
151.9499999284666
 31
0.0
  0
ARC
  5
1A2
330
6A
100
AcDbEntity
  8
0
  6
Continuous
 62
     7
100
AcDbCircle
 10
-16.49976102660183
 20
130.759050517879
 30
0.0
 40
0.2000000000000028
100
AcDbArc
 50
194.99999999991
 51
284.9999999999108
  0
ARC
  5
1A3
330
6A
100
AcDbEntity
  8
0
  6
Continuous
 62
     7
100
AcDbCircle
 10
-14.88613135711676
 20
131.1914212846976
 30
0.0
 40
0.2000000000000172
100
AcDbArc
 50
284.9999999999057
 51
14.99999999991048
  0
ARC
  5
1A4
330
6A
100
AcDbEntity
  8
0
  6
Continuous
 62
     7
100
AcDbCircle
 10
-14.88613135707254
 20
158.808578572223
 30
0.0
 40
0.2000000000000206
100
AcDbArc
 50
344.999999999906
 51
74.99999999991272
  0
ARC
  5
1A5
330
6A
100
AcDbEntity
  8
0
  6
Continuous
 62
     7
100
AcDbCircle
 10
-18.50000142789635
 20
159.0499999284661
 30
0.0
 40
0.1999999999999922
100
AcDbArc
 50
359.9999999999186
 51
89.9999999999084
  0
ARC
  5
1A6
330
6A
100
AcDbEntity
  8
0
  6
Continuous
 62
     7
100
AcDbCircle
 10
-28.65828730670455
 20
158.2660696187245
 30
0.0
 40
1.000000000000097
100
AcDbArc
 50
100.2854828756903
 51
159.9999999999116
  0
ARC
  5
1A7
330
6A
100
AcDbEntity
  8
0
  6
Continuous
 62
     7
100
AcDbCircle
 10
-32.95000142794007
 20
131.7499999284893
 30
0.0
 40
1.0
100
AcDbArc
 50
179.9999999999137
 51
269.9999999999084
  0
ARC
  5
1A8
330
6A
100
AcDbEntity
  8
0
  6
Continuous
 62
     7
100
AcDbCircle
 10
-16.49976102655622
 20
159.2409493390468
 30
0.0
 40
0.2000000000000711
100
AcDbArc
 50
74.9999999999109
 51
164.9999999998873
  0
ENDBLK
  5
6C
330
6A
100
AcDbEntity
  8
0
100
AcDbBlockEnd
  0
BLOCK
  5
6F
330
6D
100
AcDbEntity
  8
0
100
AcDbBlockBegin
  2
Rckans1
 70
     0
 10
-20.775001427862
 20
145.0000000000001
 30
0.0
  3
Rckans1
  1

  0
INSERT
  5
6E
330
6D
100
AcDbEntity
  8
0
100
AcDbBlockReference
  2
0707840_HDFK_10I-select__6
 10
-33.95000142794007
 20
130.559050517879
 30
0.0
  0
MTEXT
  5
1A9
330
6D
100
AcDbEntity
  8
1
 62
     6
100
AcDbMText
 10
-20.77500142786198
 20
125.5590504407625
 30
0.0
 40
5.0
 41
0.0
 71
     2
 72
     1
  1
 
  7
CONVERTER_11
 73
     1
 44
1.32052821128451
  0
ENDBLK
  5
70
330
6D
100
AcDbEntity
  8
0
100
AcDbBlockEnd
  0
BLOCK
  5
72
330
71
100
AcDbEntity
  8
0
100
AcDbBlockBegin
  2
_punkt
 70
     0
 10
47.9623302529381
 20
7.28207210725119
 30
0.0
  3
_punkt
  1

  0
LINE
  5
1AA
330
71
100
AcDbEntity
  8
1
  6
Continuous
 62
     2
100
AcDbLine
 10
47.9623302529381
 20
7.28207210725119
 30
0.0
 11
47.9623302529381
 21
2.28207210725108
 31
0.0
  0
LINE
  5
1AB
330
71
100
AcDbEntity
  8
1
  6
Continuous
 62
     2
100
AcDbLine
 10
47.9623302529381
 20
7.28207210725119
 30
0.0
 11
52.96233025293711
 21
7.28207210725119
 31
0.0
  0
ENDBLK
  5
73
330
71
100
AcDbEntity
  8
0
100
AcDbBlockEnd
  0
BLOCK
  5
75
330
74
100
AcDbEntity
  8
0
100
AcDbBlockBegin
  2
_rahmen
 70
     0
 10
47.9623302529381
 20
2.28207210725108
 30
0.0
  3
_rahmen
  1

  0
POINT
  5
1AC
330
74
100
AcDbEntity
  8
1
 62
     3
 60
     1
100
AcDbPoint
 10
-15.53766974705952
 20
28.53207210725106
 30
0.0
  0
LINE
  5
1AD
102
{ACAD_REACTORS
330
38F
330
390
102
}
330
74
100
AcDbEntity
  8
0
  6
Continuous
 62
     2
100
AcDbLine
 10
-67.09534291697923
 20
14.79057550861818
 30
0.0
 11
-67.09534291697923
 21
15.51166394399277
 31
0.0
  0
LINE
  5
1AE
102
{ACAD_REACTORS
330
38F
330
390
102
}
330
74
100
AcDbEntity
  8
0
  6
Continuous
 62
     2
100
AcDbLine
 10
-67.09534291697923
 20
13.99737822970672
 30
0.0
 11
-67.09534291697923
 21
13.27628979433213
 31
0.0
  0
LINE
  5
1AF
102
{ACAD_REACTORS
330
391
330
392
102
}
330
74
100
AcDbEntity
  8
0
  6
Continuous
 62
     2
100
AcDbLine
 10
-54.42340561425988
 20
15.00690203923015
 30
0.0
 11
-53.5113070195755
 21
15.00690203923015
 31
0.0
  0
LINE
  5
1B0
102
{ACAD_REACTORS
330
391
330
392
102
}
330
74
100
AcDbEntity
  8
0
  6
Continuous
 62
     2
100
AcDbLine
 10
-53.78732516553146
 20
13.99737822970626
 30
0.0
 11
-53.78732516553146
 21
13.27628979433169
 31
0.0
  0
LINE
  5
1B1
102
{ACAD_REACTORS
330
39B
330
39C
102
}
330
74
100
AcDbEntity
  8
0
  6
Continuous
 62
     2
100
AcDbLine
 10
-55.32514055014292
 20
15.90826258343419
 30
0.0
 11
-54.16980745349804
 21
17.2147576196118
 31
0.0
  0
LINE
  5
1B2
102
{ACAD_REACTORS
330
39B
330
39C
102
}
330
74
100
AcDbEntity
  8
0
  6
Continuous
 62
     2
100
AcDbLine
 10
-55.24627822272737
 20
18.43207210724502
 30
0.0
 11
-54.16980745349804
 21
17.2147576196118
 31
0.0
  0
LINE
  5
1B3
102
{ACAD_REACTORS
330
39B
330
39C
102
}
330
74
100
AcDbEntity
  8
0
  6
Continuous
 62
     2
100
AcDbLine
 10
-53.09333668426962
 20
18.43207210724502
 30
0.0
 11
-51.93406047125541
 21
18.43207210724502
 31
0.0
  0
LINE
  5
1B4
102
{ACAD_REACTORS
330
39B
330
39C
102
}
330
74
100
AcDbEntity
  8
0
  6
Continuous
 62
     2
100
AcDbLine
 10
-54.16586433712791
 20
15.90826258343419
 30
0.0
 11
-53.59016934699093
 21
16.55928058780913
 31
0.0
  0
LINE
  5
1B5
102
{ACAD_REACTORS
330
39B
330
39C
102
}
330
74
100
AcDbEntity
  8
0
  6
Continuous
 62
     2
100
AcDbLine
 10
-54.16586433712791
 20
15.90826258343419
 30
0.0
 11
-55.32514055014292
 21
15.90826258343419
 31
0.0
  0
LINE
  5
1B6
102
{ACAD_REACTORS
330
39D
330
39E
102
}
330
74
100
AcDbEntity
  8
0
  6
Continuous
 62
     2
100
AcDbLine
 10
-55.42371845941307
 20
15.90826258343419
 30
0.0
 11
-56.44892871582044
 21
15.90826258343419
 31
0.0
  0
LINE
  5
1B7
102
{ACAD_REACTORS
330
39F
330
3A0
102
}
330
74
100
AcDbEntity
  8
0
  6
Continuous
 62
     2
100
AcDbLine
 10
-57.16626723495688
 20
14.14159591678136
 30
0.0
 11
-57.41433767891567
 21
14.7761537399109
 31
0.0
  0
LINE
  5
1B8
102
{ACAD_REACTORS
330
39F
330
3A0
102
}
330
74
100
AcDbEntity
  8
0
  6
Continuous
 62
     2
100
AcDbLine
 10
-57.66240812287629
 20
14.14159591678136
 30
0.0
 11
-57.16626723495688
 21
14.14159591678136
 31
0.0
  0
LINE
  5
1B9
102
{ACAD_REACTORS
330
39F
330
3A0
102
}
330
74
100
AcDbEntity
  8
0
  6
Continuous
 62
     2
100
AcDbLine
 10
-59.08227590376373
 20
13.13207210725704
 30
0.0
 11
-58.05706564735635
 21
13.13207210725704
 31
0.0
  0
LINE
  5
1BA
102
{ACAD_REACTORS
330
39F
330
3A0
102
}
330
74
100
AcDbEntity
  8
0
  6
Continuous
 62
     2
100
AcDbLine
 10
-57.92694280711976
 20
15.65588163106787
 30
0.0
 11
-56.9017325507125
 21
15.65588163106787
 31
0.0
  0
LINE
  5
1BB
102
{ACAD_REACTORS
330
39F
330
3A0
102
}
330
74
100
AcDbEntity
  8
0
  6
Continuous
 62
     2
100
AcDbLine
 10
-56.9017325507125
 20
15.65588163106787
 30
0.0
 11
-55.74639945406761
 21
13.13207210725704
 31
0.0
  0
LINE
  5
1BC
102
{ACAD_REACTORS
330
39F
330
3A0
102
}
330
74
100
AcDbEntity
  8
0
  6
Continuous
 62
     2
100
AcDbLine
 10
-56.77160971047579
 20
13.13207210725704
 30
0.0
 11
-56.9463866141748
 21
13.57914693718916
 31
0.0
  0
LINE
  5
1BD
102
{ACAD_REACTORS
330
3A1
330
3A2
102
}
330
74
100
AcDbEntity
  8
0
  6
Continuous
 62
     2
100
AcDbLine
 10
-60.19501400434854
 20
13.13207210725704
 30
0.0
 11
-59.20923491164899
 21
13.13207210725704
 31
0.0
  0
LINE
  5
1BE
102
{ACAD_REACTORS
330
3A1
330
3A2
102
}
330
74
100
AcDbEntity
  8
0
  6
Continuous
 62
     2
100
AcDbLine
 10
-60.19501400434854
 20
15.00690203923015
 30
0.0
 11
-60.19501400434854
 21
13.13207210725704
 31
0.0
  0
LINE
  5
1BF
102
{ACAD_REACTORS
330
3A1
330
3A2
102
}
330
74
100
AcDbEntity
  8
0
  6
Continuous
 62
     2
100
AcDbLine
 10
-60.86534378738543
 20
15.65588163106787
 30
0.0
 11
-60.86534378738543
 21
15.00690203923015
 31
0.0
  0
LINE
  5
1C0
102
{ACAD_REACTORS
330
3A3
330
3A4
102
}
330
74
100
AcDbEntity
  8
0
  6
Continuous
 62
     2
100
AcDbLine
 10
-59.64285297616834
 20
15.90826258343419
 30
0.0
 11
-58.6570738834688
 21
15.90826258343419
 31
0.0
  0
LINE
  5
1C1
102
{ACAD_REACTORS
330
3A3
330
3A4
102
}
330
74
100
AcDbEntity
  8
0
  6
Continuous
 62
     2
100
AcDbLine
 10
-57.63186362706051
 20
17.35043945418291
 30
0.0
 11
-58.6570738834688
 21
18.43207210724502
 31
0.0
  0
LINE
  5
1C2
102
{ACAD_REACTORS
330
3A3
330
3A4
102
}
330
74
100
AcDbEntity
  8
0
  6
Continuous
 62
     2
100
AcDbLine
 10
-56.64608453436085
 20
18.43207210724502
 30
0.0
 11
-57.63186362706051
 21
18.43207210724502
 31
0.0
  0
LINE
  5
1C3
102
{ACAD_REACTORS
330
3A3
330
3A4
102
}
330
74
100
AcDbEntity
  8
0
  6
Continuous
 62
     2
100
AcDbLine
 10
-56.64608453436085
 20
15.90826258343419
 30
0.0
 11
-56.64608453436085
 21
18.43207210724502
 31
0.0
  0
LINE
  5
1C4
102
{ACAD_REACTORS
330
3A3
330
3A4
102
}
330
74
100
AcDbEntity
  8
0
  6
Continuous
 62
     2
100
AcDbLine
 10
-57.63186362706051
 20
15.90826258343419
 30
0.0
 11
-56.64608453436085
 21
15.90826258343419
 31
0.0
  0
LINE
  5
1C5
102
{ACAD_REACTORS
330
3A3
330
3A4
102
}
330
74
100
AcDbEntity
  8
0
  6
Continuous
 62
     2
100
AcDbLine
 10
-58.6570738834688
 20
16.98989523649585
 30
0.0
 11
-57.63186362706051
 21
15.90826258343419
 31
0.0
  0
LINE
  5
1C6
102
{ACAD_REACTORS
330
3A5
330
3A6
102
}
330
74
100
AcDbEntity
  8
0
  6
Continuous
 62
     2
100
AcDbLine
 10
-61.96941637120904
 20
14.57424897800576
 30
0.0
 11
-62.99462662761641
 21
15.65588163106787
 31
0.0
  0
LINE
  5
1C7
102
{ACAD_REACTORS
330
3A5
330
3A6
102
}
330
74
100
AcDbEntity
  8
0
  6
Continuous
 62
     2
100
AcDbLine
 10
-61.96941637120904
 20
15.65588163106787
 30
0.0
 11
-61.96941637120904
 21
14.57424897800576
 31
0.0
  0
LINE
  5
1C8
102
{ACAD_REACTORS
330
3A5
330
3A6
102
}
330
74
100
AcDbEntity
  8
0
  6
Continuous
 62
     2
100
AcDbLine
 10
-60.98363727850949
 20
15.65588163106787
 30
0.0
 11
-61.96941637120904
 21
15.65588163106787
 31
0.0
  0
LINE
  5
1C9
102
{ACAD_REACTORS
330
3A5
330
3A6
102
}
330
74
100
AcDbEntity
  8
0
  6
Continuous
 62
     2
100
AcDbLine
 10
-60.98363727850949
 20
13.13207210725704
 30
0.0
 11
-60.98363727850949
 21
15.65588163106787
 31
0.0
  0
LINE
  5
1CA
102
{ACAD_REACTORS
330
3A5
330
3A6
102
}
330
74
100
AcDbEntity
  8
0
  6
Continuous
 62
     2
100
AcDbLine
 10
-62.99462662761641
 20
14.21370476031869
 30
0.0
 11
-61.96941637120904
 21
13.13207210725704
 31
0.0
  0
LINE
  5
1CB
102
{ACAD_REACTORS
330
3A5
330
3A6
102
}
330
74
100
AcDbEntity
  8
0
  6
Continuous
 62
     2
100
AcDbLine
 10
-62.99462662761641
 20
13.13207210725704
 30
0.0
 11
-62.99462662761641
 21
14.21370476031869
 31
0.0
  0
LINE
  5
1CC
102
{ACAD_REACTORS
330
395
330
396
102
}
330
74
100
AcDbEntity
  8
0
  6
Continuous
 62
     2
100
AcDbLine
 10
-60.94408137853247
 20
17.85520135894508
 30
0.0
 11
-59.84000879470796
 21
17.85520135894508
 31
0.0
  0
LINE
  5
1CD
102
{ACAD_REACTORS
330
395
330
396
102
}
330
74
100
AcDbEntity
  8
0
  6
Continuous
 62
     2
100
AcDbLine
 10
-60.94408137853247
 20
16.48513333173368
 30
0.0
 11
-60.94408137853247
 21
16.88173197118964
 31
0.0
  0
LINE
  5
1CE
102
{ACAD_REACTORS
330
395
330
396
102
}
330
74
100
AcDbEntity
  8
0
  6
Continuous
 62
     2
100
AcDbLine
 10
-59.84000879470796
 20
16.48513333173368
 30
0.0
 11
-60.94408137853247
 21
16.48513333173368
 31
0.0
  0
LINE
  5
1CF
102
{ACAD_REACTORS
330
395
330
396
102
}
330
74
100
AcDbEntity
  8
0
  6
Continuous
 62
     2
100
AcDbLine
 10
-59.84000879470796
 20
15.90826258343419
 30
0.0
 11
-59.84000879470796
 21
16.48513333173368
 31
0.0
  0
LINE
  5
1D0
102
{ACAD_REACTORS
330
395
330
396
102
}
330
74
100
AcDbEntity
  8
0
  6
Continuous
 62
     2
100
AcDbLine
 10
-62.44357881436167
 20
15.90826258343419
 30
0.0
 11
-59.84000879470796
 21
15.90826258343419
 31
0.0
  0
LINE
  5
1D1
102
{ACAD_REACTORS
330
395
330
396
102
}
330
74
100
AcDbEntity
  8
0
  6
Continuous
 62
     2
100
AcDbLine
 10
-62.44357881436167
 20
18.43207210724502
 30
0.0
 11
-59.84000879470796
 21
18.43207210724502
 31
0.0
  0
LINE
  5
1D2
102
{ACAD_REACTORS
330
395
330
396
102
}
330
74
100
AcDbEntity
  8
0
  6
Continuous
 62
     2
100
AcDbLine
 10
-59.84000879470796
 20
17.85520135894508
 30
0.0
 11
-59.84000879470796
 21
18.43207210724502
 31
0.0
  0
LINE
  5
1D3
102
{ACAD_REACTORS
330
3A7
330
3A8
102
}
330
74
100
AcDbEntity
  8
0
  6
Continuous
 62
     2
100
AcDbLine
 10
-64.80833542191544
 20
17.54873877391066
 30
0.0
 11
-64.80833542191544
 21
18.43207210724502
 31
0.0
  0
LINE
  5
1D4
102
{ACAD_REACTORS
330
3A7
330
3A8
102
}
330
74
100
AcDbEntity
  8
0
  6
Continuous
 62
     2
100
AcDbLine
 10
-64.80833542191544
 20
18.43207210724502
 30
0.0
 11
-63.8225563292159
 21
18.43207210724502
 31
0.0
  0
LINE
  5
1D5
102
{ACAD_REACTORS
330
3A7
330
3A8
102
}
330
74
100
AcDbEntity
  8
0
  6
Continuous
 62
     2
100
AcDbLine
 10
-64.80833542191544
 20
16.84567754942075
 30
0.0
 11
-65.67582102349184
 21
16.84567754942075
 31
0.0
  0
LINE
  5
1D6
102
{ACAD_REACTORS
330
3A7
330
3A8
102
}
330
74
100
AcDbEntity
  8
0
  6
Continuous
 62
     2
100
AcDbLine
 10
-65.67582102349184
 20
16.84567754942075
 30
0.0
 11
-65.67582102349184
 21
15.90826258343419
 31
0.0
  0
LINE
  5
1D7
102
{ACAD_REACTORS
330
3A7
330
3A8
102
}
330
74
100
AcDbEntity
  8
0
  6
Continuous
 62
     2
100
AcDbLine
 10
-66.6616001161915
 20
18.43207210724502
 30
0.0
 11
-66.6616001161915
 21
15.90826258343419
 31
0.0
  0
LINE
  5
1D8
102
{ACAD_REACTORS
330
399
330
39A
102
}
330
74
100
AcDbEntity
  8
0
  6
Continuous
 62
     2
100
AcDbLine
 10
-68.2782778282193
 20
17.30080475618525
 30
0.0
 11
-68.2782778282193
 21
17.88405074737721
 31
0.0
  0
LINE
  5
1D9
102
{ACAD_REACTORS
330
399
330
39A
102
}
330
74
100
AcDbEntity
  8
0
  6
Continuous
 62
     2
100
AcDbLine
 10
-69.30348808462759
 20
15.90826258343419
 30
0.0
 11
-68.2782778282193
 21
15.90826258343419
 31
0.0
  0
LINE
  5
1DA
102
{ACAD_REACTORS
330
399
330
39A
102
}
330
74
100
AcDbEntity
  8
0
  6
Continuous
 62
     2
100
AcDbLine
 10
-68.2782778282193
 20
15.90826258343419
 30
0.0
 11
-68.2782778282193
 21
16.68766608851166
 31
0.0
  0
LINE
  5
1DB
102
{ACAD_REACTORS
330
393
330
394
102
}
330
74
100
AcDbEntity
  8
0
  6
Continuous
 62
     2
100
AcDbLine
 10
-72.86129457157926
 20
13.72096099614706
 30
0.0
 11
-74.0809914815045
 21
13.72096099614706
 31
0.0
  0
LINE
  5
1DC
102
{ACAD_REACTORS
330
393
330
394
102
}
330
74
100
AcDbEntity
  8
0
  6
Continuous
 62
     2
100
AcDbLine
 10
-74.92242891301635
 20
18.08145672261529
 30
0.0
 11
-74.92242891301635
 21
13.48268749187132
 31
0.0
  0
LINE
  5
1DD
102
{ACAD_REACTORS
330
393
330
394
102
}
330
74
100
AcDbEntity
  8
0
  6
Continuous
 62
     2
100
AcDbLine
 10
-74.57181352840246
 20
18.43207210723003
 30
0.0
 11
-70.04841510632241
 21
18.43207210723003
 31
0.0
  0
LINE
  5
1DE
102
{ACAD_REACTORS
330
393
330
394
102
}
330
74
100
AcDbEntity
  8
0
  6
Continuous
 62
     2
100
AcDbLine
 10
-69.69779972170761
 20
18.08145672261529
 30
0.0
 11
-69.69779972170761
 21
13.48268749187132
 31
0.0
  0
LINE
  5
1DF
102
{ACAD_REACTORS
330
393
330
394
102
}
330
74
100
AcDbEntity
  8
0
  6
Continuous
 62
     2
100
AcDbLine
 10
-70.04841510632241
 20
13.13207210725704
 30
0.0
 11
-74.57181352840246
 21
13.13207210725704
 31
0.0
  0
LINE
  5
1E0
102
{ACAD_REACTORS
330
393
330
394
102
}
330
74
100
AcDbEntity
  8
0
  6
Continuous
 62
     2
100
AcDbLine
 10
-72.60037149465643
 20
13.98188407306995
 30
0.0
 11
-72.60037149465643
 21
15.24698401648451
 31
0.0
  0
LINE
  5
1E1
102
{ACAD_REACTORS
330
393
330
394
102
}
330
74
100
AcDbEntity
  8
0
  6
Continuous
 62
     2
100
AcDbLine
 10
-72.60037149465643
 20
17.08306624138113
 30
0.0
 11
-72.60037149465643
 21
17.58226014143119
 31
0.0
  0
LINE
  5
1E2
102
{ACAD_REACTORS
330
393
330
394
102
}
330
74
100
AcDbEntity
  8
0
  6
Continuous
 62
     2
100
AcDbLine
 10
-74.0809914815045
 20
17.84318321835364
 30
0.0
 11
-72.86129457157926
 21
17.84318321835364
 31
0.0
  0
LINE
  5
1E3
102
{ACAD_REACTORS
330
393
330
394
102
}
330
74
100
AcDbEntity
  8
0
  6
Continuous
 62
     2
100
AcDbLine
 10
-74.34191455842654
 20
17.58226014143119
 30
0.0
 11
-74.34191455842654
 21
13.98188407306995
 31
0.0
  0
LINE
  5
1E4
102
{ACAD_REACTORS
330
399
330
39A
102
}
330
74
100
AcDbEntity
  8
0
  6
Continuous
 62
     2
100
AcDbLine
 10
-68.2782778282193
 20
16.68766608851166
 30
0.0
 11
-67.65119717716118
 21
16.68766608851166
 31
0.0
  0
LINE
  5
1E5
102
{ACAD_REACTORS
330
399
330
39A
102
}
330
74
100
AcDbEntity
  8
0
  6
Continuous
 62
     2
100
AcDbLine
 10
-69.30348808462759
 20
18.43207210724502
 30
0.0
 11
-67.65119717716118
 21
18.43207210724502
 31
0.0
  0
LINE
  5
1E6
102
{ACAD_REACTORS
330
399
330
39A
102
}
330
74
100
AcDbEntity
  8
0
  6
Continuous
 62
     2
100
AcDbLine
 10
-69.30348808462759
 20
18.43207210724502
 30
0.0
 11
-69.30348808462759
 21
15.90826258343419
 31
0.0
  0
LINE
  5
1E7
102
{ACAD_REACTORS
330
399
330
39A
102
}
330
74
100
AcDbEntity
  8
0
  6
Continuous
 62
     2
100
AcDbLine
 10
-68.2782778282193
 20
17.30080475618525
 30
0.0
 11
-68.01605050463093
 21
17.30080475618525
 31
0.0
  0
LINE
  5
1E8
102
{ACAD_REACTORS
330
399
330
39A
102
}
330
74
100
AcDbEntity
  8
0
  6
Continuous
 62
     2
100
AcDbLine
 10
-68.2782778282193
 20
17.88405074737721
 30
0.0
 11
-68.01605050463093
 21
17.88405074737721
 31
0.0
  0
LINE
  5
1E9
102
{ACAD_REACTORS
330
3A7
330
3A8
102
}
330
74
100
AcDbEntity
  8
0
  6
Continuous
 62
     2
100
AcDbLine
 10
-65.67582102349184
 20
17.54873877391066
 30
0.0
 11
-64.80833542191544
 21
17.54873877391066
 31
0.0
  0
LINE
  5
1EA
102
{ACAD_REACTORS
330
3A7
330
3A8
102
}
330
74
100
AcDbEntity
  8
0
  6
Continuous
 62
     2
100
AcDbLine
 10
-65.67582102349184
 20
18.43207210724502
 30
0.0
 11
-65.67582102349184
 21
17.54873877391066
 31
0.0
  0
LINE
  5
1EB
102
{ACAD_REACTORS
330
3A7
330
3A8
102
}
330
74
100
AcDbEntity
  8
0
  6
Continuous
 62
     2
100
AcDbLine
 10
-66.6616001161915
 20
18.43207210724502
 30
0.0
 11
-65.67582102349184
 21
18.43207210724502
 31
0.0
  0
LINE
  5
1EC
102
{ACAD_REACTORS
330
3A7
330
3A8
102
}
330
74
100
AcDbEntity
  8
0
  6
Continuous
 62
     2
100
AcDbLine
 10
-65.67582102349184
 20
15.90826258343419
 30
0.0
 11
-66.6616001161915
 21
15.90826258343419
 31
0.0
  0
LINE
  5
1ED
102
{ACAD_REACTORS
330
3A7
330
3A8
102
}
330
74
100
AcDbEntity
  8
0
  6
Continuous
 62
     2
100
AcDbLine
 10
-64.80833542191544
 20
15.90826258343419
 30
0.0
 11
-64.80833542191544
 21
16.84567754942075
 31
0.0
  0
LINE
  5
1EE
102
{ACAD_REACTORS
330
3A7
330
3A8
102
}
330
74
100
AcDbEntity
  8
0
  6
Continuous
 62
     2
100
AcDbLine
 10
-63.8225563292159
 20
15.90826258343419
 30
0.0
 11
-64.80833542191544
 21
15.90826258343419
 31
0.0
  0
LINE
  5
1EF
102
{ACAD_REACTORS
330
3A7
330
3A8
102
}
330
74
100
AcDbEntity
  8
0
  6
Continuous
 62
     2
100
AcDbLine
 10
-63.8225563292159
 20
18.43207210724502
 30
0.0
 11
-63.8225563292159
 21
15.90826258343419
 31
0.0
  0
LINE
  5
1F0
102
{ACAD_REACTORS
330
395
330
396
102
}
330
74
100
AcDbEntity
  8
0
  6
Continuous
 62
     2
100
AcDbLine
 10
-60.94408137853247
 20
16.88173197118964
 30
0.0
 11
-59.84000879470796
 21
16.88173197118964
 31
0.0
  0
LINE
  5
1F1
102
{ACAD_REACTORS
330
395
330
396
102
}
330
74
100
AcDbEntity
  8
0
  6
Continuous
 62
     2
100
AcDbLine
 10
-59.84000879470796
 20
16.88173197118964
 30
0.0
 11
-59.84000879470796
 21
17.45860271948912
 31
0.0
  0
LINE
  5
1F2
102
{ACAD_REACTORS
330
395
330
396
102
}
330
74
100
AcDbEntity
  8
0
  6
Continuous
 62
     2
100
AcDbLine
 10
-59.84000879470796
 20
17.45860271948912
 30
0.0
 11
-60.94408137853247
 21
17.45860271948912
 31
0.0
  0
LINE
  5
1F3
102
{ACAD_REACTORS
330
395
330
396
102
}
330
74
100
AcDbEntity
  8
0
  6
Continuous
 62
     2
100
AcDbLine
 10
-60.94408137853247
 20
17.45860271948912
 30
0.0
 11
-60.94408137853247
 21
17.85520135894508
 31
0.0
  0
LINE
  5
1F4
102
{ACAD_REACTORS
330
3A5
330
3A6
102
}
330
74
100
AcDbEntity
  8
0
  6
Continuous
 62
     2
100
AcDbLine
 10
-63.98040572031687
 20
13.13207210725704
 30
0.0
 11
-62.99462662761641
 21
13.13207210725704
 31
0.0
  0
LINE
  5
1F5
102
{ACAD_REACTORS
330
3A5
330
3A6
102
}
330
74
100
AcDbEntity
  8
0
  6
Continuous
 62
     2
100
AcDbLine
 10
-61.96941637120904
 20
13.13207210725704
 30
0.0
 11
-60.98363727850949
 21
13.13207210725704
 31
0.0
  0
LINE
  5
1F6
102
{ACAD_REACTORS
330
3A5
330
3A6
102
}
330
74
100
AcDbEntity
  8
0
  6
Continuous
 62
     2
100
AcDbLine
 10
-62.99462662761641
 20
15.65588163106787
 30
0.0
 11
-63.98040572031687
 21
15.65588163106787
 31
0.0
  0
LINE
  5
1F7
102
{ACAD_REACTORS
330
3A5
330
3A6
102
}
330
74
100
AcDbEntity
  8
0
  6
Continuous
 62
     2
100
AcDbLine
 10
-63.98040572031687
 20
15.65588163106787
 30
0.0
 11
-63.98040572031687
 21
13.13207210725704
 31
0.0
  0
LINE
  5
1F8
102
{ACAD_REACTORS
330
3A3
330
3A4
102
}
330
74
100
AcDbEntity
  8
0
  6
Continuous
 62
     2
100
AcDbLine
 10
-57.63186362706051
 20
18.43207210724502
 30
0.0
 11
-57.63186362706051
 21
17.35043945418291
 31
0.0
  0
LINE
  5
1F9
102
{ACAD_REACTORS
330
3A3
330
3A4
102
}
330
74
100
AcDbEntity
  8
0
  6
Continuous
 62
     2
100
AcDbLine
 10
-58.6570738834688
 20
18.43207210724502
 30
0.0
 11
-59.64285297616834
 21
18.43207210724502
 31
0.0
  0
LINE
  5
1FA
102
{ACAD_REACTORS
330
3A3
330
3A4
102
}
330
74
100
AcDbEntity
  8
0
  6
Continuous
 62
     2
100
AcDbLine
 10
-59.64285297616834
 20
18.43207210724502
 30
0.0
 11
-59.64285297616834
 21
15.90826258343419
 31
0.0
  0
LINE
  5
1FB
102
{ACAD_REACTORS
330
3A3
330
3A4
102
}
330
74
100
AcDbEntity
  8
0
  6
Continuous
 62
     2
100
AcDbLine
 10
-58.6570738834688
 20
15.90826258343419
 30
0.0
 11
-58.6570738834688
 21
16.98989523649585
 31
0.0
  0
LINE
  5
1FC
102
{ACAD_REACTORS
330
3A1
330
3A2
102
}
330
74
100
AcDbEntity
  8
0
  6
Continuous
 62
     2
100
AcDbLine
 10
-59.20923491164899
 20
13.13207210725704
 30
0.0
 11
-59.20923491164899
 21
15.00690203923015
 31
0.0
  0
LINE
  5
1FD
102
{ACAD_REACTORS
330
3A1
330
3A2
102
}
330
74
100
AcDbEntity
  8
0
  6
Continuous
 62
     2
100
AcDbLine
 10
-59.20923491164899
 20
15.00690203923015
 30
0.0
 11
-58.53890512861381
 21
15.00690203923015
 31
0.0
  0
LINE
  5
1FE
102
{ACAD_REACTORS
330
3A1
330
3A2
102
}
330
74
100
AcDbEntity
  8
0
  6
Continuous
 62
     2
100
AcDbLine
 10
-58.53890512861381
 20
15.00690203923015
 30
0.0
 11
-58.53890512861381
 21
15.65588163106787
 31
0.0
  0
LINE
  5
1FF
102
{ACAD_REACTORS
330
3A1
330
3A2
102
}
330
74
100
AcDbEntity
  8
0
  6
Continuous
 62
     2
100
AcDbLine
 10
-58.53890512861381
 20
15.65588163106787
 30
0.0
 11
-60.86534378738543
 21
15.65588163106787
 31
0.0
  0
LINE
  5
200
102
{ACAD_REACTORS
330
3A1
330
3A2
102
}
330
74
100
AcDbEntity
  8
0
  6
Continuous
 62
     2
100
AcDbLine
 10
-60.86534378738543
 20
15.00690203923015
 30
0.0
 11
-60.19501400434854
 21
15.00690203923015
 31
0.0
  0
LINE
  5
201
102
{ACAD_REACTORS
330
39F
330
3A0
102
}
330
74
100
AcDbEntity
  8
0
  6
Continuous
 62
     2
100
AcDbLine
 10
-57.88228874365734
 20
13.57914693718916
 30
0.0
 11
-56.9463866141748
 21
13.57914693718916
 31
0.0
  0
LINE
  5
202
102
{ACAD_REACTORS
330
39F
330
3A0
102
}
330
74
100
AcDbEntity
  8
0
  6
Continuous
 62
     2
100
AcDbLine
 10
-55.74639945406761
 20
13.13207210725704
 30
0.0
 11
-56.77160971047579
 21
13.13207210725704
 31
0.0
  0
LINE
  5
203
102
{ACAD_REACTORS
330
39F
330
3A0
102
}
330
74
100
AcDbEntity
  8
0
  6
Continuous
 62
     2
100
AcDbLine
 10
-57.92694280711976
 20
15.65588163106787
 30
0.0
 11
-59.08227590376373
 21
13.13207210725704
 31
0.0
  0
LINE
  5
204
102
{ACAD_REACTORS
330
39F
330
3A0
102
}
330
74
100
AcDbEntity
  8
0
  6
Continuous
 62
     2
100
AcDbLine
 10
-58.05706564735635
 20
13.13207210725704
 30
0.0
 11
-57.88228874365734
 21
13.57914693718916
 31
0.0
  0
LINE
  5
205
102
{ACAD_REACTORS
330
39F
330
3A0
102
}
330
74
100
AcDbEntity
  8
0
  6
Continuous
 62
     2
100
AcDbLine
 10
-57.66240812287629
 20
14.14159591678136
 30
0.0
 11
-57.41433767891567
 21
14.7761537399109
 31
0.0
  0
LINE
  5
206
102
{ACAD_REACTORS
330
39D
330
39E
102
}
330
74
100
AcDbEntity
  8
0
  6
Continuous
 62
     2
100
AcDbLine
 10
-56.44892871582044
 20
15.90826258343419
 30
0.0
 11
-56.44892871582044
 21
18.43207210724502
 31
0.0
  0
LINE
  5
207
102
{ACAD_REACTORS
330
39D
330
39E
102
}
330
74
100
AcDbEntity
  8
0
  6
Continuous
 62
     2
100
AcDbLine
 10
-55.42371845941307
 20
18.43207210724502
 30
0.0
 11
-55.42371845941307
 21
15.90826258343419
 31
0.0
  0
LINE
  5
208
102
{ACAD_REACTORS
330
39D
330
39E
102
}
330
74
100
AcDbEntity
  8
0
  6
Continuous
 62
     2
100
AcDbLine
 10
-56.44892871582044
 20
18.43207210724502
 30
0.0
 11
-55.42371845941307
 21
18.43207210724502
 31
0.0
  0
LINE
  5
209
102
{ACAD_REACTORS
330
39B
330
39C
102
}
330
74
100
AcDbEntity
  8
0
  6
Continuous
 62
     2
100
AcDbLine
 10
-53.59016934699093
 20
16.55928058780913
 30
0.0
 11
-53.01447435685418
 21
15.90826258343419
 31
0.0
  0
LINE
  5
20A
102
{ACAD_REACTORS
330
39B
330
39C
102
}
330
74
100
AcDbEntity
  8
0
  6
Continuous
 62
     2
100
AcDbLine
 10
-53.01447435685418
 20
15.90826258343419
 30
0.0
 11
-51.85519814383906
 21
15.90826258343419
 31
0.0
  0
LINE
  5
20B
102
{ACAD_REACTORS
330
39B
330
39C
102
}
330
74
100
AcDbEntity
  8
0
  6
Continuous
 62
     2
100
AcDbLine
 10
-53.01053124048394
 20
17.2147576196118
 30
0.0
 11
-51.85519814383906
 21
15.90826258343419
 31
0.0
  0
LINE
  5
20C
102
{ACAD_REACTORS
330
39B
330
39C
102
}
330
74
100
AcDbEntity
  8
0
  6
Continuous
 62
     2
100
AcDbLine
 10
-53.01053124048394
 20
17.2147576196118
 30
0.0
 11
-51.93406047125541
 21
18.43207210724502
 31
0.0
  0
LINE
  5
20D
102
{ACAD_REACTORS
330
39B
330
39C
102
}
330
74
100
AcDbEntity
  8
0
  6
Continuous
 62
     2
100
AcDbLine
 10
-53.59016934699093
 20
17.87023465141403
 30
0.0
 11
-53.09333668426962
 21
18.43207210724502
 31
0.0
  0
LINE
  5
20E
102
{ACAD_REACTORS
330
39B
330
39C
102
}
330
74
100
AcDbEntity
  8
0
  6
Continuous
 62
     2
100
AcDbLine
 10
-54.08700200971146
 20
18.43207210724502
 30
0.0
 11
-53.59016934699093
 21
17.87023465141403
 31
0.0
  0
LINE
  5
20F
102
{ACAD_REACTORS
330
39B
330
39C
102
}
330
74
100
AcDbEntity
  8
0
  6
Continuous
 62
     2
100
AcDbLine
 10
-54.08700200971146
 20
18.43207210724502
 30
0.0
 11
-55.24627822272737
 21
18.43207210724502
 31
0.0
  0
LINE
  5
210
102
{ACAD_REACTORS
330
391
330
392
102
}
330
74
100
AcDbEntity
  8
0
  6
Continuous
 62
     2
100
AcDbLine
 10
-53.5113070195755
 20
13.13207210725704
 30
0.0
 11
-52.52552792687493
 21
13.13207210725704
 31
0.0
  0
LINE
  5
211
102
{ACAD_REACTORS
330
391
330
392
102
}
330
74
100
AcDbEntity
  8
0
  6
Continuous
 62
     2
100
AcDbLine
 10
-52.52552792687493
 20
13.13207210725704
 30
0.0
 11
-52.52552792687493
 21
15.00690203923015
 31
0.0
  0
LINE
  5
212
102
{ACAD_REACTORS
330
391
330
392
102
}
330
74
100
AcDbEntity
  8
0
  6
Continuous
 62
     2
100
AcDbLine
 10
-52.52552792687493
 20
15.00690203923015
 30
0.0
 11
-51.85519814383906
 21
15.00690203923015
 31
0.0
  0
LINE
  5
213
102
{ACAD_REACTORS
330
391
330
392
102
}
330
74
100
AcDbEntity
  8
0
  6
Continuous
 62
     2
100
AcDbLine
 10
-51.85519814383906
 20
15.00690203923015
 30
0.0
 11
-51.85519814383906
 21
15.65588163106787
 31
0.0
  0
LINE
  5
214
102
{ACAD_REACTORS
330
391
330
392
102
}
330
74
100
AcDbEntity
  8
0
  6
Continuous
 62
     2
100
AcDbLine
 10
-54.65267377906935
 20
15.65588163106741
 30
0.0
 11
-51.85519814383906
 21
15.65588163106787
 31
0.0
  0
LINE
  5
215
102
{ACAD_REACTORS
330
391
330
392
102
}
330
74
100
AcDbEntity
  8
0
  6
Continuous
 62
     2
100
AcDbLine
 10
-53.5113070195755
 20
15.00690203923015
 30
0.0
 11
-53.5113070195755
 21
13.13207210725704
 31
0.0
  0
LINE
  5
216
102
{ACAD_REACTORS
330
393
330
394
102
}
330
74
100
AcDbEntity
  8
0
  6
Continuous
 62
     2
100
AcDbLine
 10
-72.21336192493015
 20
14.76751024739299
 30
0.0
 11
-72.21336192493015
 21
15.24837917854596
 31
0.0
  0
LINE
  5
217
102
{ACAD_REACTORS
330
393
330
394
102
}
330
74
100
AcDbEntity
  8
0
  6
Continuous
 62
     2
100
AcDbLine
 10
-72.21336192493015
 20
17.08167107931967
 30
0.0
 11
-72.21336192493015
 21
17.58211346651534
 31
0.0
  0
LINE
  5
218
330
74
100
AcDbEntity
  8
1
  6
Continuous
 62
     7
100
AcDbLine
 10
-15.53766974705952
 20
24.28207210725108
 30
0.0
 11
-15.53766974705952
 21
28.53207210725106
 31
0.0
  0
LINE
  5
219
330
74
100
AcDbEntity
  8
1
  6
Continuous
 62
     6
100
AcDbLine
 10
-95.53766974706191
 20
7.28207210725119
 30
0.0
 11
-95.08247427381191
 21
7.28207210725108
 31
0.0
  0
LINE
  5
21A
330
74
100
AcDbEntity
  8
1
  6
Continuous
 62
     6
100
AcDbLine
 10
-145.537669747062
 20
7.28207210725119
 30
0.0
 11
-184.337669747062
 21
7.28207210725119
 31
0.0
  0
LINE
  5
21B
330
74
100
AcDbEntity
  8
1
  6
Continuous
 62
     6
100
AcDbLine
 10
-195.5376697470619
 20
7.28207210725119
 30
0.0
 11
-184.337669747062
 21
7.28207210725119
 31
0.0
  0
LINE
  5
21C
330
74
100
AcDbEntity
  8
1
  6
Continuous
 62
     6
100
AcDbLine
 10
4.46233025293811
 20
7.28207210725119
 30
0.0
 11
47.9623302529381
 21
7.28207210725119
 31
0.0
  0
LINE
  5
21D
330
74
100
AcDbEntity
  8
1
  6
Continuous
 62
     6
100
AcDbLine
 10
-45.5376697470619
 20
7.28207210725119
 30
0.0
 11
-63.38247427381194
 21
7.28207210725119
 31
0.0
  0
LINE
  5
21E
330
74
100
AcDbEntity
  8
1
  6
PHANTOM
 62
     2
100
AcDbLine
 10
-73.46321105901154
 20
22.15707210725108
 30
0.0
 11
-69.14761608982253
 21
22.15707210725108
 31
0.0
  0
LINE
  5
21F
330
74
100
AcDbEntity
  8
1
  6
PHANTOM
 62
     2
100
AcDbLine
 10
-76.49021444870854
 20
23.80707210725111
 30
0.0
 11
-76.49021444870854
 21
20.5070721072511
 31
0.0
  0
LINE
  5
220
330
74
100
AcDbEntity
  8
1
  6
PHANTOM
 62
     2
100
AcDbLine
 10
-74.84021444870854
 20
22.15707210725108
 30
0.0
 11
-78.14021444870853
 21
22.15707210725108
 31
0.0
  0
LINE
  5
221
330
74
100
AcDbEntity
  8
1
  6
Continuous
 62
     2
100
AcDbLine
 10
47.9623302529381
 20
7.28207210725119
 30
0.0
 11
52.96233025293711
 21
7.28207210725119
 31
0.0
  0
LINE
  5
222
330
74
100
AcDbEntity
  8
1
  6
Continuous
 62
     2
100
AcDbLine
 10
47.9623302529381
 20
7.28207210725119
 30
0.0
 11
47.9623302529381
 21
2.28207210725108
 31
0.0
  0
LINE
  5
223
330
74
100
AcDbEntity
  8
1
  6
Continuous
 62
     7
100
AcDbLine
 10
-45.18247427381191
 20
20.03207210725108
 30
0.0
 11
-45.18247427381191
 21
24.28207210725108
 31
0.0
  0
LINE
  5
224
330
74
100
AcDbEntity
  8
1
  6
Continuous
 62
     7
100
AcDbLine
 10
-81.58247427381181
 20
20.03207210725108
 30
0.0
 11
-45.18247427381191
 21
20.03207210725108
 31
0.0
  0
LINE
  5
225
330
74
100
AcDbEntity
  8
1
  6
Continuous
 62
     2
100
AcDbLine
 10
52.96233025293711
 20
2.28207210725108
 30
0.0
 11
52.96233025293711
 21
7.28207210725119
 31
0.0
  0
LINE
  5
226
330
74
100
AcDbEntity
  8
1
  6
Continuous
 62
     2
100
AcDbLine
 10
52.96233025293711
 20
2.28207210725108
 30
0.0
 11
47.9623302529381
 21
2.28207210725108
 31
0.0
  0
LINE
  5
227
330
74
100
AcDbEntity
  8
1
  6
Continuous
 62
     2
100
AcDbLine
 10
47.9623302529381
 20
2.28207210725108
 30
0.0
 11
4.46233025293811
 21
2.28207210725108
 31
0.0
  0
LINE
  5
228
330
74
100
AcDbEntity
  8
1
  6
Continuous
 62
     6
100
AcDbLine
 10
47.96233025293981
 20
37.03207210725108
 30
0.0
 11
47.96233025293901
 21
57.28207210725119
 31
0.0
  0
LINE
  5
229
330
74
100
AcDbEntity
  8
1
  6
Continuous
 62
     2
100
AcDbLine
 10
52.96233025293711
 20
212.2820721072511
 30
0.0
 11
-95.53766974706191
 21
212.2820721072511
 31
0.0
  0
LINE
  5
22A
330
74
100
AcDbEntity
  8
1
  6
Continuous
 62
     6
100
AcDbLine
 10
47.96233025293711
 20
192.2820721072511
 30
0.0
 11
-239.037669747061
 21
192.2820721072511
 31
0.0
  0
LINE
  5
22B
330
74
100
AcDbEntity
  8
1
  6
Continuous
 62
     2
100
AcDbLine
 10
47.96233025293901
 20
57.28207210725119
 30
0.0
 11
52.96233025293711
 21
57.28207210725119
 31
0.0
  0
LINE
  5
22C
330
74
100
AcDbEntity
  8
1
  6
Continuous
 62
     6
100
AcDbLine
 10
47.96233025293901
 20
57.28207210725119
 30
0.0
 11
47.9623302529385
 21
107.282072107251
 31
0.0
  0
LINE
  5
22D
330
74
100
AcDbEntity
  8
1
  6
Continuous
 62
     2
100
AcDbLine
 10
52.96233025293711
 20
57.28207210725119
 30
0.0
 11
52.96233025293711
 21
107.282072107251
 31
0.0
  0
LINE
  5
22E
330
74
100
AcDbEntity
  8
1
  6
Continuous
 62
     2
100
AcDbLine
 10
47.9623302529385
 20
107.282072107251
 30
0.0
 11
52.96233025293711
 21
107.282072107251
 31
0.0
  0
LINE
  5
22F
330
74
100
AcDbEntity
  8
1
  6
Continuous
 62
     6
100
AcDbLine
 10
47.9623302529385
 20
107.282072107251
 30
0.0
 11
47.96233025293739
 21
157.2820721072511
 31
0.0
  0
LINE
  5
230
330
74
100
AcDbEntity
  8
1
  6
Continuous
 62
     2
100
AcDbLine
 10
52.96233025293711
 20
107.282072107251
 30
0.0
 11
52.96233025293711
 21
157.2820721072511
 31
0.0
  0
LINE
  5
231
330
74
100
AcDbEntity
  8
1
  6
Continuous
 62
     2
100
AcDbLine
 10
47.96233025293739
 20
157.2820721072511
 30
0.0
 11
52.96233025293711
 21
157.2820721072511
 31
0.0
  0
LINE
  5
232
330
74
100
AcDbEntity
  8
1
  6
Continuous
 62
     6
100
AcDbLine
 10
47.96233025293739
 20
157.2820721072511
 30
0.0
 11
47.96233025293711
 21
192.2820721072511
 31
0.0
  0
LINE
  5
233
330
74
100
AcDbEntity
  8
1
  6
Continuous
 62
     2
100
AcDbLine
 10
52.96233025293711
 20
157.2820721072511
 30
0.0
 11
52.96233025293711
 21
212.2820721072511
 31
0.0
  0
LINE
  5
234
330
74
100
AcDbEntity
  8
1
  6
Continuous
 62
     2
100
AcDbLine
 10
52.96233025293711
 20
7.28207210725119
 30
0.0
 11
52.96233025293711
 21
57.28207210725119
 31
0.0
  0
LINE
  5
235
330
74
100
AcDbEntity
  8
1
  6
Continuous
 62
     2
100
AcDbLine
 10
-95.53766974706191
 20
212.2820721072511
 30
0.0
 11
-244.037669747061
 21
212.2820721072511
 31
0.0
  0
LINE
  5
236
330
74
100
AcDbEntity
  8
1
  6
Continuous
 62
     2
100
AcDbLine
 10
-95.53766974706191
 20
212.2820721072511
 30
0.0
 11
-95.53766974706191
 21
203.0733802625498
 31
0.0
  0
LINE
  5
237
330
74
100
AcDbEntity
  8
1
  6
Continuous
 62
     2
100
AcDbLine
 10
-244.037669747061
 20
2.28207210725108
 30
0.0
 11
-239.0376697470599
 21
2.28207210725108
 31
0.0
  0
LINE
  5
238
330
74
100
AcDbEntity
  8
1
  6
Continuous
 62
     2
100
AcDbLine
 10
-244.037669747061
 20
212.2820721072511
 30
0.0
 11
-244.037669747061
 21
157.2820721072511
 31
0.0
  0
LINE
  5
239
330
74
100
AcDbEntity
  8
1
  6
Continuous
 62
     6
100
AcDbLine
 10
-239.037669747061
 20
192.2820721072511
 30
0.0
 11
-239.0376697470608
 21
157.2820721072511
 31
0.0
  0
LINE
  5
23A
330
74
100
AcDbEntity
  8
1
  6
Continuous
 62
     2
100
AcDbLine
 10
-244.037669747061
 20
157.2820721072511
 30
0.0
 11
-239.0376697470608
 21
157.2820721072511
 31
0.0
  0
LINE
  5
23B
330
74
100
AcDbEntity
  8
1
  6
Continuous
 62
     2
100
AcDbLine
 10
-244.037669747061
 20
157.2820721072511
 30
0.0
 11
-244.037669747061
 21
107.282072107251
 31
0.0
  0
LINE
  5
23C
330
74
100
AcDbEntity
  8
1
  6
Continuous
 62
     6
100
AcDbLine
 10
-239.0376697470608
 20
157.2820721072511
 30
0.0
 11
-239.0376697470604
 21
107.282072107251
 31
0.0
  0
LINE
  5
23D
330
74
100
AcDbEntity
  8
1
  6
Continuous
 62
     2
100
AcDbLine
 10
-244.037669747061
 20
107.282072107251
 30
0.0
 11
-239.0376697470604
 21
107.282072107251
 31
0.0
  0
LINE
  5
23E
330
74
100
AcDbEntity
  8
1
  6
Continuous
 62
     2
100
AcDbLine
 10
-244.037669747061
 20
107.282072107251
 30
0.0
 11
-244.037669747061
 21
57.28207210725119
 31
0.0
  0
LINE
  5
23F
330
74
100
AcDbEntity
  8
1
  6
Continuous
 62
     6
100
AcDbLine
 10
-239.0376697470604
 20
107.282072107251
 30
0.0
 11
-239.0376697470601
 21
57.28207210725119
 31
0.0
  0
LINE
  5
240
330
74
100
AcDbEntity
  8
1
  6
Continuous
 62
     2
100
AcDbLine
 10
-244.037669747061
 20
57.28207210725119
 30
0.0
 11
-239.0376697470601
 21
57.28207210725119
 31
0.0
  0
LINE
  5
241
330
74
100
AcDbEntity
  8
1
  6
Continuous
 62
     2
100
AcDbLine
 10
-244.037669747061
 20
57.28207210725119
 30
0.0
 11
-244.037669747061
 21
7.28207210725119
 31
0.0
  0
LINE
  5
242
330
74
100
AcDbEntity
  8
1
  6
Continuous
 62
     6
100
AcDbLine
 10
-239.0376697470601
 20
57.28207210725119
 30
0.0
 11
-239.0376697470599
 21
7.28207210725119
 31
0.0
  0
LINE
  5
243
330
74
100
AcDbEntity
  8
1
  6
Continuous
 62
     2
100
AcDbLine
 10
-195.5376697470619
 20
2.28207210725108
 30
0.0
 11
-195.5376697470619
 21
7.28207210725119
 31
0.0
  0
LINE
  5
244
330
74
100
AcDbEntity
  8
1
  6
Continuous
 62
     2
100
AcDbLine
 10
-195.5376697470619
 20
2.28207210725108
 30
0.0
 11
-145.537669747062
 21
2.28207210725108
 31
0.0
  0
LINE
  5
245
330
74
100
AcDbEntity
  8
1
  6
Continuous
 62
     2
100
AcDbLine
 10
-145.537669747062
 20
2.28207210725108
 30
0.0
 11
-145.537669747062
 21
7.28207210725119
 31
0.0
  0
LINE
  5
246
330
74
100
AcDbEntity
  8
1
  6
Continuous
 62
     2
100
AcDbLine
 10
-145.537669747062
 20
2.28207210725108
 30
0.0
 11
-95.53766974706191
 21
2.28207210725108
 31
0.0
  0
LINE
  5
247
330
74
100
AcDbEntity
  8
1
  6
Continuous
 62
     2
100
AcDbLine
 10
-95.53766974706191
 20
2.28207210725108
 30
0.0
 11
-95.53766974706191
 21
7.28207210725119
 31
0.0
  0
LINE
  5
248
330
74
100
AcDbEntity
  8
1
  6
Continuous
 62
     2
100
AcDbLine
 10
-95.53766974706191
 20
2.28207210725108
 30
0.0
 11
-45.5376697470619
 21
2.28207210725108
 31
0.0
  0
LINE
  5
249
330
74
100
AcDbEntity
  8
1
  6
Continuous
 62
     2
100
AcDbLine
 10
-45.5376697470619
 20
2.28207210725108
 30
0.0
 11
-45.5376697470619
 21
7.28207210725119
 31
0.0
  0
LINE
  5
24A
330
74
100
AcDbEntity
  8
1
  6
Continuous
 62
     2
100
AcDbLine
 10
4.46233025293811
 20
2.28207210725108
 30
0.0
 11
4.46233025293811
 21
7.28207210725119
 31
0.0
  0
LINE
  5
24B
330
74
100
AcDbEntity
  8
1
  6
Continuous
 62
     2
100
AcDbLine
 10
4.46233025293811
 20
2.28207210725108
 30
0.0
 11
-45.5376697470619
 21
2.28207210725108
 31
0.0
  0
LINE
  5
24C
330
74
100
AcDbEntity
  8
1
  6
Continuous
 62
     2
100
AcDbLine
 10
-239.0376697470599
 20
7.28207210725119
 30
0.0
 11
-239.0376697470599
 21
2.28207210725108
 31
0.0
  0
LINE
  5
24D
330
74
100
AcDbEntity
  8
1
  6
Continuous
 62
     2
100
AcDbLine
 10
-239.0376697470599
 20
2.28207210725108
 30
0.0
 11
-195.5376697470619
 21
2.28207210725108
 31
0.0
  0
LINE
  5
24E
330
74
100
AcDbEntity
  8
1
  6
Continuous
 62
     2
100
AcDbLine
 10
-239.0376697470599
 20
7.28207210725119
 30
0.0
 11
-244.037669747061
 21
7.28207210725119
 31
0.0
  0
LINE
  5
24F
330
74
100
AcDbEntity
  8
1
  6
Continuous
 62
     2
100
AcDbLine
 10
-244.037669747061
 20
7.28207210725119
 30
0.0
 11
-244.037669747061
 21
2.28207210725108
 31
0.0
  0
LINE
  5
250
330
74
100
AcDbEntity
  8
1
  6
Continuous
 62
     7
100
AcDbLine
 10
-184.337669747062
 20
11.53207210725119
 30
0.0
 11
-122.0824742738118
 21
11.53207210725119
 31
0.0
  0
LINE
  5
251
330
74
100
AcDbEntity
  8
1
  6
Continuous
 62
     2
100
AcDbLine
 10
-184.337669747062
 20
11.53207210725119
 30
0.0
 11
-184.337669747062
 21
7.28207210725119
 31
0.0
  0
LINE
  5
252
330
74
100
AcDbEntity
  8
1
  6
Continuous
 62
     2
100
AcDbLine
 10
-184.337669747062
 20
15.78207210725108
 30
0.0
 11
-197.837669747062
 21
15.78207210725108
 31
0.0
  0
LINE
  5
253
330
74
100
AcDbEntity
  8
1
  6
Continuous
 62
     2
100
AcDbLine
 10
-184.337669747062
 20
15.78207210725108
 30
0.0
 11
-184.337669747062
 21
11.53207210725119
 31
0.0
  0
LINE
  5
254
330
74
100
AcDbEntity
  8
1
  6
Continuous
 62
     2
100
AcDbLine
 10
-184.337669747062
 20
24.28207210725108
 30
0.0
 11
-197.837669747062
 21
24.28207210725108
 31
0.0
  0
LINE
  5
255
330
74
100
AcDbEntity
  8
1
  6
Continuous
 62
     2
100
AcDbLine
 10
-184.337669747062
 20
24.28207210725108
 30
0.0
 11
-184.337669747062
 21
20.03207210725108
 31
0.0
  0
LINE
  5
256
330
74
100
AcDbEntity
  8
1
  6
Continuous
 62
     2
100
AcDbLine
 10
-184.337669747062
 20
20.03207210725108
 30
0.0
 11
-197.837669747062
 21
20.03207210725108
 31
0.0
  0
LINE
  5
257
330
74
100
AcDbEntity
  8
1
  6
Continuous
 62
     2
100
AcDbLine
 10
-184.337669747062
 20
20.03207210725108
 30
0.0
 11
-184.337669747062
 21
15.78207210725108
 31
0.0
  0
LINE
  5
258
330
74
100
AcDbEntity
  8
1
  6
Continuous
 62
     2
100
AcDbLine
 10
-184.337669747062
 20
32.78207210725108
 30
0.0
 11
-197.837669747062
 21
32.78207210725108
 31
0.0
  0
LINE
  5
259
330
74
100
AcDbEntity
  8
1
  6
Continuous
 62
     2
100
AcDbLine
 10
-184.337669747062
 20
28.53207210725108
 30
0.0
 11
-197.837669747062
 21
28.53207210725108
 31
0.0
  0
LINE
  5
25A
330
74
100
AcDbEntity
  8
1
  6
Continuous
 62
     2
100
AcDbLine
 10
-184.337669747062
 20
28.53207210725108
 30
0.0
 11
-184.337669747062
 21
24.28207210725108
 31
0.0
  0
LINE
  5
25B
330
74
100
AcDbEntity
  8
1
  6
Continuous
 62
     2
100
AcDbLine
 10
-184.337669747062
 20
32.78207210725108
 30
0.0
 11
-184.337669747062
 21
28.53207210725108
 31
0.0
  0
LINE
  5
25C
330
74
100
AcDbEntity
  8
1
  6
Continuous
 62
     6
100
AcDbLine
 10
-184.337669747062
 20
37.03207210725108
 30
0.0
 11
-197.837669747062
 21
37.03207210725108
 31
0.0
  0
LINE
  5
25D
330
74
100
AcDbEntity
  8
1
  6
Continuous
 62
     2
100
AcDbLine
 10
-184.337669747062
 20
37.03207210725108
 30
0.0
 11
-184.337669747062
 21
32.78207210725108
 31
0.0
  0
LINE
  5
25E
330
74
100
AcDbEntity
  8
1
  6
Continuous
 62
     6
100
AcDbLine
 10
47.9623302529381
 20
7.28207210725119
 30
0.0
 11
47.96233025293941
 21
15.78207210725108
 31
0.0
  0
LINE
  5
25F
330
74
100
AcDbEntity
  8
1
  6
Continuous
 62
     6
100
AcDbLine
 10
47.9623302529389
 20
28.53207210725108
 30
0.0
 11
47.96233025293989
 21
24.28207210725108
 31
0.0
  0
LINE
  5
260
330
74
100
AcDbEntity
  8
1
  6
Continuous
 62
     6
100
AcDbLine
 10
-45.18247427381191
 20
7.28207210725108
 30
0.0
 11
4.46233025293811
 21
7.28207210725119
 31
0.0
  0
LINE
  5
261
330
74
100
AcDbEntity
  8
1
  6
Continuous
 62
     6
100
AcDbLine
 10
-81.58247427381181
 20
7.28207210725108
 30
0.0
 11
-63.38247427381194
 21
7.28207210725119
 31
0.0
  0
LINE
  5
262
330
74
100
AcDbEntity
  8
1
  6
Continuous
 62
     6
100
AcDbLine
 10
-197.837669747062
 20
7.28207210725108
 30
0.0
 11
-195.5376697470619
 21
7.28207210725119
 31
0.0
  0
LINE
  5
263
330
74
100
AcDbEntity
  8
1
  6
Continuous
 62
     6
100
AcDbLine
 10
-122.0824742738118
 20
7.28207210725108
 30
0.0
 11
-145.537669747062
 21
7.28207210725119
 31
0.0
  0
LINE
  5
264
330
74
100
AcDbEntity
  8
1
  6
Continuous
 62
     6
100
AcDbLine
 10
47.96233025293981
 20
37.03207210725108
 30
0.0
 11
30.080738534619
 21
37.03207210725108
 31
0.0
  0
LINE
  5
265
330
74
100
AcDbEntity
  8
1
  6
Continuous
 62
     7
100
AcDbLine
 10
47.96233025293941
 20
15.78207210725108
 30
0.0
 11
2.9623302529401
 21
15.78207210725108
 31
0.0
  0
LINE
  5
266
330
74
100
AcDbEntity
  8
1
  6
Continuous
 62
     7
100
AcDbLine
 10
47.9623302529389
 20
28.53207210725108
 30
0.0
 11
30.080738534619
 21
28.53207210725108
 31
0.0
  0
LINE
  5
267
330
74
100
AcDbEntity
  8
1
  6
Continuous
 62
     7
100
AcDbLine
 10
2.9623302529401
 20
24.28207210725108
 30
0.0
 11
47.96233025293989
 21
24.28207210725108
 31
0.0
  0
LINE
  5
268
330
74
100
AcDbEntity
  8
1
  6
Continuous
 62
     7
100
AcDbLine
 10
-45.18247427381191
 20
32.78207210725108
 30
0.0
 11
-45.18247427381191
 21
28.53207210725108
 31
0.0
  0
LINE
  5
269
330
74
100
AcDbEntity
  8
1
  6
Continuous
 62
     7
100
AcDbLine
 10
-58.68247427381193
 20
32.78207210725108
 30
0.0
 11
-45.18247427381191
 21
32.78207210725108
 31
0.0
  0
LINE
  5
26A
330
74
100
AcDbEntity
  8
1
  6
Continuous
 62
     7
100
AcDbLine
 10
-58.68247427381193
 20
32.78207210725108
 30
0.0
 11
-72.18247427381183
 21
32.78207210725108
 31
0.0
  0
LINE
  5
26B
330
74
100
AcDbEntity
  8
1
  6
Continuous
 62
     7
100
AcDbLine
 10
30.080738534619
 20
28.53207210725108
 30
0.0
 11
30.080738534619
 21
37.03207210725108
 31
0.0
  0
LINE
  5
26C
330
74
100
AcDbEntity
  8
1
  6
Continuous
 62
     6
100
AcDbLine
 10
21.1623302529398
 20
37.03207210725108
 30
0.0
 11
30.080738534619
 21
37.03207210725108
 31
0.0
  0
LINE
  5
26D
330
74
100
AcDbEntity
  8
1
  6
Continuous
 62
     7
100
AcDbLine
 10
21.1623302529398
 20
37.03207210725108
 30
0.0
 11
21.16233025294011
 21
28.53207210725119
 31
0.0
  0
LINE
  5
26E
330
74
100
AcDbEntity
  8
1
  6
Continuous
 62
     7
100
AcDbLine
 10
2.9623302529401
 20
15.78207210725108
 30
0.0
 11
-15.53766974705952
 21
15.78207210725108
 31
0.0
  0
LINE
  5
26F
330
74
100
AcDbEntity
  8
1
  6
Continuous
 62
     7
100
AcDbLine
 10
2.9623302529401
 20
24.28207210725108
 30
0.0
 11
2.9623302529401
 21
15.78207210725108
 31
0.0
  0
LINE
  5
270
330
74
100
AcDbEntity
  8
1
  6
Continuous
 62
     2
100
AcDbLine
 10
-95.08247427381191
 20
37.03207210725108
 30
0.0
 11
-95.08247427381191
 21
32.78207210725108
 31
0.0
  0
LINE
  5
271
330
74
100
AcDbEntity
  8
1
  6
Continuous
 62
     2
100
AcDbLine
 10
-108.5824742738118
 20
37.03207210725108
 30
0.0
 11
-108.5824742738118
 21
32.78207210725108
 31
0.0
  0
LINE
  5
272
330
74
100
AcDbEntity
  8
1
  6
Continuous
 62
     6
100
AcDbLine
 10
-95.08247427381191
 20
37.03207210725108
 30
0.0
 11
-108.5824742738118
 21
37.03207210725108
 31
0.0
  0
LINE
  5
273
330
74
100
AcDbEntity
  8
1
  6
Continuous
 62
     6
100
AcDbLine
 10
-108.5824742738118
 20
37.03207210725108
 30
0.0
 11
-122.0824742738118
 21
37.03207210725108
 31
0.0
  0
LINE
  5
274
330
74
100
AcDbEntity
  8
1
  6
Continuous
 62
     2
100
AcDbLine
 10
-122.0824742738118
 20
37.03207210725108
 30
0.0
 11
-122.0824742738118
 21
32.78207210725108
 31
0.0
  0
LINE
  5
275
330
74
100
AcDbEntity
  8
1
  6
Continuous
 62
     7
100
AcDbLine
 10
-63.38247427381194
 20
11.53207210725119
 30
0.0
 11
-63.38247427381194
 21
7.28207210725119
 31
0.0
  0
LINE
  5
276
330
74
100
AcDbEntity
  8
1
  6
Continuous
 62
     7
100
AcDbLine
 10
-63.38247427381194
 20
11.53207210725119
 30
0.0
 11
-81.58247427381181
 21
11.53207210725119
 31
0.0
  0
LINE
  5
277
330
74
100
AcDbEntity
  8
1
  6
Continuous
 62
     7
100
AcDbLine
 10
-58.68247427381193
 20
24.28207210725108
 30
0.0
 11
-72.18247427381183
 21
24.28207210725119
 31
0.0
  0
LINE
  5
278
330
74
100
AcDbEntity
  8
1
  6
Continuous
 62
     7
100
AcDbLine
 10
-45.18247427381191
 20
11.53207210725119
 30
0.0
 11
-63.38247427381194
 21
11.53207210725119
 31
0.0
  0
LINE
  5
279
330
74
100
AcDbEntity
  8
1
  6
Continuous
 62
     6
100
AcDbLine
 10
-45.18247427381191
 20
37.03207210725108
 30
0.0
 11
-22.28247427381189
 21
37.03207210725108
 31
0.0
  0
LINE
  5
27A
330
74
100
AcDbEntity
  8
1
  6
Continuous
 62
     6
100
AcDbLine
 10
21.1623302529398
 20
37.03207210725108
 30
0.0
 11
-22.28247427381189
 21
37.03207210725108
 31
0.0
  0
LINE
  5
27B
330
74
100
AcDbEntity
  8
1
  6
Continuous
 62
     7
100
AcDbLine
 10
-22.28247427381189
 20
37.03207210725108
 30
0.0
 11
-22.28247427381189
 21
28.53207210725102
 31
0.0
  0
LINE
  5
27C
330
74
100
AcDbEntity
  8
1
  6
Continuous
 62
     6
100
AcDbLine
 10
-197.837669747062
 20
37.03207210725108
 30
0.0
 11
-204.03766974706
 21
37.03207210725108
 31
0.0
  0
LINE
  5
27D
330
74
100
AcDbEntity
  8
1
  6
Continuous
 62
     6
100
AcDbLine
 10
-204.03766974706
 20
7.28207210725119
 30
0.0
 11
-204.03766974706
 21
11.53207210725119
 31
0.0
  0
LINE
  5
27E
330
74
100
AcDbEntity
  8
1
  6
Continuous
 62
     6
100
AcDbLine
 10
-204.03766974706
 20
11.53207210725119
 30
0.0
 11
-204.03766974706
 21
15.78207210725108
 31
0.0
  0
LINE
  5
27F
330
74
100
AcDbEntity
  8
1
  6
Continuous
 62
     7
100
AcDbLine
 10
-58.68247427381193
 20
28.53207210725108
 30
0.0
 11
-58.68247427381193
 21
24.28207210725108
 31
0.0
  0
LINE
  5
280
330
74
100
AcDbEntity
  8
1
  6
Continuous
 62
     7
100
AcDbLine
 10
-72.18247427381183
 20
28.53207210725108
 30
0.0
 11
-72.18247427381183
 21
24.28207210725119
 31
0.0
  0
LINE
  5
281
330
74
100
AcDbEntity
  8
1
  6
Continuous
 62
     7
100
AcDbLine
 10
-58.68247427381193
 20
28.53207210725108
 30
0.0
 11
-72.18247427381183
 21
28.53207210725108
 31
0.0
  0
LINE
  5
282
330
74
100
AcDbEntity
  8
1
  6
Continuous
 62
     2
100
AcDbLine
 10
-81.58247427381181
 20
24.28207210725108
 30
0.0
 11
-95.08247427381191
 21
24.28207210725108
 31
0.0
  0
LINE
  5
283
330
74
100
AcDbEntity
  8
1
  6
Continuous
 62
     2
100
AcDbLine
 10
-197.837669747062
 20
24.28207210725108
 30
0.0
 11
-197.837669747062
 21
28.53207210725108
 31
0.0
  0
LINE
  5
284
330
74
100
AcDbEntity
  8
1
  6
Continuous
 62
     2
100
AcDbLine
 10
-197.837669747062
 20
24.28207210725108
 30
0.0
 11
-204.03766974706
 21
24.28207210725108
 31
0.0
  0
LINE
  5
285
330
74
100
AcDbEntity
  8
1
  6
Continuous
 62
     2
100
AcDbLine
 10
-81.58247427381181
 20
28.53207210725108
 30
0.0
 11
-95.08247427381191
 21
28.53207210725108
 31
0.0
  0
LINE
  5
286
330
74
100
AcDbEntity
  8
1
  6
Continuous
 62
     2
100
AcDbLine
 10
-197.837669747062
 20
28.53207210725108
 30
0.0
 11
-197.837669747062
 21
32.78207210725108
 31
0.0
  0
LINE
  5
287
330
74
100
AcDbEntity
  8
1
  6
Continuous
 62
     2
100
AcDbLine
 10
-81.58247427381181
 20
32.78207210725108
 30
0.0
 11
-95.08247427381191
 21
32.78207210725108
 31
0.0
  0
LINE
  5
288
330
74
100
AcDbEntity
  8
1
  6
Continuous
 62
     2
100
AcDbLine
 10
-197.837669747062
 20
32.78207210725108
 30
0.0
 11
-197.837669747062
 21
37.03207210725108
 31
0.0
  0
LINE
  5
289
330
74
100
AcDbEntity
  8
1
  6
Continuous
 62
     2
100
AcDbLine
 10
-197.837669747062
 20
32.78207210725108
 30
0.0
 11
-204.03766974706
 21
32.78207210725108
 31
0.0
  0
LINE
  5
28A
330
74
100
AcDbEntity
  8
1
  6
Continuous
 62
     6
100
AcDbLine
 10
-81.58247427381181
 20
37.03207210725108
 30
0.0
 11
-95.08247427381191
 21
37.03207210725108
 31
0.0
  0
LINE
  5
28B
330
74
100
AcDbEntity
  8
1
  6
Continuous
 62
     2
100
AcDbLine
 10
-81.58247427381181
 20
15.78207210725108
 30
0.0
 11
-95.08247427381191
 21
15.78207210725108
 31
0.0
  0
LINE
  5
28C
330
74
100
AcDbEntity
  8
1
  6
Continuous
 62
     2
100
AcDbLine
 10
-81.58247427381181
 20
20.03207210725108
 30
0.0
 11
-95.08247427381191
 21
20.03207210725108
 31
0.0
  0
LINE
  5
28D
330
74
100
AcDbEntity
  8
1
  6
Continuous
 62
     2
100
AcDbLine
 10
-197.837669747062
 20
15.78207210725108
 30
0.0
 11
-197.837669747062
 21
20.03207210725108
 31
0.0
  0
LINE
  5
28E
330
74
100
AcDbEntity
  8
1
  6
Continuous
 62
     2
100
AcDbLine
 10
-197.837669747062
 20
20.03207210725108
 30
0.0
 11
-197.837669747062
 21
24.28207210725108
 31
0.0
  0
LINE
  5
28F
330
74
100
AcDbEntity
  8
1
  6
Continuous
 62
     7
100
AcDbLine
 10
-197.837669747062
 20
11.53207210725119
 30
0.0
 11
-184.337669747062
 21
11.53207210725119
 31
0.0
  0
LINE
  5
290
330
74
100
AcDbEntity
  8
1
  6
Continuous
 62
     2
100
AcDbLine
 10
-197.837669747062
 20
11.53207210725119
 30
0.0
 11
-197.837669747062
 21
15.78207210725108
 31
0.0
  0
LINE
  5
291
330
74
100
AcDbEntity
  8
1
  6
Continuous
 62
     7
100
AcDbLine
 10
-45.18247427381191
 20
15.78207210725108
 30
0.0
 11
-45.18247427381191
 21
20.03207210725108
 31
0.0
  0
LINE
  5
292
330
74
100
AcDbEntity
  8
1
  6
Continuous
 62
     6
100
AcDbLine
 10
-58.68247427381193
 20
37.03207210725108
 30
0.0
 11
-45.18247427381191
 21
37.03207210725108
 31
0.0
  0
LINE
  5
293
330
74
100
AcDbEntity
  8
1
  6
Continuous
 62
     7
100
AcDbLine
 10
-45.18247427381191
 20
37.03207210725108
 30
0.0
 11
-45.18247427381191
 21
32.78207210725108
 31
0.0
  0
LINE
  5
294
330
74
100
AcDbEntity
  8
1
  6
Continuous
 62
     6
100
AcDbLine
 10
-72.18247427381183
 20
37.03207210725108
 30
0.0
 11
-58.68247427381193
 21
37.03207210725108
 31
0.0
  0
LINE
  5
295
330
74
100
AcDbEntity
  8
1
  6
Continuous
 62
     7
100
AcDbLine
 10
-81.58247427381181
 20
24.28207210725108
 30
0.0
 11
-81.58247427381181
 21
20.03207210725108
 31
0.0
  0
LINE
  5
296
330
74
100
AcDbEntity
  8
1
  6
Continuous
 62
     7
100
AcDbLine
 10
-81.58247427381181
 20
28.53207210725108
 30
0.0
 11
-81.58247427381181
 21
24.28207210725108
 31
0.0
  0
LINE
  5
297
330
74
100
AcDbEntity
  8
1
  6
Continuous
 62
     2
100
AcDbLine
 10
-204.03766974706
 20
28.53207210725108
 30
0.0
 11
-197.837669747062
 21
28.53207210725108
 31
0.0
  0
LINE
  5
298
330
74
100
AcDbEntity
  8
1
  6
Continuous
 62
     7
100
AcDbLine
 10
-81.58247427381181
 20
32.78207210725108
 30
0.0
 11
-81.58247427381181
 21
28.53207210725108
 31
0.0
  0
LINE
  5
299
330
74
100
AcDbEntity
  8
1
  6
Continuous
 62
     7
100
AcDbLine
 10
-45.18247427381191
 20
28.53207210725108
 30
0.0
 11
-45.18247427381191
 21
24.28207210725108
 31
0.0
  0
LINE
  5
29A
330
74
100
AcDbEntity
  8
1
  6
Continuous
 62
     7
100
AcDbLine
 10
-58.68247427381193
 20
37.03207210725108
 30
0.0
 11
-58.68247427381193
 21
32.78207210725108
 31
0.0
  0
LINE
  5
29B
330
74
100
AcDbEntity
  8
1
  6
Continuous
 62
     7
100
AcDbLine
 10
-72.18247427381183
 20
37.03207210725108
 30
0.0
 11
-72.18247427381183
 21
32.78207210725108
 31
0.0
  0
LINE
  5
29C
330
74
100
AcDbEntity
  8
1
  6
Continuous
 62
     2
100
AcDbLine
 10
-197.837669747062
 20
7.28207210725108
 30
0.0
 11
-197.837669747062
 21
11.53207210725119
 31
0.0
  0
LINE
  5
29D
330
74
100
AcDbEntity
  8
1
  6
Continuous
 62
     2
100
AcDbLine
 10
-204.03766974706
 20
15.78207210725108
 30
0.0
 11
-197.837669747062
 21
15.78207210725108
 31
0.0
  0
LINE
  5
29E
330
74
100
AcDbEntity
  8
1
  6
Continuous
 62
     2
100
AcDbLine
 10
-204.03766974706
 20
20.03207210725108
 30
0.0
 11
-197.837669747062
 21
20.03207210725108
 31
0.0
  0
LINE
  5
29F
330
74
100
AcDbEntity
  8
1
  6
Continuous
 62
     7
100
AcDbLine
 10
-204.03766974706
 20
11.53207210725119
 30
0.0
 11
-197.837669747062
 21
11.53207210725119
 31
0.0
  0
LINE
  5
2A0
330
74
100
AcDbEntity
  8
1
  6
Continuous
 62
     7
100
AcDbLine
 10
-45.18247427381191
 20
15.78207210725108
 30
0.0
 11
-45.18247427381191
 21
11.53207210725119
 31
0.0
  0
LINE
  5
2A1
330
74
100
AcDbEntity
  8
1
  6
Continuous
 62
     7
100
AcDbLine
 10
-81.58247427381181
 20
20.03207210725108
 30
0.0
 11
-81.58247427381181
 21
15.78207210725108
 31
0.0
  0
LINE
  5
2A2
330
74
100
AcDbEntity
  8
1
  6
Continuous
 62
     7
100
AcDbLine
 10
-81.58247427381181
 20
15.78207210725108
 30
0.0
 11
-81.58247427381181
 21
11.53207210725119
 31
0.0
  0
LINE
  5
2A3
330
74
100
AcDbEntity
  8
1
  6
Continuous
 62
     7
100
AcDbLine
 10
-58.68247427381193
 20
32.78207210725108
 30
0.0
 11
-58.68247427381193
 21
28.53207210725108
 31
0.0
  0
LINE
  5
2A4
330
74
100
AcDbEntity
  8
1
  6
Continuous
 62
     7
100
AcDbLine
 10
-72.18247427381183
 20
32.78207210725108
 30
0.0
 11
-72.18247427381183
 21
28.53207210725108
 31
0.0
  0
LINE
  5
2A5
330
74
100
AcDbEntity
  8
1
  6
Continuous
 62
     7
100
AcDbLine
 10
-81.58247427381181
 20
28.53207210725108
 30
0.0
 11
-72.18247427381183
 21
28.53207210725108
 31
0.0
  0
LINE
  5
2A6
330
74
100
AcDbEntity
  8
1
  6
Continuous
 62
     7
100
AcDbLine
 10
-45.18247427381191
 20
24.28207210725108
 30
0.0
 11
-58.68247427381193
 21
24.28207210725108
 31
0.0
  0
LINE
  5
2A7
330
74
100
AcDbEntity
  8
1
  6
Continuous
 62
     7
100
AcDbLine
 10
-45.18247427381191
 20
11.53207210725119
 30
0.0
 11
-45.18247427381191
 21
7.28207210725108
 31
0.0
  0
LINE
  5
2A8
330
74
100
AcDbEntity
  8
1
  6
Continuous
 62
     7
100
AcDbLine
 10
-81.58247427381181
 20
11.53207210725119
 30
0.0
 11
-81.58247427381181
 21
7.28207210725108
 31
0.0
  0
LINE
  5
2A9
330
74
100
AcDbEntity
  8
1
  6
Continuous
 62
     7
100
AcDbLine
 10
-81.58247427381181
 20
37.03207210725108
 30
0.0
 11
-81.58247427381181
 21
32.78207210725108
 31
0.0
  0
LINE
  5
2AA
330
74
100
AcDbEntity
  8
1
  6
Continuous
 62
     7
100
AcDbLine
 10
-45.18247427381191
 20
15.78207210725108
 30
0.0
 11
-15.53766974705952
 21
15.78207210725108
 31
0.0
  0
LINE
  5
2AB
330
74
100
AcDbEntity
  8
1
  6
Continuous
 62
     7
100
AcDbLine
 10
-45.18247427381191
 20
24.28207210725108
 30
0.0
 11
-15.53766974705952
 21
24.28207210725108
 31
0.0
  0
LINE
  5
2AC
330
74
100
AcDbEntity
  8
1
  6
Continuous
 62
     7
100
AcDbLine
 10
21.16233025294011
 20
28.53207210725119
 30
0.0
 11
30.080738534619
 21
28.53207210725108
 31
0.0
  0
LINE
  5
2AD
330
74
100
AcDbEntity
  8
1
  6
Continuous
 62
     7
100
AcDbLine
 10
21.16233025294011
 20
28.53207210725119
 30
0.0
 11
-15.53766974705952
 21
28.53207210725106
 31
0.0
  0
LINE
  5
2AE
330
74
100
AcDbEntity
  8
1
  6
Continuous
 62
     7
100
AcDbLine
 10
-15.53766974705952
 20
24.28207210725108
 30
0.0
 11
2.9623302529401
 21
24.28207210725108
 31
0.0
  0
LINE
  5
2AF
330
74
100
AcDbEntity
  8
1
  6
Continuous
 62
     7
100
AcDbLine
 10
-15.53766974705952
 20
24.28207210725108
 30
0.0
 11
-15.53766974705952
 21
15.78207210725108
 31
0.0
  0
LINE
  5
2B0
330
74
100
AcDbEntity
  8
1
  6
Continuous
 62
     6
100
AcDbLine
 10
-197.837669747062
 20
7.28207210725108
 30
0.0
 11
-204.03766974706
 21
7.28207210725119
 31
0.0
  0
LINE
  5
2B1
330
74
100
AcDbEntity
  8
1
  6
Continuous
 62
     6
100
AcDbLine
 10
-204.03766974706
 20
32.78207210725108
 30
0.0
 11
-204.03766974706
 21
37.03207210725108
 31
0.0
  0
LINE
  5
2B2
330
74
100
AcDbEntity
  8
1
  6
Continuous
 62
     6
100
AcDbLine
 10
-204.03766974706
 20
28.53207210725108
 30
0.0
 11
-204.03766974706
 21
32.78207210725108
 31
0.0
  0
LINE
  5
2B3
330
74
100
AcDbEntity
  8
1
  6
Continuous
 62
     6
100
AcDbLine
 10
-204.03766974706
 20
24.28207210725108
 30
0.0
 11
-204.03766974706
 21
28.53207210725108
 31
0.0
  0
LINE
  5
2B4
330
74
100
AcDbEntity
  8
1
  6
Continuous
 62
     6
100
AcDbLine
 10
-204.03766974706
 20
15.78207210725108
 30
0.0
 11
-204.03766974706
 21
20.03207210725108
 31
0.0
  0
LINE
  5
2B5
330
74
100
AcDbEntity
  8
1
  6
Continuous
 62
     6
100
AcDbLine
 10
-122.0824742738118
 20
37.03207210725108
 30
0.0
 11
-184.337669747062
 21
37.03207210725108
 31
0.0
  0
LINE
  5
2B6
330
74
100
AcDbEntity
  8
1
  6
Continuous
 62
     2
100
AcDbLine
 10
-184.337669747062
 20
32.78207210725108
 30
0.0
 11
-122.0824742738118
 21
32.78207210725108
 31
0.0
  0
LINE
  5
2B7
330
74
100
AcDbEntity
  8
1
  6
Continuous
 62
     2
100
AcDbLine
 10
-184.337669747062
 20
28.53207210725108
 30
0.0
 11
-122.0824742738118
 21
28.53207210725108
 31
0.0
  0
LINE
  5
2B8
330
74
100
AcDbEntity
  8
1
  6
Continuous
 62
     6
100
AcDbLine
 10
-45.18247427381191
 20
7.28207210725108
 30
0.0
 11
-45.5376697470619
 21
7.28207210725119
 31
0.0
  0
LINE
  5
2B9
330
74
100
AcDbEntity
  8
1
  6
Continuous
 62
     7
100
AcDbLine
 10
-58.68247427381193
 20
28.53207210725108
 30
0.0
 11
-45.18247427381191
 21
28.53207210725108
 31
0.0
  0
LINE
  5
2BA
330
74
100
AcDbEntity
  8
1
  6
Continuous
 62
     7
100
AcDbLine
 10
-22.28247427381189
 20
28.53207210725102
 30
0.0
 11
-45.18247427381191
 21
28.53207210725108
 31
0.0
  0
LINE
  5
2BB
330
74
100
AcDbEntity
  8
1
  6
Continuous
 62
     6
100
AcDbLine
 10
47.96233025293989
 20
24.28207210725108
 30
0.0
 11
47.96233025293941
 21
15.78207210725108
 31
0.0
  0
LINE
  5
2BC
330
74
100
AcDbEntity
  8
1
  6
Continuous
 62
     6
100
AcDbLine
 10
-95.08247427381191
 20
7.28207210725108
 30
0.0
 11
-81.58247427381181
 21
7.28207210725108
 31
0.0
  0
LINE
  5
2BD
330
74
100
AcDbEntity
  8
1
  6
Continuous
 62
     2
100
AcDbLine
 10
-95.08247427381191
 20
15.78207210725108
 30
0.0
 11
-95.08247427381191
 21
11.53207210725119
 31
0.0
  0
LINE
  5
2BE
330
74
100
AcDbEntity
  8
1
  6
Continuous
 62
     2
100
AcDbLine
 10
-95.08247427381191
 20
15.78207210725108
 30
0.0
 11
-108.5824742738118
 21
15.78207210725108
 31
0.0
  0
LINE
  5
2BF
330
74
100
AcDbEntity
  8
1
  6
Continuous
 62
     2
100
AcDbLine
 10
-95.08247427381191
 20
11.53207210725119
 30
0.0
 11
-95.08247427381191
 21
7.28207210725108
 31
0.0
  0
LINE
  5
2C0
330
74
100
AcDbEntity
  8
1
  6
Continuous
 62
     7
100
AcDbLine
 10
-95.08247427381191
 20
11.53207210725119
 30
0.0
 11
-81.58247427381181
 21
11.53207210725119
 31
0.0
  0
LINE
  5
2C1
330
74
100
AcDbEntity
  8
1
  6
Continuous
 62
     2
100
AcDbLine
 10
-95.08247427381191
 20
24.28207210725108
 30
0.0
 11
-95.08247427381191
 21
20.03207210725108
 31
0.0
  0
LINE
  5
2C2
330
74
100
AcDbEntity
  8
1
  6
Continuous
 62
     2
100
AcDbLine
 10
-95.08247427381191
 20
24.28207210725108
 30
0.0
 11
-108.5824742738118
 21
24.28207210725108
 31
0.0
  0
LINE
  5
2C3
330
74
100
AcDbEntity
  8
1
  6
Continuous
 62
     2
100
AcDbLine
 10
-95.08247427381191
 20
28.53207210725108
 30
0.0
 11
-95.08247427381191
 21
24.28207210725108
 31
0.0
  0
LINE
  5
2C4
330
74
100
AcDbEntity
  8
1
  6
Continuous
 62
     2
100
AcDbLine
 10
-95.08247427381191
 20
28.53207210725108
 30
0.0
 11
-108.5824742738118
 21
28.53207210725108
 31
0.0
  0
LINE
  5
2C5
330
74
100
AcDbEntity
  8
1
  6
Continuous
 62
     2
100
AcDbLine
 10
-95.08247427381191
 20
32.78207210725108
 30
0.0
 11
-95.08247427381191
 21
28.53207210725108
 31
0.0
  0
LINE
  5
2C6
330
74
100
AcDbEntity
  8
1
  6
Continuous
 62
     2
100
AcDbLine
 10
-95.08247427381191
 20
32.78207210725108
 30
0.0
 11
-108.5824742738118
 21
32.78207210725108
 31
0.0
  0
LINE
  5
2C7
330
74
100
AcDbEntity
  8
1
  6
Continuous
 62
     2
100
AcDbLine
 10
-95.08247427381191
 20
20.03207210725108
 30
0.0
 11
-95.08247427381191
 21
15.78207210725108
 31
0.0
  0
LINE
  5
2C8
330
74
100
AcDbEntity
  8
1
  6
Continuous
 62
     2
100
AcDbLine
 10
-95.08247427381191
 20
20.03207210725108
 30
0.0
 11
-108.5824742738118
 21
20.03207210725108
 31
0.0
  0
LINE
  5
2C9
330
74
100
AcDbEntity
  8
1
  6
Continuous
 62
     6
100
AcDbLine
 10
-108.5824742738118
 20
7.28207210725108
 30
0.0
 11
-95.53766974706191
 21
7.28207210725119
 31
0.0
  0
LINE
  5
2CA
330
74
100
AcDbEntity
  8
1
  6
Continuous
 62
     2
100
AcDbLine
 10
-108.5824742738118
 20
15.78207210725108
 30
0.0
 11
-108.5824742738118
 21
11.53207210725119
 31
0.0
  0
LINE
  5
2CB
330
74
100
AcDbEntity
  8
1
  6
Continuous
 62
     2
100
AcDbLine
 10
-108.5824742738118
 20
15.78207210725108
 30
0.0
 11
-122.0824742738118
 21
15.78207210725108
 31
0.0
  0
LINE
  5
2CC
330
74
100
AcDbEntity
  8
1
  6
Continuous
 62
     2
100
AcDbLine
 10
-108.5824742738118
 20
11.53207210725119
 30
0.0
 11
-108.5824742738118
 21
7.28207210725108
 31
0.0
  0
LINE
  5
2CD
330
74
100
AcDbEntity
  8
1
  6
Continuous
 62
     7
100
AcDbLine
 10
-108.5824742738118
 20
11.53207210725119
 30
0.0
 11
-95.08247427381191
 21
11.53207210725119
 31
0.0
  0
LINE
  5
2CE
330
74
100
AcDbEntity
  8
1
  6
Continuous
 62
     2
100
AcDbLine
 10
-108.5824742738118
 20
24.28207210725108
 30
0.0
 11
-108.5824742738118
 21
20.03207210725108
 31
0.0
  0
LINE
  5
2CF
330
74
100
AcDbEntity
  8
1
  6
Continuous
 62
     2
100
AcDbLine
 10
-108.5824742738118
 20
24.28207210725108
 30
0.0
 11
-122.0824742738118
 21
24.28207210725108
 31
0.0
  0
LINE
  5
2D0
330
74
100
AcDbEntity
  8
1
  6
Continuous
 62
     2
100
AcDbLine
 10
-108.5824742738118
 20
28.53207210725108
 30
0.0
 11
-108.5824742738118
 21
24.28207210725108
 31
0.0
  0
LINE
  5
2D1
330
74
100
AcDbEntity
  8
1
  6
Continuous
 62
     2
100
AcDbLine
 10
-108.5824742738118
 20
28.53207210725108
 30
0.0
 11
-122.0824742738118
 21
28.53207210725108
 31
0.0
  0
LINE
  5
2D2
330
74
100
AcDbEntity
  8
1
  6
Continuous
 62
     2
100
AcDbLine
 10
-108.5824742738118
 20
32.78207210725108
 30
0.0
 11
-108.5824742738118
 21
28.53207210725108
 31
0.0
  0
LINE
  5
2D3
330
74
100
AcDbEntity
  8
1
  6
Continuous
 62
     2
100
AcDbLine
 10
-108.5824742738118
 20
32.78207210725108
 30
0.0
 11
-122.0824742738118
 21
32.78207210725108
 31
0.0
  0
LINE
  5
2D4
330
74
100
AcDbEntity
  8
1
  6
Continuous
 62
     2
100
AcDbLine
 10
-108.5824742738118
 20
20.03207210725108
 30
0.0
 11
-108.5824742738118
 21
15.78207210725108
 31
0.0
  0
LINE
  5
2D5
330
74
100
AcDbEntity
  8
1
  6
Continuous
 62
     2
100
AcDbLine
 10
-108.5824742738118
 20
20.03207210725108
 30
0.0
 11
-122.0824742738118
 21
20.03207210725108
 31
0.0
  0
LINE
  5
2D6
330
74
100
AcDbEntity
  8
1
  6
Continuous
 62
     6
100
AcDbLine
 10
-122.0824742738118
 20
7.28207210725108
 30
0.0
 11
-108.5824742738118
 21
7.28207210725108
 31
0.0
  0
LINE
  5
2D7
330
74
100
AcDbEntity
  8
1
  6
Continuous
 62
     2
100
AcDbLine
 10
-122.0824742738118
 20
15.78207210725108
 30
0.0
 11
-122.0824742738118
 21
11.53207210725119
 31
0.0
  0
LINE
  5
2D8
330
74
100
AcDbEntity
  8
1
  6
Continuous
 62
     2
100
AcDbLine
 10
-122.0824742738118
 20
15.78207210725108
 30
0.0
 11
-184.337669747062
 21
15.78207210725108
 31
0.0
  0
LINE
  5
2D9
330
74
100
AcDbEntity
  8
1
  6
Continuous
 62
     2
100
AcDbLine
 10
-122.0824742738118
 20
11.53207210725119
 30
0.0
 11
-122.0824742738118
 21
7.28207210725108
 31
0.0
  0
LINE
  5
2DA
330
74
100
AcDbEntity
  8
1
  6
Continuous
 62
     7
100
AcDbLine
 10
-122.0824742738118
 20
11.53207210725119
 30
0.0
 11
-108.5824742738118
 21
11.53207210725119
 31
0.0
  0
LINE
  5
2DB
330
74
100
AcDbEntity
  8
1
  6
Continuous
 62
     2
100
AcDbLine
 10
-122.0824742738118
 20
24.28207210725108
 30
0.0
 11
-122.0824742738118
 21
20.03207210725108
 31
0.0
  0
LINE
  5
2DC
330
74
100
AcDbEntity
  8
1
  6
Continuous
 62
     2
100
AcDbLine
 10
-122.0824742738118
 20
24.28207210725108
 30
0.0
 11
-184.337669747062
 21
24.28207210725108
 31
0.0
  0
LINE
  5
2DD
330
74
100
AcDbEntity
  8
1
  6
Continuous
 62
     2
100
AcDbLine
 10
-122.0824742738118
 20
28.53207210725108
 30
0.0
 11
-122.0824742738118
 21
24.28207210725108
 31
0.0
  0
LINE
  5
2DE
330
74
100
AcDbEntity
  8
1
  6
Continuous
 62
     2
100
AcDbLine
 10
-122.0824742738118
 20
32.78207210725108
 30
0.0
 11
-122.0824742738118
 21
28.53207210725108
 31
0.0
  0
LINE
  5
2DF
330
74
100
AcDbEntity
  8
1
  6
Continuous
 62
     2
100
AcDbLine
 10
-122.0824742738118
 20
20.03207210725108
 30
0.0
 11
-122.0824742738118
 21
15.78207210725108
 31
0.0
  0
LINE
  5
2E0
330
74
100
AcDbEntity
  8
1
  6
Continuous
 62
     2
100
AcDbLine
 10
-122.0824742738118
 20
20.03207210725108
 30
0.0
 11
-184.337669747062
 21
20.03207210725108
 31
0.0
  0
LINE
  5
2E1
330
74
100
AcDbEntity
  8
1
  6
Continuous
 62
     7
100
AcDbLine
 10
-72.18247427381183
 20
24.28207210725119
 30
0.0
 11
-81.58247427381181
 21
24.28207210725108
 31
0.0
  0
LINE
  5
2E2
330
74
100
AcDbEntity
  8
1
  6
Continuous
 62
     6
100
AcDbLine
 10
-72.18247427381183
 20
37.03207210725108
 30
0.0
 11
-81.58247427381181
 21
37.03207210725108
 31
0.0
  0
LINE
  5
2E3
330
74
100
AcDbEntity
  8
1
  6
Continuous
 62
     7
100
AcDbLine
 10
-81.58247427381181
 20
32.78207210725108
 30
0.0
 11
-72.18247427381183
 21
32.78207210725108
 31
0.0
  0
LINE
  5
2E4
330
74
100
AcDbEntity
  8
1
  6
Continuous
 62
     6
100
AcDbLine
 10
-204.03766974706
 20
20.03207210725108
 30
0.0
 11
-204.03766974706
 21
24.28207210725108
 31
0.0
  0
LINE
  5
2E5
330
74
100
AcDbEntity
  8
1
  6
Continuous
 62
     6
100
AcDbLine
 10
47.96233025293981
 20
37.03207210725108
 30
0.0
 11
47.9623302529389
 21
28.53207210725108
 31
0.0
  0
LINE
  5
2E6
330
74
100
AcDbEntity
  8
1
  6
Continuous
 62
     6
100
AcDbLine
 10
-204.03766974706
 20
7.28207210725119
 30
0.0
 11
-239.0376697470599
 21
7.28207210725119
 31
0.0
  0
LINE
  5
2E7
330
74
100
AcDbEntity
  8
1
  6
Continuous
 62
     2
100
AcDbLine
 10
-73.30220513929655
 20
23.65707210725108
 30
0.0
 11
-69.30220513929655
 21
23.15707210725108
 31
0.0
  0
LINE
  5
2E8
330
74
100
AcDbEntity
  8
1
  6
Continuous
 62
     2
100
AcDbLine
 10
-69.30220513929655
 20
23.15707210725108
 30
0.0
 11
-69.30220513929655
 21
21.15707210725108
 31
0.0
  0
LINE
  5
2E9
330
74
100
AcDbEntity
  8
1
  6
Continuous
 62
     2
100
AcDbLine
 10
-69.30220513929655
 20
21.15707210725108
 30
0.0
 11
-73.30220513929655
 21
20.65707210725108
 31
0.0
  0
LINE
  5
2EA
330
74
100
AcDbEntity
  8
1
  6
Continuous
 62
     2
100
AcDbLine
 10
-73.30220513929655
 20
20.65707210725108
 30
0.0
 11
-73.30220513929655
 21
23.65707210725108
 31
0.0
  0
LINE
  5
2EB
330
74
100
AcDbEntity
  8
1
  6
Continuous
 62
     7
100
AcDbLine
 10
-15.53766974705952
 20
28.53207210725106
 30
0.0
 11
-22.28247427381189
 21
28.53207210725102
 31
0.0
  0
LINE
  5
2EC
330
74
100
AcDbEntity
  8
1
  6
Continuous
 62
     7
100
AcDbLine
 10
-15.53766974705952
 20
24.28207210725108
 30
0.0
 11
-13.53766974705952
 21
24.28207210725108
 31
0.0
  0
LINE
  5
2ED
330
74
100
AcDbEntity
  8
1
  6
Continuous
 62
     2
100
AcDbLine
 10
19.39706693772709
 20
22.73185282821832
 30
0.0
 11
19.39706693772709
 21
20.67445686336482
 31
0.0
  0
ARC
  5
2EE
102
{ACAD_REACTORS
330
397
330
398
102
}
330
74
100
AcDbEntity
  8
0
  6
Continuous
 62
     2
100
AcDbCircle
 10
-65.70342634078702
 20
14.39397686916223
 30
0.0
 40
0.6378510567600066
100
AcDbArc
 50
321.8795802028405
 51
38.12041979715862
  0
ARC
  5
2EF
102
{ACAD_REACTORS
330
397
330
398
102
}
330
74
100
AcDbEntity
  8
0
  6
Continuous
 62
     2
100
AcDbCircle
 10
-65.53835193058342
 20
14.26444696988955
 30
0.0
 40
0.4280236140609635
100
AcDbArc
 50
218.1204197971923
 51
321.8795802027983
  0
ARC
  5
2F0
102
{ACAD_REACTORS
330
397
330
398
102
}
330
74
100
AcDbEntity
  8
0
  6
Continuous
 62
     2
100
AcDbCircle
 10
-65.37327752038004
 20
14.39397686916223
 30
0.0
 40
0.6378510567599095
100
AcDbArc
 50
141.8795802028351
 51
218.1204197971658
  0
ARC
  5
2F1
102
{ACAD_REACTORS
330
397
330
398
102
}
330
74
100
AcDbEntity
  8
0
  6
Continuous
 62
     2
100
AcDbCircle
 10
-65.53835193058342
 20
14.52350676843535
 30
0.0
 40
0.4280236140605955
100
AcDbArc
 50
38.12041979715423
 51
141.8795802028552
  0
ARC
  5
2F2
102
{ACAD_REACTORS
330
38F
330
390
102
}
330
74
100
AcDbEntity
  8
0
  6
Continuous
 62
     2
100
AcDbCircle
 10
-68.06894212526436
 20
13.22830218700673
 30
0.0
 40
1.840813230556617
100
AcDbArc
 50
58.06909105003761
 51
71.55192388186693
  0
ARC
  5
2F3
102
{ACAD_REACTORS
330
38F
330
390
102
}
330
74
100
AcDbEntity
  8
0
  6
Continuous
 62
     2
100
AcDbCircle
 10
-67.85263824017443
 20
14.56345738927714
 30
0.0
 40
0.4227934381775693
100
AcDbArc
 50
113.3722778881983
 51
151.4785267423096
  0
ARC
  5
2F4
102
{ACAD_REACTORS
330
38F
330
390
102
}
330
74
100
AcDbEntity
  8
0
  6
Continuous
 62
     2
100
AcDbCircle
 10
-67.54077273762869
 20
14.39397686916223
 30
0.0
 40
0.7777353184572794
100
AcDbArc
 50
151.4785267422687
 51
208.5214732577029
  0
ARC
  5
2F5
102
{ACAD_REACTORS
330
38F
330
390
102
}
330
74
100
AcDbEntity
  8
0
  6
Continuous
 62
     2
100
AcDbCircle
 10
-68.1994155757543
 20
17.13172971648158
 30
0.0
 40
4.010410630990213
100
AcDbArc
 50
275.1581447696246
 51
285.9799912583532
  0
ARC
  5
2F6
102
{ACAD_REACTORS
330
38F
330
390
102
}
330
74
100
AcDbEntity
  8
0
  6
Continuous
 62
     2
100
AcDbCircle
 10
-67.96069153051803
 20
14.48719204439762
 30
0.0
 40
1.355119937140023
100
AcDbArc
 50
195.0618917770909
 51
275.1581447696391
  0
ARC
  5
2F7
102
{ACAD_REACTORS
330
38F
330
390
102
}
330
74
100
AcDbEntity
  8
0
  6
Continuous
 62
     2
100
AcDbCircle
 10
-68.30707817800794
 20
14.39397686916223
 30
0.0
 40
0.9964100565214622
100
AcDbArc
 50
164.9381082228799
 51
195.0618917770962
  0
ARC
  5
2F8
102
{ACAD_REACTORS
330
38F
330
390
102
}
330
74
100
AcDbEntity
  8
0
  6
Continuous
 62
     2
100
AcDbCircle
 10
-67.96069153051803
 20
14.30076169392682
 30
0.0
 40
1.355119937140908
100
AcDbArc
 50
84.84185523036265
 51
164.9381082228906
  0
ARC
  5
2F9
102
{ACAD_REACTORS
330
393
330
394
102
}
330
74
100
AcDbEntity
  8
0
  6
Continuous
 62
     2
100
AcDbCircle
 10
-71.9524388480072
 20
15.24837917854596
 30
0.0
 40
0.2609230769227325
100
AcDbArc
 50
115.3740086783589
 51
180.0
  0
ARC
  5
2FA
102
{ACAD_REACTORS
330
393
330
394
102
}
330
74
100
AcDbEntity
  8
0
  6
Continuous
 62
     2
100
AcDbCircle
 10
-71.9524388480072
 20
17.08167107931967
 30
0.0
 40
0.2609230769229498
100
AcDbArc
 50
180.0
 51
244.6259913216399
  0
ARC
  5
2FB
102
{ACAD_REACTORS
330
393
330
394
102
}
330
74
100
AcDbEntity
  8
0
  6
Continuous
 62
     2
100
AcDbCircle
 10
-71.94779741386674
 20
16.17481185695416
 30
0.0
 40
1.668232340440702
100
AcDbArc
 50
269.8110329575862
 51
90.18896704241376
  0
ARC
  5
2FC
102
{ACAD_REACTORS
330
393
330
394
102
}
330
74
100
AcDbEntity
  8
0
  6
Continuous
 62
     2
100
AcDbCircle
 10
-71.9524388480072
 20
14.76751024739299
 30
0.0
 40
0.2609230769229498
100
AcDbArc
 50
180.0
 51
269.8110329574465
  0
ARC
  5
2FD
102
{ACAD_REACTORS
330
391
330
392
102
}
330
74
100
AcDbEntity
  8
0
  6
Continuous
 62
     2
100
AcDbCircle
 10
-54.54462048872574
 20
14.56345738927714
 30
0.0
 40
0.4227934381772261
100
AcDbArc
 50
109.337143219486
 51
151.478526742422
  0
ARC
  5
2FE
102
{ACAD_REACTORS
330
391
330
392
102
}
330
74
100
AcDbEntity
  8
0
  6
Continuous
 62
     2
100
AcDbCircle
 10
-54.54462048872574
 20
14.22449634904777
 30
0.0
 40
0.4227934381785468
100
AcDbArc
 50
208.5214732576875
 51
246.6277221118393
  0
ARC
  5
2FF
102
{ACAD_REACTORS
330
391
330
392
102
}
330
74
100
AcDbEntity
  8
0
  6
Continuous
 62
     2
100
AcDbCircle
 10
-54.99906042655834
 20
14.39397686916223
 30
0.0
 40
0.996410056523109
100
AcDbArc
 50
164.9381082229054
 51
195.0618917770958
  0
ARC
  5
300
102
{ACAD_REACTORS
330
391
330
392
102
}
330
74
100
AcDbEntity
  8
0
  6
Continuous
 62
     2
100
AcDbCircle
 10
-54.65267377906935
 20
14.30076169392682
 30
0.0
 40
1.355119937140591
100
AcDbArc
 50
90.0
 51
164.9381082228992
  0
ARC
  5
301
102
{ACAD_REACTORS
330
395
330
396
102
}
330
74
100
AcDbEntity
  8
0
  6
Continuous
 62
     2
100
AcDbCircle
 10
-62.44357881436167
 20
17.17016734533938
 30
0.0
 40
1.26190476190564
100
AcDbArc
 50
90.0
 51
270.0
  0
ARC
  5
302
102
{ACAD_REACTORS
330
399
330
39A
102
}
330
74
100
AcDbEntity
  8
0
  6
Continuous
 62
     2
100
AcDbCircle
 10
-68.01605050463093
 20
17.59242775178124
 30
0.0
 40
0.2916229955959899
100
AcDbArc
 50
270.0
 51
90.0
  0
ARC
  5
303
102
{ACAD_REACTORS
330
393
330
394
102
}
330
74
100
AcDbEntity
  8
0
  6
Continuous
 62
     2
100
AcDbCircle
 10
-74.0809914815045
 20
17.58226014143119
 30
0.0
 40
0.2609230769224524
100
AcDbArc
 50
90.0
 51
180.0
  0
ARC
  5
304
102
{ACAD_REACTORS
330
393
330
394
102
}
330
74
100
AcDbEntity
  8
0
  6
Continuous
 62
     2
100
AcDbCircle
 10
-72.42940659837677
 20
16.16502512893305
 30
0.0
 40
0.7536343169897688
100
AcDbArc
 50
115.1944106485234
 51
244.8055893514914
  0
ARC
  5
305
102
{ACAD_REACTORS
330
393
330
394
102
}
330
74
100
AcDbEntity
  8
0
  6
Continuous
 62
     2
100
AcDbCircle
 10
-72.86129457157926
 20
15.24698401648451
 30
0.0
 40
0.2609230769228361
100
AcDbArc
 50
0.0
 51
64.8055893514401
  0
ARC
  5
306
102
{ACAD_REACTORS
330
393
330
394
102
}
330
74
100
AcDbEntity
  8
0
  6
Continuous
 62
     2
100
AcDbCircle
 10
-74.57181352840246
 20
13.48268749187132
 30
0.0
 40
0.3506153846138886
100
AcDbArc
 50
180.0
 51
270.0
  0
ARC
  5
307
102
{ACAD_REACTORS
330
395
330
396
102
}
330
74
100
AcDbEntity
  8
0
  6
Continuous
 62
     2
100
AcDbCircle
 10
-62.26484161587803
 20
17.2996972446125
 30
0.0
 40
0.4280236140606861
100
AcDbArc
 50
38.12041979714503
 51
141.8795802028555
  0
ARC
  5
308
102
{ACAD_REACTORS
330
395
330
396
102
}
330
74
100
AcDbEntity
  8
0
  6
Continuous
 62
     2
100
AcDbCircle
 10
-62.09976720567454
 20
17.17016734533938
 30
0.0
 40
0.6378510567600056
100
AcDbArc
 50
141.8795802028417
 51
218.1204197971583
  0
ARC
  5
309
102
{ACAD_REACTORS
330
397
330
398
102
}
330
74
100
AcDbEntity
  8
0
  6
Continuous
 62
     2
100
AcDbCircle
 10
-65.53835193058342
 20
14.8390801834625
 30
0.0
 40
1.70700807620544
100
AcDbArc
 50
242.4518518243401
 51
297.548148175687
  0
ARC
  5
30A
102
{ACAD_REACTORS
330
397
330
398
102
}
330
74
100
AcDbEntity
  8
0
  6
Continuous
 62
     2
100
AcDbCircle
 10
-65.53835193058342
 20
13.94887355486241
 30
0.0
 40
1.707008076205444
100
AcDbArc
 50
62.45185182430569
 51
117.5481481756673
  0
ARC
  5
30B
102
{ACAD_REACTORS
330
397
330
398
102
}
330
74
100
AcDbEntity
  8
0
  6
Continuous
 62
     2
100
AcDbCircle
 10
-65.77053365937127
 20
14.39397686916223
 30
0.0
 40
1.204986845992994
100
AcDbArc
 50
117.5481481756635
 51
242.451851824337
  0
ARC
  5
30C
102
{ACAD_REACTORS
330
397
330
398
102
}
330
74
100
AcDbEntity
  8
0
  6
Continuous
 62
     2
100
AcDbCircle
 10
-65.30617020179557
 20
14.39397686916223
 30
0.0
 40
1.204986845993433
100
AcDbArc
 50
297.5481481757013
 51
62.45185182429817
  0
ARC
  5
30D
102
{ACAD_REACTORS
330
395
330
396
102
}
330
74
100
AcDbEntity
  8
0
  6
Continuous
 62
     2
100
AcDbCircle
 10
-62.26484161587803
 20
17.04063744606625
 30
0.0
 40
0.4280236140606851
100
AcDbArc
 50
218.1204197971433
 51
321.8795802028561
  0
ARC
  5
30E
102
{ACAD_REACTORS
330
395
330
396
102
}
330
74
100
AcDbEntity
  8
0
  6
Continuous
 62
     2
100
AcDbCircle
 10
-62.42991602608151
 20
17.17016734533938
 30
0.0
 40
0.6378510567599944
100
AcDbArc
 50
321.8795802028409
 51
38.12041979715914
  0
ARC
  5
30F
102
{ACAD_REACTORS
330
393
330
394
102
}
330
74
100
AcDbEntity
  8
0
  6
Continuous
 62
     2
100
AcDbCircle
 10
-70.04841510632241
 20
13.48268749187132
 30
0.0
 40
0.3506153846142812
100
AcDbArc
 50
270.0
 51
0.0
  0
ARC
  5
310
102
{ACAD_REACTORS
330
393
330
394
102
}
330
74
100
AcDbEntity
  8
0
  6
Continuous
 62
     2
100
AcDbCircle
 10
-70.04841510632241
 20
18.08145672261529
 30
0.0
 40
0.3506153846147981
100
AcDbArc
 50
0.0
 51
90.0
  0
ARC
  5
311
102
{ACAD_REACTORS
330
393
330
394
102
}
330
74
100
AcDbEntity
  8
0
  6
Continuous
 62
     2
100
AcDbCircle
 10
-74.57181352840246
 20
18.08145672261529
 30
0.0
 40
0.3506153846147413
100
AcDbArc
 50
90.0
 51
180.0
  0
ARC
  5
312
102
{ACAD_REACTORS
330
393
330
394
102
}
330
74
100
AcDbEntity
  8
0
  6
Continuous
 62
     2
100
AcDbCircle
 10
-72.86129457157926
 20
13.98188407306995
 30
0.0
 40
0.2609230769228894
100
AcDbArc
 50
270.0
 51
0.0
  0
ARC
  5
313
102
{ACAD_REACTORS
330
393
330
394
102
}
330
74
100
AcDbEntity
  8
0
  6
Continuous
 62
     2
100
AcDbCircle
 10
-72.86129457157926
 20
17.08306624138113
 30
0.0
 40
0.2609230769224065
100
AcDbArc
 50
295.1944106485601
 51
0.0
  0
ARC
  5
314
102
{ACAD_REACTORS
330
393
330
394
102
}
330
74
100
AcDbEntity
  8
0
  6
Continuous
 62
     2
100
AcDbCircle
 10
-72.86129457157926
 20
17.58226014143119
 30
0.0
 40
0.2609230769228361
100
AcDbArc
 50
0.0
 51
90.0
  0
ARC
  5
315
102
{ACAD_REACTORS
330
393
330
394
102
}
330
74
100
AcDbEntity
  8
0
  6
Continuous
 62
     2
100
AcDbCircle
 10
-74.0809914815045
 20
13.98188407306995
 30
0.0
 40
0.2609230769220403
100
AcDbArc
 50
180.0
 51
270.0
  0
ARC
  5
316
102
{ACAD_REACTORS
330
399
330
39A
102
}
330
74
100
AcDbEntity
  8
0
  6
Continuous
 62
     2
100
AcDbCircle
 10
-67.65119717716118
 20
17.55986909787833
 30
0.0
 40
0.8722030093666717
100
AcDbArc
 50
270.0
 51
90.0
  0
ARC
  5
317
102
{ACAD_REACTORS
330
391
330
392
102
}
330
74
100
AcDbEntity
  8
0
  6
Continuous
 62
     2
100
AcDbCircle
 10
-54.65267377906935
 20
14.48719204439762
 30
0.0
 40
1.355119937140895
100
AcDbArc
 50
195.0618917771008
 51
275.158144769676
  0
ARC
  5
318
102
{ACAD_REACTORS
330
391
330
392
102
}
330
74
100
AcDbEntity
  8
0
  6
Continuous
 62
     2
100
AcDbCircle
 10
-54.89139782430561
 20
17.13172971648158
 30
0.0
 40
4.010410630990744
100
AcDbArc
 50
275.1581447696369
 51
285.9799912583388
  0
ARC
  5
319
102
{ACAD_REACTORS
330
391
330
392
102
}
330
74
100
AcDbEntity
  8
0
  6
Continuous
 62
     2
100
AcDbCircle
 10
-54.76092437381567
 20
15.55965155131771
 30
0.0
 40
1.840813230556003
100
AcDbArc
 50
288.4480761181333
 51
301.9309089499382
  0
ARC
  5
31A
102
{ACAD_REACTORS
330
391
330
392
102
}
330
74
100
AcDbEntity
  8
0
  6
Continuous
 62
     2
100
AcDbCircle
 10
-54.41533120550002
 20
14.52366330665935
 30
0.0
 40
0.7487023016407038
100
AcDbArc
 50
246.627722111814
 51
288.4480761180797
  0
ARC
  5
31B
102
{ACAD_REACTORS
330
391
330
392
102
}
330
74
100
AcDbEntity
  8
0
  6
Continuous
 62
     2
100
AcDbCircle
 10
-54.23275498617909
 20
14.39397686916223
 30
0.0
 40
0.777735318458663
100
AcDbArc
 50
151.4785267423618
 51
208.5214732576687
  0
ARC
  5
31C
102
{ACAD_REACTORS
330
391
330
392
102
}
330
74
100
AcDbEntity
  8
0
  6
Continuous
 62
     2
100
AcDbCircle
 10
-54.42340561425988
 20
14.21804005011771
 30
0.0
 40
0.7888619891124407
100
AcDbArc
 50
90.0
 51
109.3371432194314
  0
ARC
  5
31D
102
{ACAD_REACTORS
330
393
330
394
102
}
330
74
100
AcDbEntity
  8
0
  6
Continuous
 62
     2
100
AcDbCircle
 10
-71.9524388480072
 20
17.58211346651534
 30
0.0
 40
0.2609230769224181
100
AcDbArc
 50
90.18896704255353
 51
180.0
  0
ARC
  5
31E
102
{ACAD_REACTORS
330
393
330
394
102
}
330
74
100
AcDbEntity
  8
0
  6
Continuous
 62
     2
100
AcDbCircle
 10
-72.38718487948483
 20
16.16502512893305
 30
0.0
 40
0.7535935125160986
100
AcDbArc
 50
295.374008678178
 51
64.62599132180713
  0
ARC
  5
31F
102
{ACAD_REACTORS
330
38F
330
390
102
}
330
74
100
AcDbEntity
  8
0
  6
Continuous
 62
     2
100
AcDbCircle
 10
-68.06894212526436
 20
15.55965155131817
 30
0.0
 40
1.840813230556011
100
AcDbArc
 50
288.4480761181332
 51
301.9309089499624
  0
ARC
  5
320
102
{ACAD_REACTORS
330
38F
330
390
102
}
330
74
100
AcDbEntity
  8
0
  6
Continuous
 62
     2
100
AcDbCircle
 10
-67.72334895694962
 20
14.52366330665935
 30
0.0
 40
0.7487023016403824
100
AcDbArc
 50
246.6277221118709
 51
288.4480761181571
  0
ARC
  5
321
102
{ACAD_REACTORS
330
38F
330
390
102
}
330
74
100
AcDbEntity
  8
0
  6
Continuous
 62
     2
100
AcDbCircle
 10
-67.85263824017443
 20
14.22449634904777
 30
0.0
 40
0.422793438177528
100
AcDbArc
 50
208.5214732576916
 51
246.627722111826
  0
ARC
  5
322
102
{ACAD_REACTORS
330
38F
330
390
102
}
330
74
100
AcDbEntity
  8
0
  6
Continuous
 62
     2
100
AcDbCircle
 10
-67.72334895694962
 20
14.26429043166509
 30
0.0
 40
0.7487023016407717
100
AcDbArc
 50
71.55192388185432
 51
113.3722778881285
  0
ARC
  5
323
102
{ACAD_REACTORS
330
38F
330
390
102
}
330
74
100
AcDbEntity
  8
0
  6
Continuous
 62
     2
100
AcDbCircle
 10
-68.1994155757543
 20
11.65622402184333
 30
0.0
 40
4.010410630990089
100
AcDbArc
 50
74.02000874164679
 51
84.84185523037543
  0
CIRCLE
  5
324
102
{ACAD_REACTORS
330
393
330
394
102
}
330
74
100
AcDbEntity
  8
0
  6
Continuous
 62
     2
100
AcDbCircle
 10
-72.4068667097929
 20
16.16502512893305
 30
0.0
 40
0.3892387874202541
  0
CIRCLE
  5
325
330
74
100
AcDbEntity
  8
1
  6
Continuous
 62
     2
100
AcDbCircle
 10
-76.49021444870854
 20
22.15707210725108
 30
0.0
 40
1.0
  0
CIRCLE
  5
326
330
74
100
AcDbEntity
  8
1
  6
Continuous
 62
     2
100
AcDbCircle
 10
-76.49021444870854
 20
22.15707210725108
 30
0.0
 40
1.5
  0
MTEXT
  5
328
330
74
100
AcDbEntity
  8
1
 62
     2
100
AcDbMText
 10
-44.0824742738119
 20
26.60707210725107
 30
0.0
 40
1.4
 41
0.0
 71
     4
 72
     1
  1
SAP\Pchange-No.
  7
CONVERTER_12
 73
     1
 44
0.66026410564226
  0
MTEXT
  5
329
330
74
100
AcDbEntity
  8
1
 62
     3
100
AcDbMText
 10
-34.85023745569701
 20
26.40707210725107
 30
0.0
 40
2.5
 41
0.0
 71
     4
 72
     1
  1
A01-07039/02
  7
CONVERTER_12
 73
     1
 44
1.20048019207683
  0
TEXT
  5
32B
330
74
100
AcDbEntity
  8
1
 62
     3
100
AcDbText
 10
-44.08247427381198
 20
39.32684368085533
 30
0.0
 40
2.5
  1
 
 41
0.72
  7
CONVERTER_13
100
AcDbText
  0
TEXT
  5
32C
330
74
100
AcDbEntity
  8
1
 62
     3
100
AcDbText
 10
-44.08247427381198
 20
42.82684368085533
 30
0.0
 40
2.5
  1
 
 41
0.72
  7
CONVERTER_13
100
AcDbText
  0
TEXT
  5
32D
330
74
100
AcDbEntity
  8
1
 62
     3
100
AcDbText
 10
-44.08247427381198
 20
46.32684368085533
 30
0.0
 40
2.5
  1
 
 41
0.72
  7
CONVERTER_13
100
AcDbText
  0
MTEXT
  5
32F
330
74
100
AcDbEntity
  8
1
 62
     2
100
AcDbMText
 10
-183.337669747062
 20
13.65707210725119
 30
0.0
 40
2.0
 41
0.0
 71
     4
 72
     1
  1
 
  7
CONVERTER_14
 73
     1
 44
1.20048019207683
  0
MTEXT
  5
330
330
74
100
AcDbEntity
  8
1
 62
     2
100
AcDbMText
 10
-183.337669747062
 20
17.90707210725108
 30
0.0
 40
2.0
 41
0.0
 71
     4
 72
     1
  1
 
  7
CONVERTER_14
 73
     1
 44
1.20048019207683
  0
MTEXT
  5
331
330
74
100
AcDbEntity
  8
1
 62
     2
100
AcDbMText
 10
-183.337669747062
 20
22.15707210725108
 30
0.0
 40
2.0
 41
0.0
 71
     4
 72
     1
  1
 
  7
CONVERTER_14
 73
     1
 44
1.20048019207683
  0
MTEXT
  5
332
330
74
100
AcDbEntity
  8
1
 62
     2
100
AcDbMText
 10
-183.337669747062
 20
26.40707210725108
 30
0.0
 40
2.0
 41
0.0
 71
     4
 72
     1
  1
 
  7
CONVERTER_14
 73
     1
 44
1.20048019207683
  0
MTEXT
  5
333
330
74
100
AcDbEntity
  8
1
 62
     2
100
AcDbMText
 10
-183.337669747062
 20
30.65707210725108
 30
0.0
 40
2.0
 41
0.0
 71
     4
 72
     1
  1
 
  7
CONVERTER_14
 73
     1
 44
1.20048019207683
  0
MTEXT
  5
334
330
74
100
AcDbEntity
  8
1
 62
     2
100
AcDbMText
 10
-183.337669747062
 20
34.90707210725108
 30
0.0
 40
2.0
 41
0.0
 71
     4
 72
     1
  1
 
  7
CONVERTER_14
 73
     1
 44
1.20048019207683
  0
MTEXT
  5
335
330
74
100
AcDbEntity
  8
1
 62
     2
100
AcDbMText
 10
-88.33247427381188
 20
13.65707210725119
 30
0.0
 40
2.0
 41
0.0
 71
     5
 72
     1
  1
 
  7
CONVERTER_11
 73
     1
 44
1.20048019207683
  0
MTEXT
  5
336
330
74
100
AcDbEntity
  8
1
 62
     2
100
AcDbMText
 10
-88.33247427381188
 20
17.90707210725108
 30
0.0
 40
2.0
 41
0.0
 71
     5
 72
     1
  1
 
  7
CONVERTER_11
 73
     1
 44
1.20048019207683
  0
MTEXT
  5
337
330
74
100
AcDbEntity
  8
1
 62
     2
100
AcDbMText
 10
-88.33247427381188
 20
22.15707210725108
 30
0.0
 40
2.0
 41
0.0
 71
     5
 72
     1
  1
 
  7
CONVERTER_11
 73
     1
 44
1.20048019207683
  0
MTEXT
  5
338
330
74
100
AcDbEntity
  8
1
 62
     2
100
AcDbMText
 10
-88.33247427381188
 20
26.40707210725108
 30
0.0
 40
2.0
 41
0.0
 71
     5
 72
     1
  1
 
  7
CONVERTER_11
 73
     1
 44
1.20048019207683
  0
MTEXT
  5
339
330
74
100
AcDbEntity
  8
1
 62
     2
100
AcDbMText
 10
-88.33247427381188
 20
30.65707210725108
 30
0.0
 40
2.0
 41
0.0
 71
     5
 72
     1
  1
 
  7
CONVERTER_11
 73
     1
 44
1.20048019207683
  0
MTEXT
  5
33A
330
74
100
AcDbEntity
  8
1
 62
     2
100
AcDbMText
 10
-88.33247427381188
 20
34.90707210725108
 30
0.0
 40
2.0
 41
0.0
 71
     5
 72
     1
  1
 
  7
CONVERTER_11
 73
     1
 44
1.20048019207683
  0
MTEXT
  5
33B
330
74
100
AcDbEntity
  8
1
 62
     2
100
AcDbMText
 10
-101.8324742738119
 20
13.65707210725119
 30
0.0
 40
2.0
 41
0.0
 71
     5
 72
     1
  1
 
  7
CONVERTER_11
 73
     1
 44
1.20048019207683
  0
MTEXT
  5
33C
330
74
100
AcDbEntity
  8
1
 62
     2
100
AcDbMText
 10
-101.8324742738119
 20
17.90707210725108
 30
0.0
 40
2.0
 41
0.0
 71
     5
 72
     1
  1
 
  7
CONVERTER_11
 73
     1
 44
1.20048019207683
  0
MTEXT
  5
33D
330
74
100
AcDbEntity
  8
1
 62
     2
100
AcDbMText
 10
-101.8324742738119
 20
22.15707210725108
 30
0.0
 40
2.0
 41
0.0
 71
     5
 72
     1
  1
 
  7
CONVERTER_11
 73
     1
 44
1.20048019207683
  0
MTEXT
  5
33E
330
74
100
AcDbEntity
  8
1
 62
     2
100
AcDbMText
 10
-101.8324742738119
 20
26.40707210725108
 30
0.0
 40
2.0
 41
0.0
 71
     5
 72
     1
  1
 
  7
CONVERTER_11
 73
     1
 44
1.20048019207683
  0
MTEXT
  5
33F
330
74
100
AcDbEntity
  8
1
 62
     2
100
AcDbMText
 10
-101.8324742738119
 20
30.65707210725108
 30
0.0
 40
2.0
 41
0.0
 71
     5
 72
     1
  1
 
  7
CONVERTER_11
 73
     1
 44
1.20048019207683
  0
MTEXT
  5
340
330
74
100
AcDbEntity
  8
1
 62
     2
100
AcDbMText
 10
-101.8324742738119
 20
34.90707210725108
 30
0.0
 40
2.0
 41
0.0
 71
     5
 72
     1
  1
 
  7
CONVERTER_11
 73
     1
 44
1.20048019207683
  0
MTEXT
  5
341
330
74
100
AcDbEntity
  8
1
 62
     2
100
AcDbMText
 10
-115.3324742738118
 20
34.90707210725108
 30
0.0
 40
2.0
 41
0.0
 71
     5
 72
     1
  1
 
  7
CONVERTER_11
 73
     1
 44
1.20048019207683
  0
MTEXT
  5
342
330
74
100
AcDbEntity
  8
1
 62
     2
100
AcDbMText
 10
-115.3324742738118
 20
30.65707210725108
 30
0.0
 40
2.0
 41
0.0
 71
     5
 72
     1
  1
 
  7
CONVERTER_11
 73
     1
 44
1.20048019207683
  0
MTEXT
  5
343
330
74
100
AcDbEntity
  8
1
 62
     2
100
AcDbMText
 10
-115.3324742738118
 20
26.40707210725108
 30
0.0
 40
2.0
 41
0.0
 71
     5
 72
     1
  1
 
  7
CONVERTER_11
 73
     1
 44
1.20048019207683
  0
MTEXT
  5
344
330
74
100
AcDbEntity
  8
1
 62
     2
100
AcDbMText
 10
-115.3324742738118
 20
22.15707210725108
 30
0.0
 40
2.0
 41
0.0
 71
     5
 72
     1
  1
 
  7
CONVERTER_11
 73
     1
 44
1.20048019207683
  0
MTEXT
  5
345
330
74
100
AcDbEntity
  8
1
 62
     2
100
AcDbMText
 10
-115.3324742738118
 20
17.90707210725108
 30
0.0
 40
2.0
 41
0.0
 71
     5
 72
     1
  1
 
  7
CONVERTER_11
 73
     1
 44
1.20048019207683
  0
MTEXT
  5
346
330
74
100
AcDbEntity
  8
1
 62
     2
100
AcDbMText
 10
-115.3324742738118
 20
13.65707210725119
 30
0.0
 40
2.0
 41
0.0
 71
     5
 72
     1
  1
 
  7
CONVERTER_11
 73
     1
 44
1.20048019207683
  0
MTEXT
  5
347
330
74
100
AcDbEntity
  8
1
 62
     2
100
AcDbMText
 10
-191.087669747062
 20
34.90707210725108
 30
0.0
 40
2.0
 41
0.0
 71
     5
 72
     1
  1
 
  7
CONVERTER_11
 73
     1
 44
1.20048019207683
  0
MTEXT
  5
348
330
74
100
AcDbEntity
  8
1
 62
     2
100
AcDbMText
 10
-191.087669747062
 20
30.65707210725108
 30
0.0
 40
2.0
 41
0.0
 71
     5
 72
     1
  1
 
  7
CONVERTER_11
 73
     1
 44
1.20048019207683
  0
MTEXT
  5
349
330
74
100
AcDbEntity
  8
1
 62
     2
100
AcDbMText
 10
-191.087669747062
 20
26.40707210725108
 30
0.0
 40
2.0
 41
0.0
 71
     5
 72
     1
  1
 
  7
CONVERTER_11
 73
     1
 44
1.20048019207683
  0
MTEXT
  5
34A
330
74
100
AcDbEntity
  8
1
 62
     2
100
AcDbMText
 10
-191.087669747062
 20
22.15707210725108
 30
0.0
 40
2.0
 41
0.0
 71
     5
 72
     1
  1
 
  7
CONVERTER_11
 73
     1
 44
1.20048019207683
  0
MTEXT
  5
34B
330
74
100
AcDbEntity
  8
1
 62
     2
100
AcDbMText
 10
-191.087669747062
 20
17.90707210725108
 30
0.0
 40
2.0
 41
0.0
 71
     5
 72
     1
  1
 
  7
CONVERTER_11
 73
     1
 44
1.20048019207683
  0
MTEXT
  5
34C
330
74
100
AcDbEntity
  8
1
 62
     2
100
AcDbMText
 10
-191.087669747062
 20
13.65707210725119
 30
0.0
 40
2.0
 41
0.0
 71
     5
 72
     1
  1
 
  7
CONVERTER_11
 73
     1
 44
1.20048019207683
  0
MTEXT
  5
34D
330
74
100
AcDbEntity
  8
1
 62
     2
100
AcDbMText
 10
-200.937669747061
 20
13.65707210725119
 30
0.0
 40
2.0
 41
0.0
 71
     5
 72
     1
  1
 
  7
CONVERTER_11
 73
     1
 44
1.20048019207683
  0
MTEXT
  5
34E
330
74
100
AcDbEntity
  8
1
 62
     2
100
AcDbMText
 10
-200.937669747061
 20
17.90707210725108
 30
0.0
 40
2.0
 41
0.0
 71
     5
 72
     1
  1
 
  7
CONVERTER_11
 73
     1
 44
1.20048019207683
  0
MTEXT
  5
34F
330
74
100
AcDbEntity
  8
1
 62
     2
100
AcDbMText
 10
-200.937669747061
 20
22.15707210725108
 30
0.0
 40
2.0
 41
0.0
 71
     5
 72
     1
  1
 
  7
CONVERTER_11
 73
     1
 44
1.20048019207683
  0
MTEXT
  5
350
330
74
100
AcDbEntity
  8
1
 62
     2
100
AcDbMText
 10
-200.937669747061
 20
26.40707210725108
 30
0.0
 40
2.0
 41
0.0
 71
     5
 72
     1
  1
 
  7
CONVERTER_11
 73
     1
 44
1.20048019207683
  0
MTEXT
  5
351
330
74
100
AcDbEntity
  8
1
 62
     2
100
AcDbMText
 10
-200.937669747061
 20
30.65707210725108
 30
0.0
 40
2.0
 41
0.0
 71
     5
 72
     1
  1
 
  7
CONVERTER_11
 73
     1
 44
1.20048019207683
  0
MTEXT
  5
352
330
74
100
AcDbEntity
  8
1
 62
     2
100
AcDbMText
 10
-200.937669747061
 20
34.90707210725108
 30
0.0
 40
2.0
 41
0.0
 71
     5
 72
     1
  1
 
  7
CONVERTER_11
 73
     1
 44
1.20048019207683
  0
MTEXT
  5
353
330
74
100
AcDbEntity
  8
1
 62
     2
100
AcDbMText
 10
-14.53766974705952
 20
27.53207210725108
 30
0.0
 40
1.8
 41
0.0
 71
     1
 72
     1
  1
part-rev.
  7
CONVERTER_13
 73
     1
 44
1.20048019207683
  0
MTEXT
  5
354
330
74
100
AcDbEntity
  8
1
 62
     2
100
AcDbMText
 10
3.9623302529401
 20
23.28207210725108
 30
0.0
 40
1.8
 41
0.0
 71
     1
 72
     1
  1
surface in um
  7
CONVERTER_11
 73
     1
 44
1.32052821128451
  0
MTEXT
  5
355
330
74
100
AcDbEntity
  8
1
 62
     7
100
AcDbMText
 10
50.46233025293719
 20
82.28207210725301
 30
0.0
 40
3.5
 41
0.0
 71
     5
 72
     1
  1
C
  7
CONVERTER_11
 73
     1
 44
1.20048019207683
  0
MTEXT
  5
356
330
74
100
AcDbEntity
  8
1
 62
     7
100
AcDbMText
 10
50.46233025293719
 20
184.7820721072511
 30
0.0
 40
3.5
 41
0.0
 71
     5
 72
     1
  1
A
  7
CONVERTER_11
 73
     1
 44
1.20048019207683
  0
MTEXT
  5
357
330
74
100
AcDbEntity
  8
1
 62
     7
100
AcDbMText
 10
50.46233025293719
 20
132.282072107253
 30
0.0
 40
3.5
 41
0.0
 71
     5
 72
     1
  1
B
  7
CONVERTER_11
 73
     1
 44
1.20048019207683
  0
MTEXT
  5
358
330
74
100
AcDbEntity
  8
1
 62
     7
100
AcDbMText
 10
50.46233025293719
 20
29.78207210725108
 30
0.0
 40
3.5
 41
0.0
 71
     5
 72
     1
  1
D
  7
CONVERTER_11
 73
     1
 44
1.20048019207683
  0
MTEXT
  5
359
330
74
100
AcDbEntity
  8
1
 62
     3
100
AcDbMText
 10
-239.03260196099
 20
194.0733802625499
 30
0.0
 40
1.8
 41
0.0
 71
     7
 72
     1
  3
Weitergabe sowie Vervielf\U+00e4ltigung dieses Dokuments, Verwertung und\PMitteilung seines Inhalts gem\U+00e4\U+00df \U+00a718 UWG verboten, soweit nicht aus-\Pdr\U+00fccklich gestattet. Zuwiderhandlungen verpflichten zu Schadenersatz\P(\U+00a719 U
  1
WG). Alle Rechte vorbehalten, insbesondere das Recht, Patent-,\PGebrauchsmuster- oder Geschmacksmusteranmeldungen durchzuf\U+00fchren.\PPhoenix Contact GmbH & Co. KG
  7
CONVERTER_11
 73
     1
 44
0.99639855942377
  0
MTEXT
  5
35A
330
74
100
AcDbEntity
  8
1
 62
     3
100
AcDbMText
 10
-66.17949212220194
 20
194.0733802625499
 30
0.0
 40
1.8
 41
0.0
 71
     7
 72
     1
  3
The copying, distribution and utilistion of this document as well as the communication\Pof the contents to others without expressed authorization is prohibited according to\P\U+00a718 UWG German Law. Offenders will be held liable for the payment of 
  1
damages\Paccording to (\U+00a719 UWG German Law). All rights reserved, in particular the right to\Pcarry out patent, utility model or ornamental design registrations.\PFlachsmarktstra\U+00dfe 8  D-32825 Blomberg
  7
CONVERTER_11
 73
     1
 44
0.99639855942377
  0
MTEXT
  5
35B
330
74
100
AcDbEntity
  8
1
 62
     7
100
AcDbMText
 10
-219.7876697470615
 20
4.78207210725108
 30
0.0
 40
3.5
 41
0.0
 71
     5
 72
     1
  1
1
  7
CONVERTER_11
 73
     1
 44
1.20048019207683
  0
MTEXT
  5
35C
330
74
100
AcDbEntity
  8
1
 62
     7
100
AcDbMText
 10
-170.5376697470619
 20
4.78207210725108
 30
0.0
 40
3.5
 41
0.0
 71
     5
 72
     1
  1
2
  7
CONVERTER_11
 73
     1
 44
1.20048019207683
  0
MTEXT
  5
35D
330
74
100
AcDbEntity
  8
1
 62
     7
100
AcDbMText
 10
-120.5376697470619
 20
4.78207210725108
 30
0.0
 40
3.5
 41
0.0
 71
     5
 72
     1
  1
3
  7
CONVERTER_11
 73
     1
 44
1.20048019207683
  0
MTEXT
  5
35E
330
74
100
AcDbEntity
  8
1
 62
     7
100
AcDbMText
 10
-70.53766974706194
 20
4.78207210725108
 30
0.0
 40
3.5
 41
0.0
 71
     5
 72
     1
  1
4
  7
CONVERTER_11
 73
     1
 44
1.20048019207683
  0
MTEXT
  5
35F
330
74
100
AcDbEntity
  8
1
 62
     7
100
AcDbMText
 10
-20.53766974706189
 20
4.78207210725108
 30
0.0
 40
3.5
 41
0.0
 71
     5
 72
     1
  1
5
  7
CONVERTER_11
 73
     1
 44
1.20048019207683
  0
MTEXT
  5
360
330
74
100
AcDbEntity
  8
1
 62
     7
100
AcDbMText
 10
28.71233025293739
 20
4.78207210725108
 30
0.0
 40
3.5
 41
0.0
 71
     5
 72
     1
  1
6
  7
CONVERTER_11
 73
     1
 44
1.20048019207683
  0
MTEXT
  5
361
330
74
100
AcDbEntity
  8
1
 62
     7
100
AcDbMText
 10
-241.5376697470609
 20
184.7820721072511
 30
0.0
 40
3.5
 41
0.0
 71
     5
 72
     1
  1
A
  7
CONVERTER_11
 73
     1
 44
1.20048019207683
  0
MTEXT
  5
362
330
74
100
AcDbEntity
  8
1
 62
     7
100
AcDbMText
 10
-241.5376697470609
 20
132.2820721072511
 30
0.0
 40
3.5
 41
0.0
 71
     5
 72
     1
  1
B
  7
CONVERTER_11
 73
     1
 44
1.20048019207683
  0
MTEXT
  5
363
330
74
100
AcDbEntity
  8
1
 62
     7
100
AcDbMText
 10
-241.5376697470609
 20
82.28207210725108
 30
0.0
 40
3.5
 41
0.0
 71
     5
 72
     1
  1
C
  7
CONVERTER_11
 73
     1
 44
1.20048019207683
  0
MTEXT
  5
364
330
74
100
AcDbEntity
  8
1
 62
     7
100
AcDbMText
 10
-241.5376697470609
 20
29.78207210725108
 30
0.0
 40
3.5
 41
0.0
 71
     5
 72
     1
  1
D
  7
CONVERTER_11
 73
     1
 44
1.20048019207683
  0
MTEXT
  5
365
330
74
100
AcDbEntity
  8
1
 62
     2
100
AcDbMText
 10
31.3807385346189
 20
36.03207210725108
 30
0.0
 40
1.8
 41
0.0
 71
     1
 72
     1
  1
dim.var.
  7
CONVERTER_11
 73
     1
 44
1.20048019207683
  0
MTEXT
  5
367
330
74
100
AcDbEntity
  8
1
 62
     2
100
AcDbMText
 10
-14.53766974705952
 20
23.28207210725108
 30
0.0
 40
1.8
 41
0.0
 71
     1
 72
     1
  1
document-No.
  7
CONVERTER_15
 73
     1
 44
1.32052821128451
  0
TEXT
  5
368
330
74
100
AcDbEntity
  8
1
 62
     2
100
AcDbText
 10
-62.38247427381194
 20
8.52305489225952
 30
0.0
 40
1.8
  1
of
 41
0.9
  7
CONVERTER_11
100
AcDbText
  0
TEXT
  5
369
330
74
100
AcDbEntity
  8
1
 62
     2
100
AcDbText
 10
-80.58247427381181
 20
8.52305489225941
 30
0.0
 40
1.8
  1
page
 41
0.9
  7
CONVERTER_11
100
AcDbText
  0
MTEXT
  5
36A
330
74
100
AcDbEntity
  8
1
 62
     2
100
AcDbMText
 10
-88.33247427381191
 20
8.53207210725108
 30
0.0
 40
1.8
 41
0.0
 71
     8
 72
     1
  1
name
  7
CONVERTER_11
 73
     1
 44
1.32052821128451
  0
MTEXT
  5
36B
330
74
100
AcDbEntity
  8
1
 62
     2
100
AcDbMText
 10
-101.8324742738118
 20
8.53207210725108
 30
0.0
 40
1.8
 41
0.0
 71
     8
 72
     1
  1
check.on
  7
CONVERTER_11
 73
     1
 44
1.32052821128451
  0
MTEXT
  5
36C
330
74
100
AcDbEntity
  8
1
 62
     2
100
AcDbMText
 10
-115.3324742738118
 20
8.53207210725108
 30
0.0
 40
1.8
 41
0.0
 71
     8
 72
     1
  1
name
  7
CONVERTER_11
 73
     1
 44
1.32052821128451
  0
MTEXT
  5
36D
330
74
100
AcDbEntity
  8
1
 62
     2
100
AcDbMText
 10
-191.087669747062
 20
8.53207210725108
 30
0.0
 40
1.8
 41
0.0
 71
     8
 72
     1
  1
date
  7
CONVERTER_11
 73
     1
 44
1.32052821128451
  0
MTEXT
  5
36E
330
74
100
AcDbEntity
  8
1
 62
     2
100
AcDbMText
 10
-21.05728511622041
 20
36.03207210725091
 30
0.0
 40
1.8
 41
0.0
 71
     1
 72
     1
  1
material
  7
CONVERTER_11
 73
     1
 44
1.20048019207683
  0
MTEXT
  5
36F
330
74
100
AcDbEntity
  8
1
 62
     2
100
AcDbMText
 10
-200.937669747061
 20
8.53207210725108
 30
0.0
 40
1.8
 41
0.0
 71
     8
 72
     1
  1
RI
  7
CONVERTER_11
 73
     1
 44
1.32052821128451
  0
MTEXT
  5
370
330
74
100
AcDbEntity
  8
1
 62
     2
100
AcDbMText
 10
-65.43247427381193
 20
33.98207210725113
 30
0.0
 40
1.8
 41
0.0
 71
     8
 72
     1
  1
date
  7
CONVERTER_11
 73
     1
 44
1.32052821128451
  0
MTEXT
  5
371
330
74
100
AcDbEntity
  8
1
 62
     2
100
AcDbMText
 10
-51.93247427381195
 20
33.98207210725113
 30
0.0
 40
1.8
 41
0.0
 71
     8
 72
     1
  1
name
  7
CONVERTER_11
 73
     1
 44
1.32052821128451
  0
MTEXT
  5
372
330
74
100
AcDbEntity
  8
1
 62
     2
100
AcDbMText
 10
-153.2100720104369
 20
8.53207210725108
 30
0.0
 40
1.8
 41
0.0
 71
     8
 72
     1
  1
revision
  7
CONVERTER_11
 73
     1
 44
1.32052821128451
  0
MTEXT
  5
373
330
74
100
AcDbEntity
  8
1
 62
     2
100
AcDbMText
 10
22.26233025293999
 20
36.03207210725108
 30
0.0
 40
1.8
 41
0.0
 71
     1
 72
     1
  1
scale
  7
CONVERTER_11
 73
     1
 44
1.20048019207683
  0
MTEXT
  5
374
330
74
100
AcDbEntity
  8
1
 62
     2
100
AcDbMText
 10
-76.88247427381184
 20
30.65707210725108
 30
0.0
 40
1.8
 41
0.0
 71
     5
 72
     1
  1
creat.
  7
CONVERTER_11
 73
     1
 44
1.20048019207683
  0
MTEXT
  5
375
330
74
100
AcDbEntity
  8
1
 62
     2
100
AcDbMText
 10
-76.88247427381184
 20
26.40707210725108
 30
0.0
 40
1.8
 41
0.0
 71
     5
 72
     1
  1
check.
  7
CONVERTER_11
 73
     1
 44
1.20048019207683
  0
MTEXT
  5
376
330
74
100
AcDbEntity
  8
1
 62
     3
100
AcDbMText
 10
-55.38247427381194
 20
22.15707210725119
 30
0.0
 40
2.5
 41
0.0
 71
     5
 72
     1
  1
DIN A4
  7
CONVERTER_11
 73
     1
 44
1.20048019207683
  0
MTEXT
  5
377
330
74
100
AcDbEntity
  8
1
 62
     2
100
AcDbMText
 10
-44.0824742738119
 20
36.03207210725108
 30
0.0
 40
1.8
 41
0.0
 71
     1
 72
     1
  1
ident.-No. / RI
  7
CONVERTER_11
 73
     1
 44
1.20048019207683
  0
TEXT
  5
378
330
74
100
AcDbEntity
  8
1
 62
     2
100
AcDbText
 10
-71.93620930346974
 20
8.48282345344913
 30
0.0
 40
1.8
  1
 
 41
0.9
  7
CONVERTER_11
100
AcDbText
  0
TEXT
  5
379
330
74
100
AcDbEntity
  8
1
 62
     2
100
AcDbText
 10
-57.14716546399824
 20
8.53207210725108
 30
0.0
 40
1.8
  1
1
 41
0.9
  7
CONVERTER_11
100
AcDbText
  0
MTEXT
  5
37A
330
74
100
AcDbEntity
  8
1
 62
     2
100
AcDbMText
 10
-44.18247427381191
 20
14.78207210725108
 30
0.0
 40
1.8
 41
0.0
 71
     1
 72
     1
  1
description
  7
CONVERTER_11
 73
     1
 44
1.20048019207683
  0
MTEXT
  5
37B
330
74
100
AcDbEntity
  8
1
 62
     2
100
AcDbMText
 10
-76.88247427381184
 20
33.98207210725113
 30
0.0
 40
1.8
 41
0.0
 71
     8
 72
     1
  1
00
  7
CONVERTER_11
 73
     1
 44
1.20048019207683
  0
MTEXT
  5
37C
330
74
100
AcDbEntity
  8
1
 62
     2
100
AcDbMText
 10
-44.18247427381191
 20
23.28207210725102
 30
0.0
 40
1.8
 41
0.0
 71
     1
 72
     1
  1
document-type
  7
CONVERTER_11
 73
     1
 44
1.20048019207683
  0
MTEXT
  5
37D
330
74
100
AcDbEntity
  8
1
 62
     2
100
AcDbMText
 10
-51.93247427381195
 20
26.40707210725108
 30
0.0
 40
1.8
 41
0.0
 71
     5
 72
     1
  1
Schr\U+00f6der
  7
CONVERTER_11
 73
     1
 44
1.32052821128451
  0
MTEXT
  5
37E
330
74
100
AcDbEntity
  8
1
 62
     2
100
AcDbMText
 10
-51.93247427381195
 20
30.65707210725108
 30
0.0
 40
1.8
 41
0.0
 71
     5
 72
     1
  1
H\U+00e4nig-Fl
  7
CONVERTER_11
 73
     1
 44
1.32052821128451
  0
MTEXT
  5
37F
330
74
100
AcDbEntity
  8
1
 62
     2
100
AcDbMText
 10
-65.43247427381189
 20
26.40707210725108
 30
0.0
 40
1.8
 41
0.0
 71
     5
 72
     1
  1
16.05.13
  7
CONVERTER_11
 73
     1
 44
1.32052821128451
  0
MTEXT
  5
380
330
74
100
AcDbEntity
  8
1
 62
     2
100
AcDbMText
 10
-65.43247427381189
 20
30.65707210725108
 30
0.0
 40
1.8
 41
0.0
 71
     5
 72
     1
  1
12.02.13
  7
CONVERTER_11
 73
     1
 44
1.32052821128451
  0
TEXT
  5
381
330
74
100
AcDbEntity
  8
1
 62
     7
100
AcDbText
 10
-29.2089265517981
 20
29.83207210725108
 30
0.0
 40
2.5
  1
/
 41
0.9
  7
CONVERTER_11
100
AcDbText
  0
TEXT
  5
383
330
74
100
AcDbEntity
  8
1
 62
     3
100
AcDbText
 10
3.9623302529401
 20
17.08207210725108
 30
0.0
 40
2.5
  1
 
 41
0.54
  7
CONVERTER_16
100
AcDbText
  0
MTEXT
  5
385
330
74
100
AcDbEntity
  8
1
 62
     7
100
AcDbMText
 10
1.3899279895636
 20
10.53207210725131
 30
0.0
 40
3.0
 41
0.0
 71
     5
 72
     1
  1
HDFK 10I
  7
CONVERTER_17
 73
     1
 44
1.20048019207683
  0
MTEXT
  5
386
330
74
100
AcDbEntity
  8
1
 62
     3
100
AcDbMText
 10
25.62153439377951
 20
29.83207210725119
 30
0.0
 40
2.5
 41
0.0
 71
     8
 72
     1
  1
1:1
  7
CONVERTER_13
 73
     1
 44
1.32052821128451
  0
TEXT
  5
387
330
74
100
AcDbEntity
  8
1
 62
     3
100
AcDbText
 10
-21.28247427381189
 20
29.83207210725108
 30
0.0
 40
2.5
  1
-
 41
0.54
  7
CONVERTER_16
100
AcDbText
  0
TEXT
  5
388
330
74
100
AcDbEntity
  8
1
 62
     7
100
AcDbText
 10
-43.6824742738121
 20
29.83207210725108
 30
0.0
 40
2.5
  1
0707840
 41
0.81
  7
CONVERTER_17
100
AcDbText
  0
TEXT
  5
389
330
74
100
AcDbEntity
  8
1
 62
     7
100
AcDbText
 10
-14.53766974705952
 20
17.08207210725108
 30
0.0
 40
2.5
  1
00707736
 41
0.81
  7
CONVERTER_17
100
AcDbText
  0
TEXT
  5
38A
330
74
100
AcDbEntity
  8
1
 62
     3
100
AcDbText
 10
31.080738534619
 20
29.83207210725108
 30
0.0
 40
2.5
  1
 
 41
0.54
  7
CONVERTER_16
100
AcDbText
  0
TEXT
  5
38C
330
74
100
AcDbEntity
  8
1
 62
     3
100
AcDbText
 10
-44.18247427381191
 20
17.08207210725108
 30
0.0
 40
2.5
  1
KUNDENZCHNG-SELECT
 41
0.45
  7
CONVERTER_18
100
AcDbText
  0
TEXT
  5
38D
330
74
100
AcDbEntity
  8
1
 62
     7
100
AcDbText
 10
-27.05256205475609
 20
29.83207210725108
 30
0.0
 40
2.5
  1
05
 41
0.81
  7
CONVERTER_17
100
AcDbText
  0
MTEXT
  5
38E
330
74
100
AcDbEntity
  8
1
 62
     3
100
AcDbMText
 10
-4.3306498604515
 20
27.63207210725108
 30
0.0
 40
2.0
 41
0.0
 71
     1
 72
     1
  1
Anspritzpunkt verlegt
  7
CONVERTER_13
 73
     1
 44
1.20048019207683
  0
HATCH
  5
38F
330
74
100
AcDbEntity
  8
1
  6
Continuous
 62
     2
100
AcDbHatch
 10
0.0
 20
0.0
 30
0.0
210
0.0
220
0.0
230
1.0
  2
_USER
 70
     0
 71
     1
 91
        1
 92
        1
 93
       14
 72
     2
 10
-68.30707817800794
 20
14.39397686916223
 40
0.9964100565214622
 50
164.9381082228799
 51
195.0618917770962
 73
     1
 72
     2
 10
-67.96069153051803
 20
14.48719204439762
 40
1.355119937140023
 50
195.0618917770909
 51
275.1581447696391
 73
     1
 72
     2
 10
-68.1994155757543
 20
17.13172971648158
 40
4.010410630990213
 50
275.1581447696246
 51
285.9799912583532
 73
     1
 72
     1
 10
-67.09534291697923
 20
13.27628979433213
 11
-67.09534291697923
 21
13.99737822970672
 72
     2
 10
-68.06894212526436
 20
15.55965155131817
 40
1.840813230556011
 50
58.0690910500376
 51
71.55192388186683
 73
     0
 72
     2
 10
-67.72334895694962
 20
14.52366330665935
 40
0.7487023016403824
 50
71.55192388184291
 51
113.3722778881291
 73
     0
 72
     2
 10
-67.85263824017443
 20
14.22449634904777
 40
0.422793438177528
 50
113.372277888174
 51
151.4785267423084
 73
     0
 72
     2
 10
-67.54077273762869
 20
14.39397686916223
 40
0.7777353184572794
 50
151.4785267422971
 51
208.5214732577313
 73
     0
 72
     2
 10
-67.85263824017443
 20
14.56345738927714
 40
0.4227934381775693
 50
208.5214732576904
 51
246.6277221118017
 73
     0
 72
     2
 10
-67.72334895694962
 20
14.26429043166509
 40
0.7487023016407717
 50
246.6277221118715
 51
288.4480761181457
 73
     0
 72
     2
 10
-68.06894212526436
 20
13.22830218700673
 40
1.840813230556617
 50
288.4480761181331
 51
301.9309089499624
 73
     0
 72
     1
 10
-67.09534291697923
 20
14.79057550861818
 11
-67.09534291697923
 21
15.51166394399277
 72
     2
 10
-68.1994155757543
 20
11.65622402184333
 40
4.010410630990089
 50
74.02000874164679
 51
84.84185523037543
 73
     1
 72
     2
 10
-67.96069153051803
 20
14.30076169392682
 40
1.355119937140908
 50
84.84185523036265
 51
164.9381082228906
 73
     1
 97
       14
330
323
330
1AD
330
2F2
330
322
330
2F3
330
2F4
330
321
330
320
330
31F
330
1AE
330
2F5
330
2F6
330
2F7
330
2F8
 75
     1
 76
     0
 52
45.0
 41
0.1
 77
     0
 78
     1
 53
45.0
 43
0.0
 44
0.0
 45
-0.0707106781186548
 46
0.0707106781186548
 79
     0
 98
        1
 10
0.0
 20
0.0
  0
HATCH
  5
390
330
74
100
AcDbEntity
  8
1
  6
Continuous
 62
     2
100
AcDbHatch
 10
0.0
 20
0.0
 30
0.0
210
0.0
220
0.0
230
1.0
  2
_USER
 70
     0
 71
     1
 91
        1
 92
        1
 93
       14
 72
     2
 10
-68.30707817800794
 20
14.39397686916223
 40
0.9964100565214622
 50
164.9381082228799
 51
195.0618917770962
 73
     1
 72
     2
 10
-67.96069153051803
 20
14.48719204439762
 40
1.355119937140023
 50
195.0618917770909
 51
275.1581447696391
 73
     1
 72
     2
 10
-68.1994155757543
 20
17.13172971648158
 40
4.010410630990213
 50
275.1581447696246
 51
285.9799912583532
 73
     1
 72
     1
 10
-67.09534291697923
 20
13.27628979433213
 11
-67.09534291697923
 21
13.99737822970672
 72
     2
 10
-68.06894212526436
 20
15.55965155131817
 40
1.840813230556011
 50
58.0690910500376
 51
71.55192388186683
 73
     0
 72
     2
 10
-67.72334895694962
 20
14.52366330665935
 40
0.7487023016403824
 50
71.55192388184291
 51
113.3722778881291
 73
     0
 72
     2
 10
-67.85263824017443
 20
14.22449634904777
 40
0.422793438177528
 50
113.372277888174
 51
151.4785267423084
 73
     0
 72
     2
 10
-67.54077273762869
 20
14.39397686916223
 40
0.7777353184572794
 50
151.4785267422971
 51
208.5214732577313
 73
     0
 72
     2
 10
-67.85263824017443
 20
14.56345738927714
 40
0.4227934381775693
 50
208.5214732576904
 51
246.6277221118017
 73
     0
 72
     2
 10
-67.72334895694962
 20
14.26429043166509
 40
0.7487023016407717
 50
246.6277221118715
 51
288.4480761181457
 73
     0
 72
     2
 10
-68.06894212526436
 20
13.22830218700673
 40
1.840813230556617
 50
288.4480761181331
 51
301.9309089499624
 73
     0
 72
     1
 10
-67.09534291697923
 20
14.79057550861818
 11
-67.09534291697923
 21
15.51166394399277
 72
     2
 10
-68.1994155757543
 20
11.65622402184333
 40
4.010410630990089
 50
74.02000874164679
 51
84.84185523037543
 73
     1
 72
     2
 10
-67.96069153051803
 20
14.30076169392682
 40
1.355119937140908
 50
84.84185523036265
 51
164.9381082228906
 73
     1
 97
       14
330
323
330
1AD
330
2F2
330
322
330
2F3
330
2F4
330
321
330
320
330
31F
330
1AE
330
2F5
330
2F6
330
2F7
330
2F8
 75
     1
 76
     0
 52
45.0
 41
0.1
 77
     0
 78
     1
 53
45.0
 43
0.0
 44
0.0
 45
-0.0707106781186548
 46
0.0707106781186548
 79
     0
 98
        1
 10
0.0
 20
0.0
  0
HATCH
  5
391
330
74
100
AcDbEntity
  8
1
  6
Continuous
 62
     2
100
AcDbHatch
 10
0.0
 20
0.0
 30
0.0
210
0.0
220
0.0
230
1.0
  2
_USER
 70
     0
 71
     1
 91
        1
 92
        1
 93
       18
 72
     2
 10
-54.65267377906935
 20
14.30076169392682
 40
1.355119937140591
 50
90.0
 51
164.9381082228992
 73
     1
 72
     2
 10
-54.99906042655834
 20
14.39397686916223
 40
0.996410056523109
 50
164.9381082229054
 51
195.0618917770958
 73
     1
 72
     2
 10
-54.65267377906935
 20
14.48719204439762
 40
1.355119937140895
 50
195.0618917771008
 51
275.158144769676
 73
     1
 72
     2
 10
-54.89139782430561
 20
17.13172971648158
 40
4.010410630990744
 50
275.1581447696369
 51
285.9799912583388
 73
     1
 72
     1
 10
-53.78732516553146
 20
13.27628979433169
 11
-53.78732516553146
 21
13.99737822970626
 72
     2
 10
-54.76092437381567
 20
15.55965155131771
 40
1.840813230556003
 50
58.06909105006183
 51
71.55192388186671
 73
     0
 72
     2
 10
-54.41533120550002
 20
14.52366330665935
 40
0.7487023016407038
 50
71.55192388192036
 51
113.372277888186
 73
     0
 72
     2
 10
-54.54462048872574
 20
14.22449634904777
 40
0.4227934381785468
 50
113.3722778881607
 51
151.4785267423125
 73
     0
 72
     2
 10
-54.23275498617909
 20
14.39397686916223
 40
0.777735318458663
 50
151.4785267423313
 51
208.5214732576382
 73
     0
 72
     2
 10
-54.54462048872574
 20
14.56345738927714
 40
0.4227934381772261
 50
208.521473257578
 51
250.662856780514
 73
     0
 72
     2
 10
-54.42340561425988
 20
14.21804005011771
 40
0.7888619891124407
 50
250.6628567805685
 51
270.0
 73
     0
 72
     1
 10
-54.42340561425988
 20
15.00690203923015
 11
-53.5113070195755
 21
15.00690203923015
 72
     1
 10
-53.5113070195755
 20
15.00690203923015
 11
-53.5113070195755
 21
13.13207210725704
 72
     1
 10
-53.5113070195755
 20
13.13207210725704
 11
-52.52552792687493
 21
13.13207210725704
 72
     1
 10
-52.52552792687493
 20
13.13207210725704
 11
-52.52552792687493
 21
15.00690203923015
 72
     1
 10
-52.52552792687493
 20
15.00690203923015
 11
-51.85519814383906
 21
15.00690203923015
 72
     1
 10
-51.85519814383906
 20
15.00690203923015
 11
-51.85519814383906
 21
15.65588163106787
 72
     1
 10
-51.85519814383906
 20
15.65588163106787
 11
-54.65267377906935
 21
15.65588163106741
 97
       18
330
213
330
212
330
211
330
210
330
215
330
1AF
330
31C
330
2FD
330
31B
330
2FE
330
31A
330
319
330
1B0
330
318
330
317
330
2FF
330
300
330
214
 75
     1
 76
     0
 52
45.0
 41
0.1
 77
     0
 78
     1
 53
45.0
 43
0.0
 44
0.0
 45
-0.0707106781186548
 46
0.0707106781186548
 79
     0
 98
        1
 10
0.0
 20
0.0
  0
HATCH
  5
392
330
74
100
AcDbEntity
  8
1
  6
Continuous
 62
     2
100
AcDbHatch
 10
0.0
 20
0.0
 30
0.0
210
0.0
220
0.0
230
1.0
  2
_USER
 70
     0
 71
     1
 91
        1
 92
        1
 93
       18
 72
     2
 10
-54.65267377906935
 20
14.30076169392682
 40
1.355119937140591
 50
90.0
 51
164.9381082228992
 73
     1
 72
     2
 10
-54.99906042655834
 20
14.39397686916223
 40
0.996410056523109
 50
164.9381082229054
 51
195.0618917770958
 73
     1
 72
     2
 10
-54.65267377906935
 20
14.48719204439762
 40
1.355119937140895
 50
195.0618917771008
 51
275.158144769676
 73
     1
 72
     2
 10
-54.89139782430561
 20
17.13172971648158
 40
4.010410630990744
 50
275.1581447696369
 51
285.9799912583388
 73
     1
 72
     1
 10
-53.78732516553146
 20
13.27628979433169
 11
-53.78732516553146
 21
13.99737822970626
 72
     2
 10
-54.76092437381567
 20
15.55965155131771
 40
1.840813230556003
 50
58.06909105006183
 51
71.55192388186671
 73
     0
 72
     2
 10
-54.41533120550002
 20
14.52366330665935
 40
0.7487023016407038
 50
71.55192388192036
 51
113.372277888186
 73
     0
 72
     2
 10
-54.54462048872574
 20
14.22449634904777
 40
0.4227934381785468
 50
113.3722778881607
 51
151.4785267423125
 73
     0
 72
     2
 10
-54.23275498617909
 20
14.39397686916223
 40
0.777735318458663
 50
151.4785267423313
 51
208.5214732576382
 73
     0
 72
     2
 10
-54.54462048872574
 20
14.56345738927714
 40
0.4227934381772261
 50
208.521473257578
 51
250.662856780514
 73
     0
 72
     2
 10
-54.42340561425988
 20
14.21804005011771
 40
0.7888619891124407
 50
250.6628567805685
 51
270.0
 73
     0
 72
     1
 10
-54.42340561425988
 20
15.00690203923015
 11
-53.5113070195755
 21
15.00690203923015
 72
     1
 10
-53.5113070195755
 20
15.00690203923015
 11
-53.5113070195755
 21
13.13207210725704
 72
     1
 10
-53.5113070195755
 20
13.13207210725704
 11
-52.52552792687493
 21
13.13207210725704
 72
     1
 10
-52.52552792687493
 20
13.13207210725704
 11
-52.52552792687493
 21
15.00690203923015
 72
     1
 10
-52.52552792687493
 20
15.00690203923015
 11
-51.85519814383906
 21
15.00690203923015
 72
     1
 10
-51.85519814383906
 20
15.00690203923015
 11
-51.85519814383906
 21
15.65588163106787
 72
     1
 10
-51.85519814383906
 20
15.65588163106787
 11
-54.65267377906935
 21
15.65588163106741
 97
       18
330
213
330
212
330
211
330
210
330
215
330
1AF
330
31C
330
2FD
330
31B
330
2FE
330
31A
330
319
330
1B0
330
318
330
317
330
2FF
330
300
330
214
 75
     1
 76
     0
 52
45.0
 41
0.1
 77
     0
 78
     1
 53
45.0
 43
0.0
 44
0.0
 45
-0.0707106781186548
 46
0.0707106781186548
 79
     0
 98
        1
 10
0.0
 20
0.0
  0
HATCH
  5
393
330
74
100
AcDbEntity
  8
1
  6
Continuous
 62
     2
100
AcDbHatch
 10
0.0
 20
0.0
 30
0.0
210
0.0
220
0.0
230
1.0
  2
_USER
 70
     0
 71
     1
 91
        4
 92
        1
 93
        8
 72
     2
 10
-74.57181352840246
 20
18.08145672261529
 40
0.3506153846147413
 50
90.0
 51
180.0
 73
     1
 72
     1
 10
-74.92242891301635
 20
18.08145672261529
 11
-74.92242891301635
 21
13.48268749187132
 72
     2
 10
-74.57181352840246
 20
13.48268749187132
 40
0.3506153846138886
 50
180.0
 51
270.0
 73
     1
 72
     1
 10
-74.57181352840246
 20
13.13207210725704
 11
-70.04841510632241
 21
13.13207210725704
 72
     2
 10
-70.04841510632241
 20
13.48268749187132
 40
0.3506153846142812
 50
270.0
 51
360.0
 73
     1
 72
     1
 10
-69.69779972170761
 20
13.48268749187132
 11
-69.69779972170761
 21
18.08145672261529
 72
     2
 10
-70.04841510632241
 20
18.08145672261529
 40
0.3506153846147981
 50
0.0
 51
90.0
 73
     1
 72
     1
 10
-70.04841510632241
 20
18.43207210723003
 11
-74.57181352840246
 21
18.43207210723003
 97
        8
330
310
330
1DE
330
30F
330
1DF
330
306
330
1DC
330
311
330
1DD
 92
       16
 93
        1
 72
     2
 10
-72.4068667097929
 20
16.16502512893305
 40
0.3892387874202541
 50
0.0
 51
360.0
 73
     1
 97
        1
330
324
 92
       16
 93
        8
 72
     2
 10
-72.38718487948483
 20
16.16502512893305
 40
0.7535935125160986
 50
295.374008678178
 51
424.6259913218071
 73
     1
 72
     2
 10
-71.9524388480072
 20
17.08167107931967
 40
0.2609230769229498
 50
115.3740086783601
 51
180.0
 73
     0
 72
     1
 10
-72.21336192493015
 20
17.08167107931967
 11
-72.21336192493015
 21
17.58211346651534
 72
     2
 10
-71.9524388480072
 20
17.58211346651534
 40
0.2609230769224181
 50
180.0
 51
269.8110329574465
 73
     0
 72
     2
 10
-71.94779741386674
 20
16.17481185695416
 40
1.668232340440702
 50
269.8110329575862
 51
450.1889670424138
 73
     0
 72
     2
 10
-71.9524388480072
 20
14.76751024739299
 40
0.2609230769229498
 50
90.18896704255353
 51
180.0
 73
     0
 72
     1
 10
-72.21336192493015
 20
14.76751024739299
 11
-72.21336192493015
 21
15.24837917854596
 72
     2
 10
-71.9524388480072
 20
15.24837917854596
 40
0.2609230769227325
 50
180.0
 51
244.625991321641
 73
     0
 97
        8
330
31E
330
2FA
330
217
330
31D
330
2FB
330
2FC
330
216
330
2F9
 92
       16
 93
       12
 72
     1
 10
-74.0809914815045
 20
13.72096099614706
 11
-72.86129457157926
 21
13.72096099614706
 72
     2
 10
-72.86129457157926
 20
13.98188407306995
 40
0.2609230769228894
 50
270.0
 51
360.0
 73
     1
 72
     1
 10
-72.60037149465643
 20
13.98188407306995
 11
-72.60037149465643
 21
15.24698401648451
 72
     2
 10
-72.86129457157926
 20
15.24698401648451
 40
0.2609230769228361
 50
0.0
 51
64.8055893514401
 73
     1
 72
     2
 10
-72.42940659837677
 20
16.16502512893305
 40
0.7536343169897688
 50
115.1944106485086
 51
244.8055893514766
 73
     0
 72
     2
 10
-72.86129457157926
 20
17.08306624138113
 40
0.2609230769224065
 50
295.1944106485601
 51
360.0
 73
     1
 72
     1
 10
-72.60037149465643
 20
17.08306624138113
 11
-72.60037149465643
 21
17.58226014143119
 72
     2
 10
-72.86129457157926
 20
17.58226014143119
 40
0.2609230769228361
 50
0.0
 51
90.0
 73
     1
 72
     1
 10
-72.86129457157926
 20
17.84318321835364
 11
-74.0809914815045
 21
17.84318321835364
 72
     2
 10
-74.0809914815045
 20
17.58226014143119
 40
0.2609230769224524
 50
90.0
 51
180.0
 73
     1
 72
     1
 10
-74.34191455842654
 20
17.58226014143119
 11
-74.34191455842654
 21
13.98188407306995
 72
     2
 10
-74.0809914815045
 20
13.98188407306995
 40
0.2609230769220403
 50
180.0
 51
270.0
 73
     1
 97
       12
330
1E3
330
303
330
1E2
330
314
330
1E1
330
313
330
304
330
305
330
1E0
330
312
330
1DB
330
315
 75
     1
 76
     0
 52
45.0
 41
0.1
 77
     0
 78
     1
 53
45.0
 43
0.0
 44
0.0
 45
-0.0707106781186548
 46
0.0707106781186548
 79
     0
 98
        1
 10
0.0
 20
0.0
  0
HATCH
  5
394
330
74
100
AcDbEntity
  8
1
  6
Continuous
 62
     2
100
AcDbHatch
 10
0.0
 20
0.0
 30
0.0
210
0.0
220
0.0
230
1.0
  2
_USER
 70
     0
 71
     1
 91
        4
 92
        1
 93
        8
 72
     2
 10
-74.57181352840246
 20
18.08145672261529
 40
0.3506153846147413
 50
90.0
 51
180.0
 73
     1
 72
     1
 10
-74.92242891301635
 20
18.08145672261529
 11
-74.92242891301635
 21
13.48268749187132
 72
     2
 10
-74.57181352840246
 20
13.48268749187132
 40
0.3506153846138886
 50
180.0
 51
270.0
 73
     1
 72
     1
 10
-74.57181352840246
 20
13.13207210725704
 11
-70.04841510632241
 21
13.13207210725704
 72
     2
 10
-70.04841510632241
 20
13.48268749187132
 40
0.3506153846142812
 50
270.0
 51
360.0
 73
     1
 72
     1
 10
-69.69779972170761
 20
13.48268749187132
 11
-69.69779972170761
 21
18.08145672261529
 72
     2
 10
-70.04841510632241
 20
18.08145672261529
 40
0.3506153846147981
 50
0.0
 51
90.0
 73
     1
 72
     1
 10
-70.04841510632241
 20
18.43207210723003
 11
-74.57181352840246
 21
18.43207210723003
 97
        8
330
310
330
1DE
330
30F
330
1DF
330
306
330
1DC
330
311
330
1DD
 92
       16
 93
        1
 72
     2
 10
-72.4068667097929
 20
16.16502512893305
 40
0.3892387874202541
 50
0.0
 51
360.0
 73
     1
 97
        1
330
324
 92
       16
 93
        8
 72
     2
 10
-72.38718487948483
 20
16.16502512893305
 40
0.7535935125160986
 50
295.374008678178
 51
424.6259913218071
 73
     1
 72
     2
 10
-71.9524388480072
 20
17.08167107931967
 40
0.2609230769229498
 50
115.3740086783601
 51
180.0
 73
     0
 72
     1
 10
-72.21336192493015
 20
17.08167107931967
 11
-72.21336192493015
 21
17.58211346651534
 72
     2
 10
-71.9524388480072
 20
17.58211346651534
 40
0.2609230769224181
 50
180.0
 51
269.8110329574465
 73
     0
 72
     2
 10
-71.94779741386674
 20
16.17481185695416
 40
1.668232340440702
 50
269.8110329575862
 51
450.1889670424138
 73
     0
 72
     2
 10
-71.9524388480072
 20
14.76751024739299
 40
0.2609230769229498
 50
90.18896704255353
 51
180.0
 73
     0
 72
     1
 10
-72.21336192493015
 20
14.76751024739299
 11
-72.21336192493015
 21
15.24837917854596
 72
     2
 10
-71.9524388480072
 20
15.24837917854596
 40
0.2609230769227325
 50
180.0
 51
244.625991321641
 73
     0
 97
        8
330
31E
330
2FA
330
217
330
31D
330
2FB
330
2FC
330
216
330
2F9
 92
       16
 93
       12
 72
     1
 10
-74.0809914815045
 20
13.72096099614706
 11
-72.86129457157926
 21
13.72096099614706
 72
     2
 10
-72.86129457157926
 20
13.98188407306995
 40
0.2609230769228894
 50
270.0
 51
360.0
 73
     1
 72
     1
 10
-72.60037149465643
 20
13.98188407306995
 11
-72.60037149465643
 21
15.24698401648451
 72
     2
 10
-72.86129457157926
 20
15.24698401648451
 40
0.2609230769228361
 50
0.0
 51
64.8055893514401
 73
     1
 72
     2
 10
-72.42940659837677
 20
16.16502512893305
 40
0.7536343169897688
 50
115.1944106485086
 51
244.8055893514766
 73
     0
 72
     2
 10
-72.86129457157926
 20
17.08306624138113
 40
0.2609230769224065
 50
295.1944106485601
 51
360.0
 73
     1
 72
     1
 10
-72.60037149465643
 20
17.08306624138113
 11
-72.60037149465643
 21
17.58226014143119
 72
     2
 10
-72.86129457157926
 20
17.58226014143119
 40
0.2609230769228361
 50
0.0
 51
90.0
 73
     1
 72
     1
 10
-72.86129457157926
 20
17.84318321835364
 11
-74.0809914815045
 21
17.84318321835364
 72
     2
 10
-74.0809914815045
 20
17.58226014143119
 40
0.2609230769224524
 50
90.0
 51
180.0
 73
     1
 72
     1
 10
-74.34191455842654
 20
17.58226014143119
 11
-74.34191455842654
 21
13.98188407306995
 72
     2
 10
-74.0809914815045
 20
13.98188407306995
 40
0.2609230769220403
 50
180.0
 51
270.0
 73
     1
 97
       12
330
1E3
330
303
330
1E2
330
314
330
1E1
330
313
330
304
330
305
330
1E0
330
312
330
1DB
330
315
 75
     1
 76
     0
 52
45.0
 41
0.1
 77
     0
 78
     1
 53
45.0
 43
0.0
 44
0.0
 45
-0.0707106781186548
 46
0.0707106781186548
 79
     0
 98
        1
 10
0.0
 20
0.0
  0
HATCH
  5
395
330
74
100
AcDbEntity
  8
1
  6
Continuous
 62
     2
100
AcDbHatch
 10
0.0
 20
0.0
 30
0.0
210
0.0
220
0.0
230
1.0
  2
_USER
 70
     0
 71
     1
 91
        2
 92
        1
 93
       12
 72
     2
 10
-62.44357881436167
 20
17.17016734533938
 40
1.26190476190564
 50
90.0
 51
270.0
 73
     1
 72
     1
 10
-62.44357881436167
 20
15.90826258343419
 11
-59.84000879470796
 21
15.90826258343419
 72
     1
 10
-59.84000879470796
 20
15.90826258343419
 11
-59.84000879470796
 21
16.48513333173368
 72
     1
 10
-59.84000879470796
 20
16.48513333173368
 11
-60.94408137853247
 21
16.48513333173368
 72
     1
 10
-60.94408137853247
 20
16.48513333173368
 11
-60.94408137853247
 21
16.88173197118964
 72
     1
 10
-60.94408137853247
 20
16.88173197118964
 11
-59.84000879470796
 21
16.88173197118964
 72
     1
 10
-59.84000879470796
 20
16.88173197118964
 11
-59.84000879470796
 21
17.45860271948912
 72
     1
 10
-59.84000879470796
 20
17.45860271948912
 11
-60.94408137853247
 21
17.45860271948912
 72
     1
 10
-60.94408137853247
 20
17.45860271948912
 11
-60.94408137853247
 21
17.85520135894508
 72
     1
 10
-60.94408137853247
 20
17.85520135894508
 11
-59.84000879470796
 21
17.85520135894508
 72
     1
 10
-59.84000879470796
 20
17.85520135894508
 11
-59.84000879470796
 21
18.43207210724502
 72
     1
 10
-59.84000879470796
 20
18.43207210724502
 11
-62.44357881436167
 21
18.43207210724502
 97
       12
330
1D2
330
1CC
330
1F3
330
1F2
330
1F1
330
1F0
330
1CD
330
1CE
330
1CF
330
1D0
330
301
330
1D1
 92
       16
 93
        4
 72
     2
 10
-62.09976720567454
 20
17.17016734533938
 40
0.6378510567600056
 50
141.8795802028417
 51
218.1204197971583
 73
     1
 72
     2
 10
-62.26484161587803
 20
17.04063744606625
 40
0.4280236140606851
 50
218.1204197971433
 51
321.8795802028561
 73
     1
 72
     2
 10
-62.42991602608151
 20
17.17016734533938
 40
0.6378510567599944
 50
321.8795802028409
 51
398.1204197971591
 73
     1
 72
     2
 10
-62.26484161587803
 20
17.2996972446125
 40
0.4280236140606861
 50
38.12041979714503
 51
141.8795802028555
 73
     1
 97
        4
330
30E
330
30D
330
308
330
307
 75
     1
 76
     0
 52
45.0
 41
0.1
 77
     0
 78
     1
 53
45.0
 43
0.0
 44
0.0
 45
-0.0707106781186548
 46
0.0707106781186548
 79
     0
 98
        1
 10
0.0
 20
0.0
  0
HATCH
  5
396
330
74
100
AcDbEntity
  8
1
  6
Continuous
 62
     2
100
AcDbHatch
 10
0.0
 20
0.0
 30
0.0
210
0.0
220
0.0
230
1.0
  2
_USER
 70
     0
 71
     1
 91
        2
 92
        1
 93
       12
 72
     2
 10
-62.44357881436167
 20
17.17016734533938
 40
1.26190476190564
 50
90.0
 51
270.0
 73
     1
 72
     1
 10
-62.44357881436167
 20
15.90826258343419
 11
-59.84000879470796
 21
15.90826258343419
 72
     1
 10
-59.84000879470796
 20
15.90826258343419
 11
-59.84000879470796
 21
16.48513333173368
 72
     1
 10
-59.84000879470796
 20
16.48513333173368
 11
-60.94408137853247
 21
16.48513333173368
 72
     1
 10
-60.94408137853247
 20
16.48513333173368
 11
-60.94408137853247
 21
16.88173197118964
 72
     1
 10
-60.94408137853247
 20
16.88173197118964
 11
-59.84000879470796
 21
16.88173197118964
 72
     1
 10
-59.84000879470796
 20
16.88173197118964
 11
-59.84000879470796
 21
17.45860271948912
 72
     1
 10
-59.84000879470796
 20
17.45860271948912
 11
-60.94408137853247
 21
17.45860271948912
 72
     1
 10
-60.94408137853247
 20
17.45860271948912
 11
-60.94408137853247
 21
17.85520135894508
 72
     1
 10
-60.94408137853247
 20
17.85520135894508
 11
-59.84000879470796
 21
17.85520135894508
 72
     1
 10
-59.84000879470796
 20
17.85520135894508
 11
-59.84000879470796
 21
18.43207210724502
 72
     1
 10
-59.84000879470796
 20
18.43207210724502
 11
-62.44357881436167
 21
18.43207210724502
 97
       12
330
1D2
330
1CC
330
1F3
330
1F2
330
1F1
330
1F0
330
1CD
330
1CE
330
1CF
330
1D0
330
301
330
1D1
 92
       16
 93
        4
 72
     2
 10
-62.09976720567454
 20
17.17016734533938
 40
0.6378510567600056
 50
141.8795802028417
 51
218.1204197971583
 73
     1
 72
     2
 10
-62.26484161587803
 20
17.04063744606625
 40
0.4280236140606851
 50
218.1204197971433
 51
321.8795802028561
 73
     1
 72
     2
 10
-62.42991602608151
 20
17.17016734533938
 40
0.6378510567599944
 50
321.8795802028409
 51
398.1204197971591
 73
     1
 72
     2
 10
-62.26484161587803
 20
17.2996972446125
 40
0.4280236140606861
 50
38.12041979714503
 51
141.8795802028555
 73
     1
 97
        4
330
30E
330
30D
330
308
330
307
 75
     1
 76
     0
 52
45.0
 41
0.1
 77
     0
 78
     1
 53
45.0
 43
0.0
 44
0.0
 45
-0.0707106781186548
 46
0.0707106781186548
 79
     0
 98
        1
 10
0.0
 20
0.0
  0
HATCH
  5
397
330
74
100
AcDbEntity
  8
1
  6
Continuous
 62
     2
100
AcDbHatch
 10
0.0
 20
0.0
 30
0.0
210
0.0
220
0.0
230
1.0
  2
_USER
 70
     0
 71
     1
 91
        2
 92
        1
 93
        4
 72
     2
 10
-65.77053365937127
 20
14.39397686916223
 40
1.204986845992994
 50
117.5481481756635
 51
242.451851824337
 73
     1
 72
     2
 10
-65.53835193058342
 20
14.8390801834625
 40
1.70700807620544
 50
242.4518518243401
 51
297.548148175687
 73
     1
 72
     2
 10
-65.30617020179557
 20
14.39397686916223
 40
1.204986845993433
 50
297.5481481757013
 51
422.4518518242982
 73
     1
 72
     2
 10
-65.53835193058342
 20
13.94887355486241
 40
1.707008076205444
 50
62.45185182430569
 51
117.5481481756673
 73
     1
 97
        4
330
30C
330
309
330
30B
330
30A
 92
       16
 93
        4
 72
     2
 10
-65.53835193058342
 20
14.52350676843535
 40
0.4280236140605955
 50
38.12041979715423
 51
141.8795802028552
 73
     1
 72
     2
 10
-65.37327752038004
 20
14.39397686916223
 40
0.6378510567599095
 50
141.8795802028351
 51
218.1204197971658
 73
     1
 72
     2
 10
-65.53835193058342
 20
14.26444696988955
 40
0.4280236140609635
 50
218.1204197971923
 51
321.8795802027983
 73
     1
 72
     2
 10
-65.70342634078702
 20
14.39397686916223
 40
0.6378510567600066
 50
321.8795802028405
 51
398.1204197971587
 73
     1
 97
        4
330
2EF
330
2F0
330
2F1
330
2EE
 75
     1
 76
     0
 52
45.0
 41
0.1
 77
     0
 78
     1
 53
45.0
 43
0.0
 44
0.0
 45
-0.0707106781186548
 46
0.0707106781186548
 79
     0
 98
        1
 10
0.0
 20
0.0
  0
HATCH
  5
398
330
74
100
AcDbEntity
  8
1
  6
Continuous
 62
     2
100
AcDbHatch
 10
0.0
 20
0.0
 30
0.0
210
0.0
220
0.0
230
1.0
  2
_USER
 70
     0
 71
     1
 91
        2
 92
        1
 93
        4
 72
     2
 10
-65.77053365937127
 20
14.39397686916223
 40
1.204986845992994
 50
117.5481481756635
 51
242.451851824337
 73
     1
 72
     2
 10
-65.53835193058342
 20
14.8390801834625
 40
1.70700807620544
 50
242.4518518243401
 51
297.548148175687
 73
     1
 72
     2
 10
-65.30617020179557
 20
14.39397686916223
 40
1.204986845993433
 50
297.5481481757013
 51
422.4518518242982
 73
     1
 72
     2
 10
-65.53835193058342
 20
13.94887355486241
 40
1.707008076205444
 50
62.45185182430569
 51
117.5481481756673
 73
     1
 97
        4
330
30C
330
309
330
30B
330
30A
 92
       16
 93
        4
 72
     2
 10
-65.53835193058342
 20
14.52350676843535
 40
0.4280236140605955
 50
38.12041979715423
 51
141.8795802028552
 73
     1
 72
     2
 10
-65.37327752038004
 20
14.39397686916223
 40
0.6378510567599095
 50
141.8795802028351
 51
218.1204197971658
 73
     1
 72
     2
 10
-65.53835193058342
 20
14.26444696988955
 40
0.4280236140609635
 50
218.1204197971923
 51
321.8795802027983
 73
     1
 72
     2
 10
-65.70342634078702
 20
14.39397686916223
 40
0.6378510567600066
 50
321.8795802028405
 51
398.1204197971587
 73
     1
 97
        4
330
2EF
330
2F0
330
2F1
330
2EE
 75
     1
 76
     0
 52
45.0
 41
0.1
 77
     0
 78
     1
 53
45.0
 43
0.0
 44
0.0
 45
-0.0707106781186548
 46
0.0707106781186548
 79
     0
 98
        1
 10
0.0
 20
0.0
  0
HATCH
  5
399
330
74
100
AcDbEntity
  8
1
  6
Continuous
 62
     2
100
AcDbHatch
 10
0.0
 20
0.0
 30
0.0
210
0.0
220
0.0
230
1.0
  2
_USER
 70
     0
 71
     1
 91
        2
 92
        1
 93
        6
 72
     1
 10
-69.30348808462759
 20
18.43207210724502
 11
-69.30348808462759
 21
15.90826258343419
 72
     1
 10
-69.30348808462759
 20
15.90826258343419
 11
-68.2782778282193
 21
15.90826258343419
 72
     1
 10
-68.2782778282193
 20
15.90826258343419
 11
-68.2782778282193
 21
16.68766608851166
 72
     1
 10
-68.2782778282193
 20
16.68766608851166
 11
-67.65119717716118
 21
16.68766608851166
 72
     2
 10
-67.65119717716118
 20
17.55986909787833
 40
0.8722030093666717
 50
270.0
 51
450.0
 73
     1
 72
     1
 10
-67.65119717716118
 20
18.43207210724502
 11
-69.30348808462759
 21
18.43207210724502
 97
        6
330
316
330
1E4
330
1DA
330
1D9
330
1E6
330
1E5
 92
       16
 93
        4
 72
     1
 10
-68.01605050463093
 20
17.88405074737721
 11
-68.2782778282193
 21
17.88405074737721
 72
     1
 10
-68.2782778282193
 20
17.88405074737721
 11
-68.2782778282193
 21
17.30080475618525
 72
     1
 10
-68.2782778282193
 20
17.30080475618525
 11
-68.01605050463093
 21
17.30080475618525
 72
     2
 10
-68.01605050463093
 20
17.59242775178124
 40
0.2916229955959899
 50
270.0
 51
450.0
 73
     1
 97
        4
330
1E7
330
1D8
330
1E8
330
302
 75
     1
 76
     0
 52
45.0
 41
0.1
 77
     0
 78
     1
 53
45.0
 43
0.0
 44
0.0
 45
-0.0707106781186548
 46
0.0707106781186548
 79
     0
 98
        1
 10
0.0
 20
0.0
  0
HATCH
  5
39A
330
74
100
AcDbEntity
  8
1
  6
Continuous
 62
     2
100
AcDbHatch
 10
0.0
 20
0.0
 30
0.0
210
0.0
220
0.0
230
1.0
  2
_USER
 70
     0
 71
     1
 91
        2
 92
        1
 93
        6
 72
     1
 10
-69.30348808462759
 20
18.43207210724502
 11
-69.30348808462759
 21
15.90826258343419
 72
     1
 10
-69.30348808462759
 20
15.90826258343419
 11
-68.2782778282193
 21
15.90826258343419
 72
     1
 10
-68.2782778282193
 20
15.90826258343419
 11
-68.2782778282193
 21
16.68766608851166
 72
     1
 10
-68.2782778282193
 20
16.68766608851166
 11
-67.65119717716118
 21
16.68766608851166
 72
     2
 10
-67.65119717716118
 20
17.55986909787833
 40
0.8722030093666717
 50
270.0
 51
450.0
 73
     1
 72
     1
 10
-67.65119717716118
 20
18.43207210724502
 11
-69.30348808462759
 21
18.43207210724502
 97
        6
330
316
330
1E4
330
1DA
330
1D9
330
1E6
330
1E5
 92
       16
 93
        4
 72
     1
 10
-68.01605050463093
 20
17.88405074737721
 11
-68.2782778282193
 21
17.88405074737721
 72
     1
 10
-68.2782778282193
 20
17.88405074737721
 11
-68.2782778282193
 21
17.30080475618525
 72
     1
 10
-68.2782778282193
 20
17.30080475618525
 11
-68.01605050463093
 21
17.30080475618525
 72
     2
 10
-68.01605050463093
 20
17.59242775178124
 40
0.2916229955959899
 50
270.0
 51
450.0
 73
     1
 97
        4
330
1E7
330
1D8
330
1E8
330
302
 75
     1
 76
     0
 52
45.0
 41
0.1
 77
     0
 78
     1
 53
45.0
 43
0.0
 44
0.0
 45
-0.0707106781186548
 46
0.0707106781186548
 79
     0
 98
        1
 10
0.0
 20
0.0
  0
HATCH
  5
39B
330
74
100
AcDbEntity
  8
1
  6
Continuous
 62
     2
100
AcDbHatch
 10
0.0
 20
0.0
 30
0.0
210
0.0
220
0.0
230
1.0
  2
_USER
 70
     0
 71
     1
 91
        1
 92
        1
 93
       12
 72
     1
 10
-53.09333668426962
 20
18.43207210724502
 11
-51.93406047125541
 21
18.43207210724502
 72
     1
 10
-51.93406047125541
 20
18.43207210724502
 11
-53.01053124048394
 21
17.2147576196118
 72
     1
 10
-53.01053124048394
 20
17.2147576196118
 11
-51.85519814383906
 21
15.90826258343419
 72
     1
 10
-51.85519814383906
 20
15.90826258343419
 11
-53.01447435685418
 21
15.90826258343419
 72
     1
 10
-53.01447435685418
 20
15.90826258343419
 11
-53.59016934699093
 21
16.55928058780913
 72
     1
 10
-53.59016934699093
 20
16.55928058780913
 11
-54.16586433712791
 21
15.90826258343419
 72
     1
 10
-54.16586433712791
 20
15.90826258343419
 11
-55.32514055014292
 21
15.90826258343419
 72
     1
 10
-55.32514055014292
 20
15.90826258343419
 11
-54.16980745349804
 21
17.2147576196118
 72
     1
 10
-54.16980745349804
 20
17.2147576196118
 11
-55.24627822272737
 21
18.43207210724502
 72
     1
 10
-55.24627822272737
 20
18.43207210724502
 11
-54.08700200971146
 21
18.43207210724502
 72
     1
 10
-54.08700200971146
 20
18.43207210724502
 11
-53.59016934699093
 21
17.87023465141403
 72
     1
 10
-53.59016934699093
 20
17.87023465141403
 11
-53.09333668426962
 21
18.43207210724502
 97
       12
330
1B3
330
20C
330
20B
330
20A
330
209
330
1B4
330
1B5
330
1B1
330
1B2
330
20F
330
20E
330
20D
 75
     1
 76
     0
 52
45.0
 41
0.1
 77
     0
 78
     1
 53
45.0
 43
0.0
 44
0.0
 45
-0.0707106781186548
 46
0.0707106781186548
 79
     0
 98
        1
 10
0.0
 20
0.0
  0
HATCH
  5
39C
330
74
100
AcDbEntity
  8
1
  6
Continuous
 62
     2
100
AcDbHatch
 10
0.0
 20
0.0
 30
0.0
210
0.0
220
0.0
230
1.0
  2
_USER
 70
     0
 71
     1
 91
        1
 92
        1
 93
       12
 72
     1
 10
-53.09333668426962
 20
18.43207210724502
 11
-51.93406047125541
 21
18.43207210724502
 72
     1
 10
-51.93406047125541
 20
18.43207210724502
 11
-53.01053124048394
 21
17.2147576196118
 72
     1
 10
-53.01053124048394
 20
17.2147576196118
 11
-51.85519814383906
 21
15.90826258343419
 72
     1
 10
-51.85519814383906
 20
15.90826258343419
 11
-53.01447435685418
 21
15.90826258343419
 72
     1
 10
-53.01447435685418
 20
15.90826258343419
 11
-53.59016934699093
 21
16.55928058780913
 72
     1
 10
-53.59016934699093
 20
16.55928058780913
 11
-54.16586433712791
 21
15.90826258343419
 72
     1
 10
-54.16586433712791
 20
15.90826258343419
 11
-55.32514055014292
 21
15.90826258343419
 72
     1
 10
-55.32514055014292
 20
15.90826258343419
 11
-54.16980745349804
 21
17.2147576196118
 72
     1
 10
-54.16980745349804
 20
17.2147576196118
 11
-55.24627822272737
 21
18.43207210724502
 72
     1
 10
-55.24627822272737
 20
18.43207210724502
 11
-54.08700200971146
 21
18.43207210724502
 72
     1
 10
-54.08700200971146
 20
18.43207210724502
 11
-53.59016934699093
 21
17.87023465141403
 72
     1
 10
-53.59016934699093
 20
17.87023465141403
 11
-53.09333668426962
 21
18.43207210724502
 97
       12
330
1B3
330
20C
330
20B
330
20A
330
209
330
1B4
330
1B5
330
1B1
330
1B2
330
20F
330
20E
330
20D
 75
     1
 76
     0
 52
45.0
 41
0.1
 77
     0
 78
     1
 53
45.0
 43
0.0
 44
0.0
 45
-0.0707106781186548
 46
0.0707106781186548
 79
     0
 98
        1
 10
0.0
 20
0.0
  0
HATCH
  5
39D
330
74
100
AcDbEntity
  8
1
  6
Continuous
 62
     2
100
AcDbHatch
 10
0.0
 20
0.0
 30
0.0
210
0.0
220
0.0
230
1.0
  2
_USER
 70
     0
 71
     1
 91
        1
 92
        1
 93
        4
 72
     1
 10
-55.42371845941307
 20
18.43207210724502
 11
-55.42371845941307
 21
15.90826258343419
 72
     1
 10
-55.42371845941307
 20
15.90826258343419
 11
-56.44892871582044
 21
15.90826258343419
 72
     1
 10
-56.44892871582044
 20
15.90826258343419
 11
-56.44892871582044
 21
18.43207210724502
 72
     1
 10
-56.44892871582044
 20
18.43207210724502
 11
-55.42371845941307
 21
18.43207210724502
 97
        4
330
207
330
1B6
330
206
330
208
 75
     1
 76
     0
 52
45.0
 41
0.1
 77
     0
 78
     1
 53
45.0
 43
0.0
 44
0.0
 45
-0.0707106781186548
 46
0.0707106781186548
 79
     0
 98
        1
 10
0.0
 20
0.0
  0
HATCH
  5
39E
330
74
100
AcDbEntity
  8
1
  6
Continuous
 62
     2
100
AcDbHatch
 10
0.0
 20
0.0
 30
0.0
210
0.0
220
0.0
230
1.0
  2
_USER
 70
     0
 71
     1
 91
        1
 92
        1
 93
        4
 72
     1
 10
-55.42371845941307
 20
18.43207210724502
 11
-55.42371845941307
 21
15.90826258343419
 72
     1
 10
-55.42371845941307
 20
15.90826258343419
 11
-56.44892871582044
 21
15.90826258343419
 72
     1
 10
-56.44892871582044
 20
15.90826258343419
 11
-56.44892871582044
 21
18.43207210724502
 72
     1
 10
-56.44892871582044
 20
18.43207210724502
 11
-55.42371845941307
 21
18.43207210724502
 97
        4
330
207
330
1B6
330
206
330
208
 75
     1
 76
     0
 52
45.0
 41
0.1
 77
     0
 78
     1
 53
45.0
 43
0.0
 44
0.0
 45
-0.0707106781186548
 46
0.0707106781186548
 79
     0
 98
        1
 10
0.0
 20
0.0
  0
HATCH
  5
39F
330
74
100
AcDbEntity
  8
1
  6
Continuous
 62
     2
100
AcDbHatch
 10
0.0
 20
0.0
 30
0.0
210
0.0
220
0.0
230
1.0
  2
_USER
 70
     0
 71
     1
 91
        2
 92
        1
 93
        8
 72
     1
 10
-55.74639945406761
 20
13.13207210725704
 11
-56.77160971047579
 21
13.13207210725704
 72
     1
 10
-56.77160971047579
 20
13.13207210725704
 11
-56.9463866141748
 21
13.57914693718916
 72
     1
 10
-56.9463866141748
 20
13.57914693718916
 11
-57.88228874365734
 21
13.57914693718916
 72
     1
 10
-57.88228874365734
 20
13.57914693718916
 11
-58.05706564735635
 21
13.13207210725704
 72
     1
 10
-58.05706564735635
 20
13.13207210725704
 11
-59.08227590376373
 21
13.13207210725704
 72
     1
 10
-59.08227590376373
 20
13.13207210725704
 11
-57.92694280711976
 21
15.65588163106787
 72
     1
 10
-57.92694280711976
 20
15.65588163106787
 11
-56.9017325507125
 21
15.65588163106787
 72
     1
 10
-56.9017325507125
 20
15.65588163106787
 11
-55.74639945406761
 21
13.13207210725704
 97
        8
330
202
330
1BC
330
201
330
204
330
1B9
330
203
330
1BA
330
1BB
 92
       16
 93
        3
 72
     1
 10
-57.66240812287629
 20
14.14159591678136
 11
-57.16626723495688
 21
14.14159591678136
 72
     1
 10
-57.16626723495688
 20
14.14159591678136
 11
-57.41433767891567
 21
14.7761537399109
 72
     1
 10
-57.41433767891567
 20
14.7761537399109
 11
-57.66240812287629
 21
14.14159591678136
 97
        3
330
1B8
330
1B7
330
205
 75
     1
 76
     0
 52
45.0
 41
0.1
 77
     0
 78
     1
 53
45.0
 43
0.0
 44
0.0
 45
-0.0707106781186548
 46
0.0707106781186548
 79
     0
 98
        1
 10
0.0
 20
0.0
  0
HATCH
  5
3A0
330
74
100
AcDbEntity
  8
1
  6
Continuous
 62
     2
100
AcDbHatch
 10
0.0
 20
0.0
 30
0.0
210
0.0
220
0.0
230
1.0
  2
_USER
 70
     0
 71
     1
 91
        2
 92
        1
 93
        8
 72
     1
 10
-55.74639945406761
 20
13.13207210725704
 11
-56.77160971047579
 21
13.13207210725704
 72
     1
 10
-56.77160971047579
 20
13.13207210725704
 11
-56.9463866141748
 21
13.57914693718916
 72
     1
 10
-56.9463866141748
 20
13.57914693718916
 11
-57.88228874365734
 21
13.57914693718916
 72
     1
 10
-57.88228874365734
 20
13.57914693718916
 11
-58.05706564735635
 21
13.13207210725704
 72
     1
 10
-58.05706564735635
 20
13.13207210725704
 11
-59.08227590376373
 21
13.13207210725704
 72
     1
 10
-59.08227590376373
 20
13.13207210725704
 11
-57.92694280711976
 21
15.65588163106787
 72
     1
 10
-57.92694280711976
 20
15.65588163106787
 11
-56.9017325507125
 21
15.65588163106787
 72
     1
 10
-56.9017325507125
 20
15.65588163106787
 11
-55.74639945406761
 21
13.13207210725704
 97
        8
330
202
330
1BC
330
201
330
204
330
1B9
330
203
330
1BA
330
1BB
 92
       16
 93
        3
 72
     1
 10
-57.66240812287629
 20
14.14159591678136
 11
-57.16626723495688
 21
14.14159591678136
 72
     1
 10
-57.16626723495688
 20
14.14159591678136
 11
-57.41433767891567
 21
14.7761537399109
 72
     1
 10
-57.41433767891567
 20
14.7761537399109
 11
-57.66240812287629
 21
14.14159591678136
 97
        3
330
1B8
330
1B7
330
205
 75
     1
 76
     0
 52
45.0
 41
0.1
 77
     0
 78
     1
 53
45.0
 43
0.0
 44
0.0
 45
-0.0707106781186548
 46
0.0707106781186548
 79
     0
 98
        1
 10
0.0
 20
0.0
  0
HATCH
  5
3A1
330
74
100
AcDbEntity
  8
1
  6
Continuous
 62
     2
100
AcDbHatch
 10
0.0
 20
0.0
 30
0.0
210
0.0
220
0.0
230
1.0
  2
_USER
 70
     0
 71
     1
 91
        1
 92
        1
 93
        8
 72
     1
 10
-60.86534378738543
 20
15.65588163106787
 11
-60.86534378738543
 21
15.00690203923015
 72
     1
 10
-60.86534378738543
 20
15.00690203923015
 11
-60.19501400434854
 21
15.00690203923015
 72
     1
 10
-60.19501400434854
 20
15.00690203923015
 11
-60.19501400434854
 21
13.13207210725704
 72
     1
 10
-60.19501400434854
 20
13.13207210725704
 11
-59.20923491164899
 21
13.13207210725704
 72
     1
 10
-59.20923491164899
 20
13.13207210725704
 11
-59.20923491164899
 21
15.00690203923015
 72
     1
 10
-59.20923491164899
 20
15.00690203923015
 11
-58.53890512861381
 21
15.00690203923015
 72
     1
 10
-58.53890512861381
 20
15.00690203923015
 11
-58.53890512861381
 21
15.65588163106787
 72
     1
 10
-58.53890512861381
 20
15.65588163106787
 11
-60.86534378738543
 21
15.65588163106787
 97
        8
330
1FE
330
1FD
330
1FC
330
1BD
330
1BE
330
200
330
1BF
330
1FF
 75
     1
 76
     0
 52
45.0
 41
0.1
 77
     0
 78
     1
 53
45.0
 43
0.0
 44
0.0
 45
-0.0707106781186548
 46
0.0707106781186548
 79
     0
 98
        1
 10
0.0
 20
0.0
  0
HATCH
  5
3A2
330
74
100
AcDbEntity
  8
1
  6
Continuous
 62
     2
100
AcDbHatch
 10
0.0
 20
0.0
 30
0.0
210
0.0
220
0.0
230
1.0
  2
_USER
 70
     0
 71
     1
 91
        1
 92
        1
 93
        8
 72
     1
 10
-60.86534378738543
 20
15.65588163106787
 11
-60.86534378738543
 21
15.00690203923015
 72
     1
 10
-60.86534378738543
 20
15.00690203923015
 11
-60.19501400434854
 21
15.00690203923015
 72
     1
 10
-60.19501400434854
 20
15.00690203923015
 11
-60.19501400434854
 21
13.13207210725704
 72
     1
 10
-60.19501400434854
 20
13.13207210725704
 11
-59.20923491164899
 21
13.13207210725704
 72
     1
 10
-59.20923491164899
 20
13.13207210725704
 11
-59.20923491164899
 21
15.00690203923015
 72
     1
 10
-59.20923491164899
 20
15.00690203923015
 11
-58.53890512861381
 21
15.00690203923015
 72
     1
 10
-58.53890512861381
 20
15.00690203923015
 11
-58.53890512861381
 21
15.65588163106787
 72
     1
 10
-58.53890512861381
 20
15.65588163106787
 11
-60.86534378738543
 21
15.65588163106787
 97
        8
330
1FE
330
1FD
330
1FC
330
1BD
330
1BE
330
200
330
1BF
330
1FF
 75
     1
 76
     0
 52
45.0
 41
0.1
 77
     0
 78
     1
 53
45.0
 43
0.0
 44
0.0
 45
-0.0707106781186548
 46
0.0707106781186548
 79
     0
 98
        1
 10
0.0
 20
0.0
  0
HATCH
  5
3A3
330
74
100
AcDbEntity
  8
1
  6
Continuous
 62
     2
100
AcDbHatch
 10
0.0
 20
0.0
 30
0.0
210
0.0
220
0.0
230
1.0
  2
_USER
 70
     0
 71
     1
 91
        1
 92
        1
 93
       10
 72
     1
 10
-58.6570738834688
 20
18.43207210724502
 11
-59.64285297616834
 21
18.43207210724502
 72
     1
 10
-59.64285297616834
 20
18.43207210724502
 11
-59.64285297616834
 21
15.90826258343419
 72
     1
 10
-59.64285297616834
 20
15.90826258343419
 11
-58.6570738834688
 21
15.90826258343419
 72
     1
 10
-58.6570738834688
 20
15.90826258343419
 11
-58.6570738834688
 21
16.98989523649585
 72
     1
 10
-58.6570738834688
 20
16.98989523649585
 11
-57.63186362706051
 21
15.90826258343419
 72
     1
 10
-57.63186362706051
 20
15.90826258343419
 11
-56.64608453436085
 21
15.90826258343419
 72
     1
 10
-56.64608453436085
 20
15.90826258343419
 11
-56.64608453436085
 21
18.43207210724502
 72
     1
 10
-56.64608453436085
 20
18.43207210724502
 11
-57.63186362706051
 21
18.43207210724502
 72
     1
 10
-57.63186362706051
 20
18.43207210724502
 11
-57.63186362706051
 21
17.35043945418291
 72
     1
 10
-57.63186362706051
 20
17.35043945418291
 11
-58.6570738834688
 21
18.43207210724502
 97
       10
330
1F8
330
1C2
330
1C3
330
1C4
330
1C5
330
1FB
330
1C0
330
1FA
330
1F9
330
1C1
 75
     1
 76
     0
 52
45.0
 41
0.1
 77
     0
 78
     1
 53
45.0
 43
0.0
 44
0.0
 45
-0.0707106781186548
 46
0.0707106781186548
 79
     0
 98
        1
 10
0.0
 20
0.0
  0
HATCH
  5
3A4
330
74
100
AcDbEntity
  8
1
  6
Continuous
 62
     2
100
AcDbHatch
 10
0.0
 20
0.0
 30
0.0
210
0.0
220
0.0
230
1.0
  2
_USER
 70
     0
 71
     1
 91
        1
 92
        1
 93
       10
 72
     1
 10
-58.6570738834688
 20
18.43207210724502
 11
-59.64285297616834
 21
18.43207210724502
 72
     1
 10
-59.64285297616834
 20
18.43207210724502
 11
-59.64285297616834
 21
15.90826258343419
 72
     1
 10
-59.64285297616834
 20
15.90826258343419
 11
-58.6570738834688
 21
15.90826258343419
 72
     1
 10
-58.6570738834688
 20
15.90826258343419
 11
-58.6570738834688
 21
16.98989523649585
 72
     1
 10
-58.6570738834688
 20
16.98989523649585
 11
-57.63186362706051
 21
15.90826258343419
 72
     1
 10
-57.63186362706051
 20
15.90826258343419
 11
-56.64608453436085
 21
15.90826258343419
 72
     1
 10
-56.64608453436085
 20
15.90826258343419
 11
-56.64608453436085
 21
18.43207210724502
 72
     1
 10
-56.64608453436085
 20
18.43207210724502
 11
-57.63186362706051
 21
18.43207210724502
 72
     1
 10
-57.63186362706051
 20
18.43207210724502
 11
-57.63186362706051
 21
17.35043945418291
 72
     1
 10
-57.63186362706051
 20
17.35043945418291
 11
-58.6570738834688
 21
18.43207210724502
 97
       10
330
1F8
330
1C2
330
1C3
330
1C4
330
1C5
330
1FB
330
1C0
330
1FA
330
1F9
330
1C1
 75
     1
 76
     0
 52
45.0
 41
0.1
 77
     0
 78
     1
 53
45.0
 43
0.0
 44
0.0
 45
-0.0707106781186548
 46
0.0707106781186548
 79
     0
 98
        1
 10
0.0
 20
0.0
  0
HATCH
  5
3A5
330
74
100
AcDbEntity
  8
1
  6
Continuous
 62
     2
100
AcDbHatch
 10
0.0
 20
0.0
 30
0.0
210
0.0
220
0.0
230
1.0
  2
_USER
 70
     0
 71
     1
 91
        1
 92
        1
 93
       10
 72
     1
 10
-62.99462662761641
 20
15.65588163106787
 11
-63.98040572031687
 21
15.65588163106787
 72
     1
 10
-63.98040572031687
 20
15.65588163106787
 11
-63.98040572031687
 21
13.13207210725704
 72
     1
 10
-63.98040572031687
 20
13.13207210725704
 11
-62.99462662761641
 21
13.13207210725704
 72
     1
 10
-62.99462662761641
 20
13.13207210725704
 11
-62.99462662761641
 21
14.21370476031869
 72
     1
 10
-62.99462662761641
 20
14.21370476031869
 11
-61.96941637120904
 21
13.13207210725704
 72
     1
 10
-61.96941637120904
 20
13.13207210725704
 11
-60.98363727850949
 21
13.13207210725704
 72
     1
 10
-60.98363727850949
 20
13.13207210725704
 11
-60.98363727850949
 21
15.65588163106787
 72
     1
 10
-60.98363727850949
 20
15.65588163106787
 11
-61.96941637120904
 21
15.65588163106787
 72
     1
 10
-61.96941637120904
 20
15.65588163106787
 11
-61.96941637120904
 21
14.57424897800576
 72
     1
 10
-61.96941637120904
 20
14.57424897800576
 11
-62.99462662761641
 21
15.65588163106787
 97
       10
330
1C7
330
1C8
330
1C9
330
1F5
330
1CA
330
1CB
330
1F4
330
1F7
330
1F6
330
1C6
 75
     1
 76
     0
 52
45.0
 41
0.1
 77
     0
 78
     1
 53
45.0
 43
0.0
 44
0.0
 45
-0.0707106781186548
 46
0.0707106781186548
 79
     0
 98
        1
 10
0.0
 20
0.0
  0
HATCH
  5
3A6
330
74
100
AcDbEntity
  8
1
  6
Continuous
 62
     2
100
AcDbHatch
 10
0.0
 20
0.0
 30
0.0
210
0.0
220
0.0
230
1.0
  2
_USER
 70
     0
 71
     1
 91
        1
 92
        1
 93
       10
 72
     1
 10
-62.99462662761641
 20
15.65588163106787
 11
-63.98040572031687
 21
15.65588163106787
 72
     1
 10
-63.98040572031687
 20
15.65588163106787
 11
-63.98040572031687
 21
13.13207210725704
 72
     1
 10
-63.98040572031687
 20
13.13207210725704
 11
-62.99462662761641
 21
13.13207210725704
 72
     1
 10
-62.99462662761641
 20
13.13207210725704
 11
-62.99462662761641
 21
14.21370476031869
 72
     1
 10
-62.99462662761641
 20
14.21370476031869
 11
-61.96941637120904
 21
13.13207210725704
 72
     1
 10
-61.96941637120904
 20
13.13207210725704
 11
-60.98363727850949
 21
13.13207210725704
 72
     1
 10
-60.98363727850949
 20
13.13207210725704
 11
-60.98363727850949
 21
15.65588163106787
 72
     1
 10
-60.98363727850949
 20
15.65588163106787
 11
-61.96941637120904
 21
15.65588163106787
 72
     1
 10
-61.96941637120904
 20
15.65588163106787
 11
-61.96941637120904
 21
14.57424897800576
 72
     1
 10
-61.96941637120904
 20
14.57424897800576
 11
-62.99462662761641
 21
15.65588163106787
 97
       10
330
1C7
330
1C8
330
1C9
330
1F5
330
1CA
330
1CB
330
1F4
330
1F7
330
1F6
330
1C6
 75
     1
 76
     0
 52
45.0
 41
0.1
 77
     0
 78
     1
 53
45.0
 43
0.0
 44
0.0
 45
-0.0707106781186548
 46
0.0707106781186548
 79
     0
 98
        1
 10
0.0
 20
0.0
  0
HATCH
  5
3A7
330
74
100
AcDbEntity
  8
1
  6
Continuous
 62
     2
100
AcDbHatch
 10
0.0
 20
0.0
 30
0.0
210
0.0
220
0.0
230
1.0
  2
_USER
 70
     0
 71
     1
 91
        1
 92
        1
 93
       12
 72
     1
 10
-63.8225563292159
 20
18.43207210724502
 11
-63.8225563292159
 21
15.90826258343419
 72
     1
 10
-63.8225563292159
 20
15.90826258343419
 11
-64.80833542191544
 21
15.90826258343419
 72
     1
 10
-64.80833542191544
 20
15.90826258343419
 11
-64.80833542191544
 21
16.84567754942075
 72
     1
 10
-64.80833542191544
 20
16.84567754942075
 11
-65.67582102349184
 21
16.84567754942075
 72
     1
 10
-65.67582102349184
 20
16.84567754942075
 11
-65.67582102349184
 21
15.90826258343419
 72
     1
 10
-65.67582102349184
 20
15.90826258343419
 11
-66.6616001161915
 21
15.90826258343419
 72
     1
 10
-66.6616001161915
 20
15.90826258343419
 11
-66.6616001161915
 21
18.43207210724502
 72
     1
 10
-66.6616001161915
 20
18.43207210724502
 11
-65.67582102349184
 21
18.43207210724502
 72
     1
 10
-65.67582102349184
 20
18.43207210724502
 11
-65.67582102349184
 21
17.54873877391066
 72
     1
 10
-65.67582102349184
 20
17.54873877391066
 11
-64.80833542191544
 21
17.54873877391066
 72
     1
 10
-64.80833542191544
 20
17.54873877391066
 11
-64.80833542191544
 21
18.43207210724502
 72
     1
 10
-64.80833542191544
 20
18.43207210724502
 11
-63.8225563292159
 21
18.43207210724502
 97
       12
330
1EF
330
1EE
330
1ED
330
1D5
330
1D6
330
1EC
330
1D7
330
1EB
330
1EA
330
1E9
330
1D3
330
1D4
 75
     1
 76
     0
 52
45.0
 41
0.1
 77
     0
 78
     1
 53
45.0
 43
0.0
 44
0.0
 45
-0.0707106781186548
 46
0.0707106781186548
 79
     0
 98
        1
 10
0.0
 20
0.0
  0
HATCH
  5
3A8
330
74
100
AcDbEntity
  8
1
  6
Continuous
 62
     2
100
AcDbHatch
 10
0.0
 20
0.0
 30
0.0
210
0.0
220
0.0
230
1.0
  2
_USER
 70
     0
 71
     1
 91
        1
 92
        1
 93
       12
 72
     1
 10
-63.8225563292159
 20
18.43207210724502
 11
-63.8225563292159
 21
15.90826258343419
 72
     1
 10
-63.8225563292159
 20
15.90826258343419
 11
-64.80833542191544
 21
15.90826258343419
 72
     1
 10
-64.80833542191544
 20
15.90826258343419
 11
-64.80833542191544
 21
16.84567754942075
 72
     1
 10
-64.80833542191544
 20
16.84567754942075
 11
-65.67582102349184
 21
16.84567754942075
 72
     1
 10
-65.67582102349184
 20
16.84567754942075
 11
-65.67582102349184
 21
15.90826258343419
 72
     1
 10
-65.67582102349184
 20
15.90826258343419
 11
-66.6616001161915
 21
15.90826258343419
 72
     1
 10
-66.6616001161915
 20
15.90826258343419
 11
-66.6616001161915
 21
18.43207210724502
 72
     1
 10
-66.6616001161915
 20
18.43207210724502
 11
-65.67582102349184
 21
18.43207210724502
 72
     1
 10
-65.67582102349184
 20
18.43207210724502
 11
-65.67582102349184
 21
17.54873877391066
 72
     1
 10
-65.67582102349184
 20
17.54873877391066
 11
-64.80833542191544
 21
17.54873877391066
 72
     1
 10
-64.80833542191544
 20
17.54873877391066
 11
-64.80833542191544
 21
18.43207210724502
 72
     1
 10
-64.80833542191544
 20
18.43207210724502
 11
-63.8225563292159
 21
18.43207210724502
 97
       12
330
1EF
330
1EE
330
1ED
330
1D5
330
1D6
330
1EC
330
1D7
330
1EB
330
1EA
330
1E9
330
1D3
330
1D4
 75
     1
 76
     0
 52
45.0
 41
0.1
 77
     0
 78
     1
 53
45.0
 43
0.0
 44
0.0
 45
-0.0707106781186548
 46
0.0707106781186548
 79
     0
 98
        1
 10
0.0
 20
0.0
  0
ENDBLK
  5
76
330
74
100
AcDbEntity
  8
0
100
AcDbBlockEnd
  0
BLOCK
  5
7A
330
77
100
AcDbEntity
  8
0
100
AcDbBlockBegin
  2
A4I
 70
     0
 10
47.9623302529381
 20
2.28207210725108
 30
0.0
  3
A4I
  1

  0
INSERT
  5
78
330
77
100
AcDbEntity
  8
1
100
AcDbBlockReference
  2
_punkt
 10
47.9623302529381
 20
7.28207210725119
 30
0.0
  0
INSERT
  5
79
330
77
100
AcDbEntity
  8
1
100
AcDbBlockReference
  2
_rahmen
 10
47.9623302529381
 20
2.28207210725108
 30
0.0
  0
ENDBLK
  5
7B
330
77
100
AcDbEntity
  8
0
100
AcDbBlockEnd
  0
BLOCK
  5
FE
330
F5
100
AcDbEntity
  8
0
100
AcDbBlockBegin
  2
*D16
 70
     1
 10
0.0
 20
0.0
 30
0.0
  3
*D16
  1

  0
LINE
  5
F6
330
F5
100
AcDbEntity
  8
1
  6
Continuous
 62
     2
100
AcDbLine
 10
-75.05000019071477
 20
119.127945909998
 30
0.0
 11
-68.05000019071477
 21
119.127945909998
 31
0.0
  0
LINE
  5
F7
330
F5
100
AcDbEntity
  8
1
  6
Continuous
 62
     2
100
AcDbLine
 10
-68.05000019071477
 20
119.127945909998
 30
0.0
 11
-57.95000019071476
 21
119.127945909998
 31
0.0
  0
LINE
  5
F8
330
F5
100
AcDbEntity
  8
1
  6
Continuous
 62
     2
100
AcDbLine
 10
-57.95000019071476
 20
119.127945909998
 30
0.0
 11
-45.2375
 21
119.127945909998
 31
0.0
  0
LINE
  5
F9
330
F5
100
AcDbEntity
  8
1
  6
Continuous
 62
     2
100
AcDbLine
 10
-68.05000019071477
 20
132.0159257547509
 30
0.0
 11
-68.05000019071477
 21
117.127945909998
 31
0.0
  0
LINE
  5
FA
330
F5
100
AcDbEntity
  8
1
  6
Continuous
 62
     2
100
AcDbLine
 10
-57.95000019071476
 20
132.0159257547603
 30
0.0
 11
-57.95000019071476
 21
117.127945909998
 31
0.0
  0
SOLID
  5
FB
330
F5
100
AcDbEntity
  8
1
 62
     2
100
AcDbTrace
 10
-71.55000019071477
 20
118.6671621684421
 30
0.0
 11
-71.55000019071477
 21
119.5887296515539
 31
0.0
 12
-68.05000019071477
 22
119.127945909998
 32
0.0
 13
-68.05000019071477
 23
119.127945909998
 33
0.0
  0
SOLID
  5
FC
330
F5
100
AcDbEntity
  8
1
 62
     2
100
AcDbTrace
 10
-54.45000019071476
 20
119.5887296515539
 30
0.0
 11
-54.45000019071476
 21
118.6671621684421
 31
0.0
 12
-57.95000019071476
 22
119.127945909998
 32
0.0
 13
-57.95000019071476
 23
119.127945909998
 33
0.0
  0
MTEXT
  5
FD
330
F5
100
AcDbEntity
  8
1
 62
     3
100
AcDbMText
 10
-52.7625
 20
121.477945909998
 30
0.0
 40
3.5
 41
0.0
 71
     7
 72
     1
  1
10,1
  7
CONVERTER_11
 11
0.9999999999970619
 21
2.424068405545306E-6
 31
0.0
 73
     1
 44
0.60024009603842
  0
ENDBLK
  5
FF
330
F5
100
AcDbEntity
  8
0
100
AcDbBlockEnd
  0
BLOCK
  5
157
330
150
100
AcDbEntity
  8
0
100
AcDbBlockBegin
  2
*D17
 70
     1
 10
0.0
 20
0.0
 30
0.0
  3
*D17
  1

  0
LINE
  5
151
330
150
100
AcDbEntity
  8
1
  6
Continuous
 62
     2
100
AcDbLine
 10
-91.0078812576851
 20
159.4409493390562
 30
0.0
 11
-91.0078812576851
 21
130.5590505178883
 31
0.0
  0
LINE
  5
152
330
150
100
AcDbEntity
  8
1
  6
Continuous
 62
     2
100
AcDbLine
 10
-121.5002389735174
 20
159.4409493390562
 30
0.0
 11
-89.0078812576851
 21
159.4409493390562
 31
0.0
  0
LINE
  5
153
330
150
100
AcDbEntity
  8
1
  6
Continuous
 62
     2
100
AcDbLine
 10
-121.5002389734718
 20
130.5590505178883
 30
0.0
 11
-89.0078812576851
 21
130.5590505178883
 31
0.0
  0
SOLID
  5
154
330
150
100
AcDbEntity
  8
1
 62
     2
100
AcDbTrace
 10
-90.54709751612921
 20
155.9409493390562
 30
0.0
 11
-91.46866499924099
 21
155.9409493390562
 31
0.0
 12
-91.0078812576851
 22
159.4409493390562
 32
0.0
 13
-91.0078812576851
 23
159.4409493390562
 33
0.0
  0
SOLID
  5
155
330
150
100
AcDbEntity
  8
1
 62
     2
100
AcDbTrace
 10
-91.46866499924099
 20
134.0590505178883
 30
0.0
 11
-90.54709751612921
 21
134.0590505178883
 31
0.0
 12
-91.0078812576851
 22
130.5590505178883
 32
0.0
 13
-91.0078812576851
 23
130.5590505178883
 33
0.0
  0
MTEXT
  5
156
330
150
100
AcDbEntity
  8
1
 62
     3
100
AcDbMText
 10
-93.3578812576851
 20
140.108486800149
 30
0.0
 40
3.5
 41
0.0
 71
     7
 72
     1
  1
28,9
  7
CONVERTER_11
 11
0.0
 21
1.0
 31
0.0
 73
     1
 44
0.60024009603842
  0
ENDBLK
  5
158
330
150
100
AcDbEntity
  8
0
100
AcDbBlockEnd
  0
BLOCK
  5
162
330
15B
100
AcDbEntity
  8
0
100
AcDbBlockBegin
  2
*D18
 70
     1
 10
0.0
 20
0.0
 30
0.0
  3
*D18
  1

  0
LINE
  5
15C
330
15B
100
AcDbEntity
  8
1
  6
Continuous
 62
     2
100
AcDbLine
 10
-104.0499985721336
 20
119.127945909998
 30
0.0
 11
-130.3999985721635
 21
119.127945909998
 31
0.0
  0
LINE
  5
15D
330
15B
100
AcDbEntity
  8
1
  6
Continuous
 62
     2
100
AcDbLine
 10
-104.0499985721336
 20
131.7499999285002
 30
0.0
 11
-104.0499985721336
 21
117.127945909998
 31
0.0
  0
LINE
  5
15E
330
15B
100
AcDbEntity
  8
1
  6
Continuous
 62
     2
100
AcDbLine
 10
-130.3999985721635
 20
150.4499999284533
 30
0.0
 11
-130.3999985721635
 21
117.127945909998
 31
0.0
  0
SOLID
  5
15F
330
15B
100
AcDbEntity
  8
1
 62
     2
100
AcDbTrace
 10
-107.5499985721336
 20
118.6671621684421
 30
0.0
 11
-107.5499985721336
 21
119.5887296515539
 31
0.0
 12
-104.0499985721336
 22
119.127945909998
 32
0.0
 13
-104.0499985721336
 23
119.127945909998
 33
0.0
  0
SOLID
  5
160
330
15B
100
AcDbEntity
  8
1
 62
     2
100
AcDbTrace
 10
-126.8999985721635
 20
119.5887296515539
 30
0.0
 11
-126.8999985721635
 21
118.6671621684421
 31
0.0
 12
-130.3999985721635
 22
119.127945909998
 32
0.0
 13
-130.3999985721635
 23
119.127945909998
 33
0.0
  0
MTEXT
  5
161
330
15B
100
AcDbEntity
  8
1
 62
     3
100
AcDbMText
 10
-121.769846059842
 20
121.477945909998
 30
0.0
 40
3.5
 41
0.0
 71
     7
 72
     1
  1
26,4
  7
CONVERTER_11
 11
0.9999999999970619
 21
2.424068405545306E-6
 31
0.0
 73
     1
 44
0.60024009603842
  0
ENDBLK
  5
163
330
15B
100
AcDbEntity
  8
0
100
AcDbBlockEnd
  0
ENDSEC
  0
SECTION
  2
ENTITIES
  0
INSERT
  5
7C
330
1F
100
AcDbEntity
  8
0
100
AcDbBlockReference
  2
Allg1
 10
-23.99999999997994
 20
70.999999999995
 30
0.0
  0
INSERT
  5
7D
330
1F
100
AcDbEntity
  8
0
100
AcDbBlockReference
  2
SA_Links1
 10
-63.0
 20
145.0
 30
0.0
  0
INSERT
  5
7E
330
1F
100
AcDbEntity
  8
0
100
AcDbBlockReference
  2
Drfsicht1
 10
-117.2249969303449
 20
95.5090482499923
 30
0.0
  0
INSERT
  5
7F
330
1F
100
AcDbEntity
  8
0
100
AcDbBlockReference
  2
Vordans1
 10
-117.2249985721379
 20
145.0
 30
0.0
  0
INSERT
  5
80
330
1F
100
AcDbEntity
  8
0
100
AcDbBlockReference
  2
SA_Rechts1
 10
-158.4499996467991
 20
145.0
 30
0.0
  0
INSERT
  5
81
330
1F
100
AcDbEntity
  8
0
100
AcDbBlockReference
  2
Rckans1
 10
-20.775001427862
 20
145.0000000000001
 30
0.0
  0
INSERT
  5
82
330
1F
100
AcDbEntity
  8
0
100
AcDbBlockReference
  2
A4I
 10
47.9623302529381
 20
2.28207210725108
 30
0.0
  0
ENDSEC
  0
SECTION
  2
OBJECTS
  0
DICTIONARY
  5
C
330
0
100
AcDbDictionary
281
     1
  3
ACAD_GROUP
350
D
  3
ACAD_LAYOUT
350
1A
  3
ACAD_MATERIAL
350
3B
  3
ACAD_MLEADERSTYLE
350
3AB
  3
ACAD_MLINESTYLE
350
17
  3
ACAD_PLOTSETTINGS
350
19
  3
ACAD_PLOTSTYLENAME
350
E
  3
ACAD_VISUALSTYLE
350
2A
  3
AcDbVariableDictionary
350
3A9
  0
DICTIONARY
  5
D
102
{ACAD_REACTORS
330
C
102
}
330
C
100
AcDbDictionary
281
     1
  0
DICTIONARY
  5
1A
102
{ACAD_REACTORS
330
C
102
}
330
C
100
AcDbDictionary
281
     1
  3
Layout1
350
1E
  3
Layout2
350
26
  3
Model
350
22
  0
DICTIONARY
  5
3B
102
{ACAD_REACTORS
330
C
102
}
330
C
100
AcDbDictionary
281
     1
  3
ByBlock
350
3D
  3
ByLayer
350
3C
  3
Global
350
3E
  0
DICTIONARY
  5
3AB
102
{ACAD_REACTORS
330
C
102
}
330
C
100
AcDbDictionary
281
     1
  0
DICTIONARY
  5
17
102
{ACAD_REACTORS
330
C
102
}
330
C
100
AcDbDictionary
281
     1
  3
Standard
350
18
  0
DICTIONARY
  5
19
102
{ACAD_REACTORS
330
C
102
}
330
C
100
AcDbDictionary
281
     1
  0
ACDBDICTIONARYWDFLT
  5
E
102
{ACAD_REACTORS
330
C
102
}
330
C
100
AcDbDictionary
281
     1
  3
Normal
350
F
100
AcDbDictionaryWithDefault
340
F
  0
DICTIONARY
  5
2A
102
{ACAD_REACTORS
330
C
102
}
330
C
100
AcDbDictionary
281
     1
  3
2dWireframe
350
2F
  3
3D Hidden
350
31
  3
3dWireframe
350
30
  3
Basic
350
32
  3
Brighten
350
36
  3
ColorChange
350
3A
  3
Conceptual
350
34
  3
Dim
350
35
  3
Facepattern
350
39
  3
Flat
350
2B
  3
FlatWithEdges
350
2C
  3
Gouraud
350
2D
  3
GouraudWithEdges
350
2E
  3
Linepattern
350
38
  3
Realistic
350
33
  3
Thicken
350
37
  0
DICTIONARY
  5
3A9
102
{ACAD_REACTORS
330
C
102
}
330
C
100
AcDbDictionary
281
     1
  3
DIMASSOC
350
3AC
  3
HIDETEXT
350
3AD
  0
LAYOUT
  5
1E
102
{ACAD_REACTORS
330
1A
102
}
330
1A
100
AcDbPlotSettings
  1

  2
none_device
  4

  6

 40
0.0
 41
0.0
 42
0.0
 43
0.0
 44
0.0
 45
0.0
 46
0.0
 47
0.0
 48
0.0
 49
0.0
140
0.0
141
0.0
142
1.0
143
1.0
 70
   688
 72
     0
 73
     0
 74
     5
  7

 75
    16
147
1.0
148
0.0
149
0.0
100
AcDbLayout
  1
Layout1
 70
     1
 71
     1
 10
0.0
 20
0.0
 11
12.0
 21
9.0
 12
0.0
 22
0.0
 32
0.0
 14
1.00000000000000E+20
 24
1.00000000000000E+20
 34
1.00000000000000E+20
 15
-1.00000000000000E+20
 25
-1.00000000000000E+20
 35
-1.00000000000000E+20
146
0.0
 13
0.0
 23
0.0
 33
0.0
 16
1.0
 26
0.0
 36
0.0
 17
0.0
 27
1.0
 37
0.0
 76
     0
330
1B
  0
LAYOUT
  5
26
102
{ACAD_REACTORS
330
1A
102
}
330
1A
100
AcDbPlotSettings
  1

  2
none_device
  4

  6

 40
0.0
 41
0.0
 42
0.0
 43
0.0
 44
0.0
 45
0.0
 46
0.0
 47
0.0
 48
0.0
 49
0.0
140
0.0
141
0.0
142
1.0
143
1.0
 70
   688
 72
     0
 73
     0
 74
     5
  7

 75
    16
147
1.0
148
0.0
149
0.0
100
AcDbLayout
  1
Layout2
 70
     1
 71
     2
 10
0.0
 20
0.0
 11
0.0
 21
0.0
 12
0.0
 22
0.0
 32
0.0
 14
0.0
 24
0.0
 34
0.0
 15
0.0
 25
0.0
 35
0.0
146
0.0
 13
0.0
 23
0.0
 33
0.0
 16
1.0
 26
0.0
 36
0.0
 17
0.0
 27
1.0
 37
0.0
 76
     0
330
23
  0
LAYOUT
  5
22
102
{ACAD_REACTORS
330
1A
102
}
330
1A
100
AcDbPlotSettings
  1

  2
none_device
  4

  6

 40
0.0
 41
0.0
 42
0.0
 43
0.0
 44
0.0
 45
0.0
 46
0.0
 47
0.0
 48
0.0
 49
0.0
140
0.0
141
0.0
142
1.0
143
1.0
 70
  1712
 72
     0
 73
     0
 74
     0
  7

 75
     0
147
1.0
148
0.0
149
0.0
100
AcDbLayout
  1
Model
 70
     1
 71
     0
 10
0.0
 20
0.0
 11
12.0
 21
9.0
 12
0.0
 22
0.0
 32
0.0
 14
-244.037669747061
 24
2.28207210725108
 34
0.0
 15
52.96233025293711
 25
212.2820721072511
 35
0.0
146
0.0
 13
0.0
 23
0.0
 33
0.0
 16
1.0
 26
0.0
 36
0.0
 17
0.0
 27
1.0
 37
0.0
 76
     0
330
1F
331
29
  0
MATERIAL
  5
3D
102
{ACAD_REACTORS
330
3B
102
}
102
{ACAD_XDICTIONARY
360
3D0
102
}
330
3B
100
AcDbMaterial
  1
ByBlock
  0
MATERIAL
  5
3C
102
{ACAD_REACTORS
330
3B
102
}
102
{ACAD_XDICTIONARY
360
3CE
102
}
330
3B
100
AcDbMaterial
  1
ByLayer
  0
MATERIAL
  5
3E
102
{ACAD_REACTORS
330
3B
102
}
102
{ACAD_XDICTIONARY
360
3D2
102
}
330
3B
100
AcDbMaterial
  1
Global
  0
MLINESTYLE
  5
18
102
{ACAD_REACTORS
330
17
102
}
330
17
100
AcDbMlineStyle
  2
Standard
 70
     0
  3

 62
   256
 51
90.0
 52
90.0
 71
     2
 49
0.5
 62
   256
  6
BYLAYER
 49
-0.5
 62
   256
  6
BYLAYER
  0
ACDBPLACEHOLDER
  5
F
102
{ACAD_REACTORS
330
E
102
}
330
E
  0
VISUALSTYLE
  5
2F
102
{ACAD_REACTORS
330
2A
102
}
102
{ACAD_XDICTIONARY
360
3B6
102
}
330
2A
100
AcDbVisualStyle
  2
2dWireframe
 70
     4
 71
     0
 72
     2
 73
     0
 90
        0
 40
-0.6
 41
-30.0
 62
     5
 63
     7
 74
     1
 91
        4
 64
     7
 65
   257
 75
     1
175
     1
 42
1.0
 92
        0
 66
   257
 43
1.0
 76
     1
 77
     6
 78
     2
 67
     7
 79
     5
170
     0
171
     0
290
     0
174
     0
 93
        1
 44
0.0
173
     0
291
     0
 45
0.0
1001
ACAD
1000
AcDbSavedByObjectVersion
1070
     0
  0
VISUALSTYLE
  5
31
102
{ACAD_REACTORS
330
2A
102
}
102
{ACAD_XDICTIONARY
360
3BA
102
}
330
2A
100
AcDbVisualStyle
  2
3D Hidden
 70
     6
 71
     1
 72
     2
 73
     2
 90
        0
 40
-0.6
 41
-30.0
 62
     5
 63
     7
 74
     2
 91
        2
 64
     7
 65
   257
 75
     2
175
     1
 42
40.0
 92
        0
 66
   257
 43
1.0
 76
     1
 77
     6
 78
     2
 67
     7
 79
     3
170
     0
171
     0
290
     0
174
     0
 93
        1
 44
0.0
173
     0
291
     0
 45
0.0
1001
ACAD
1000
AcDbSavedByObjectVersion
1070
     0
  0
VISUALSTYLE
  5
30
102
{ACAD_REACTORS
330
2A
102
}
102
{ACAD_XDICTIONARY
360
3B8
102
}
330
2A
100
AcDbVisualStyle
  2
3dWireframe
 70
     5
 71
     0
 72
     2
 73
     0
 90
        0
 40
-0.6
 41
-30.0
 62
     5
 63
     7
 74
     1
 91
        4
 64
     7
 65
   257
 75
     1
175
     1
 42
1.0
 92
        0
 66
   257
 43
1.0
 76
     1
 77
     6
 78
     2
 67
     7
 79
     5
170
     0
171
     0
290
     0
174
     0
 93
        1
 44
0.0
173
     0
291
     0
 45
0.0
1001
ACAD
1000
AcDbSavedByObjectVersion
1070
     0
  0
VISUALSTYLE
  5
32
102
{ACAD_REACTORS
330
2A
102
}
102
{ACAD_XDICTIONARY
360
3BC
102
}
330
2A
100
AcDbVisualStyle
  2
Basic
 70
     7
 71
     1
 72
     0
 73
     1
 90
        0
 40
-0.6
 41
-30.0
 62
     5
 63
     7
 74
     0
 91
        4
 64
     7
 65
   257
 75
     1
175
     1
 42
1.0
 92
        8
 66
     7
 43
1.0
 76
     1
 77
     6
 78
     2
 67
     7
 79
     5
170
     0
171
     0
290
     0
174
     0
 93
        1
 44
0.0
173
     0
291
     1
 45
0.0
1001
ACAD
1000
AcDbSavedByObjectVersion
1070
     0
  0
VISUALSTYLE
  5
36
102
{ACAD_REACTORS
330
2A
102
}
102
{ACAD_XDICTIONARY
360
3C4
102
}
330
2A
100
AcDbVisualStyle
  2
Brighten
 70
    12
 71
     2
 72
     2
 73
     0
 90
        0
 40
-0.6
 41
-30.0
 62
     5
 63
     7
 74
     1
 91
        4
 64
     7
 65
   257
 75
     1
175
     1
 42
1.0
 92
        8
 66
     7
 43
1.0
 76
     1
 77
     6
 78
     2
 67
     7
 79
     5
170
     0
171
     0
290
     0
174
     0
 93
        1
 44
50.0
173
     0
291
     1
 45
0.0
1001
ACAD
1000
AcDbSavedByObjectVersion
1070
     0
  0
VISUALSTYLE
  5
3A
102
{ACAD_REACTORS
330
2A
102
}
102
{ACAD_XDICTIONARY
360
3CC
102
}
330
2A
100
AcDbVisualStyle
  2
ColorChange
 70
    16
 71
     2
 72
     2
 73
     3
 90
        0
 40
-0.6
 41
-30.0
 62
     5
 63
     8
 74
     1
 91
        4
 64
     7
 65
   257
 75
     1
175
     1
 42
1.0
 92
        8
 66
     8
 43
1.0
 76
     1
 77
     6
 78
     2
 67
     7
 79
     5
170
     0
171
     0
290
     0
174
     0
 93
        1
 44
0.0
173
     0
291
     1
 45
0.0
1001
ACAD
1000
AcDbSavedByObjectVersion
1070
     0
  0
VISUALSTYLE
  5
34
102
{ACAD_REACTORS
330
2A
102
}
102
{ACAD_XDICTIONARY
360
3C0
102
}
330
2A
100
AcDbVisualStyle
  2
Conceptual
 70
     9
 71
     3
 72
     2
 73
     0
 90
        0
 40
-0.6
 41
-30.0
 62
     5
 63
     7
 74
     2
 91
        2
 64
     7
 65
   257
 75
     1
175
     1
 42
40.0
 92
        8
 66
     7
 43
1.0
 76
     1
 77
     6
 78
     2
 67
     7
 79
     3
170
     0
171
     0
290
     0
174
     0
 93
        1
 44
0.0
173
     0
291
     0
 45
0.0
1001
ACAD
1000
AcDbSavedByObjectVersion
1070
     0
  0
VISUALSTYLE
  5
35
102
{ACAD_REACTORS
330
2A
102
}
102
{ACAD_XDICTIONARY
360
3C2
102
}
330
2A
100
AcDbVisualStyle
  2
Dim
 70
    11
 71
     2
 72
     2
 73
     0
 90
        0
 40
-0.6
 41
-30.0
 62
     5
 63
     7
 74
     1
 91
        4
 64
     7
 65
   257
 75
     1
175
     1
 42
1.0
 92
        8
 66
     7
 43
1.0
 76
     1
 77
     6
 78
     2
 67
     7
 79
     5
170
     0
171
     0
290
     0
174
     0
 93
        1
 44
-50.0
173
     0
291
     1
 45
0.0
1001
ACAD
1000
AcDbSavedByObjectVersion
1070
     0
  0
VISUALSTYLE
  5
39
102
{ACAD_REACTORS
330
2A
102
}
102
{ACAD_XDICTIONARY
360
3CA
102
}
330
2A
100
AcDbVisualStyle
  2
Facepattern
 70
    15
 71
     2
 72
     2
 73
     0
 90
        0
 40
-0.6
 41
-30.0
 62
     5
 63
     7
 74
     1
 91
        4
 64
     7
 65
   257
 75
     1
175
     1
 42
1.0
 92
        8
 66
     7
 43
1.0
 76
     1
 77
     6
 78
     2
 67
     7
 79
     5
170
     0
171
     0
290
     0
174
     0
 93
        1
 44
0.0
173
     0
291
     1
 45
0.0
1001
ACAD
1000
AcDbSavedByObjectVersion
1070
     0
  0
VISUALSTYLE
  5
2B
102
{ACAD_REACTORS
330
2A
102
}
102
{ACAD_XDICTIONARY
360
3AE
102
}
330
2A
100
AcDbVisualStyle
  2
Flat
 70
     0
 71
     2
 72
     1
 73
     1
 90
        2
 40
-0.6
 41
30.0
 62
     5
 63
     7
 74
     0
 91
        4
 64
     7
 65
   257
 75
     1
175
     1
 42
1.0
 92
        8
 66
     7
 43
1.0
 76
     1
 77
     6
 78
     2
 67
     7
 79
     5
170
     0
171
     0
290
     0
174
     0
 93
       13
 44
0.0
173
     0
291
     1
 45
0.0
1001
ACAD
1000
AcDbSavedByObjectVersion
1070
     0
  0
VISUALSTYLE
  5
2C
102
{ACAD_REACTORS
330
2A
102
}
102
{ACAD_XDICTIONARY
360
3B0
102
}
330
2A
100
AcDbVisualStyle
  2
FlatWithEdges
 70
     1
 71
     2
 72
     1
 73
     1
 90
        2
 40
-0.6
 41
30.0
 62
     5
 63
     7
 74
     1
 91
        4
 64
     7
 65
   257
 75
     1
175
     1
 42
1.0
 92
        0
 66
   257
 43
1.0
 76
     1
 77
     6
 78
     2
 67
     7
 79
     5
170
     0
171
     0
290
     0
174
     0
 93
       13
 44
0.0
173
     0
291
     1
 45
0.0
1001
ACAD
1000
AcDbSavedByObjectVersion
1070
     0
  0
VISUALSTYLE
  5
2D
102
{ACAD_REACTORS
330
2A
102
}
102
{ACAD_XDICTIONARY
360
3B2
102
}
330
2A
100
AcDbVisualStyle
  2
Gouraud
 70
     2
 71
     2
 72
     2
 73
     1
 90
        2
 40
-0.6
 41
30.0
 62
     5
 63
     7
 74
     0
 91
        4
 64
     7
 65
   257
 75
     1
175
     1
 42
1.0
 92
        0
 66
     7
 43
1.0
 76
     1
 77
     6
 78
     2
 67
     7
 79
     5
170
     0
171
     0
290
     0
174
     0
 93
       13
 44
0.0
173
     0
291
     1
 45
0.0
1001
ACAD
1000
AcDbSavedByObjectVersion
1070
     0
  0
VISUALSTYLE
  5
2E
102
{ACAD_REACTORS
330
2A
102
}
102
{ACAD_XDICTIONARY
360
3B4
102
}
330
2A
100
AcDbVisualStyle
  2
GouraudWithEdges
 70
     3
 71
     2
 72
     2
 73
     1
 90
        2
 40
-0.6
 41
30.0
 62
     5
 63
     7
 74
     1
 91
        4
 64
     7
 65
   257
 75
     1
175
     1
 42
1.0
 92
        0
 66
   257
 43
1.0
 76
     1
 77
     6
 78
     2
 67
     7
 79
     5
170
     0
171
     0
290
     0
174
     0
 93
       13
 44
0.0
173
     0
291
     1
 45
0.0
1001
ACAD
1000
AcDbSavedByObjectVersion
1070
     0
  0
VISUALSTYLE
  5
38
102
{ACAD_REACTORS
330
2A
102
}
102
{ACAD_XDICTIONARY
360
3C8
102
}
330
2A
100
AcDbVisualStyle
  2
Linepattern
 70
    14
 71
     2
 72
     2
 73
     0
 90
        0
 40
-0.6
 41
-30.0
 62
     5
 63
     7
 74
     1
 91
        4
 64
     7
 65
   257
 75
     7
175
     7
 42
1.0
 92
        8
 66
     7
 43
1.0
 76
     1
 77
     6
 78
     2
 67
     7
 79
     5
170
     0
171
     0
290
     0
174
     0
 93
        1
 44
0.0
173
     0
291
     1
 45
0.0
1001
ACAD
1000
AcDbSavedByObjectVersion
1070
     0
  0
VISUALSTYLE
  5
33
102
{ACAD_REACTORS
330
2A
102
}
102
{ACAD_XDICTIONARY
360
3BE
102
}
330
2A
100
AcDbVisualStyle
  2
Realistic
 70
     8
 71
     2
 72
     2
 73
     0
 90
        0
 40
-0.6
 41
-30.0
 62
     5
 63
     7
 74
     1
 91
        0
 64
     7
 65
   257
 75
     1
175
     1
 42
1.0
 92
        8
 66
     8
 43
1.0
 76
     1
 77
     6
 78
     2
 67
     7
 79
     5
170
     0
171
     0
290
     0
174
     0
 93
       13
 44
0.0
173
     0
291
     0
 45
0.0
1001
ACAD
1000
AcDbSavedByObjectVersion
1070
     0
  0
VISUALSTYLE
  5
37
102
{ACAD_REACTORS
330
2A
102
}
102
{ACAD_XDICTIONARY
360
3C6
102
}
330
2A
100
AcDbVisualStyle
  2
Thicken
 70
    13
 71
     2
 72
     2
 73
     0
 90
        0
 40
-0.6
 41
-30.0
 62
     5
 63
     7
 74
     1
 91
        4
 64
     7
 65
   257
 75
     1
175
     1
 42
1.0
 92
       12
 66
     7
 43
1.0
 76
     1
 77
     6
 78
     2
 67
     7
 79
     5
170
     0
171
     0
290
     0
174
     0
 93
        1
 44
0.0
173
     0
291
     1
 45
0.0
1001
ACAD
1000
AcDbSavedByObjectVersion
1070
     0
  0
DICTIONARYVAR
  5
3AC
102
{ACAD_REACTORS
330
3A9
102
}
330
3A9
100
DictionaryVariables
280
     0
  1
2
  0
DICTIONARYVAR
  5
3AD
102
{ACAD_REACTORS
330
3A9
102
}
330
3A9
100
DictionaryVariables
280
     0
  1
1
  0
DICTIONARY
  5
3D0
330
3D
100
AcDbDictionary
280
     1
281
     1
  3
ACAD_XREC_ROUNDTRIP
360
3D1
  0
DICTIONARY
  5
3CE
330
3C
100
AcDbDictionary
280
     1
281
     1
  3
ACAD_XREC_ROUNDTRIP
360
3CF
  0
DICTIONARY
  5
3D2
330
3E
100
AcDbDictionary
280
     1
281
     1
  3
ACAD_XREC_ROUNDTRIP
360
3D3
  0
DICTIONARY
  5
3B6
330
2F
100
AcDbDictionary
280
     1
281
     1
  3
ACAD_XREC_ROUNDTRIP
360
3B7
  0
DICTIONARY
  5
3BA
330
31
100
AcDbDictionary
280
     1
281
     1
  3
ACAD_XREC_ROUNDTRIP
360
3BB
  0
DICTIONARY
  5
3B8
330
30
100
AcDbDictionary
280
     1
281
     1
  3
ACAD_XREC_ROUNDTRIP
360
3B9
  0
DICTIONARY
  5
3BC
330
32
100
AcDbDictionary
280
     1
281
     1
  3
ACAD_XREC_ROUNDTRIP
360
3BD
  0
DICTIONARY
  5
3C4
330
36
100
AcDbDictionary
280
     1
281
     1
  3
ACAD_XREC_ROUNDTRIP
360
3C5
  0
DICTIONARY
  5
3CC
330
3A
100
AcDbDictionary
280
     1
281
     1
  3
ACAD_XREC_ROUNDTRIP
360
3CD
  0
DICTIONARY
  5
3C0
330
34
100
AcDbDictionary
280
     1
281
     1
  3
ACAD_XREC_ROUNDTRIP
360
3C1
  0
DICTIONARY
  5
3C2
330
35
100
AcDbDictionary
280
     1
281
     1
  3
ACAD_XREC_ROUNDTRIP
360
3C3
  0
DICTIONARY
  5
3CA
330
39
100
AcDbDictionary
280
     1
281
     1
  3
ACAD_XREC_ROUNDTRIP
360
3CB
  0
DICTIONARY
  5
3AE
330
2B
100
AcDbDictionary
280
     1
281
     1
  3
ACAD_XREC_ROUNDTRIP
360
3AF
  0
DICTIONARY
  5
3B0
330
2C
100
AcDbDictionary
280
     1
281
     1
  3
ACAD_XREC_ROUNDTRIP
360
3B1
  0
DICTIONARY
  5
3B2
330
2D
100
AcDbDictionary
280
     1
281
     1
  3
ACAD_XREC_ROUNDTRIP
360
3B3
  0
DICTIONARY
  5
3B4
330
2E
100
AcDbDictionary
280
     1
281
     1
  3
ACAD_XREC_ROUNDTRIP
360
3B5
  0
DICTIONARY
  5
3C8
330
38
100
AcDbDictionary
280
     1
281
     1
  3
ACAD_XREC_ROUNDTRIP
360
3C9
  0
DICTIONARY
  5
3BE
330
33
100
AcDbDictionary
280
     1
281
     1
  3
ACAD_XREC_ROUNDTRIP
360
3BF
  0
DICTIONARY
  5
3C6
330
37
100
AcDbDictionary
280
     1
281
     1
  3
ACAD_XREC_ROUNDTRIP
360
3C7
  0
XRECORD
  5
3D1
102
{ACAD_REACTORS
330
3D0
102
}
330
3D0
100
AcDbXrecord
280
     1
102
MATERIAL
148
0.0
149
0.0
149
0.0
 93
        0
 94
      127
282
     0
 72
     1
 77
     1
171
     1
175
     1
179
     1
273
     0
  0
XRECORD
  5
3CF
102
{ACAD_REACTORS
330
3CE
102
}
330
3CE
100
AcDbXrecord
280
     1
102
MATERIAL
148
0.0
149
0.0
149
0.0
 93
        0
 94
      127
282
     0
 72
     1
 77
     1
171
     1
175
     1
179
     1
273
     0
  0
XRECORD
  5
3D3
102
{ACAD_REACTORS
330
3D2
102
}
330
3D2
100
AcDbXrecord
280
     1
102
MATERIAL
148
0.0
149
0.0
149
0.0
 93
        0
 94
      127
282
     0
 72
     1
 77
     1
171
     1
175
     1
179
     1
273
     0
  0
XRECORD
  5
3B7
102
{ACAD_REACTORS
330
3B6
102
}
330
3B6
100
AcDbXrecord
280
     1
102
RTVSPropertyOp0
 70
     1
102
RTVSPropertyOp1
 70
     1
102
RTVSPropertyOp2
 70
     1
102
RTVSPropertyOp3
 70
     1
102
RTVSPropertyOp4
 70
     1
102
RTVSPropertyOp5
 70
     1
102
RTVSPropertyOp6
 70
     1
102
RTVSPropertyOp7
 70
     1
102
RTVSPropertyOp8
 70
     1
102
RTVSPropertyOp9
 70
     1
102
RTVSPropertyOp10
 70
     1
102
RTVSPropertyOp11
 70
     1
102
RTVSPropertyOp12
 70
     1
102
RTVSPropertyOp13
 70
     1
102
RTVSPropertyOp14
 70
     1
102
RTVSPropertyOp15
 70
     1
102
RTVSPropertyOp16
 70
     1
102
RTVSPropertyOp17
 70
     1
102
RTVSPropertyOp18
 70
     1
102
RTVSPropertyOp19
 70
     1
102
RTVSPropertyOp20
 70
     1
102
RTVSPropertyOp21
 70
     1
102
RTVSPropertyOp22
 70
     1
102
RTVSPropertyOp23
 70
     1
102
RTVSPropertyOp24
 70
     1
102
RTVSPropertyOp25
 70
     1
102
RTVSPropertyOp26
 70
     1
102
RTVSPropertyOp27
 70
     1
102
RTVSPropertyOp28
 70
     1
102
RTVSPropertyOp29
 70
     1
102
RTVSPropertyOp30
 70
     1
102
RTVSPropertyOp31
 70
     1
102
RTVSPropertyOp32
 70
     1
  0
XRECORD
  5
3BB
102
{ACAD_REACTORS
330
3BA
102
}
330
3BA
100
AcDbXrecord
280
     1
102
RTVSPropertyOp0
 70
     1
102
RTVSPropertyOp1
 70
     1
102
RTVSPropertyOp2
 70
     1
102
RTVSPropertyOp3
 70
     1
102
RTVSPropertyOp4
 70
     1
102
RTVSPropertyOp5
 70
     1
102
RTVSPropertyOp6
 70
     1
102
RTVSPropertyOp7
 70
     1
102
RTVSPropertyOp8
 70
     1
102
RTVSPropertyOp9
 70
     1
102
RTVSPropertyOp10
 70
     1
102
RTVSPropertyOp11
 70
     1
102
RTVSPropertyOp12
 70
     1
102
RTVSPropertyOp13
 70
     1
102
RTVSPropertyOp14
 70
     1
102
RTVSPropertyOp15
 70
     1
102
RTVSPropertyOp16
 70
     1
102
RTVSPropertyOp17
 70
     1
102
RTVSPropertyOp18
 70
     1
102
RTVSPropertyOp19
 70
     1
102
RTVSPropertyOp20
 70
     1
102
RTVSPropertyOp21
 70
     1
102
RTVSPropertyOp22
 70
     1
102
RTVSPropertyOp23
 70
     1
102
RTVSPropertyOp24
 70
     1
102
RTVSPropertyOp25
 70
     1
102
RTVSPropertyOp26
 70
     1
102
RTVSPropertyOp27
 70
     1
102
RTVSPropertyOp28
 70
     1
102
RTVSPropertyOp29
 70
     1
102
RTVSPropertyOp30
 70
     1
102
RTVSPropertyOp31
 70
     1
102
RTVSPropertyOp32
 70
     1
  0
XRECORD
  5
3B9
102
{ACAD_REACTORS
330
3B8
102
}
330
3B8
100
AcDbXrecord
280
     1
102
RTVSPropertyOp0
 70
     1
102
RTVSPropertyOp1
 70
     1
102
RTVSPropertyOp2
 70
     1
102
RTVSPropertyOp3
 70
     1
102
RTVSPropertyOp4
 70
     1
102
RTVSPropertyOp5
 70
     1
102
RTVSPropertyOp6
 70
     1
102
RTVSPropertyOp7
 70
     1
102
RTVSPropertyOp8
 70
     1
102
RTVSPropertyOp9
 70
     1
102
RTVSPropertyOp10
 70
     1
102
RTVSPropertyOp11
 70
     1
102
RTVSPropertyOp12
 70
     1
102
RTVSPropertyOp13
 70
     1
102
RTVSPropertyOp14
 70
     1
102
RTVSPropertyOp15
 70
     1
102
RTVSPropertyOp16
 70
     1
102
RTVSPropertyOp17
 70
     1
102
RTVSPropertyOp18
 70
     1
102
RTVSPropertyOp19
 70
     1
102
RTVSPropertyOp20
 70
     1
102
RTVSPropertyOp21
 70
     1
102
RTVSPropertyOp22
 70
     1
102
RTVSPropertyOp23
 70
     1
102
RTVSPropertyOp24
 70
     1
102
RTVSPropertyOp25
 70
     1
102
RTVSPropertyOp26
 70
     1
102
RTVSPropertyOp27
 70
     1
102
RTVSPropertyOp28
 70
     1
102
RTVSPropertyOp29
 70
     1
102
RTVSPropertyOp30
 70
     1
102
RTVSPropertyOp31
 70
     1
102
RTVSPropertyOp32
 70
     1
  0
XRECORD
  5
3BD
102
{ACAD_REACTORS
330
3BC
102
}
330
3BC
100
AcDbXrecord
280
     1
102
RTVSPropertyOp0
 70
     1
102
RTVSPropertyOp1
 70
     1
102
RTVSPropertyOp2
 70
     1
102
RTVSPropertyOp3
 70
     1
102
RTVSPropertyOp4
 70
     1
102
RTVSPropertyOp5
 70
     1
102
RTVSPropertyOp6
 70
     1
102
RTVSPropertyOp7
 70
     1
102
RTVSPropertyOp8
 70
     1
102
RTVSPropertyOp9
 70
     1
102
RTVSPropertyOp10
 70
     1
102
RTVSPropertyOp11
 70
     1
102
RTVSPropertyOp12
 70
     1
102
RTVSPropertyOp13
 70
     1
102
RTVSPropertyOp14
 70
     1
102
RTVSPropertyOp15
 70
     1
102
RTVSPropertyOp16
 70
     1
102
RTVSPropertyOp17
 70
     1
102
RTVSPropertyOp18
 70
     1
102
RTVSPropertyOp19
 70
     1
102
RTVSPropertyOp20
 70
     1
102
RTVSPropertyOp21
 70
     1
102
RTVSPropertyOp22
 70
     1
102
RTVSPropertyOp23
 70
     1
102
RTVSPropertyOp24
 70
     1
102
RTVSPropertyOp25
 70
     1
102
RTVSPropertyOp26
 70
     1
102
RTVSPropertyOp27
 70
     1
102
RTVSPropertyOp28
 70
     1
102
RTVSPropertyOp29
 70
     1
102
RTVSPropertyOp30
 70
     1
102
RTVSPropertyOp31
 70
     1
102
RTVSPropertyOp32
 70
     1
  0
XRECORD
  5
3C5
102
{ACAD_REACTORS
330
3C4
102
}
330
3C4
100
AcDbXrecord
280
     1
102
RTVSPropertyOp0
 70
     1
102
RTVSPropertyOp1
 70
     1
102
RTVSPropertyOp2
 70
     1
102
RTVSPropertyOp3
 70
     1
102
RTVSPropertyOp4
 70
     1
102
RTVSPropertyOp5
 70
     1
102
RTVSPropertyOp6
 70
     1
102
RTVSPropertyOp7
 70
     1
102
RTVSPropertyOp8
 70
     1
102
RTVSPropertyOp9
 70
     1
102
RTVSPropertyOp10
 70
     1
102
RTVSPropertyOp11
 70
     1
102
RTVSPropertyOp12
 70
     1
102
RTVSPropertyOp13
 70
     1
102
RTVSPropertyOp14
 70
     1
102
RTVSPropertyOp15
 70
     1
102
RTVSPropertyOp16
 70
     1
102
RTVSPropertyOp17
 70
     1
102
RTVSPropertyOp18
 70
     1
102
RTVSPropertyOp19
 70
     1
102
RTVSPropertyOp20
 70
     1
102
RTVSPropertyOp21
 70
     1
102
RTVSPropertyOp22
 70
     1
102
RTVSPropertyOp23
 70
     1
102
RTVSPropertyOp24
 70
     1
102
RTVSPropertyOp25
 70
     1
102
RTVSPropertyOp26
 70
     1
102
RTVSPropertyOp27
 70
     1
102
RTVSPropertyOp28
 70
     1
102
RTVSPropertyOp29
 70
     1
102
RTVSPropertyOp30
 70
     1
102
RTVSPropertyOp31
 70
     1
102
RTVSPropertyOp32
 70
     1
  0
XRECORD
  5
3CD
102
{ACAD_REACTORS
330
3CC
102
}
330
3CC
100
AcDbXrecord
280
     1
102
RTVSPropertyOp0
 70
     1
102
RTVSPropertyOp1
 70
     1
102
RTVSPropertyOp2
 70
     1
102
RTVSPropertyOp3
 70
     1
102
RTVSPropertyOp4
 70
     1
102
RTVSPropertyOp5
 70
     1
102
RTVSPropertyOp6
 70
     1
102
RTVSPropertyOp7
 70
     1
102
RTVSPropertyOp8
 70
     1
102
RTVSPropertyOp9
 70
     1
102
RTVSPropertyOp10
 70
     1
102
RTVSPropertyOp11
 70
     1
102
RTVSPropertyOp12
 70
     1
102
RTVSPropertyOp13
 70
     1
102
RTVSPropertyOp14
 70
     1
102
RTVSPropertyOp15
 70
     1
102
RTVSPropertyOp16
 70
     1
102
RTVSPropertyOp17
 70
     1
102
RTVSPropertyOp18
 70
     1
102
RTVSPropertyOp19
 70
     1
102
RTVSPropertyOp20
 70
     1
102
RTVSPropertyOp21
 70
     1
102
RTVSPropertyOp22
 70
     1
102
RTVSPropertyOp23
 70
     1
102
RTVSPropertyOp24
 70
     1
102
RTVSPropertyOp25
 70
     1
102
RTVSPropertyOp26
 70
     1
102
RTVSPropertyOp27
 70
     1
102
RTVSPropertyOp28
 70
     1
102
RTVSPropertyOp29
 70
     1
102
RTVSPropertyOp30
 70
     1
102
RTVSPropertyOp31
 70
     1
102
RTVSPropertyOp32
 70
     1
  0
XRECORD
  5
3C1
102
{ACAD_REACTORS
330
3C0
102
}
330
3C0
100
AcDbXrecord
280
     1
102
RTVSPropertyOp0
 70
     1
102
RTVSPropertyOp1
 70
     1
102
RTVSPropertyOp2
 70
     1
102
RTVSPropertyOp3
 70
     1
102
RTVSPropertyOp4
 70
     1
102
RTVSPropertyOp5
 70
     1
102
RTVSPropertyOp6
 70
     1
102
RTVSPropertyOp7
 70
     1
102
RTVSPropertyOp8
 70
     1
102
RTVSPropertyOp9
 70
     1
102
RTVSPropertyOp10
 70
     1
102
RTVSPropertyOp11
 70
     1
102
RTVSPropertyOp12
 70
     1
102
RTVSPropertyOp13
 70
     1
102
RTVSPropertyOp14
 70
     1
102
RTVSPropertyOp15
 70
     1
102
RTVSPropertyOp16
 70
     1
102
RTVSPropertyOp17
 70
     1
102
RTVSPropertyOp18
 70
     1
102
RTVSPropertyOp19
 70
     1
102
RTVSPropertyOp20
 70
     1
102
RTVSPropertyOp21
 70
     1
102
RTVSPropertyOp22
 70
     1
102
RTVSPropertyOp23
 70
     1
102
RTVSPropertyOp24
 70
     1
102
RTVSPropertyOp25
 70
     1
102
RTVSPropertyOp26
 70
     1
102
RTVSPropertyOp27
 70
     1
102
RTVSPropertyOp28
 70
     1
102
RTVSPropertyOp29
 70
     1
102
RTVSPropertyOp30
 70
     1
102
RTVSPropertyOp31
 70
     1
102
RTVSPropertyOp32
 70
     1
  0
XRECORD
  5
3C3
102
{ACAD_REACTORS
330
3C2
102
}
330
3C2
100
AcDbXrecord
280
     1
102
RTVSPropertyOp0
 70
     1
102
RTVSPropertyOp1
 70
     1
102
RTVSPropertyOp2
 70
     1
102
RTVSPropertyOp3
 70
     1
102
RTVSPropertyOp4
 70
     1
102
RTVSPropertyOp5
 70
     1
102
RTVSPropertyOp6
 70
     1
102
RTVSPropertyOp7
 70
     1
102
RTVSPropertyOp8
 70
     1
102
RTVSPropertyOp9
 70
     1
102
RTVSPropertyOp10
 70
     1
102
RTVSPropertyOp11
 70
     1
102
RTVSPropertyOp12
 70
     1
102
RTVSPropertyOp13
 70
     1
102
RTVSPropertyOp14
 70
     1
102
RTVSPropertyOp15
 70
     1
102
RTVSPropertyOp16
 70
     1
102
RTVSPropertyOp17
 70
     1
102
RTVSPropertyOp18
 70
     1
102
RTVSPropertyOp19
 70
     1
102
RTVSPropertyOp20
 70
     1
102
RTVSPropertyOp21
 70
     1
102
RTVSPropertyOp22
 70
     1
102
RTVSPropertyOp23
 70
     1
102
RTVSPropertyOp24
 70
     1
102
RTVSPropertyOp25
 70
     1
102
RTVSPropertyOp26
 70
     1
102
RTVSPropertyOp27
 70
     1
102
RTVSPropertyOp28
 70
     1
102
RTVSPropertyOp29
 70
     1
102
RTVSPropertyOp30
 70
     1
102
RTVSPropertyOp31
 70
     1
102
RTVSPropertyOp32
 70
     1
  0
XRECORD
  5
3CB
102
{ACAD_REACTORS
330
3CA
102
}
330
3CA
100
AcDbXrecord
280
     1
102
RTVSPropertyOp0
 70
     1
102
RTVSPropertyOp1
 70
     1
102
RTVSPropertyOp2
 70
     1
102
RTVSPropertyOp3
 70
     1
102
RTVSPropertyOp4
 70
     1
102
RTVSPropertyOp5
 70
     1
102
RTVSPropertyOp6
 70
     1
102
RTVSPropertyOp7
 70
     1
102
RTVSPropertyOp8
 70
     1
102
RTVSPropertyOp9
 70
     1
102
RTVSPropertyOp10
 70
     1
102
RTVSPropertyOp11
 70
     1
102
RTVSPropertyOp12
 70
     1
102
RTVSPropertyOp13
 70
     1
102
RTVSPropertyOp14
 70
     1
102
RTVSPropertyOp15
 70
     1
102
RTVSPropertyOp16
 70
     1
102
RTVSPropertyOp17
 70
     1
102
RTVSPropertyOp18
 70
     1
102
RTVSPropertyOp19
 70
     1
102
RTVSPropertyOp20
 70
     1
102
RTVSPropertyOp21
 70
     1
102
RTVSPropertyOp22
 70
     1
102
RTVSPropertyOp23
 70
     1
102
RTVSPropertyOp24
 70
     1
102
RTVSPropertyOp25
 70
     1
102
RTVSPropertyOp26
 70
     1
102
RTVSPropertyOp27
 70
     1
102
RTVSPropertyOp28
 70
     1
102
RTVSPropertyOp29
 70
     1
102
RTVSPropertyOp30
 70
     1
102
RTVSPropertyOp31
 70
     1
102
RTVSPropertyOp32
 70
     1
  0
XRECORD
  5
3AF
102
{ACAD_REACTORS
330
3AE
102
}
330
3AE
100
AcDbXrecord
280
     1
102
RTVSPropertyOp0
 70
     1
102
RTVSPropertyOp1
 70
     1
102
RTVSPropertyOp2
 70
     1
102
RTVSPropertyOp3
 70
     1
102
RTVSPropertyOp4
 70
     1
102
RTVSPropertyOp5
 70
     1
102
RTVSPropertyOp6
 70
     1
102
RTVSPropertyOp7
 70
     1
102
RTVSPropertyOp8
 70
     1
102
RTVSPropertyOp9
 70
     1
102
RTVSPropertyOp10
 70
     1
102
RTVSPropertyOp11
 70
     1
102
RTVSPropertyOp12
 70
     1
102
RTVSPropertyOp13
 70
     1
102
RTVSPropertyOp14
 70
     1
102
RTVSPropertyOp15
 70
     1
102
RTVSPropertyOp16
 70
     1
102
RTVSPropertyOp17
 70
     1
102
RTVSPropertyOp18
 70
     1
102
RTVSPropertyOp19
 70
     1
102
RTVSPropertyOp20
 70
     1
102
RTVSPropertyOp21
 70
     1
102
RTVSPropertyOp22
 70
     1
102
RTVSPropertyOp23
 70
     1
102
RTVSPropertyOp24
 70
     1
102
RTVSPropertyOp25
 70
     1
102
RTVSPropertyOp26
 70
     1
102
RTVSPropertyOp27
 70
     1
102
RTVSPropertyOp28
 70
     1
102
RTVSPropertyOp29
 70
     1
102
RTVSPropertyOp30
 70
     1
102
RTVSPropertyOp31
 70
     1
102
RTVSPropertyOp32
 70
     1
  0
XRECORD
  5
3B1
102
{ACAD_REACTORS
330
3B0
102
}
330
3B0
100
AcDbXrecord
280
     1
102
RTVSPropertyOp0
 70
     1
102
RTVSPropertyOp1
 70
     1
102
RTVSPropertyOp2
 70
     1
102
RTVSPropertyOp3
 70
     1
102
RTVSPropertyOp4
 70
     1
102
RTVSPropertyOp5
 70
     1
102
RTVSPropertyOp6
 70
     1
102
RTVSPropertyOp7
 70
     1
102
RTVSPropertyOp8
 70
     1
102
RTVSPropertyOp9
 70
     1
102
RTVSPropertyOp10
 70
     1
102
RTVSPropertyOp11
 70
     1
102
RTVSPropertyOp12
 70
     1
102
RTVSPropertyOp13
 70
     1
102
RTVSPropertyOp14
 70
     1
102
RTVSPropertyOp15
 70
     1
102
RTVSPropertyOp16
 70
     1
102
RTVSPropertyOp17
 70
     1
102
RTVSPropertyOp18
 70
     1
102
RTVSPropertyOp19
 70
     1
102
RTVSPropertyOp20
 70
     1
102
RTVSPropertyOp21
 70
     1
102
RTVSPropertyOp22
 70
     1
102
RTVSPropertyOp23
 70
     1
102
RTVSPropertyOp24
 70
     1
102
RTVSPropertyOp25
 70
     1
102
RTVSPropertyOp26
 70
     1
102
RTVSPropertyOp27
 70
     1
102
RTVSPropertyOp28
 70
     1
102
RTVSPropertyOp29
 70
     1
102
RTVSPropertyOp30
 70
     1
102
RTVSPropertyOp31
 70
     1
102
RTVSPropertyOp32
 70
     1
  0
XRECORD
  5
3B3
102
{ACAD_REACTORS
330
3B2
102
}
330
3B2
100
AcDbXrecord
280
     1
102
RTVSPropertyOp0
 70
     1
102
RTVSPropertyOp1
 70
     1
102
RTVSPropertyOp2
 70
     1
102
RTVSPropertyOp3
 70
     1
102
RTVSPropertyOp4
 70
     1
102
RTVSPropertyOp5
 70
     1
102
RTVSPropertyOp6
 70
     1
102
RTVSPropertyOp7
 70
     1
102
RTVSPropertyOp8
 70
     1
102
RTVSPropertyOp9
 70
     1
102
RTVSPropertyOp10
 70
     1
102
RTVSPropertyOp11
 70
     1
102
RTVSPropertyOp12
 70
     1
102
RTVSPropertyOp13
 70
     1
102
RTVSPropertyOp14
 70
     1
102
RTVSPropertyOp15
 70
     1
102
RTVSPropertyOp16
 70
     1
102
RTVSPropertyOp17
 70
     1
102
RTVSPropertyOp18
 70
     1
102
RTVSPropertyOp19
 70
     1
102
RTVSPropertyOp20
 70
     1
102
RTVSPropertyOp21
 70
     1
102
RTVSPropertyOp22
 70
     1
102
RTVSPropertyOp23
 70
     1
102
RTVSPropertyOp24
 70
     1
102
RTVSPropertyOp25
 70
     1
102
RTVSPropertyOp26
 70
     1
102
RTVSPropertyOp27
 70
     1
102
RTVSPropertyOp28
 70
     1
102
RTVSPropertyOp29
 70
     1
102
RTVSPropertyOp30
 70
     1
102
RTVSPropertyOp31
 70
     1
102
RTVSPropertyOp32
 70
     1
  0
XRECORD
  5
3B5
102
{ACAD_REACTORS
330
3B4
102
}
330
3B4
100
AcDbXrecord
280
     1
102
RTVSPropertyOp0
 70
     1
102
RTVSPropertyOp1
 70
     1
102
RTVSPropertyOp2
 70
     1
102
RTVSPropertyOp3
 70
     1
102
RTVSPropertyOp4
 70
     1
102
RTVSPropertyOp5
 70
     1
102
RTVSPropertyOp6
 70
     1
102
RTVSPropertyOp7
 70
     1
102
RTVSPropertyOp8
 70
     1
102
RTVSPropertyOp9
 70
     1
102
RTVSPropertyOp10
 70
     1
102
RTVSPropertyOp11
 70
     1
102
RTVSPropertyOp12
 70
     1
102
RTVSPropertyOp13
 70
     1
102
RTVSPropertyOp14
 70
     1
102
RTVSPropertyOp15
 70
     1
102
RTVSPropertyOp16
 70
     1
102
RTVSPropertyOp17
 70
     1
102
RTVSPropertyOp18
 70
     1
102
RTVSPropertyOp19
 70
     1
102
RTVSPropertyOp20
 70
     1
102
RTVSPropertyOp21
 70
     1
102
RTVSPropertyOp22
 70
     1
102
RTVSPropertyOp23
 70
     1
102
RTVSPropertyOp24
 70
     1
102
RTVSPropertyOp25
 70
     1
102
RTVSPropertyOp26
 70
     1
102
RTVSPropertyOp27
 70
     1
102
RTVSPropertyOp28
 70
     1
102
RTVSPropertyOp29
 70
     1
102
RTVSPropertyOp30
 70
     1
102
RTVSPropertyOp31
 70
     1
102
RTVSPropertyOp32
 70
     1
  0
XRECORD
  5
3C9
102
{ACAD_REACTORS
330
3C8
102
}
330
3C8
100
AcDbXrecord
280
     1
102
RTVSPropertyOp0
 70
     1
102
RTVSPropertyOp1
 70
     1
102
RTVSPropertyOp2
 70
     1
102
RTVSPropertyOp3
 70
     1
102
RTVSPropertyOp4
 70
     1
102
RTVSPropertyOp5
 70
     1
102
RTVSPropertyOp6
 70
     1
102
RTVSPropertyOp7
 70
     1
102
RTVSPropertyOp8
 70
     1
102
RTVSPropertyOp9
 70
     1
102
RTVSPropertyOp10
 70
     1
102
RTVSPropertyOp11
 70
     1
102
RTVSPropertyOp12
 70
     1
102
RTVSPropertyOp13
 70
     1
102
RTVSPropertyOp14
 70
     1
102
RTVSPropertyOp15
 70
     1
102
RTVSPropertyOp16
 70
     1
102
RTVSPropertyOp17
 70
     1
102
RTVSPropertyOp18
 70
     1
102
RTVSPropertyOp19
 70
     1
102
RTVSPropertyOp20
 70
     1
102
RTVSPropertyOp21
 70
     1
102
RTVSPropertyOp22
 70
     1
102
RTVSPropertyOp23
 70
     1
102
RTVSPropertyOp24
 70
     1
102
RTVSPropertyOp25
 70
     1
102
RTVSPropertyOp26
 70
     1
102
RTVSPropertyOp27
 70
     1
102
RTVSPropertyOp28
 70
     1
102
RTVSPropertyOp29
 70
     1
102
RTVSPropertyOp30
 70
     1
102
RTVSPropertyOp31
 70
     1
102
RTVSPropertyOp32
 70
     1
  0
XRECORD
  5
3BF
102
{ACAD_REACTORS
330
3BE
102
}
330
3BE
100
AcDbXrecord
280
     1
102
RTVSPropertyOp0
 70
     1
102
RTVSPropertyOp1
 70
     1
102
RTVSPropertyOp2
 70
     1
102
RTVSPropertyOp3
 70
     1
102
RTVSPropertyOp4
 70
     1
102
RTVSPropertyOp5
 70
     1
102
RTVSPropertyOp6
 70
     1
102
RTVSPropertyOp7
 70
     1
102
RTVSPropertyOp8
 70
     1
102
RTVSPropertyOp9
 70
     1
102
RTVSPropertyOp10
 70
     1
102
RTVSPropertyOp11
 70
     1
102
RTVSPropertyOp12
 70
     1
102
RTVSPropertyOp13
 70
     1
102
RTVSPropertyOp14
 70
     1
102
RTVSPropertyOp15
 70
     1
102
RTVSPropertyOp16
 70
     1
102
RTVSPropertyOp17
 70
     1
102
RTVSPropertyOp18
 70
     1
102
RTVSPropertyOp19
 70
     1
102
RTVSPropertyOp20
 70
     1
102
RTVSPropertyOp21
 70
     1
102
RTVSPropertyOp22
 70
     1
102
RTVSPropertyOp23
 70
     1
102
RTVSPropertyOp24
 70
     1
102
RTVSPropertyOp25
 70
     1
102
RTVSPropertyOp26
 70
     1
102
RTVSPropertyOp27
 70
     1
102
RTVSPropertyOp28
 70
     1
102
RTVSPropertyOp29
 70
     1
102
RTVSPropertyOp30
 70
     1
102
RTVSPropertyOp31
 70
     1
102
RTVSPropertyOp32
 70
     1
  0
XRECORD
  5
3C7
102
{ACAD_REACTORS
330
3C6
102
}
330
3C6
100
AcDbXrecord
280
     1
102
RTVSPropertyOp0
 70
     1
102
RTVSPropertyOp1
 70
     1
102
RTVSPropertyOp2
 70
     1
102
RTVSPropertyOp3
 70
     1
102
RTVSPropertyOp4
 70
     1
102
RTVSPropertyOp5
 70
     1
102
RTVSPropertyOp6
 70
     1
102
RTVSPropertyOp7
 70
     1
102
RTVSPropertyOp8
 70
     1
102
RTVSPropertyOp9
 70
     1
102
RTVSPropertyOp10
 70
     1
102
RTVSPropertyOp11
 70
     1
102
RTVSPropertyOp12
 70
     1
102
RTVSPropertyOp13
 70
     1
102
RTVSPropertyOp14
 70
     1
102
RTVSPropertyOp15
 70
     1
102
RTVSPropertyOp16
 70
     1
102
RTVSPropertyOp17
 70
     1
102
RTVSPropertyOp18
 70
     1
102
RTVSPropertyOp19
 70
     1
102
RTVSPropertyOp20
 70
     1
102
RTVSPropertyOp21
 70
     1
102
RTVSPropertyOp22
 70
     1
102
RTVSPropertyOp23
 70
     1
102
RTVSPropertyOp24
 70
     1
102
RTVSPropertyOp25
 70
     1
102
RTVSPropertyOp26
 70
     1
102
RTVSPropertyOp27
 70
     1
102
RTVSPropertyOp28
 70
     1
102
RTVSPropertyOp29
 70
     1
102
RTVSPropertyOp30
 70
     1
102
RTVSPropertyOp31
 70
     1
102
RTVSPropertyOp32
 70
     1
  0
ENDSEC
  0
EOF
