  0
SECTION
  2
HEADER
  9
$ACADVER
  1
AC1015
  9
$ACADMAINTVER
 70
     6
  9
$DWGCODEPAGE
  3
ANSI_1252
  9
$INSBASE
 10
0.0
 20
0.0
 30
0.0
  9
$EXTMIN
 10
-452.8000160926512
 20
-310.119644251265
 30
0.0
  9
$EXTMAX
 10
-32.80001609265275
 20
-13.11964425126499
 30
0.0
  9
$LIMMIN
 10
0.0
 20
0.0
  9
$LIMMAX
 10
12.0
 20
9.0
  9
$ORTHOMODE
 70
     0
  9
$REGENMODE
 70
     1
  9
$FILLMODE
 70
     1
  9
$QTEXTMODE
 70
     0
  9
$MIRRTEXT
 70
     1
  9
$LTSCALE
 40
1.0
  9
$ATTMODE
 70
     1
  9
$TEXTSIZE
 40
0.2
  9
$TRACEWID
 40
0.05
  9
$TEXTSTYLE
  7
Standard
  9
$CLAYER
  8
0
  9
$CELTYPE
  6
ByLayer
  9
$CECOLOR
 62
   256
  9
$CELTSCALE
 40
1.0
  9
$DISPSILH
 70
     0
  9
$DIMSCALE
 40
1.0
  9
$DIMASZ
 40
0.18
  9
$DIMEXO
 40
0.0625
  9
$DIMDLI
 40
0.38
  9
$DIMRND
 40
0.0
  9
$DIMDLE
 40
0.0
  9
$DIMEXE
 40
0.18
  9
$DIMTP
 40
0.0
  9
$DIMTM
 40
0.0
  9
$DIMTXT
 40
0.18
  9
$DIMCEN
 40
0.09
  9
$DIMTSZ
 40
0.0
  9
$DIMTOL
 70
     0
  9
$DIMLIM
 70
     0
  9
$DIMTIH
 70
     1
  9
$DIMTOH
 70
     1
  9
$DIMSE1
 70
     0
  9
$DIMSE2
 70
     0
  9
$DIMTAD
 70
     0
  9
$DIMZIN
 70
     0
  9
$DIMBLK
  1

  9
$DIMASO
 70
     1
  9
$DIMSHO
 70
     1
  9
$DIMPOST
  1

  9
$DIMAPOST
  1

  9
$DIMALT
 70
     0
  9
$DIMALTD
 70
     2
  9
$DIMALTF
 40
25.4
  9
$DIMLFAC
 40
1.0
  9
$DIMTOFL
 70
     0
  9
$DIMTVP
 40
0.0
  9
$DIMTIX
 70
     0
  9
$DIMSOXD
 70
     0
  9
$DIMSAH
 70
     0
  9
$DIMBLK1
  1

  9
$DIMBLK2
  1

  9
$DIMSTYLE
  2
Standard
  9
$DIMCLRD
 70
     0
  9
$DIMCLRE
 70
     0
  9
$DIMCLRT
 70
     0
  9
$DIMTFAC
 40
1.0
  9
$DIMGAP
 40
0.09
  9
$DIMJUST
 70
     0
  9
$DIMSD1
 70
     0
  9
$DIMSD2
 70
     0
  9
$DIMTOLJ
 70
     1
  9
$DIMTZIN
 70
     0
  9
$DIMALTZ
 70
     0
  9
$DIMALTTZ
 70
     0
  9
$DIMUPT
 70
     0
  9
$DIMDEC
 70
     4
  9
$DIMTDEC
 70
     4
  9
$DIMALTU
 70
     2
  9
$DIMALTTD
 70
     2
  9
$DIMTXSTY
  7
Standard
  9
$DIMAUNIT
 70
     0
  9
$DIMADEC
 70
     0
  9
$DIMALTRND
 40
0.0
  9
$DIMAZIN
 70
     0
  9
$DIMDSEP
 70
    46
  9
$DIMATFIT
 70
     3
  9
$DIMFRAC
 70
     0
  9
$DIMLDRBLK
  1

  9
$DIMLUNIT
 70
     2
  9
$DIMLWD
 70
    -2
  9
$DIMLWE
 70
    -2
  9
$DIMTMOVE
 70
     0
  9
$LUNITS
 70
     2
  9
$LUPREC
 70
     4
  9
$SKETCHINC
 40
0.1
  9
$FILLETRAD
 40
0.5
  9
$AUNITS
 70
     0
  9
$AUPREC
 70
     0
  9
$MENU
  1
.
  9
$ELEVATION
 40
0.0
  9
$PELEVATION
 40
0.0
  9
$THICKNESS
 40
0.0
  9
$LIMCHECK
 70
     0
  9
$CHAMFERA
 40
0.5
  9
$CHAMFERB
 40
0.5
  9
$CHAMFERC
 40
1.0
  9
$CHAMFERD
 40
0.0
  9
$SKPOLY
 70
     0
  9
$TDCREATE
 40
2457420.62910868
  9
$TDUCREATE
 40
2457420.587442014
  9
$TDUPDATE
 40
2457420.629109769
  9
$TDUUPDATE
 40
2457420.587443102
  9
$TDINDWG
 40
0.0000000116
  9
$TDUSRTIMER
 40
0.0000000116
  9
$USRTIMER
 70
     1
  9
$ANGBASE
 50
0.0
  9
$ANGDIR
 70
     0
  9
$PDMODE
 70
     0
  9
$PDSIZE
 40
0.0
  9
$PLINEWID
 40
0.0
  9
$SPLFRAME
 70
     0
  9
$SPLINETYPE
 70
     6
  9
$SPLINESEGS
 70
     8
  9
$HANDSEED
  5
3AB
  9
$SURFTAB1
 70
     6
  9
$SURFTAB2
 70
     6
  9
$SURFTYPE
 70
     6
  9
$SURFU
 70
     6
  9
$SURFV
 70
     6
  9
$UCSBASE
  2

  9
$UCSNAME
  2

  9
$UCSORG
 10
0.0
 20
0.0
 30
0.0
  9
$UCSXDIR
 10
1.0
 20
0.0
 30
0.0
  9
$UCSYDIR
 10
0.0
 20
1.0
 30
0.0
  9
$UCSORTHOREF
  2

  9
$UCSORTHOVIEW
 70
     0
  9
$UCSORGTOP
 10
0.0
 20
0.0
 30
0.0
  9
$UCSORGBOTTOM
 10
0.0
 20
0.0
 30
0.0
  9
$UCSORGLEFT
 10
0.0
 20
0.0
 30
0.0
  9
$UCSORGRIGHT
 10
0.0
 20
0.0
 30
0.0
  9
$UCSORGFRONT
 10
0.0
 20
0.0
 30
0.0
  9
$UCSORGBACK
 10
0.0
 20
0.0
 30
0.0
  9
$PUCSBASE
  2

  9
$PUCSNAME
  2

  9
$PUCSORG
 10
0.0
 20
0.0
 30
0.0
  9
$PUCSXDIR
 10
1.0
 20
0.0
 30
0.0
  9
$PUCSYDIR
 10
0.0
 20
1.0
 30
0.0
  9
$PUCSORTHOREF
  2

  9
$PUCSORTHOVIEW
 70
     0
  9
$PUCSORGTOP
 10
0.0
 20
0.0
 30
0.0
  9
$PUCSORGBOTTOM
 10
0.0
 20
0.0
 30
0.0
  9
$PUCSORGLEFT
 10
0.0
 20
0.0
 30
0.0
  9
$PUCSORGRIGHT
 10
0.0
 20
0.0
 30
0.0
  9
$PUCSORGFRONT
 10
0.0
 20
0.0
 30
0.0
  9
$PUCSORGBACK
 10
0.0
 20
0.0
 30
0.0
  9
$USERI1
 70
     0
  9
$USERI2
 70
     0
  9
$USERI3
 70
     0
  9
$USERI4
 70
     0
  9
$USERI5
 70
     0
  9
$USERR1
 40
18.1
  9
$USERR2
 40
0.0
  9
$USERR3
 40
0.0
  9
$USERR4
 40
0.0
  9
$USERR5
 40
0.0
  9
$WORLDVIEW
 70
     1
  9
$SHADEDGE
 70
     3
  9
$SHADEDIF
 70
    70
  9
$TILEMODE
 70
     1
  9
$MAXACTVP
 70
    64
  9
$PINSBASE
 10
0.0
 20
0.0
 30
0.0
  9
$PLIMCHECK
 70
     0
  9
$PEXTMIN
 10
1.00000000000000E+20
 20
1.00000000000000E+20
 30
1.00000000000000E+20
  9
$PEXTMAX
 10
-1.00000000000000E+20
 20
-1.00000000000000E+20
 30
-1.00000000000000E+20
  9
$PLIMMIN
 10
0.0
 20
0.0
  9
$PLIMMAX
 10
12.0
 20
9.0
  9
$UNITMODE
 70
     0
  9
$VISRETAIN
 70
     1
  9
$PLINEGEN
 70
     0
  9
$PSLTSCALE
 70
     1
  9
$TREEDEPTH
 70
  3020
  9
$CMLSTYLE
  2
Standard
  9
$CMLJUST
 70
     0
  9
$CMLSCALE
 40
1.0
  9
$PROXYGRAPHICS
 70
     1
  9
$MEASUREMENT
 70
     1
  9
$CELWEIGHT
370
    -1
  9
$ENDCAPS
280
     0
  9
$JOINSTYLE
280
     0
  9
$LWDISPLAY
290
     0
  9
$INSUNITS
 70
     4
  9
$HYPERLINKBASE
  1

  9
$STYLESHEET
  1

  9
$XEDIT
290
     1
  9
$CEPSNTYPE
380
     0
  9
$PSTYLEMODE
290
     1
  9
$FINGERPRINTGUID
  2
{53AB42D3-6C29-442E-9A29-A52F7A7CC794}
  9
$VERSIONGUID
  2
{FAEB1C32-E019-11D5-929B-00C0DF256EC4}
  9
$EXTNAMES
290
     1
  9
$PSVPSCALE
 40
0.0
  9
$OLESTARTUP
290
     0
  0
ENDSEC
  0
SECTION
  2
CLASSES
  0
CLASS
  1
ACDBDICTIONARYWDFLT
  2
AcDbDictionaryWithDefault
  3
ObjectDBX Classes
 90
        0
280
     0
281
     0
  0
CLASS
  1
VISUALSTYLE
  2
AcDbVisualStyle
  3
ObjectDBX Classes
 90
     4095
280
     0
281
     0
  0
CLASS
  1
MATERIAL
  2
AcDbMaterial
  3
ObjectDBX Classes
 90
     1153
280
     0
281
     0
  0
CLASS
  1
DICTIONARYVAR
  2
AcDbDictionaryVar
  3
ObjectDBX Classes
 90
        0
280
     0
281
     0
  0
CLASS
  1
ACDBPLACEHOLDER
  2
AcDbPlaceHolder
  3
ObjectDBX Classes
 90
        0
280
     0
281
     0
  0
CLASS
  1
LAYOUT
  2
AcDbLayout
  3
ObjectDBX Classes
 90
        0
280
     0
281
     0
  0
ENDSEC
  0
SECTION
  2
TABLES
  0
TABLE
  2
VPORT
  5
8
330
0
100
AcDbSymbolTable
 70
     1
  0
VPORT
  5
29
330
8
100
AcDbSymbolTableRecord
100
AcDbViewportTableRecord
  2
*Active
 70
     0
 10
0.0
 20
0.0
 11
1.0
 21
1.0
 12
-242.800016092652
 22
-161.619644251265
 13
0.0
 23
0.0
 14
0.5
 24
0.5
 15
0.5
 25
0.5
 16
0.0
 26
0.0
 36
1.0
 17
0.0
 27
0.0
 37
0.0
 40
326.7
 41
1.60267857142857
 42
50.0
 43
0.0
 44
0.0
 50
0.0
 51
0.0
 71
     0
 72
   100
 73
     1
 74
     3
 75
     0
 76
     0
 77
     0
 78
     0
281
     0
 65
     1
110
0.0
120
0.0
130
0.0
111
1.0
121
0.0
131
0.0
112
0.0
122
1.0
132
0.0
 79
     0
146
0.0
  0
ENDTAB
  0
TABLE
  2
LTYPE
  5
5
330
0
100
AcDbSymbolTable
 70
     8
  0
LTYPE
  5
14
330
5
100
AcDbSymbolTableRecord
100
AcDbLinetypeTableRecord
  2
ByBlock
 70
     0
  3

 72
    65
 73
     0
 40
0.0
  0
LTYPE
  5
15
330
5
100
AcDbSymbolTableRecord
100
AcDbLinetypeTableRecord
  2
ByLayer
 70
     0
  3

 72
    65
 73
     0
 40
0.0
  0
LTYPE
  5
16
330
5
100
AcDbSymbolTableRecord
100
AcDbLinetypeTableRecord
  2
Continuous
 70
     0
  3
Solid line
 72
    65
 73
     0
 40
0.0
  0
LTYPE
  5
3F
330
5
100
AcDbSymbolTableRecord
100
AcDbLinetypeTableRecord
  2
DASHED
 70
     0
  3
Dashed
 72
    65
 73
     2
 40
15.0
 49
7.0
 74
     0
 49
-8.0
 74
     0
  0
LTYPE
  5
40
330
5
100
AcDbSymbolTableRecord
100
AcDbLinetypeTableRecord
  2
DOTTED
 70
     0
  3
Dotted
 72
    65
 73
     2
 40
1.0
 49
0.0
 74
     0
 49
-1.0
 74
     0
  0
LTYPE
  5
41
330
5
100
AcDbSymbolTableRecord
100
AcDbLinetypeTableRecord
  2
DOT_CENTER
 70
     0
  3
Dot_Center
 72
    65
 73
     4
 40
14.0
 49
12.0
 74
     0
 49
-1.0
 74
     0
 49
0.0
 74
     0
 49
-1.0
 74
     0
  0
LTYPE
  5
42
330
5
100
AcDbSymbolTableRecord
100
AcDbLinetypeTableRecord
  2
LONG_DASHED
 70
     0
  3
Long_Dashed
 72
    65
 73
     2
 40
15.0
 49
10.0
 74
     0
 49
-5.0
 74
     0
  0
LTYPE
  5
43
330
5
100
AcDbSymbolTableRecord
100
AcDbLinetypeTableRecord
  2
DASH_CENTER
 70
     0
  3
Dash_Center
 72
    65
 73
     4
 40
14.0
 49
11.0
 74
     0
 49
-1.0
 74
     0
 49
1.0
 74
     0
 49
-1.0
 74
     0
  0
LTYPE
  5
44
330
5
100
AcDbSymbolTableRecord
100
AcDbLinetypeTableRecord
  2
PHANTOM
 70
     0
  3
Phantom
 72
    65
 73
     6
 40
13.0
 49
10.0
 74
     0
 49
-1.0
 74
     0
 49
0.0
 74
     0
 49
-1.0
 74
     0
 49
0.0
 74
     0
 49
-1.0
 74
     0
  0
LTYPE
  5
45
330
5
100
AcDbSymbolTableRecord
100
AcDbLinetypeTableRecord
  2
CENTER_DASH_DASH
 70
     0
  3
Center_Dash_Dash
 72
    65
 73
     6
 40
14.0
 49
9.0
 74
     0
 49
-1.0
 74
     0
 49
1.0
 74
     0
 49
-1.0
 74
     0
 49
1.0
 74
     0
 49
-1.0
 74
     0
  0
ENDTAB
  0
TABLE
  2
LAYER
  5
2
330
0
100
AcDbSymbolTable
 70
     2
  0
LAYER
  5
10
330
2
100
AcDbSymbolTableRecord
100
AcDbLayerTableRecord
  2
0
 70
     0
 62
     7
  6
Continuous
370
    -3
390
F
  0
LAYER
  5
46
330
2
100
AcDbSymbolTableRecord
100
AcDbLayerTableRecord
  2
1
 70
     0
 62
     7
  6
Continuous
370
    -3
390
F
  0
ENDTAB
  0
TABLE
  2
STYLE
  5
3
330
0
100
AcDbSymbolTable
 70
     5
  0
STYLE
  5
11
330
3
100
AcDbSymbolTableRecord
100
AcDbTextStyleTableRecord
  2
Standard
 70
     0
 40
0.0
 41
1.0
 50
0.0
 71
     0
 42
0.2
  3
txt
  4

  0
STYLE
  5
F0
330
3
100
AcDbSymbolTableRecord
100
AcDbTextStyleTableRecord
  2
CONVERTER_11
 70
     0
 40
0.0
 41
0.9
 50
0.0
 71
     0
 42
0.2
  3
txt.shx
  4

  0
STYLE
  5
34C
330
3
100
AcDbSymbolTableRecord
100
AcDbTextStyleTableRecord
  2
CONVERTER_12
 70
     0
 40
0.0
 41
0.81
 50
0.0
 71
     0
 42
0.2
  3
txt.shx
  4

  0
STYLE
  5
352
330
3
100
AcDbSymbolTableRecord
100
AcDbTextStyleTableRecord
  2
CONVERTER_13
 70
     0
 40
0.0
 41
0.855
 50
0.0
 71
     0
 42
0.2
  3
txt.shx
  4

  0
STYLE
  5
355
330
3
100
AcDbSymbolTableRecord
100
AcDbTextStyleTableRecord
  2
CONVERTER_14
 70
     0
 40
0.0
 41
0.72
 50
0.0
 71
     0
 42
0.2
  3
txt.shx
  4

  0
ENDTAB
  0
TABLE
  2
VIEW
  5
6
330
0
100
AcDbSymbolTable
 70
     0
  0
ENDTAB
  0
TABLE
  2
UCS
  5
7
330
0
100
AcDbSymbolTable
 70
     0
  0
ENDTAB
  0
TABLE
  2
APPID
  5
9
330
0
100
AcDbSymbolTable
 70
     1
  0
APPID
  5
12
330
9
100
AcDbSymbolTableRecord
100
AcDbRegAppTableRecord
  2
ACAD
 70
     0
  0
ENDTAB
  0
TABLE
  2
DIMSTYLE
  5
A
330
0
100
AcDbSymbolTable
 70
     5
100
AcDbDimStyleTable
  0
DIMSTYLE
105
27
330
A
100
AcDbSymbolTableRecord
100
AcDbDimStyleTableRecord
  2
Standard
 70
     0
178
     0
340
11
  0
DIMSTYLE
105
145
102
{ACAD_REACTORS
330
146
102
}
330
A
100
AcDbSymbolTableRecord
100
AcDbDimStyleTableRecord
  2
ME10_DIM_10
 70
     0
 41
1.75
 42
0.0
 44
0.75
 73
     0
 74
     0
 77
     1
 78
     8
140
1.75
147
0.75
172
     1
173
     1
174
     1
175
     1
176
     2
177
     2
271
     2
178
     3
271
     2
340
F0
  0
DIMSTYLE
105
21B
102
{ACAD_REACTORS
330
21C
102
}
330
A
100
AcDbSymbolTableRecord
100
AcDbDimStyleTableRecord
  2
ME10_DIM_11
 70
     0
 41
1.75
 42
0.0
 44
0.75
 73
     0
 74
     0
 77
     1
 78
     8
140
1.75
147
0.75
172
     1
173
     1
174
     1
175
     1
176
     2
177
     2
271
     2
178
     3
271
     2
340
F0
  0
DIMSTYLE
105
226
102
{ACAD_REACTORS
330
227
102
}
330
A
100
AcDbSymbolTableRecord
100
AcDbDimStyleTableRecord
  2
ME10_DIM_12
 70
     0
 41
1.75
 42
0.0
 44
0.75
 73
     0
 74
     0
 77
     1
 78
     8
140
1.75
147
0.75
172
     1
173
     1
174
     1
175
     1
176
     2
177
     2
271
     2
178
     3
271
     2
340
F0
  0
DIMSTYLE
105
231
102
{ACAD_REACTORS
330
232
102
}
330
A
100
AcDbSymbolTableRecord
100
AcDbDimStyleTableRecord
  2
ME10_DIM_13
 70
     0
 41
1.75
 42
0.0
 44
0.75
 73
     0
 74
     0
 77
     1
 78
     8
140
1.75
147
0.75
172
     1
173
     1
174
     1
175
     1
176
     2
177
     2
271
     2
178
     3
271
     2
340
F0
  0
ENDTAB
  0
TABLE
  2
BLOCK_RECORD
  5
1
330
0
100
AcDbSymbolTable
 70
    20
  0
BLOCK_RECORD
  5
1F
330
1
100
AcDbSymbolTableRecord
100
AcDbBlockTableRecord
  2
*Model_Space
340
22
  0
BLOCK_RECORD
  5
1B
330
1
100
AcDbSymbolTableRecord
100
AcDbBlockTableRecord
  2
*Paper_Space
340
1E
  0
BLOCK_RECORD
  5
23
330
1
100
AcDbSymbolTableRecord
100
AcDbBlockTableRecord
  2
*Paper_Space0
340
26
  0
BLOCK_RECORD
  5
47
330
1
100
AcDbSymbolTableRecord
100
AcDbBlockTableRecord
  2
0706016_DFK_2_8-select__1
340
0
102
{BLKREFS
331
4B
102
}
  0
BLOCK_RECORD
  5
4A
330
1
100
AcDbSymbolTableRecord
100
AcDbBlockTableRecord
  2
Allg1
340
0
102
{BLKREFS
331
7C
102
}
  0
BLOCK_RECORD
  5
4E
330
1
100
AcDbSymbolTableRecord
100
AcDbBlockTableRecord
  2
0706016_DFK_2_8-select__2
340
0
102
{BLKREFS
331
52
102
}
  0
BLOCK_RECORD
  5
51
330
1
100
AcDbSymbolTableRecord
100
AcDbBlockTableRecord
  2
Drfsicht1
340
0
102
{BLKREFS
331
7D
102
}
  0
BLOCK_RECORD
  5
55
330
1
100
AcDbSymbolTableRecord
100
AcDbBlockTableRecord
  2
0706016_DFK_2_8-select__3
340
0
102
{BLKREFS
331
59
102
}
  0
BLOCK_RECORD
  5
58
330
1
100
AcDbSymbolTableRecord
100
AcDbBlockTableRecord
  2
Rckans1
340
0
102
{BLKREFS
331
7E
102
}
  0
BLOCK_RECORD
  5
5C
330
1
100
AcDbSymbolTableRecord
100
AcDbBlockTableRecord
  2
0706016_DFK_2_8-select__4
340
0
102
{BLKREFS
331
60
102
}
  0
BLOCK_RECORD
  5
5F
330
1
100
AcDbSymbolTableRecord
100
AcDbBlockTableRecord
  2
SA_Links1
340
0
102
{BLKREFS
331
7F
102
}
  0
BLOCK_RECORD
  5
63
330
1
100
AcDbSymbolTableRecord
100
AcDbBlockTableRecord
  2
0706016_DFK_2_8-select__5
340
0
102
{BLKREFS
331
67
102
}
  0
BLOCK_RECORD
  5
66
330
1
100
AcDbSymbolTableRecord
100
AcDbBlockTableRecord
  2
SA_Rechts1
340
0
102
{BLKREFS
331
80
102
}
  0
BLOCK_RECORD
  5
6A
330
1
100
AcDbSymbolTableRecord
100
AcDbBlockTableRecord
  2
0706016_DFK_2_8-select__6
340
0
102
{BLKREFS
331
6E
102
}
  0
BLOCK_RECORD
  5
6D
330
1
100
AcDbSymbolTableRecord
100
AcDbBlockTableRecord
  2
Vordans1
340
0
102
{BLKREFS
331
81
102
}
  0
BLOCK_RECORD
  5
71
330
1
100
AcDbSymbolTableRecord
100
AcDbBlockTableRecord
  2
_rahmen
340
0
102
{BLKREFS
331
78
102
}
  0
BLOCK_RECORD
  5
74
330
1
100
AcDbSymbolTableRecord
100
AcDbBlockTableRecord
  2
_punkt
340
0
102
{BLKREFS
331
79
102
}
  0
BLOCK_RECORD
  5
77
330
1
100
AcDbSymbolTableRecord
100
AcDbBlockTableRecord
  2
A3I_CS
340
0
102
{BLKREFS
331
82
102
}
  0
BLOCK_RECORD
  5
13C
330
1
100
AcDbSymbolTableRecord
100
AcDbBlockTableRecord
  2
*D16
340
0
  0
BLOCK_RECORD
  5
212
330
1
100
AcDbSymbolTableRecord
100
AcDbBlockTableRecord
  2
*D17
340
0
  0
BLOCK_RECORD
  5
21D
330
1
100
AcDbSymbolTableRecord
100
AcDbBlockTableRecord
  2
*D18
340
0
  0
BLOCK_RECORD
  5
228
330
1
100
AcDbSymbolTableRecord
100
AcDbBlockTableRecord
  2
*D19
340
0
  0
ENDTAB
  0
ENDSEC
  0
SECTION
  2
BLOCKS
  0
BLOCK
  5
20
330
1F
100
AcDbEntity
  8
0
100
AcDbBlockBegin
  2
*Model_Space
 70
     0
 10
0.0
 20
0.0
 30
0.0
  3
*Model_Space
  1

  0
ENDBLK
  5
21
330
1F
100
AcDbEntity
  8
0
100
AcDbBlockEnd
  0
BLOCK
  5
1C
330
1B
100
AcDbEntity
 67
     1
  8
0
100
AcDbBlockBegin
  2
*Paper_Space
 70
     0
 10
0.0
 20
0.0
 30
0.0
  3
*Paper_Space
  1

  0
ENDBLK
  5
1D
330
1B
100
AcDbEntity
 67
     1
  8
0
100
AcDbBlockEnd
  0
BLOCK
  5
24
330
23
100
AcDbEntity
  8
0
100
AcDbBlockBegin
  2
*Paper_Space0
 70
     0
 10
0.0
 20
0.0
 30
0.0
  3
*Paper_Space0
  1

  0
ENDBLK
  5
25
330
23
100
AcDbEntity
  8
0
100
AcDbBlockEnd
  0
BLOCK
  5
48
330
47
100
AcDbEntity
  8
0
100
AcDbBlockBegin
  2
0706016_DFK_2_8-select__1
 70
     0
 10
-71.20271953428215
 20
-122.4723304647826
 30
0.0
  3
0706016_DFK_2_8-select__1
  1

  0
LINE
  5
83
330
47
100
AcDbEntity
  8
0
  6
Continuous
 62
     2
100
AcDbLine
 10
-66.5993727405792
 20
-102.1319722505116
 30
0.0
 11
-63.67437274057919
 21
-99.5988479444421
 31
0.0
  0
LINE
  5
84
330
47
100
AcDbEntity
  8
0
  6
Continuous
 62
     7
100
AcDbLine
 10
-65.62281884693364
 20
-102.4138790771988
 30
0.0
 11
-66.5993727405792
 21
-102.1319722505116
 31
0.0
  0
LINE
  5
85
330
47
100
AcDbEntity
  8
0
  6
Continuous
 62
     7
100
AcDbLine
 10
-65.42663810164501
 20
-102.2182489045204
 30
0.0
 11
-62.50163810164501
 21
-99.68512459845087
 31
0.0
  0
LINE
  5
86
330
47
100
AcDbEntity
  8
0
  6
Continuous
 62
     7
100
AcDbLine
 10
-66.92669957593318
 20
-102.1870204793946
 30
0.0
 11
-64.0016995759332
 21
-99.6538961733251
 31
0.0
  0
LINE
  5
87
330
47
100
AcDbEntity
  8
0
  6
Continuous
 62
     2
100
AcDbLine
 10
-66.5993727405792
 20
-107.674534834732
 30
0.0
 11
-66.16643916741262
 21
-107.2996033622186
 31
0.0
  0
LINE
  5
88
330
47
100
AcDbEntity
  8
0
  6
Continuous
 62
     7
100
AcDbLine
 10
-66.92669957593318
 20
-107.729583063615
 30
0.0
 11
-66.16643916741262
 21
-107.0711782363447
 31
0.0
  0
LINE
  5
89
330
47
100
AcDbEntity
  8
0
  6
Continuous
 62
     7
100
AcDbLine
 10
-70.85630937276838
 20
-107.8947755879347
 30
0.0
 11
-66.16643916741262
 21
-109.248624500698
 31
0.0
  0
LINE
  5
8A
330
47
100
AcDbEntity
  8
0
  6
Continuous
 62
     7
100
AcDbLine
 10
-71.20271953428215
 20
-108.5411857494485
 30
0.0
 11
-70.85630937276838
 21
-107.8947755879347
 31
0.0
  0
LINE
  5
8B
330
47
100
AcDbEntity
  8
0
  6
Continuous
 62
     7
100
AcDbLine
 10
-71.20271953428215
 20
-108.5411857494485
 30
0.0
 11
-66.16643916741262
 21
-109.9950346622118
 31
0.0
  0
LINE
  5
8C
330
47
100
AcDbEntity
  8
0
  6
Continuous
 62
     7
100
AcDbLine
 10
-70.50271953428215
 20
-110.0349679667994
 30
0.0
 11
-71.20271953428215
 21
-108.5411857494485
 31
0.0
  0
LINE
  5
8D
330
47
100
AcDbEntity
  8
0
  6
Continuous
 62
     7
100
AcDbLine
 10
-70.50271953428215
 20
-110.0349679667994
 30
0.0
 11
-66.16643916741262
 21
-111.2867442853463
 31
0.0
  0
LINE
  5
8E
330
47
100
AcDbEntity
  8
0
  6
Continuous
 62
     7
100
AcDbLine
 10
-37.3472795942579
 20
-108.8026795658865
 30
0.0
 11
-37.3472795942579
 21
-114.3868359533574
 31
0.0
  0
LINE
  5
8F
330
47
100
AcDbEntity
  8
0
  6
Continuous
 62
     7
100
AcDbLine
 10
-66.16643916741262
 20
-107.7995119922365
 30
0.0
 11
-66.16643916741262
 21
-103.9890002155849
 31
0.0
  0
LINE
  5
90
330
47
100
AcDbEntity
  8
0
  6
Continuous
 62
     7
100
AcDbLine
 10
-66.16643916741262
 20
-108.6655373960209
 30
0.0
 11
-66.16643916741262
 21
-114.1479404629983
 31
0.0
  0
LINE
  5
91
330
47
100
AcDbEntity
  8
0
  6
Continuous
 62
     7
100
AcDbLine
 10
-65.50593219602517
 20
-114.4255697943214
 30
0.0
 11
-65.4135744940486
 21
-114.1075475301235
 31
0.0
  0
LINE
  5
92
330
47
100
AcDbEntity
  8
0
  6
Continuous
 62
     7
100
AcDbLine
 10
-42.35889597974455
 20
-109.2723850835583
 30
0.0
 11
-39.43389597974455
 21
-106.7392607774888
 31
0.0
  0
LINE
  5
93
330
47
100
AcDbEntity
  8
0
  6
Continuous
 62
     7
100
AcDbLine
 10
-40.27227959425791
 20
-111.335803871956
 30
0.0
 11
-37.3472795942579
 21
-108.8026795658865
 31
0.0
  0
LINE
  5
94
330
47
100
AcDbEntity
  8
0
  6
Continuous
 62
     7
100
AcDbLine
 10
-38.21330499804235
 20
-119.9392061587132
 30
0.0
 11
-38.21330499804235
 21
-115.1368359533574
 31
0.0
  0
LINE
  5
95
330
47
100
AcDbEntity
  8
0
  6
Continuous
 62
     7
100
AcDbLine
 10
-66.16643916741262
 20
-107.7995119922365
 30
0.0
 11
-66.5993727405792
 21
-107.674534834732
 31
0.0
  0
LINE
  5
96
330
47
100
AcDbEntity
  8
0
  6
Continuous
 62
     7
100
AcDbLine
 10
-66.16643916741262
 20
-108.6655373960209
 30
0.0
 11
-66.5993727405792
 21
-108.5405602385164
 31
0.0
  0
LINE
  5
97
330
47
100
AcDbEntity
  8
0
  6
Continuous
 62
     7
100
AcDbLine
 10
-60.90380576129653
 20
-116.6177945160343
 30
0.0
 11
-65.4135744940486
 21
-114.1075475301235
 31
0.0
  0
LINE
  5
98
330
47
100
AcDbEntity
  8
0
  6
Continuous
 62
     7
100
AcDbLine
 10
-41.13830499804234
 20
-122.4723304647826
 30
0.0
 11
-41.13830499804234
 21
-116.6699602594269
 31
0.0
  0
LINE
  5
99
330
47
100
AcDbEntity
  8
0
  6
Continuous
 62
     7
100
AcDbLine
 10
-38.21330499804235
 20
-119.9392061587132
 30
0.0
 11
-41.13830499804234
 21
-122.4723304647826
 31
0.0
  0
LINE
  5
9A
330
47
100
AcDbEntity
  8
0
  6
Continuous
 62
     7
100
AcDbLine
 10
-44.85850418457025
 20
-103.6849893634477
 30
0.0
 11
-44.33731848954766
 21
-101.890351220105
 31
0.0
  0
LINE
  5
9B
330
47
100
AcDbEntity
  8
0
  6
Continuous
 62
     7
100
AcDbLine
 10
-47.26231848954765
 20
-104.4234755261744
 30
0.0
 11
-44.33731848954766
 21
-101.890351220105
 31
0.0
  0
LINE
  5
9C
330
47
100
AcDbEntity
  8
0
  6
Continuous
 62
     7
100
AcDbLine
 10
-58.63201815448801
 20
-102.4689584927713
 30
0.0
 11
-62.56035025416709
 21
-101.3349466951634
 31
0.0
  0
LINE
  5
9D
330
47
100
AcDbEntity
  8
0
  6
Continuous
 62
     7
100
AcDbLine
 10
-58.63201815448801
 20
-103.1329113023394
 30
0.0
 11
-63.13535025416708
 21
-101.8329113023394
 31
0.0
  0
LINE
  5
9E
330
47
100
AcDbEntity
  8
0
  6
Continuous
 62
     7
100
AcDbLine
 10
-58.632018154488
 20
-100.2750274698508
 30
0.0
 11
-48.49952093021169
 21
-103.2000274698503
 31
0.0
  0
LINE
  5
9F
330
47
100
AcDbEntity
  8
0
  6
Continuous
 62
     7
100
AcDbLine
 10
-48.19952093021007
 20
-102.9402198487154
 30
0.0
 11
-56.59996734691913
 21
-100.5152198487154
 31
0.0
  0
LINE
  5
A0
330
47
100
AcDbEntity
  8
0
  6
Continuous
 62
     7
100
AcDbLine
 10
-59.41368631494401
 20
-98.26216105663326
 30
0.0
 11
-60.29230474095307
 21
-98.5232146620076
 31
0.0
  0
LINE
  5
A1
330
47
100
AcDbEntity
  8
0
  6
Continuous
 62
     2
100
AcDbLine
 10
-60.29230474095307
 20
-98.5232146620076
 30
0.0
 11
-62.04230474095307
 21
-100.0387591186304
 31
0.0
  0
LINE
  5
A2
330
47
100
AcDbEntity
  8
0
  6
Continuous
 62
     2
100
AcDbLine
 10
-59.41368631494401
 20
-98.26216105663326
 30
0.0
 11
-61.16368631494402
 21
-99.77770551325602
 31
0.0
  0
LINE
  5
A3
330
47
100
AcDbEntity
  8
0
  6
Continuous
 62
     7
100
AcDbLine
 10
-54.54996734691913
 20
-98.73986777095732
 30
0.0
 11
-54.23536307574361
 21
-101.1978223049605
 31
0.0
  0
LINE
  5
A4
330
47
100
AcDbEntity
  8
0
  6
Continuous
 62
     7
100
AcDbLine
 10
-45.57452093021124
 20
-100.6669031637813
 30
0.0
 11
-46.14952093021007
 21
-101.1648677709573
 31
0.0
  0
LINE
  5
A5
330
47
100
AcDbEntity
  8
0
  6
Continuous
 62
     7
100
AcDbLine
 10
-56.59996734691913
 20
-100.5152198487154
 30
0.0
 11
-54.54996734691913
 21
-98.73986777095732
 31
0.0
  0
LINE
  5
A6
330
47
100
AcDbEntity
  8
0
  6
Continuous
 62
     7
100
AcDbLine
 10
-54.54996734691913
 20
-98.73986777095732
 30
0.0
 11
-46.14952093021007
 21
-101.1648677709573
 31
0.0
  0
LINE
  5
A7
330
47
100
AcDbEntity
  8
0
  6
Continuous
 62
     7
100
AcDbLine
 10
-58.632018154488
 20
-100.2750274698508
 30
0.0
 11
-55.707018154488
 21
-97.74190316378127
 31
0.0
  0
LINE
  5
A8
330
47
100
AcDbEntity
  8
0
  6
Continuous
 62
     7
100
AcDbLine
 10
-62.72010398725345
 20
-99.87432160524803
 30
0.0
 11
-63.67437274057919
 21
-99.5988479444421
 31
0.0
  0
LINE
  5
A9
330
47
100
AcDbEntity
  8
0
  6
Continuous
 62
     7
100
AcDbLine
 10
-62.35302294545689
 20
-99.64124745417243
 30
0.0
 11
-64.1030229454569
 21
-101.1567919107952
 31
0.0
  0
LINE
  5
AA
330
47
100
AcDbEntity
  8
0
  6
Continuous
 62
     7
100
AcDbLine
 10
-61.16368631494402
 20
-99.77770551325602
 30
0.0
 11
-62.04230474095307
 21
-100.0387591186304
 31
0.0
  0
LINE
  5
AB
330
47
100
AcDbEntity
  8
0
  6
Continuous
 62
     2
100
AcDbLine
 10
-62.56035025416709
 20
-101.3349466951634
 30
0.0
 11
-63.13535025416708
 21
-101.8329113023394
 31
0.0
  0
LINE
  5
AC
330
47
100
AcDbEntity
  8
0
  6
Continuous
 62
     7
100
AcDbLine
 10
-55.707018154488
 20
-97.74190316378127
 30
0.0
 11
-45.57452093021124
 21
-100.6669031637813
 31
0.0
  0
LINE
  5
AD
330
47
100
AcDbEntity
  8
0
  6
Continuous
 62
     7
100
AcDbLine
 10
-37.3472795942579
 20
-108.8026795658865
 30
0.0
 11
-39.43389597974455
 21
-106.7392607774888
 31
0.0
  0
LINE
  5
AE
330
47
100
AcDbEntity
  8
0
  6
Continuous
 62
     7
100
AcDbLine
 10
-39.43389597974455
 20
-106.7392607774888
 30
0.0
 11
-41.08342809730122
 21
-107.4180966946666
 31
0.0
  0
LINE
  5
AF
330
47
100
AcDbEntity
  8
0
  6
Continuous
 62
     7
100
AcDbLine
 10
-66.04008776382265
 20
-103.1594493202381
 30
0.0
 11
-66.5993727405792
 21
-102.997997654296
 31
0.0
  0
LINE
  5
B0
330
47
100
AcDbEntity
  8
0
  6
Continuous
 62
     7
100
AcDbLine
 10
-48.19952093021007
 20
-102.9402198487154
 30
0.0
 11
-48.49952093021169
 21
-103.2000274698503
 31
0.0
  0
LINE
  5
B1
330
47
100
AcDbEntity
  8
0
  6
Continuous
 62
     7
100
AcDbLine
 10
-56.46695464502691
 20
-118.9133558685671
 30
0.0
 11
-55.7169546450269
 21
-118.2638368157288
 31
0.0
  0
LINE
  5
B2
330
47
100
AcDbEntity
  8
0
  6
Continuous
 62
     2
100
AcDbLine
 10
-65.50593219602517
 20
-114.4255697943214
 30
0.0
 11
-65.24625421633314
 21
-114.2006820671047
 31
0.0
  0
LINE
  5
B3
330
47
100
AcDbEntity
  8
0
  6
Continuous
 62
     7
100
AcDbLine
 10
-65.57648643644134
 20
-114.5381940929858
 30
0.0
 11
-65.21003832073816
 21
-114.2208407156179
 31
0.0
  0
LINE
  5
B4
330
47
100
AcDbEntity
  8
0
  6
Continuous
 62
     7
100
AcDbLine
 10
-43.65246814820048
 20
-110.3032236266141
 30
0.0
 11
-43.9952130659759
 21
-110.6937721624856
 31
0.0
  0
LINE
  5
B5
330
47
100
AcDbEntity
  8
0
  6
Continuous
 62
     7
100
AcDbLine
 10
-44.00842809730122
 20
-109.951221000736
 30
0.0
 11
-43.65246814820048
 21
-110.3032236266141
 31
0.0
  0
LINE
  5
B6
330
47
100
AcDbEntity
  8
0
  6
Continuous
 62
     7
100
AcDbLine
 10
-43.9952130659759
 20
-110.6937721624856
 30
0.0
 11
-45.8752483950732
 21
-108.8346378012808
 31
0.0
  0
LINE
  5
B7
330
47
100
AcDbEntity
  8
0
  6
Continuous
 62
     7
100
AcDbLine
 10
-41.13830499804234
 20
-116.6699602594269
 30
0.0
 11
-40.27227959425791
 21
-116.9199602594269
 31
0.0
  0
LINE
  5
B8
330
47
100
AcDbEntity
  8
0
  6
Continuous
 62
     7
100
AcDbLine
 10
-40.27227959425791
 20
-111.335803871956
 30
0.0
 11
-40.27227959425791
 21
-116.9199602594269
 31
0.0
  0
LINE
  5
B9
330
47
100
AcDbEntity
  8
0
  6
Continuous
 62
     7
100
AcDbLine
 10
-42.35889597974455
 20
-109.2723850835583
 30
0.0
 11
-44.00842809730122
 21
-109.951221000736
 31
0.0
  0
LINE
  5
BA
330
47
100
AcDbEntity
  8
0
  6
Continuous
 62
     7
100
AcDbLine
 10
-40.27227959425791
 20
-116.9199602594269
 30
0.0
 11
-37.3472795942579
 21
-114.3868359533574
 31
0.0
  0
LINE
  5
BB
330
47
100
AcDbEntity
  8
0
  6
Continuous
 62
     7
100
AcDbLine
 10
-48.13946413367067
 20
-105.8661110436389
 30
0.0
 11
-47.78350418457025
 21
-106.2181136695172
 31
0.0
  0
LINE
  5
BC
330
47
100
AcDbEntity
  8
0
  6
Continuous
 62
     7
100
AcDbLine
 10
-48.48220905144638
 20
-106.2566595795107
 30
0.0
 11
-48.13946413367067
 21
-105.8661110436389
 31
0.0
  0
LINE
  5
BD
330
47
100
AcDbEntity
  8
0
  6
Continuous
 62
     7
100
AcDbLine
 10
-48.08893724705952
 20
-105.9160762063195
 30
0.0
 11
-48.48220905144638
 21
-106.2566595795107
 31
0.0
  0
LINE
  5
BE
330
47
100
AcDbEntity
  8
0
  6
Continuous
 62
     7
100
AcDbLine
 10
-47.78350418457025
 20
-106.2181136695172
 30
0.0
 11
-47.26231848954765
 21
-104.4234755261744
 31
0.0
  0
LINE
  5
BF
330
47
100
AcDbEntity
  8
0
  6
Continuous
 62
     7
100
AcDbLine
 10
-43.6782983428202
 20
-105.5815575169481
 30
0.0
 11
-45.25177598895685
 21
-104.0255727366387
 31
0.0
  0
LINE
  5
C0
330
47
100
AcDbEntity
  8
0
  6
Continuous
 62
     7
100
AcDbLine
 10
-44.00842809730122
 20
-109.951221000736
 30
0.0
 11
-41.08342809730122
 21
-107.4180966946666
 31
0.0
  0
LINE
  5
C1
330
47
100
AcDbEntity
  8
0
  6
Continuous
 62
     7
100
AcDbLine
 10
-46.60217372234877
 20
-108.1157939407153
 30
0.0
 11
-48.48220905144638
 21
-106.2566595795107
 31
0.0
  0
LINE
  5
C2
330
47
100
AcDbEntity
  8
0
  6
Continuous
 62
     7
100
AcDbLine
 10
-41.47669990168781
 20
-107.7586800678575
 30
0.0
 11
-42.9502483950732
 21
-106.3015134952113
 31
0.0
  0
LINE
  5
C3
330
47
100
AcDbEntity
  8
0
  6
Continuous
 62
     7
100
AcDbLine
 10
-42.9502483950732
 20
-106.3015134952113
 30
0.0
 11
-45.8752483950732
 21
-108.8346378012808
 31
0.0
  0
LINE
  5
C4
330
47
100
AcDbEntity
  8
0
  6
Continuous
 62
     7
100
AcDbLine
 10
-46.58043021201021
 20
-108.0948774407991
 30
0.0
 11
-43.65543021201022
 21
-105.5617531347296
 31
0.0
  0
LINE
  5
C5
330
47
100
AcDbEntity
  8
0
  6
Continuous
 62
     7
100
AcDbLine
 10
-47.26231848954765
 20
-104.4234755261744
 30
0.0
 11
-48.49952093021169
 21
-103.2000274698503
 31
0.0
  0
LINE
  5
C6
330
47
100
AcDbEntity
  8
0
  6
Continuous
 62
     7
100
AcDbLine
 10
-40.27227959425791
 20
-111.335803871956
 30
0.0
 11
-42.35889597974455
 21
-109.2723850835583
 31
0.0
  0
LINE
  5
C7
330
47
100
AcDbEntity
  8
0
  6
Continuous
 62
     7
100
AcDbLine
 10
-47.78350418457025
 20
-106.2181136695172
 30
0.0
 11
-44.85850418457025
 21
-103.6849893634477
 31
0.0
  0
LINE
  5
C8
330
47
100
AcDbEntity
  8
0
  6
Continuous
 62
     7
100
AcDbLine
 10
-56.46695464502691
 20
-118.0473304647827
 30
0.0
 11
-56.46695464502691
 21
-118.9133558685671
 31
0.0
  0
LINE
  5
C9
330
47
100
AcDbEntity
  8
0
  6
Continuous
 62
     7
100
AcDbLine
 10
-56.46695464502691
 20
-118.9133558685671
 30
0.0
 11
-58.37054448351313
 21
-118.3638368157288
 31
0.0
  0
LINE
  5
CA
330
47
100
AcDbEntity
  8
0
  6
Continuous
 62
     7
100
AcDbLine
 10
-58.37054448351313
 20
-118.3638368157288
 30
0.0
 11
-58.71862069486645
 21
-116.9643177628904
 31
0.0
  0
LINE
  5
CB
330
47
100
AcDbEntity
  8
0
  6
Continuous
 62
     7
100
AcDbLine
 10
-59.93105626016466
 20
-116.6143177628904
 30
0.0
 11
-60.13453261797131
 21
-117.3149633033872
 31
0.0
  0
LINE
  5
CC
330
47
100
AcDbEntity
  8
0
  6
Continuous
 62
     2
100
AcDbLine
 10
-60.13453261797131
 20
-117.3149633033872
 30
0.0
 11
-59.47688669140118
 21
-116.7454252242821
 31
0.0
  0
LINE
  5
CD
330
47
100
AcDbEntity
  8
0
  6
Continuous
 62
     7
100
AcDbLine
 10
-58.71862069486645
 20
-116.9643177628904
 30
0.0
 11
-59.93105626016466
 21
-116.6143177628904
 31
0.0
  0
LINE
  5
CE
330
47
100
AcDbEntity
  8
0
  6
Continuous
 62
     7
100
AcDbLine
 10
-58.63201815448801
 20
-103.1329113023394
 30
0.0
 11
-58.632018154488
 21
-100.2750274698508
 31
0.0
  0
LINE
  5
CF
330
47
100
AcDbEntity
  8
0
  6
Continuous
 62
     7
100
AcDbLine
 10
-60.97104892170911
 20
-116.8493379787729
 30
0.0
 11
-60.90380576129653
 21
-116.6177945160343
 31
0.0
  0
LINE
  5
D0
330
47
100
AcDbEntity
  8
0
  6
Continuous
 62
     7
100
AcDbLine
 10
-60.22546393448622
 20
-117.4601151140893
 30
0.0
 11
-59.41938002331406
 21
-116.7620259694322
 31
0.0
  0
LINE
  5
D1
330
47
100
AcDbEntity
  8
0
  6
Continuous
 62
     7
100
AcDbLine
 10
-44.33731848954766
 20
-101.890351220105
 30
0.0
 11
-45.57452093021124
 21
-100.6669031637813
 31
0.0
  0
LINE
  5
D2
330
47
100
AcDbEntity
  8
0
  6
Continuous
 62
     7
100
AcDbLine
 10
-46.14952093021007
 20
-101.1648677709573
 30
0.0
 11
-48.19952093021007
 21
-102.9402198487154
 31
0.0
  0
LINE
  5
D3
330
47
100
AcDbEntity
  8
0
  6
Continuous
 62
     7
100
AcDbLine
 10
-56.46695464502691
 20
-118.0473304647827
 30
0.0
 11
-41.13830499804234
 21
-122.4723304647826
 31
0.0
  0
SPLINE
  5
D4
330
47
100
AcDbEntity
  8
0
  6
Continuous
 62
     7
100
AcDbSpline
210
0.0
220
0.0
230
1.0
 70
     8
 71
     3
 72
     9
 73
     5
 74
     3
 42
0.000000001
 43
0.0000000001
 44
0.00000001
 40
0.0
 40
0.0
 40
0.0
 40
0.0
 40
0.1387606648391708
 40
0.2772229645598977
 40
0.2772229645598977
 40
0.2772229645598977
 40
0.2772229645598977
 10
-65.62281884693364
 20
-102.4138790771988
 30
0.0
 10
-65.5918042923569
 20
-102.3795165667314
 30
0.0
 10
-65.52984185677951
 20
-102.3108654464444
 30
0.0
 10
-65.46101466589236
 20
-102.2490989213384
 30
0.0
 10
-65.42663810164501
 20
-102.2182489045204
 30
0.0
 11
-65.62281884693364
 21
-102.4138790771988
 31
0.0
 11
-65.5280552909366
 21
-102.3125164082386
 31
0.0
 11
-65.42663810164501
 21
-102.2182489045204
 31
0.0
  0
SPLINE
  5
D5
330
47
100
AcDbEntity
  8
0
  6
Continuous
 62
     7
100
AcDbSpline
210
0.0
220
0.0
230
1.0
 70
     8
 71
     3
 72
    19
 73
    15
 74
    13
 42
0.000000001
 43
0.0000000001
 44
0.00000001
 40
0.0
 40
0.0
 40
0.0
 40
0.0
 40
0.25184548153152
 40
0.5625676892065113
 40
0.9548920446130054
 40
1.424107017172361
 40
1.950920832966192
 40
2.508285114413122
 40
3.065649395860038
 40
3.592463211653876
 40
4.061678184213257
 40
4.454002539619782
 40
4.76472474729474
 40
5.016570228826244
 40
5.016570228826244
 40
5.016570228826244
 40
5.016570228826244
 10
-39.40608230520003
 20
-115.034372538746
 30
0.0
 10
-39.32053072291295
 20
-115.0412241572026
 30
0.0
 10
-39.12942721401483
 20
-115.0565291530107
 30
0.0
 10
-38.84599674293241
 20
-114.8782893927353
 30
0.0
 10
-38.57272147723987
 20
-114.6015114353657
 30
0.0
 10
-38.31363968963541
 20
-114.2136436409721
 30
0.0
 10
-38.08646546132659
 20
-113.7475117919731
 30
0.0
 10
-37.90542664104312
 20
-113.2297835651509
 30
0.0
 10
-37.78269592178495
 20
-112.6952232394173
 30
0.0
 10
-37.72650056251014
 20
-112.179734042387
 30
0.0
 10
-37.73901385155722
 20
-111.7134635026857
 30
0.0
 10
-37.82274108111875
 20
-111.3336278019478
 30
0.0
 10
-37.9675759964267
 20
-111.031758473614
 30
0.0
 10
-38.13743559021721
 20
-110.9428623971697
 30
0.0
 10
-38.21347688331578
 20
-110.9030661705748
 30
0.0
 11
-39.40608230520003
 21
-115.034372538746
 31
0.0
 11
-39.15426194384496
 21
-115.0308153616353
 31
0.0
 11
-38.87896585707272
 21
-114.8867308114921
 31
0.0
 11
-38.59895480519148
 21
-114.6119359623716
 31
0.0
 11
-38.33331100569686
 21
-114.2251594633065
 31
0.0
 11
-38.10013799851282
 21
-113.7527580000822
 31
0.0
 11
-37.91532552784473
 21
-113.2269260026711
 31
0.0
 11
-37.79146908432957
 21
-112.6834975159173
 31
0.0
 11
-37.73700829475473
 21
-112.1595062792209
 31
0.0
 11
-37.75565564892577
 21
-111.6906619931072
 31
0.0
 11
-37.8461392650299
 21
-111.3089145458393
 31
0.0
 11
-38.002293873396
 21
-111.040280908206
 31
0.0
 11
-38.21347688331578
 21
-110.9030661705748
 31
0.0
  0
SPLINE
  5
D6
330
47
100
AcDbEntity
  8
0
  6
Continuous
 62
     7
100
AcDbSpline
210
0.0
220
0.0
230
1.0
 70
     8
 71
     3
 72
    15
 73
    11
 74
     9
 42
0.000000001
 43
0.0000000001
 44
0.00000001
 40
0.0
 40
0.0
 40
0.0
 40
0.0
 40
0.0887428247097702
 40
0.1830885851329902
 40
0.2859786766194388
 40
0.3970143741736895
 40
0.5132312457939037
 40
0.6302697066128881
 40
0.7435631043833145
 40
0.8495193811366533
 40
0.8495193811366533
 40
0.8495193811366533
 40
0.8495193811366533
 10
-65.57648643644134
 20
-114.5381940929858
 30
0.0
 10
-65.60136385700817
 20
-114.5549053146873
 30
0.0
 10
-65.6526893846914
 20
-114.5893828385454
 30
0.0
 10
-65.75084356156607
 20
-114.5992814413941
 30
0.0
 10
-65.852511806056
 20
-114.57902437863
 30
0.0
 10
-65.95179780179788
 20
-114.5285987286163
 30
0.0
 10
-66.04005066230476
 20
-114.4535936464186
 30
0.0
 10
-66.1091718638438
 20
-114.3602186582246
 30
0.0
 10
-66.15650365961599
 20
-114.2565419878549
 30
0.0
 10
-66.16320205614362
 20
-114.1833242356773
 30
0.0
 10
-66.16643916741262
 20
-114.1479404629983
 30
0.0
 11
-65.57648643644134
 21
-114.5381940929858
 31
0.0
 11
-65.65382384158607
 21
-114.5817166806227
 31
0.0
 11
-65.74730528189238
 21
-114.5944581100366
 31
0.0
 11
-65.84838710642474
 21
-114.575252998458
 31
0.0
 11
-65.94783060651628
 21
-114.5258574851936
 31
0.0
 11
-66.03654672575078
 21
-114.4507854426622
 31
0.0
 11
-66.10642743035237
 21
-114.3568988706469
 31
0.0
 11
-66.15108520179872
 21
-114.2527783764369
 31
0.0
 11
-66.16643916741262
 21
-114.1479404629983
 31
0.0
  0
SPLINE
  5
D7
330
47
100
AcDbEntity
  8
0
  6
Continuous
 62
     7
100
AcDbSpline
210
0.0
220
0.0
230
1.0
 70
     8
 71
     3
 72
     9
 73
     5
 74
     3
 42
0.000000001
 43
0.0000000001
 44
0.00000001
 40
0.0
 40
0.0
 40
0.0
 40
0.0
 40
0.0683698279486296
 40
0.1343007409497628
 40
0.1343007409497628
 40
0.1343007409497628
 40
0.1343007409497628
 10
-65.50593219602517
 20
-114.4255697943214
 30
0.0
 10
-65.51376156016528
 20
-114.4472922218036
 30
0.0
 10
-65.52914101364544
 20
-114.4899621766523
 30
0.0
 10
-65.56089685342236
 20
-114.5223126204724
 30
0.0
 10
-65.57648643644134
 20
-114.5381940929858
 30
0.0
 11
-65.50593219602517
 21
-114.4255697943214
 31
0.0
 11
-65.53366444277869
 21
-114.4880626423987
 31
0.0
 11
-65.57648643644134
 21
-114.5381940929858
 31
0.0
  0
SPLINE
  5
D8
330
47
100
AcDbEntity
  8
0
  6
Continuous
 62
     7
100
AcDbSpline
210
0.0
220
0.0
230
1.0
 70
     8
 71
     3
 72
     9
 73
     5
 74
     3
 42
0.000000001
 43
0.0000000001
 44
0.00000001
 40
0.0
 40
0.0
 40
0.0
 40
0.0
 40
0.069124464851597
 40
0.1398554741442873
 40
0.1398554741442873
 40
0.1398554741442873
 40
0.1398554741442873
 10
-39.07950228710023
 20
-116.0224236740383
 30
0.0
 10
-39.10199763922862
 20
-116.0170006951597
 30
0.0
 10
-39.14751116843914
 20
-116.0060287198094
 30
0.0
 10
-39.19433021258589
 20
-116.0066304854668
 30
0.0
 10
-39.21800864467711
 20
-116.006934834618
 30
0.0
 11
-39.07950228710023
 21
-116.0224236740383
 31
0.0
 11
-39.14730726886098
 21
-116.00898208914
 31
0.0
 11
-39.21800864467711
 21
-116.006934834618
 31
0.0
  0
SPLINE
  5
D9
330
47
100
AcDbEntity
  8
0
  6
Continuous
 62
     7
100
AcDbSpline
210
0.0
220
0.0
230
1.0
 70
     8
 71
     3
 72
    17
 73
    13
 74
    11
 42
0.000000001
 43
0.0000000001
 44
0.00000001
 40
0.0
 40
0.0
 40
0.0
 40
0.0
 40
0.4013407566689328
 40
0.8727084641435922
 40
1.394267953485334
 40
1.940037677517557
 40
2.481437936625452
 40
2.990344323126912
 40
3.442216220176471
 40
3.819983422163944
 40
4.120373644414578
 40
4.365649198675335
 40
4.365649198675335
 40
4.365649198675335
 40
4.365649198675335
 10
-38.8097795942579
 20
-111.1067647365239
 30
0.0
 10
-38.90404759961766
 20
-111.2022336658832
 30
0.0
 10
-39.10903172460785
 20
-111.4098291899769
 30
0.0
 10
-39.35140924079048
 20
-111.8104601104571
 30
0.0
 10
-39.56773260518745
 20
-112.2758952623584
 30
0.0
 10
-39.7355941444882
 20
-112.7865952738067
 30
0.0
 10
-39.847099929469
 20
-113.3079867054684
 30
0.0
 10
-39.89436072813552
 20
-113.8072296170421
 30
0.0
 10
-39.87600094778853
 20
-114.2564823206849
 30
0.0
 10
-39.79001904689119
 20
-114.6216610122544
 30
0.0
 10
-39.64547002794496
 20
-114.9108781755822
 30
0.0
 10
-39.48031784564768
 20
-114.9960762115658
 30
0.0
 10
-39.40608230520003
 20
-115.034372538746
 30
0.0
 11
-38.8097795942579
 21
-111.1067647365239
 31
0.0
 11
-39.08131677937931
 21
-111.4023014562624
 31
0.0
 11
-39.33524363656248
 21
-111.7994269615914
 31
0.0
 11
-39.55509147475768
 21
-112.2723870330518
 31
0.0
 11
-39.72660270437385
 21
-112.7905071827978
 31
0.0
 11
-39.83865328651886
 21
-113.3201852994071
 31
0.0
 11
-39.88397708456008
 21
-113.8270693720134
 31
0.0
 11
-39.85963370517034
 21
-114.2782850749794
 31
0.0
 11
-39.76720287333016
 21
-114.6445699358539
 31
0.0
 11
-39.61267826631192
 21
-114.9021673525277
 31
0.0
 11
-39.40608230520003
 21
-115.034372538746
 31
0.0
  0
SPLINE
  5
DA
330
47
100
AcDbEntity
  8
0
  6
Continuous
 62
     7
100
AcDbSpline
210
0.0
220
0.0
230
1.0
 70
     8
 71
     3
 72
     9
 73
     5
 74
     3
 42
0.000000001
 43
0.0000000001
 44
0.00000001
 40
0.0
 40
0.0
 40
0.0
 40
0.0
 40
1.190639389411664
 40
2.357880053081643
 40
2.357880053081643
 40
2.357880053081643
 40
2.357880053081643
 10
-60.29230474095307
 20
-98.5232146620076
 30
0.0
 10
-60.66935746648214
 20
-98.65589574407394
 30
0.0
 10
-61.41605298002465
 20
-98.91865044619516
 30
0.0
 10
-62.0427727384339
 20
-99.40198057550232
 30
0.0
 10
-62.35302294545689
 20
-99.64124745417243
 30
0.0
 11
-60.29230474095307
 21
-98.5232146620076
 31
0.0
 11
-61.39287072374561
 21
-98.97750165904176
 31
0.0
 11
-62.35302294545689
 21
-99.64124745417243
 31
0.0
  0
SPLINE
  5
DB
330
47
100
AcDbEntity
  8
0
  6
Continuous
 62
     7
100
AcDbSpline
210
0.0
220
0.0
230
1.0
 70
     8
 71
     3
 72
    13
 73
     9
 74
     7
 42
0.000000001
 43
0.0000000001
 44
0.00000001
 40
0.0
 40
0.0
 40
0.0
 40
0.0
 40
0.4473724223079019
 40
0.8854712145563068
 40
1.307753658759459
 40
1.709583985785835
 40
2.089094712334918
 40
2.447925923058804
 40
2.447925923058804
 40
2.447925923058804
 40
2.447925923058804
 10
-57.21807439540335
 20
-99.05051625496098
 30
0.0
 10
-57.32411749497544
 20
-98.94525403545103
 30
0.0
 10
-57.53400552531877
 20
-98.73691159862199
 30
0.0
 10
-57.89855709215644
 20
-98.49331713232867
 30
0.0
 10
-58.28129780844972
 20
-98.31393191436527
 30
0.0
 10
-58.67114564406774
 20
-98.2125061935969
 30
0.0
 10
-59.05478722167832
 20
-98.18375382748766
 30
0.0
 10
-59.2963081276114
 20
-98.23651791526576
 30
0.0
 10
-59.41368631494401
 20
-98.26216105663326
 30
0.0
 11
-57.21807439540335
 21
-99.05051625496098
 31
0.0
 11
-57.54563503269602
 21
-98.7458096553264
 31
0.0
 11
-57.90842443556156
 21
-98.50021975070626
 31
0.0
 11
-58.29197100307785
 21
-98.32354350880726
 31
0.0
 11
-58.68097491223347
 21
-98.22282820494425
 31
0.0
 11
-59.05991870184687
 21
-98.20209180077603
 31
0.0
 11
-59.41368631494401
 21
-98.26216105663326
 31
0.0
  0
SPLINE
  5
DC
330
47
100
AcDbEntity
  8
0
  6
Continuous
 62
     7
100
AcDbSpline
210
0.0
220
0.0
230
1.0
 70
     8
 71
     3
 72
     9
 73
     5
 74
     3
 42
0.000000001
 43
0.0000000001
 44
0.00000001
 40
0.0
 40
0.0
 40
0.0
 40
0.0
 40
0.2823185571239988
 40
0.567132769085144
 40
0.567132769085144
 40
0.567132769085144
 40
0.567132769085144
 10
-62.50163810164501
 20
-99.68512459845087
 30
0.0
 10
-62.42807124599864
 20
-99.62597005918438
 30
0.0
 10
-62.28028720308181
 20
-99.5071380795143
 30
0.0
 10
-62.1107627868005
 20
-99.42213803698387
 30
0.0
 10
-62.02562757938652
 20
-99.37945100394055
 30
0.0
 11
-62.50163810164501
 21
-99.68512459845087
 31
0.0
 11
-62.27555016422539
 21
-99.51604469825483
 31
0.0
 11
-62.02562757938652
 21
-99.37945100394055
 31
0.0
  0
SPLINE
  5
DD
330
47
100
AcDbEntity
  8
0
  6
Continuous
 62
     7
100
AcDbSpline
210
0.0
220
0.0
230
1.0
 70
     8
 71
     3
 72
     9
 73
     5
 74
     3
 42
0.000000001
 43
0.0000000001
 44
0.00000001
 40
0.0
 40
0.0
 40
0.0
 40
0.0
 40
1.19063938941167
 40
2.357880053081642
 40
2.357880053081642
 40
2.357880053081642
 40
2.357880053081642
 10
-62.04230474095307
 20
-100.0387591186304
 30
0.0
 10
-62.41935746648215
 20
-100.1714402006967
 30
0.0
 10
-63.16605298002467
 20
-100.434194902818
 30
0.0
 10
-63.7927727384339
 20
-100.9175250321251
 30
0.0
 10
-64.1030229454569
 20
-101.1567919107952
 30
0.0
 11
-62.04230474095307
 21
-100.0387591186304
 31
0.0
 11
-63.14287072374562
 21
-100.4930461156646
 31
0.0
 11
-64.1030229454569
 21
-101.1567919107952
 31
0.0
  0
SPLINE
  5
DE
330
47
100
AcDbEntity
  8
0
  6
Continuous
 62
     7
100
AcDbSpline
210
0.0
220
0.0
230
1.0
 70
     8
 71
     3
 72
    11
 73
     7
 74
     5
 42
0.000000001
 43
0.0000000001
 44
0.00000001
 40
0.0
 40
0.0
 40
0.0
 40
0.0
 40
0.0805526799810473
 40
0.1638036380530558
 40
0.2517511792397276
 40
0.3453217744506611
 40
0.3453217744506611
 40
0.3453217744506611
 40
0.3453217744506611
 10
-64.0016995759332
 20
-99.6538961733251
 30
0.0
 10
-63.97984325411025
 20
-99.63797124051219
 30
0.0
 10
-63.93539848010629
 20
-99.60558794894331
 30
0.0
 10
-63.85316124458956
 20
-99.58262333447999
 30
0.0
 10
-63.76412896898307
 20
-99.57814984540545
 30
0.0
 10
-63.70490304783554
 20
-99.59180754412559
 30
0.0
 10
-63.67437274057919
 20
-99.5988479444421
 30
0.0
 11
-64.0016995759332
 21
-99.6538961733251
 31
0.0
 11
-63.93393877868737
 21
-99.61033921145358
 31
0.0
 11
-63.8543066683725
 21
-99.58606063035663
 31
0.0
 11
-63.76644518172125
 21
-99.58217095616142
 31
0.0
 11
-63.67437274057919
 21
-99.5988479444421
 31
0.0
  0
SPLINE
  5
DF
330
47
100
AcDbEntity
  8
0
  6
Continuous
 62
     7
100
AcDbSpline
210
0.0
220
0.0
230
1.0
 70
     8
 71
     3
 72
    11
 73
     7
 74
     5
 42
0.000000001
 43
0.0000000001
 44
0.00000001
 40
0.0
 40
0.0
 40
0.0
 40
0.0
 40
0.4366905589671122
 40
0.8904429069114475
 40
1.36533022891003
 40
1.862875322051148
 40
1.862875322051148
 40
1.862875322051148
 40
1.862875322051148
 10
-64.38422827233313
 20
-101.4185835570104
 30
0.0
 10
-64.24823000951078
 20
-101.3652351079878
 30
0.0
 10
-63.97091993705143
 20
-101.2564538649426
 30
0.0
 10
-63.51515121074747
 20
-101.2015681048132
 30
0.0
 10
-63.03751244818784
 20
-101.2183101558487
 30
0.0
 10
-62.72185592724149
 20
-101.2954685775111
 30
0.0
 10
-62.56035025416709
 20
-101.3349466951634
 30
0.0
 11
-64.38422827233313
 21
-101.4185835570104
 31
0.0
 11
-63.97143918008866
 21
-101.2760921159465
 31
0.0
 11
-63.52196452989786
 21
-101.2139331748131
 31
0.0
 11
-63.04748972982275
 21
-101.2337229269131
 31
0.0
 11
-62.56035025416709
 21
-101.3349466951634
 31
0.0
  0
SPLINE
  5
E0
330
47
100
AcDbEntity
  8
0
  6
Continuous
 62
     7
100
AcDbSpline
210
0.0
220
0.0
230
1.0
 70
     8
 71
     3
 72
    11
 73
     7
 74
     5
 42
0.000000001
 43
0.0000000001
 44
0.00000001
 40
0.0
 40
0.0
 40
0.0
 40
0.0
 40
0.563868771737876
 40
1.146625495300288
 40
1.762258297290119
 40
2.41725246594175
 40
2.41725246594175
 40
2.41725246594175
 40
2.41725246594175
 10
-65.42663810164501
 20
-102.2182489045204
 30
0.0
 10
-65.27364384566361
 20
-102.1067743724835
 30
0.0
 10
-64.962530466572
 20
-101.8800912506995
 30
0.0
 10
-64.3868697852085
 20
-101.7193389858451
 30
0.0
 10
-63.76364384497212
 20
-101.6880245213854
 30
0.0
 10
-63.34906240567133
 20
-101.7836284999601
 30
0.0
 10
-63.13535025416708
 20
-101.8329113023394
 30
0.0
 11
-65.42663810164501
 21
-102.2182489045204
 31
0.0
 11
-64.95231252092435
 21
-101.9133501714198
 31
0.0
 11
-64.39488774872024
 21
-101.743400103741
 31
0.0
 11
-63.77985734216145
 21
-101.7161723843747
 31
0.0
 11
-63.13535025416708
 21
-101.8329113023394
 31
0.0
  0
SPLINE
  5
E1
330
47
100
AcDbEntity
  8
0
  6
Continuous
 62
     7
100
AcDbSpline
210
0.0
220
0.0
230
1.0
 70
     8
 71
     3
 72
    13
 73
     9
 74
     7
 42
0.000000001
 43
0.0000000001
 44
0.00000001
 40
0.0
 40
0.0
 40
0.0
 40
0.0
 40
0.5404786924198609
 40
1.078811243383341
 40
1.601871298896137
 40
2.099048870802729
 40
2.564459642528468
 40
2.999009794011382
 40
2.999009794011382
 40
2.999009794011382
 40
2.999009794011382
 10
-58.63201815448796
 20
-101.0047801777091
 30
0.0
 10
-58.73603352329277
 20
-100.857071093764
 30
0.0
 10
-58.94365124646927
 20
-100.5622394602595
 30
0.0
 10
-59.34504582184992
 20
-100.2036752619296
 30
0.0
 10
-59.78847700728991
 20
-99.92709899716297
 30
0.0
 10
-60.25617826419502
 20
-99.75691154377377
 30
0.0
 10
-60.72489933716871
 20
-99.68912474605258
 30
0.0
 10
-61.02080631162696
 20
-99.74886139737251
 30
0.0
 10
-61.16368631494402
 20
-99.77770551325602
 30
0.0
 11
-58.63201815448796
 21
-101.0047801777091
 31
0.0
 11
-58.95980400761998
 21
-100.5750434562922
 31
0.0
 11
-59.35813781315005
 21
-100.2129217709105
 31
0.0
 11
-59.80396662115787
 21
-99.9393737912843
 31
0.0
 11
-60.27148768218086
 21
-99.77023007000943
 31
0.0
 11
-60.73364327351302
 21
-99.71528100559357
 31
0.0
 11
-61.16368631494402
 21
-99.77770551325602
 31
0.0
  0
SPLINE
  5
E2
330
47
100
AcDbEntity
  8
0
  6
Continuous
 62
     7
100
AcDbSpline
210
0.0
220
0.0
230
1.0
 70
     8
 71
     3
 72
    11
 73
     7
 74
     5
 42
0.000000001
 43
0.0000000001
 44
0.00000001
 40
0.0
 40
0.0
 40
0.0
 40
0.0
 40
0.1383194107225225
 40
0.2885555069129253
 40
0.459298170802684
 40
0.6550375468997724
 40
0.6550375468997724
 40
0.6550375468997724
 40
0.6550375468997724
 10
-38.21347688331578
 20
-110.9030661705748
 30
0.0
 10
-38.25928023741001
 20
-110.8948321232713
 30
0.0
 10
-38.3548330610864
 20
-110.8776546523183
 30
0.0
 10
-38.50715763440404
 20
-110.9137699859878
 30
0.0
 10
-38.66313027538378
 20
-110.9890651808189
 30
0.0
 10
-38.7587231175917
 20
-111.0657872155983
 30
0.0
 10
-38.8097795942579
 20
-111.1067647365239
 30
0.0
 11
-38.21347688331578
 21
-110.9030661705748
 31
0.0
 11
-38.35092039593254
 21
-110.8875245826445
 31
0.0
 11
-38.49826163441784
 21
-110.9168749690008
 31
0.0
 11
-38.65232241585613
 21
-110.9904843010995
 31
0.0
 11
-38.8097795942579
 21
-111.1067647365239
 31
0.0
  0
SPLINE
  5
E3
330
47
100
AcDbEntity
  8
0
  6
Continuous
 62
     7
100
AcDbSpline
210
0.0
220
0.0
230
1.0
 70
     8
 71
     3
 72
    15
 73
    11
 74
     9
 42
0.000000001
 43
0.0000000001
 44
0.00000001
 40
0.0
 40
0.0
 40
0.0
 40
0.0
 40
0.5284370236216075
 40
1.089908546169331
 40
1.653130715157835
 40
2.186624236663977
 40
2.662367657967611
 40
3.060198524509947
 40
3.374830180140207
 40
3.629141957774515
 40
3.629141957774515
 40
3.629141957774515
 40
3.629141957774515
 10
-40.13360135140756
 20
-116.7998613781663
 30
0.0
 10
-40.21708587883564
 20
-116.9552325355228
 30
0.0
 10
-40.38927385004832
 20
-117.275687660838
 30
0.0
 10
-40.57085165963092
 20
-117.7980912376688
 30
0.0
 10
-40.69904004908136
 20
-118.3367732866848
 30
0.0
 10
-40.75835970305522
 20
-118.8584326343957
 30
0.0
 10
-40.74817927563787
 20
-119.3310421187973
 30
0.0
 10
-40.6653353986404
 20
-119.7164049385518
 30
0.0
 10
-40.52045045744887
 20
-120.0230591738476
 30
0.0
 10
-40.34882327277867
 20
-120.1133645048092
 30
0.0
 10
-40.27210770898446
 20
-120.1537300422096
 30
0.0
 11
-40.13360135140756
 21
-116.7998613781663
 31
0.0
 11
-40.37171965683044
 21
-117.2716085032471
 31
0.0
 11
-40.56154057128713
 21
-117.800019604074
 31
0.0
 11
-40.68988931074463
 21
-118.3484225698159
 31
0.0
 11
-40.74785926753856
 21
-118.8787572013661
 31
0.0
 11
-40.73142608455378
 21
-119.3542167190602
 31
0.0
 11
-40.64173141227065
 21
-119.7418044681268
 31
0.0
 11
-40.48499912812525
 21
-120.0146195512716
 31
0.0
 11
-40.27210770898446
 21
-120.1537300422096
 31
0.0
  0
SPLINE
  5
E4
330
47
100
AcDbEntity
  8
0
  6
Continuous
 62
     7
100
AcDbSpline
210
0.0
220
0.0
230
1.0
 70
     8
 71
     3
 72
    11
 73
     7
 74
     5
 42
0.000000001
 43
0.0000000001
 44
0.00000001
 40
0.0
 40
0.0
 40
0.0
 40
0.0
 40
0.0805526799810293
 40
0.1638036380530462
 40
0.2517511792397314
 40
0.3453217744506465
 40
0.3453217744506465
 40
0.3453217744506465
 40
0.3453217744506465
 10
-66.92669957593318
 20
-107.729583063615
 30
0.0
 10
-66.90484325411025
 20
-107.7136581308021
 30
0.0
 10
-66.86039848010628
 20
-107.6812748392332
 30
0.0
 10
-66.77816124458955
 20
-107.6583102247698
 30
0.0
 10
-66.68912896898308
 20
-107.6538367356954
 30
0.0
 10
-66.62990304783555
 20
-107.6674944344155
 30
0.0
 10
-66.5993727405792
 20
-107.674534834732
 30
0.0
 11
-66.92669957593318
 21
-107.729583063615
 31
0.0
 11
-66.85893877868737
 21
-107.6860261017435
 31
0.0
 11
-66.7793066683725
 21
-107.6617475206465
 31
0.0
 11
-66.69144518172124
 21
-107.6578578464513
 31
0.0
 11
-66.5993727405792
 21
-107.674534834732
 31
0.0
  0
SPLINE
  5
E5
330
47
100
AcDbEntity
  8
0
  6
Continuous
 62
     7
100
AcDbSpline
210
0.0
220
0.0
230
1.0
 70
     8
 71
     3
 72
    15
 73
    11
 74
     9
 42
0.000000001
 43
0.0000000001
 44
0.00000001
 40
0.0
 40
0.0
 40
0.0
 40
0.0
 40
0.1328962109756596
 40
0.272705322092536
 40
0.4150031796286324
 40
0.5548058914523912
 40
0.6876905845374763
 40
0.8109308977215801
 40
0.9245895382847026
 40
1.032150054400751
 40
1.032150054400751
 40
1.032150054400751
 40
1.032150054400751
 10
-66.5993727405792
 20
-108.5405602385164
 30
0.0
 10
-66.6410348264116
 20
-108.5248989382397
 30
0.0
 10
-66.72652614081905
 20
-108.4927616658454
 30
0.0
 10
-66.83735968795536
 20
-108.4069157530438
 30
0.0
 10
-66.93029099795842
 20
-108.300360002858
 30
0.0
 10
-66.99713754881066
 20
-108.1779423346142
 30
0.0
 10
-67.03317513977659
 20
-108.0494523026419
 30
0.0
 10
-67.0341921324402
 20
-107.9251453401601
 30
0.0
 10
-67.00167891022011
 20
-107.8112628842265
 30
0.0
 10
-66.95122912487709
 20
-107.7563046753849
 30
0.0
 10
-66.92669957593318
 20
-107.729583063615
 30
0.0
 11
-66.5993727405792
 21
-108.5405602385164
 31
0.0
 11
-66.72135223395763
 21
-108.4878117256083
 31
0.0
 11
-66.8334521328419
 21
-108.4042641342342
 31
0.0
 11
-66.9265926261012
 21
-108.2966837979208
 31
0.0
 11
-66.993230305733
 21
-108.1737845787856
 31
0.0
 11
-67.02796724748254
 21
-108.0455204493197
 31
0.0
 11
-67.02799064998581
 21
-107.9222801353596
 31
0.0
 11
-66.99329787895492
 21
-107.8140456695252
 31
0.0
 11
-66.92669957593318
 21
-107.729583063615
 31
0.0
  0
SPLINE
  5
E6
330
47
100
AcDbEntity
  8
0
  6
Continuous
 62
     7
100
AcDbSpline
210
0.0
220
0.0
230
1.0
 70
     8
 71
     3
 72
     9
 73
     5
 74
     3
 42
0.000000001
 43
0.0000000001
 44
0.00000001
 40
0.0
 40
0.0
 40
0.0
 40
0.0
 40
0.0150995811861308
 40
0.0301811461457164
 40
0.0301811461457164
 40
0.0301811461457164
 40
0.0301811461457164
 10
-46.60217372234877
 20
-108.1157939407153
 30
0.0
 10
-46.59868431736162
 20
-108.1121636914525
 30
0.0
 10
-46.59170965676445
 20
-108.1049075386206
 30
0.0
 10
-46.5841885349374
 20
-108.098219471097
 30
0.0
 10
-46.58043021201021
 20
-108.0948774407991
 30
0.0
 11
-46.60217372234877
 21
-108.1157939407153
 31
0.0
 11
-46.59156872181035
 21
-108.1050453908846
 31
0.0
 11
-46.58043021201021
 21
-108.0948774407991
 31
0.0
  0
SPLINE
  5
E7
330
47
100
AcDbEntity
  8
0
  6
Continuous
 62
     7
100
AcDbSpline
210
0.0
220
0.0
230
1.0
 70
     8
 71
     3
 72
    17
 73
    13
 74
    11
 42
0.000000001
 43
0.0000000001
 44
0.00000001
 40
0.0
 40
0.0
 40
0.0
 40
0.0
 40
0.1164331153046418
 40
0.2401304748636766
 40
0.3749445210253404
 40
0.5204254151913124
 40
0.6727953842443821
 40
0.8264411949279249
 40
0.975432252893478
 40
1.115028961333234
 40
1.243206562948302
 40
1.36196396522794
 40
1.36196396522794
 40
1.36196396522794
 40
1.36196396522794
 10
-46.58043021201021
 20
-108.0948774407991
 30
0.0
 10
-46.54781548354757
 20
-108.0729261672345
 30
0.0
 10
-46.48055119216083
 20
-108.0276540956048
 30
0.0
 10
-46.3519601174932
 20
-108.0141796236654
 30
0.0
 10
-46.21860517107536
 20
-108.040046989743
 30
0.0
 10
-46.08805784785028
 20
-108.105339547087
 30
0.0
 10
-45.97184101280419
 20
-108.2029044873206
 30
0.0
 10
-45.87937855680681
 20
-108.3246547649468
 30
0.0
 10
-45.81824161201369
 20
-108.4605861369504
 30
0.0
 10
-45.79513253347416
 20
-108.5985686046392
 30
0.0
 10
-45.80898036050965
 20
-108.7306465104654
 30
0.0
 10
-45.85372806541243
 20
-108.8008669748765
 30
0.0
 10
-45.8752483950732
 20
-108.8346378012808
 30
0.0
 11
-46.58043021201021
 21
-108.0948774407991
 31
0.0
 11
-46.47903809685162
 21
-108.03763837656
 31
0.0
 11
-46.35653430681984
 21
-108.020496043568
 31
0.0
 11
-46.22396540548637
 21
-108.0449973546086
 31
0.0
 11
-46.09328611168623
 21
-108.1089317980947
 31
0.0
 11
-45.9762808431193
 21
-108.2065349460315
 31
0.0
 11
-45.88350023699199
 21
-108.3290045092176
 31
0.0
 11
-45.82331167952414
 21
-108.465297109406
 31
0.0
 11
-45.80114184027081
 21
-108.6031221428167
 31
0.0
 11
-45.81899094665362
 21
-108.7300508949177
 31
0.0
 11
-45.8752483950732
 21
-108.8346378012808
 31
0.0
  0
SPLINE
  5
E8
330
47
100
AcDbEntity
  8
0
  6
Continuous
 62
     7
100
AcDbSpline
210
0.0
220
0.0
230
1.0
 70
     8
 71
     3
 72
    19
 73
    15
 74
    13
 42
0.000000001
 43
0.0000000001
 44
0.00000001
 40
0.0
 40
0.0
 40
0.0
 40
0.0
 40
0.2518454815315058
 40
0.5625676892065232
 40
0.954892044613042
 40
1.424107017172406
 40
1.95092083296623
 40
2.50828511441312
 40
3.06564939586006
 40
3.592463211653927
 40
4.061678184213266
 40
4.454002539619721
 40
4.764724747294745
 40
5.016570228826286
 40
5.016570228826286
 40
5.016570228826286
 40
5.016570228826286
 10
-40.27210770898446
 20
-120.1537300422096
 30
0.0
 10
-40.18655612669739
 20
-120.1605816606662
 30
0.0
 10
-39.99545261779924
 20
-120.1758866564743
 30
0.0
 10
-39.71202214671685
 20
-119.9976468961989
 30
0.0
 10
-39.43874688102432
 20
-119.7208689388292
 30
0.0
 10
-39.17966509341986
 20
-119.3330011444356
 30
0.0
 10
-38.95249086511103
 20
-118.8668692954366
 30
0.0
 10
-38.77145204482754
 20
-118.3491410686144
 30
0.0
 10
-38.64872132556939
 20
-117.8145807428808
 30
0.0
 10
-38.59252596629459
 20
-117.2990915458505
 30
0.0
 10
-38.60503925534164
 20
-116.8328210061492
 30
0.0
 10
-38.68876648490322
 20
-116.4529853054114
 30
0.0
 10
-38.83360140021116
 20
-116.1511159770775
 30
0.0
 10
-39.00346099400164
 20
-116.0622199006332
 30
0.0
 10
-39.07950228710023
 20
-116.0224236740383
 30
0.0
 11
-40.27210770898446
 21
-120.1537300422096
 31
0.0
 11
-40.0202873476294
 21
-120.1501728650989
 31
0.0
 11
-39.74499126085716
 21
-120.0060883149557
 31
0.0
 11
-39.46498020897592
 21
-119.7312934658351
 31
0.0
 11
-39.1993364094813
 21
-119.34451696677
 31
0.0
 11
-38.96616340229725
 21
-118.8721155035457
 31
0.0
 11
-38.78135093162916
 21
-118.3462835061347
 31
0.0
 11
-38.65749448811402
 21
-117.8028550193808
 31
0.0
 11
-38.60303369853918
 21
-117.2788637826844
 31
0.0
 11
-38.62168105271021
 21
-116.8100194965708
 31
0.0
 11
-38.71216466881435
 21
-116.428272049303
 31
0.0
 11
-38.86831927718045
 21
-116.1596384116696
 31
0.0
 11
-39.07950228710023
 21
-116.0224236740383
 31
0.0
  0
SPLINE
  5
E9
330
47
100
AcDbEntity
  8
0
  6
Continuous
 62
     7
100
AcDbSpline
210
0.0
220
0.0
230
1.0
 70
     8
 71
     3
 72
    17
 73
    13
 74
    11
 42
0.000000001
 43
0.0000000001
 44
0.00000001
 40
0.0
 40
0.0
 40
0.0
 40
0.0
 40
0.116433115304648
 40
0.2401304748636899
 40
0.3749445210253518
 40
0.52042541519133
 40
0.6727953842443725
 40
0.8264411949279038
 40
0.9754322528934699
 40
1.115028961333283
 40
1.243206562948351
 40
1.361963965227924
 40
1.361963965227924
 40
1.361963965227924
 40
1.361963965227924
 10
-43.65543021201022
 20
-105.5617531347296
 30
0.0
 10
-43.62281548354758
 20
-105.539801861165
 30
0.0
 10
-43.55555119216082
 20
-105.4945297895352
 30
0.0
 10
-43.4269601174932
 20
-105.4810553175959
 30
0.0
 10
-43.29360517107536
 20
-105.5069226836735
 30
0.0
 10
-43.16305784785032
 20
-105.5722152410176
 30
0.0
 10
-43.04684101280417
 20
-105.669780181251
 30
0.0
 10
-42.95437855680679
 20
-105.7915304588773
 30
0.0
 10
-42.89324161201368
 20
-105.927461830881
 30
0.0
 10
-42.87013253347417
 20
-106.0654442985697
 30
0.0
 10
-42.88398036050963
 20
-106.1975222043959
 30
0.0
 10
-42.92872806541243
 20
-106.267742668807
 30
0.0
 10
-42.9502483950732
 20
-106.3015134952113
 30
0.0
 11
-43.65543021201022
 21
-105.5617531347296
 31
0.0
 11
-43.55403809685163
 21
-105.5045140704905
 31
0.0
 11
-43.43153430681983
 21
-105.4873717374985
 31
0.0
 11
-43.29896540548637
 21
-105.5118730485392
 31
0.0
 11
-43.16828611168624
 21
-105.5758074920253
 31
0.0
 11
-43.0512808431193
 21
-105.673410639962
 31
0.0
 11
-42.95850023699199
 21
-105.795880203148
 31
0.0
 11
-42.89831167952414
 21
-105.9321728033365
 31
0.0
 11
-42.87614184027081
 21
-106.0699978367473
 31
0.0
 11
-42.89399094665363
 21
-106.1969265888482
 31
0.0
 11
-42.9502483950732
 21
-106.3015134952113
 31
0.0
  0
SPLINE
  5
EA
330
47
100
AcDbEntity
  8
0
  6
Continuous
 62
     7
100
AcDbSpline
210
0.0
220
0.0
230
1.0
 70
     8
 71
     3
 72
     9
 73
     5
 74
     3
 42
0.000000001
 43
0.0000000001
 44
0.00000001
 40
0.0
 40
0.0
 40
0.0
 40
0.0
 40
0.429605546390473
 40
0.8417296678045658
 40
0.8417296678045658
 40
0.8417296678045658
 40
0.8417296678045658
 10
-66.16643916741262
 20
-103.9890002155849
 30
0.0
 10
-66.16154144019606
 20
-103.8453143351891
 30
0.0
 10
-66.15194526335532
 20
-103.5637894144583
 30
0.0
 10
-66.07685375852103
 20
-103.2923502261775
 30
0.0
 10
-66.04008776382265
 20
-103.1594493202381
 30
0.0
 11
-66.16643916741262
 21
-103.9890002155849
 31
0.0
 11
-66.13468496257073
 21
-103.5605698284264
 31
0.0
 11
-66.04008776382265
 21
-103.1594493202381
 31
0.0
  0
SPLINE
  5
EB
330
47
100
AcDbEntity
  8
0
  6
Continuous
 62
     7
100
AcDbSpline
210
0.0
220
0.0
230
1.0
 70
     8
 71
     3
 72
     9
 73
     5
 74
     3
 42
0.000000001
 43
0.0000000001
 44
0.00000001
 40
0.0
 40
0.0
 40
0.0
 40
0.0
 40
0.0881160148272609
 40
0.1730887211057949
 40
0.1730887211057949
 40
0.1730887211057949
 40
0.1730887211057949
 10
-60.13453261797131
 20
-117.3149633033872
 30
0.0
 10
-60.14462321476465
 20
-117.3429594794716
 30
0.0
 10
-60.16444446998705
 20
-117.3979531319425
 30
0.0
 10
-60.20537185630045
 20
-117.4396468445367
 30
0.0
 10
-60.22546393448622
 20
-117.4601151140893
 30
0.0
 11
-60.13453261797131
 21
-117.3149633033872
 31
0.0
 11
-60.17027433515711
 21
-117.3955049818875
 31
0.0
 11
-60.22546393448622
 21
-117.4601151140893
 31
0.0
  0
SPLINE
  5
EC
330
47
100
AcDbEntity
  8
0
  6
Continuous
 62
     7
100
AcDbSpline
210
0.0
220
0.0
230
1.0
 70
     8
 71
     3
 72
    15
 73
    11
 74
     9
 42
0.000000001
 43
0.0000000001
 44
0.00000001
 40
0.0
 40
0.0
 40
0.0
 40
0.0
 40
0.1268439153438456
 40
0.2632479933960445
 40
0.4133944055156965
 40
0.5752225327249061
 40
0.7424136212289849
 40
0.9069407627022558
 40
1.061608047159042
 40
1.202610190843234
 40
1.202610190843234
 40
1.202610190843234
 40
1.202610190843234
 10
-60.22546393448622
 20
-117.4601151140893
 30
0.0
 10
-60.26146181609857
 20
-117.4835455321427
 30
0.0
 10
-60.3361707279937
 20
-117.532172294778
 30
0.0
 10
-60.47955586876577
 20
-117.53777252485
 30
0.0
 10
-60.62469665598066
 20
-117.4966586340845
 30
0.0
 10
-60.76156183010524
 20
-117.4102706308146
 30
0.0
 10
-60.87582285628335
 20
-117.2893461600284
 30
0.0
 10
-60.9544673238356
 20
-117.1463782391196
 30
0.0
 10
-60.99494767671378
 20
-116.9943369767252
 30
0.0
 10
-60.97876588340428
 20
-116.8961584513111
 30
0.0
 10
-60.97104892170911
 20
-116.8493379787729
 30
0.0
 11
-60.22546393448622
 21
-117.4601151140893
 31
0.0
 11
-60.33731121748592
 21
-117.5199445835157
 31
0.0
 11
-60.47328641560743
 21
-117.5307529046777
 31
0.0
 11
-60.6181643226076
 21
-117.4913278091461
 31
0.0
 11
-60.75572214974335
 21
-117.4060858745084
 31
0.0
 11
-60.87055620262726
 21
-117.284570441311
 31
0.0
 11
-60.94980907248402
 21
-117.1403894340229
 31
0.0
 11
-60.98460477515732
 21
-116.9896869849341
 31
0.0
 11
-60.97104892170911
 21
-116.8493379787729
 31
0.0
  0
SPLINE
  5
ED
330
47
100
AcDbEntity
  8
0
  6
Continuous
 62
     7
100
AcDbSpline
210
0.0
220
0.0
230
1.0
 70
     8
 71
     3
 72
     9
 73
     5
 74
     3
 42
0.000000001
 43
0.0000000001
 44
0.00000001
 40
0.0
 40
0.0
 40
0.0
 40
0.0
 40
0.1920778434933062
 40
0.384264138491372
 40
0.384264138491372
 40
0.384264138491372
 40
0.384264138491372
 10
-64.1030229454569
 20
-101.1567919107952
 30
0.0
 10
-64.15105264700115
 20
-101.1991489877807
 30
0.0
 10
-64.24713915525619
 20
-101.2838870722738
 30
0.0
 10
-64.33852330739343
 20
-101.3736762768076
 30
0.0
 10
-64.38422827233313
 20
-101.4185835570104
 30
0.0
 11
-64.1030229454569
 21
-101.1567919107952
 31
0.0
 11
-64.24593711786935
 21
-101.2851252165023
 31
0.0
 11
-64.38422827233313
 21
-101.4185835570104
 31
0.0
  0
SPLINE
  5
EE
330
47
100
AcDbEntity
  8
0
  6
Continuous
 62
     7
100
AcDbSpline
210
0.0
220
0.0
230
1.0
 70
     8
 71
     3
 72
    11
 73
     7
 74
     5
 42
0.000000001
 43
0.0000000001
 44
0.00000001
 40
0.0
 40
0.0
 40
0.0
 40
0.0
 40
0.080552679981037
 40
0.1638036380530539
 40
0.2517511792397386
 40
0.3453217744506512
 40
0.3453217744506512
 40
0.3453217744506512
 40
0.3453217744506512
 10
-66.92669957593318
 20
-102.1870204793946
 30
0.0
 10
-66.90484325411026
 20
-102.1710955465817
 30
0.0
 10
-66.86039848010624
 20
-102.1387122550128
 30
0.0
 10
-66.7781612445896
 20
-102.1157476405495
 30
0.0
 10
-66.68912896898306
 20
-102.1112741514749
 30
0.0
 10
-66.62990304783555
 20
-102.1249318501951
 30
0.0
 10
-66.5993727405792
 20
-102.1319722505116
 30
0.0
 11
-66.92669957593318
 21
-102.1870204793946
 31
0.0
 11
-66.85893877868737
 21
-102.1434635175231
 31
0.0
 11
-66.7793066683725
 21
-102.1191849364261
 31
0.0
 11
-66.69144518172124
 21
-102.1152952622309
 31
0.0
 11
-66.5993727405792
 21
-102.1319722505116
 31
0.0
  0
SPLINE
  5
EF
330
47
100
AcDbEntity
  8
0
  6
Continuous
 62
     7
100
AcDbSpline
210
0.0
220
0.0
230
1.0
 70
     8
 71
     3
 72
    15
 73
    11
 74
     9
 42
0.000000001
 43
0.0000000001
 44
0.00000001
 40
0.0
 40
0.0
 40
0.0
 40
0.0
 40
0.132896210975654
 40
0.2727053220925388
 40
0.4150031796286246
 40
0.5548058914523959
 40
0.6876905845374948
 40
0.8109308977216412
 40
0.924589538284723
 40
1.032150054400749
 40
1.032150054400749
 40
1.032150054400749
 40
1.032150054400749
 10
-66.5993727405792
 20
-102.997997654296
 30
0.0
 10
-66.6410348264116
 20
-102.9823363540193
 30
0.0
 10
-66.72652614081903
 20
-102.950199081625
 30
0.0
 10
-66.83735968795534
 20
-102.8643531688234
 30
0.0
 10
-66.93029099795842
 20
-102.7577974186377
 30
0.0
 10
-66.99713754881066
 20
-102.6353797503937
 30
0.0
 10
-67.03317513977659
 20
-102.5068897184215
 30
0.0
 10
-67.0341921324402
 20
-102.3825827559397
 30
0.0
 10
-67.00167891022011
 20
-102.2687003000061
 30
0.0
 10
-66.95122912487709
 20
-102.2137420911645
 30
0.0
 10
-66.92669957593318
 20
-102.1870204793946
 30
0.0
 11
-66.5993727405792
 21
-102.997997654296
 31
0.0
 11
-66.72135223395763
 21
-102.9452491413879
 31
0.0
 11
-66.8334521328419
 21
-102.8617015500137
 31
0.0
 11
-66.9265926261012
 21
-102.7541212137005
 31
0.0
 11
-66.993230305733
 21
-102.6312219945652
 31
0.0
 11
-67.02796724748254
 21
-102.5029578650992
 31
0.0
 11
-67.02799064998581
 21
-102.3797175511391
 31
0.0
 11
-66.99329787895492
 21
-102.2714830853048
 31
0.0
 11
-66.92669957593318
 21
-102.1870204793946
 31
0.0
  0
ENDBLK
  5
49
330
47
100
AcDbEntity
  8
0
100
AcDbBlockEnd
  0
BLOCK
  5
4C
330
4A
100
AcDbEntity
  8
0
100
AcDbBlockBegin
  2
Allg1
 70
     0
 10
-54.744647
 20
-108.715129
 30
0.0
  3
Allg1
  1

  0
INSERT
  5
4B
330
4A
100
AcDbEntity
  8
0
100
AcDbBlockReference
  2
0706016_DFK_2_8-select__1
 10
-71.20271953428215
 20
-122.4723304647826
 30
0.0
  0
MTEXT
  5
F1
330
4A
100
AcDbEntity
  8
1
 62
     6
100
AcDbMText
 10
-54.99999996060893
 20
-128.0371550921814
 30
0.0
 40
2.5
 41
0.0
 71
     2
 72
     1
  1
 
  7
CONVERTER_11
 73
     1
 44
1.32052821128451
  0
ENDBLK
  5
4D
330
4A
100
AcDbEntity
  8
0
100
AcDbBlockEnd
  0
BLOCK
  5
4F
330
4E
100
AcDbEntity
  8
0
100
AcDbBlockBegin
  2
0706016_DFK_2_8-select__2
 70
     0
 10
-160.5500083242804
 20
-94.80000390055338
 30
0.0
  3
0706016_DFK_2_8-select__2
  1

  0
LINE
  5
F2
330
4E
100
AcDbEntity
  8
0
  6
Continuous
 62
     7
100
AcDbLine
 10
-145.1500083242804
 20
-90.15000390055339
 30
0.0
 11
-148.5372797217247
 21
-90.15000390055339
 31
0.0
  0
LINE
  5
F3
330
4E
100
AcDbEntity
  8
0
  6
Continuous
 62
     7
100
AcDbLine
 10
-150.1500083242804
 20
-90.15000390055339
 30
0.0
 11
-152.2560412537949
 21
-90.15000390055339
 31
0.0
  0
LINE
  5
F4
330
4E
100
AcDbEntity
  8
0
  6
Continuous
 62
     7
100
AcDbLine
 10
-152.2560412537949
 20
-93.65000390055339
 30
0.0
 11
-152.2560412537949
 21
-90.15000390055339
 31
0.0
  0
LINE
  5
F5
330
4E
100
AcDbEntity
  8
0
  6
Continuous
 62
     7
100
AcDbLine
 10
-150.1500083242804
 20
-93.65000390055339
 30
0.0
 11
-152.2560412537949
 21
-93.65000390055339
 31
0.0
  0
LINE
  5
F6
330
4E
100
AcDbEntity
  8
0
  6
Continuous
 62
     7
100
AcDbLine
 10
-145.1500083242804
 20
-90.15000390055339
 30
0.0
 11
-145.1500083242804
 21
-93.65000390055339
 31
0.0
  0
LINE
  5
F7
330
4E
100
AcDbEntity
  8
0
  6
Continuous
 62
     7
100
AcDbLine
 10
-148.5372797217247
 20
-90.15000390055339
 30
0.0
 11
-149.5518208912673
 21
-90.15000390055339
 31
0.0
  0
LINE
  5
F8
330
4E
100
AcDbEntity
  8
0
  6
Continuous
 62
     2
100
AcDbLine
 10
-148.5372797217247
 20
-90.15000390055339
 30
0.0
 11
-148.5372797217247
 21
-93.65000390055339
 31
0.0
  0
LINE
  5
F9
330
4E
100
AcDbEntity
  8
0
  6
Continuous
 62
     7
100
AcDbLine
 10
-148.5372797217247
 20
-93.65000390055339
 30
0.0
 11
-149.5518208912673
 21
-93.65000390055339
 31
0.0
  0
LINE
  5
FA
330
4E
100
AcDbEntity
  8
0
  6
Continuous
 62
     7
100
AcDbLine
 10
-149.5518208912673
 20
-90.15000390055339
 30
0.0
 11
-150.1500083242804
 21
-90.15000390055339
 31
0.0
  0
LINE
  5
FB
330
4E
100
AcDbEntity
  8
0
  6
Continuous
 62
     2
100
AcDbLine
 10
-149.5518208912673
 20
-90.15000390055339
 30
0.0
 11
-149.5518208912673
 21
-93.65000390055339
 31
0.0
  0
LINE
  5
FC
330
4E
100
AcDbEntity
  8
0
  6
Continuous
 62
     7
100
AcDbLine
 10
-149.5518208912673
 20
-93.65000390055339
 30
0.0
 11
-150.1500083242804
 21
-93.65000390055339
 31
0.0
  0
LINE
  5
FD
330
4E
100
AcDbEntity
  8
0
  6
Continuous
 62
     2
100
AcDbLine
 10
-150.1500083242804
 20
-93.65000390055339
 30
0.0
 11
-150.1500083242804
 21
-94.80000390055338
 31
0.0
  0
LINE
  5
FE
330
4E
100
AcDbEntity
  8
0
  6
Continuous
 62
     2
100
AcDbLine
 10
-150.1500083242804
 20
-88.95000390055338
 30
0.0
 11
-150.1500083242804
 21
-90.15000390055339
 31
0.0
  0
LINE
  5
FF
330
4E
100
AcDbEntity
  8
0
  6
Continuous
 62
     7
100
AcDbLine
 10
-153.0222896475495
 20
-94.80000390055338
 30
0.0
 11
-150.1500083242804
 21
-94.80000390055338
 31
0.0
  0
LINE
  5
100
330
4E
100
AcDbEntity
  8
0
  6
Continuous
 62
     7
100
AcDbLine
 10
-126.1594253879928
 20
-94.80000390055338
 30
0.0
 11
-128.0641410122094
 21
-94.80000390055338
 31
0.0
  0
LINE
  5
101
330
4E
100
AcDbEntity
  8
0
  6
Continuous
 62
     7
100
AcDbLine
 10
-160.5500083242804
 20
-92.92141406206716
 30
0.0
 11
-160.5500083242804
 21
-92.22859373903961
 31
0.0
  0
LINE
  5
102
330
4E
100
AcDbEntity
  8
0
  6
Continuous
 62
     7
100
AcDbLine
 10
-160.5500083242804
 20
-92.22859373903961
 30
0.0
 11
-160.5500083242804
 21
-90.8285937390396
 31
0.0
  0
LINE
  5
103
330
4E
100
AcDbEntity
  8
0
  6
Continuous
 62
     7
100
AcDbLine
 10
-160.5500083242804
 20
-90.8285937390396
 30
0.0
 11
-154.6499169542983
 21
-90.8285937390396
 31
0.0
  0
LINE
  5
104
330
4E
100
AcDbEntity
  8
0
  6
Continuous
 62
     7
100
AcDbLine
 10
-160.5500083242804
 20
-92.22859373903961
 30
0.0
 11
-154.6499169542983
 21
-92.22859373903961
 31
0.0
  0
LINE
  5
105
330
4E
100
AcDbEntity
  8
0
  6
Continuous
 62
     7
100
AcDbLine
 10
-160.5500083242804
 20
-92.92141406206716
 30
0.0
 11
-154.6499169542983
 21
-92.92141406206716
 31
0.0
  0
LINE
  5
106
330
4E
100
AcDbEntity
  8
0
  6
Continuous
 62
     7
100
AcDbLine
 10
-123.7500083242804
 20
-94.80000390055338
 30
0.0
 11
-126.1594253879928
 21
-94.80000390055338
 31
0.0
  0
LINE
  5
107
330
4E
100
AcDbEntity
  8
0
  6
Continuous
 62
     7
100
AcDbLine
 10
-123.7500083242804
 20
-94.80000390055338
 30
0.0
 11
-123.7500083242804
 21
-88.95000390055338
 31
0.0
  0
LINE
  5
108
330
4E
100
AcDbEntity
  8
0
  6
Continuous
 62
     7
100
AcDbLine
 10
-133.2500083242804
 20
-94.20000390055338
 30
0.0
 11
-133.2500083242823
 21
-94.80000390055338
 31
0.0
  0
LINE
  5
109
330
4E
100
AcDbEntity
  8
0
  6
Continuous
 62
     7
100
AcDbLine
 10
-144.9500083242805
 20
-94.80000390055338
 30
0.0
 11
-150.1500083242804
 21
-94.80000390055338
 31
0.0
  0
LINE
  5
10A
330
4E
100
AcDbEntity
  8
0
  6
Continuous
 62
     7
100
AcDbLine
 10
-142.3785167383285
 20
-94.20000390055338
 30
0.0
 11
-142.9500083242805
 21
-94.20000390055338
 31
0.0
  0
LINE
  5
10B
330
4E
100
AcDbEntity
  8
0
  6
Continuous
 62
     7
100
AcDbLine
 10
-145.1500083242804
 20
-93.65000390055339
 30
0.0
 11
-148.5372797217247
 21
-93.65000390055339
 31
0.0
  0
LINE
  5
10C
330
4E
100
AcDbEntity
  8
0
  6
Continuous
 62
     7
100
AcDbLine
 10
-154.1499169542983
 20
-88.95000390055338
 30
0.0
 11
-153.0222896475495
 21
-88.95000390055338
 31
0.0
  0
LINE
  5
10D
330
4E
100
AcDbEntity
  8
0
  6
Continuous
 62
     7
100
AcDbLine
 10
-153.0222896475495
 20
-88.95000390055338
 30
0.0
 11
-150.1500083242804
 21
-88.95000390055338
 31
0.0
  0
LINE
  5
10E
330
4E
100
AcDbEntity
  8
0
  6
Continuous
 62
     7
100
AcDbLine
 10
-154.6499169542983
 20
-88.95000390055338
 30
0.0
 11
-154.1499169542983
 21
-88.95000390055338
 31
0.0
  0
LINE
  5
10F
330
4E
100
AcDbEntity
  8
0
  6
Continuous
 62
     7
100
AcDbLine
 10
-123.7500083242804
 20
-88.95000390055338
 30
0.0
 11
-126.1594253879928
 21
-88.95000390055338
 31
0.0
  0
LINE
  5
110
330
4E
100
AcDbEntity
  8
0
  6
Continuous
 62
     7
100
AcDbLine
 10
-131.0591404818706
 20
-88.95000390055338
 30
0.0
 11
-131.8214099999634
 21
-88.95000390055338
 31
0.0
  0
LINE
  5
111
330
4E
100
AcDbEntity
  8
0
  6
Continuous
 62
     7
100
AcDbLine
 10
-126.1594253879928
 20
-88.95000390055338
 30
0.0
 11
-128.0641410122094
 21
-88.95000390055338
 31
0.0
  0
LINE
  5
112
330
4E
100
AcDbEntity
  8
0
  6
Continuous
 62
     7
100
AcDbLine
 10
-131.8214099999634
 20
-88.95000390055338
 30
0.0
 11
-133.2500083242818
 21
-88.95000390055338
 31
0.0
  0
LINE
  5
113
330
4E
100
AcDbEntity
  8
0
  6
Continuous
 62
     7
100
AcDbLine
 10
-144.9500083242805
 20
-88.95000390055338
 30
0.0
 11
-150.1500083242804
 21
-88.95000390055338
 31
0.0
  0
LINE
  5
114
330
4E
100
AcDbEntity
  8
0
  6
Continuous
 62
     7
100
AcDbLine
 10
-128.0641410122094
 20
-94.80000390055338
 30
0.0
 11
-128.0641410122094
 21
-88.95000390055338
 31
0.0
  0
LINE
  5
115
330
4E
100
AcDbEntity
  8
0
  6
Continuous
 62
     7
100
AcDbLine
 10
-128.0641410122094
 20
-88.95000390055338
 30
0.0
 11
-130.1341196539418
 21
-88.95000390055338
 31
0.0
  0
LINE
  5
116
330
4E
100
AcDbEntity
  8
0
  6
Continuous
 62
     7
100
AcDbLine
 10
-133.2500083242804
 20
-94.20000390055338
 30
0.0
 11
-136.2609007385822
 21
-94.20000390055338
 31
0.0
  0
LINE
  5
117
330
4E
100
AcDbEntity
  8
0
  6
Continuous
 62
     7
100
AcDbLine
 10
-131.0591404818706
 20
-94.80000390055338
 30
0.0
 11
-131.8214099999634
 21
-94.80000390055338
 31
0.0
  0
LINE
  5
118
330
4E
100
AcDbEntity
  8
0
  6
Continuous
 62
     7
100
AcDbLine
 10
-131.8214099999634
 20
-94.80000390055338
 30
0.0
 11
-133.2500083242823
 21
-94.80000390055338
 31
0.0
  0
LINE
  5
119
330
4E
100
AcDbEntity
  8
0
  6
Continuous
 62
     7
100
AcDbLine
 10
-144.9500083242805
 20
-94.80000390055338
 30
0.0
 11
-133.2500083242823
 21
-94.80000390055338
 31
0.0
  0
LINE
  5
11A
330
4E
100
AcDbEntity
  8
0
  6
Continuous
 62
     7
100
AcDbLine
 10
-136.2609007385822
 20
-94.20000390055338
 30
0.0
 11
-142.3785167383285
 21
-94.20000390055338
 31
0.0
  0
LINE
  5
11B
330
4E
100
AcDbEntity
  8
0
  6
Continuous
 62
     7
100
AcDbLine
 10
-128.0641410122094
 20
-94.80000390055338
 30
0.0
 11
-130.1341196539418
 21
-94.80000390055338
 31
0.0
  0
LINE
  5
11C
330
4E
100
AcDbEntity
  8
0
  6
Continuous
 62
     7
100
AcDbLine
 10
-130.1341196539418
 20
-94.80000390055338
 30
0.0
 11
-131.0591404818706
 21
-94.80000390055338
 31
0.0
  0
LINE
  5
11D
330
4E
100
AcDbEntity
  8
0
  6
Continuous
 62
     7
100
AcDbLine
 10
-130.1341196539418
 20
-88.95000390055338
 30
0.0
 11
-131.0591404818706
 21
-88.95000390055338
 31
0.0
  0
LINE
  5
11E
330
4E
100
AcDbEntity
  8
0
  6
Continuous
 62
     7
100
AcDbLine
 10
-131.8214099999634
 20
-94.80000390055338
 30
0.0
 11
-131.8214099999634
 21
-88.95000390055338
 31
0.0
  0
LINE
  5
11F
330
4E
100
AcDbEntity
  8
0
  6
Continuous
 62
     7
100
AcDbLine
 10
-131.0591404818706
 20
-88.95000390055338
 30
0.0
 11
-131.0591404818706
 21
-94.80000390055338
 31
0.0
  0
LINE
  5
120
330
4E
100
AcDbEntity
  8
0
  6
Continuous
 62
     7
100
AcDbLine
 10
-130.1341196539418
 20
-94.80000390055338
 30
0.0
 11
-130.1341196539418
 21
-88.95000390055338
 31
0.0
  0
LINE
  5
121
330
4E
100
AcDbEntity
  8
0
  6
Continuous
 62
     7
100
AcDbLine
 10
-126.1594253879928
 20
-94.80000390055338
 30
0.0
 11
-126.1594253879928
 21
-88.95000390055338
 31
0.0
  0
LINE
  5
122
330
4E
100
AcDbEntity
  8
0
  6
Continuous
 62
     7
100
AcDbLine
 10
-136.8507209824113
 20
-93.5000039005534
 30
0.0
 11
-136.9609007385822
 21
-93.5000039005534
 31
0.0
  0
LINE
  5
123
330
4E
100
AcDbEntity
  8
0
  6
Continuous
 62
     7
100
AcDbLine
 10
-142.2456511107604
 20
-93.5000039005534
 30
0.0
 11
-142.2543666069185
 21
-93.5000039005534
 31
0.0
  0
LINE
  5
124
330
4E
100
AcDbEntity
  8
0
  6
Continuous
 62
     7
100
AcDbLine
 10
-142.2543666069185
 20
-90.80000390055338
 30
0.0
 11
-142.2456511107604
 21
-90.80000390055338
 31
0.0
  0
LINE
  5
125
330
4E
100
AcDbEntity
  8
0
  6
Continuous
 62
     7
100
AcDbLine
 10
-142.2456511107604
 20
-90.80000390055338
 30
0.0
 11
-136.9609007385822
 21
-90.80000390055338
 31
0.0
  0
LINE
  5
126
330
4E
100
AcDbEntity
  8
0
  6
Continuous
 62
     7
100
AcDbLine
 10
-142.2543666069185
 20
-93.5000039005534
 30
0.0
 11
-142.2543666069185
 21
-90.80000390055338
 31
0.0
  0
LINE
  5
127
330
4E
100
AcDbEntity
  8
0
  6
Continuous
 62
     7
100
AcDbLine
 10
-136.9609007385822
 20
-93.5000039005534
 30
0.0
 11
-142.2456511107604
 21
-93.5000039005534
 31
0.0
  0
LINE
  5
128
330
4E
100
AcDbEntity
  8
0
  6
Continuous
 62
     7
100
AcDbLine
 10
-136.8507209824113
 20
-90.80000390055338
 30
0.0
 11
-136.8507209824113
 21
-93.5000039005534
 31
0.0
  0
LINE
  5
129
330
4E
100
AcDbEntity
  8
0
  6
Continuous
 62
     7
100
AcDbLine
 10
-136.9609007385822
 20
-90.80000390055338
 30
0.0
 11
-136.8507209824113
 21
-90.80000390055338
 31
0.0
  0
LINE
  5
12A
330
4E
100
AcDbEntity
  8
0
  6
Continuous
 62
     7
100
AcDbLine
 10
-133.2500083242804
 20
-90.10000390055339
 30
0.0
 11
-133.2500083242804
 21
-94.20000390055338
 31
0.0
  0
LINE
  5
12B
330
4E
100
AcDbEntity
  8
0
  6
Continuous
 62
     7
100
AcDbLine
 10
-142.9500083242805
 20
-90.10000390055339
 30
0.0
 11
-142.3785167383285
 21
-90.10000390055339
 31
0.0
  0
LINE
  5
12C
330
4E
100
AcDbEntity
  8
0
  6
Continuous
 62
     7
100
AcDbLine
 10
-136.2609007385822
 20
-90.10000390055339
 30
0.0
 11
-133.2500083242804
 21
-90.10000390055339
 31
0.0
  0
LINE
  5
12D
330
4E
100
AcDbEntity
  8
0
  6
Continuous
 62
     7
100
AcDbLine
 10
-133.2500083242818
 20
-88.95000390055338
 30
0.0
 11
-133.2500083242804
 21
-90.10000390055339
 31
0.0
  0
LINE
  5
12E
330
4E
100
AcDbEntity
  8
0
  6
Continuous
 62
     7
100
AcDbLine
 10
-144.9500083242805
 20
-88.95000390055338
 30
0.0
 11
-133.2500083242818
 21
-88.95000390055338
 31
0.0
  0
LINE
  5
12F
330
4E
100
AcDbEntity
  8
0
  6
Continuous
 62
     7
100
AcDbLine
 10
-142.3785167383285
 20
-90.10000390055339
 30
0.0
 11
-136.2609007385822
 21
-90.10000390055339
 31
0.0
  0
LINE
  5
130
330
4E
100
AcDbEntity
  8
0
  6
Continuous
 62
     7
100
AcDbLine
 10
-144.9500083242805
 20
-94.80000390055338
 30
0.0
 11
-144.9500083242805
 21
-88.95000390055338
 31
0.0
  0
LINE
  5
131
330
4E
100
AcDbEntity
  8
0
  6
Continuous
 62
     7
100
AcDbLine
 10
-142.9500083242805
 20
-94.20000390055338
 30
0.0
 11
-142.9500083242805
 21
-90.10000390055339
 31
0.0
  0
LINE
  5
132
330
4E
100
AcDbEntity
  8
0
  6
Continuous
 62
     7
100
AcDbLine
 10
-142.3785167383285
 20
-94.20000390055338
 30
0.0
 11
-142.2456511107604
 21
-93.5000039005534
 31
0.0
  0
LINE
  5
133
330
4E
100
AcDbEntity
  8
0
  6
Continuous
 62
     7
100
AcDbLine
 10
-142.3785167383285
 20
-90.10000390055339
 30
0.0
 11
-142.2456511107604
 21
-90.80000390055338
 31
0.0
  0
LINE
  5
134
330
4E
100
AcDbEntity
  8
0
  6
Continuous
 62
     7
100
AcDbLine
 10
-136.2609007385822
 20
-94.20000390055338
 30
0.0
 11
-136.9609007385822
 21
-93.5000039005534
 31
0.0
  0
LINE
  5
135
330
4E
100
AcDbEntity
  8
0
  6
Continuous
 62
     7
100
AcDbLine
 10
-154.6499169542983
 20
-94.80000390055338
 30
0.0
 11
-154.1499169542983
 21
-94.80000390055338
 31
0.0
  0
LINE
  5
136
330
4E
100
AcDbEntity
  8
0
  6
Continuous
 62
     7
100
AcDbLine
 10
-153.0222896475495
 20
-94.80000390055338
 30
0.0
 11
-154.1499169542983
 21
-94.80000390055338
 31
0.0
  0
LINE
  5
137
330
4E
100
AcDbEntity
  8
0
  6
Continuous
 62
     7
100
AcDbLine
 10
-153.0222896475495
 20
-94.80000390055338
 30
0.0
 11
-153.0222896475495
 21
-88.95000390055338
 31
0.0
  0
LINE
  5
138
330
4E
100
AcDbEntity
  8
0
  6
Continuous
 62
     2
100
AcDbLine
 10
-154.1499169542983
 20
-94.80000390055338
 30
0.0
 11
-154.1499169542983
 21
-88.95000390055338
 31
0.0
  0
LINE
  5
139
330
4E
100
AcDbEntity
  8
0
  6
Continuous
 62
     7
100
AcDbLine
 10
-154.6499169542983
 20
-94.80000390055338
 30
0.0
 11
-154.6499169542983
 21
-88.95000390055338
 31
0.0
  0
LINE
  5
13A
330
4E
100
AcDbEntity
  8
0
  6
Continuous
 62
     7
100
AcDbLine
 10
-136.2609007385822
 20
-90.10000390055339
 30
0.0
 11
-136.9609007385822
 21
-90.80000390055338
 31
0.0
  0
ENDBLK
  5
50
330
4E
100
AcDbEntity
  8
0
100
AcDbBlockEnd
  0
BLOCK
  5
53
330
51
100
AcDbEntity
  8
0
100
AcDbBlockBegin
  2
Drfsicht1
 70
     0
 10
-142.1500083242202
 20
-91.87500385287467
 30
0.0
  3
Drfsicht1
  1

  0
INSERT
  5
52
330
51
100
AcDbEntity
  8
0
100
AcDbBlockReference
  2
0706016_DFK_2_8-select__2
 10
-160.5500083242804
 20
-94.80000390055338
 30
0.0
  0
MTEXT
  5
13B
330
51
100
AcDbEntity
  8
1
 62
     6
100
AcDbMText
 10
-142.1500083242202
 20
-97.45000580654903
 30
0.0
 40
2.5
 41
0.0
 71
     2
 72
     1
  1
 
  7
CONVERTER_11
 73
     1
 44
1.32052821128451
  0
DIMENSION
  5
146
330
51
100
AcDbEntity
  8
1
100
AcDbDimension
  2
*D16
 10
-165.5500083242805
 20
-94.80000390055338
 30
0.0
 11
-167.2625083242805
 21
-91.87500390055338
 31
0.0
 70
    32
  1
<>
 71
     5
 42
-1.0
 53
90.0
  3
ME10_DIM_10
100
AcDbAlignedDimension
 13
-154.6499169542983
 23
-88.95000390055338
 33
0.0
 14
-154.6499169542983
 24
-94.80000390055338
 34
0.0
 50
90.0
100
AcDbRotatedDimension
  0
ENDBLK
  5
54
330
51
100
AcDbEntity
  8
0
100
AcDbBlockEnd
  0
BLOCK
  5
56
330
55
100
AcDbEntity
  8
0
100
AcDbBlockBegin
  2
0706016_DFK_2_8-select__3
 70
     0
 10
-92.90000004620569
 20
-65.90000152587865
 30
0.0
  3
0706016_DFK_2_8-select__3
  1

  0
LINE
  5
147
330
55
100
AcDbEntity
  8
0
  6
Continuous
 62
     7
100
AcDbLine
 10
-68.11272864876145
 20
-46.13629964833623
 30
0.0
 11
-67.09818747921888
 21
-46.73061119567753
 31
0.0
  0
LINE
  5
148
330
55
100
AcDbEntity
  8
0
  6
Continuous
 62
     7
100
AcDbLine
 10
-84.22678496788456
 20
-48.3463150369619
 30
0.0
 11
-84.82859837052271
 21
-46.10031684164049
 31
0.0
  0
LINE
  5
149
330
55
100
AcDbEntity
  8
0
  6
Continuous
 62
     7
100
AcDbLine
 10
-88.58586735827674
 20
-51.39857738639145
 30
0.0
 11
-88.99689450314483
 21
-51.68638169163681
 31
0.0
  0
LINE
  5
14A
330
55
100
AcDbEntity
  8
0
  6
Continuous
 62
     7
100
AcDbLine
 10
-90.4905829824933
 20
-50.06488114816952
 30
0.0
 11
-88.58586735827674
 21
-51.39857738639145
 31
0.0
  0
LINE
  5
14B
330
55
100
AcDbEntity
  8
0
  6
Continuous
 62
     7
100
AcDbLine
 10
-92.90000004620569
 20
-51.75197313887205
 30
0.0
 11
-90.4905829824933
 21
-50.06488114816952
 31
0.0
  0
LINE
  5
14C
330
55
100
AcDbEntity
  8
0
  6
Continuous
 62
     7
100
AcDbLine
 10
-92.90000004620569
 20
-51.75197313887205
 30
0.0
 11
-92.90000004620569
 21
-58.20000152587863
 31
0.0
  0
LINE
  5
14D
330
55
100
AcDbEntity
  8
0
  6
Continuous
 62
     7
100
AcDbLine
 10
-63.00000004620569
 20
-59.68756596058043
 30
0.0
 11
-63.00000004620569
 21
-57.30000152587864
 31
0.0
  0
LINE
  5
14E
330
55
100
AcDbEntity
  8
0
  6
Continuous
 62
     7
100
AcDbLine
 10
-63.00000004620569
 20
-62.51243709117686
 30
0.0
 11
-63.00000004620569
 21
-62.11243709117686
 31
0.0
  0
LINE
  5
14F
330
55
100
AcDbEntity
  8
0
  6
Continuous
 62
     7
100
AcDbLine
 10
-63.00000004620569
 20
-63.63053529892945
 30
0.0
 11
-63.00000004620569
 21
-62.51243709117686
 31
0.0
  0
LINE
  5
150
330
55
100
AcDbEntity
  8
0
  6
Continuous
 62
     7
100
AcDbLine
 10
-91.90000004620569
 20
-58.20000152587863
 30
0.0
 11
-92.90000004620569
 21
-58.20000152587863
 31
0.0
  0
LINE
  5
151
330
55
100
AcDbEntity
  8
0
  6
Continuous
 62
     7
100
AcDbLine
 10
-70.20000004620569
 20
-64.40000152587865
 30
0.0
 11
-71.6000000462057
 21
-64.40000152587865
 31
0.0
  0
LINE
  5
152
330
55
100
AcDbEntity
  8
0
  6
Continuous
 62
     7
100
AcDbLine
 10
-69.96504578629892
 20
-65.27686276130548
 30
0.0
 11
-70.20000004620569
 21
-64.40000152587865
 31
0.0
  0
LINE
  5
153
330
55
100
AcDbEntity
  8
0
  6
Continuous
 62
     7
100
AcDbLine
 10
-63.76268780167004
 20
-63.73094504681566
 30
0.0
 11
-63.86933328986586
 21
-63.33293866647091
 31
0.0
  0
LINE
  5
154
330
55
100
AcDbEntity
  8
0
  6
Continuous
 62
     7
100
AcDbLine
 10
-63.00000004620569
 20
-62.11243709117686
 30
0.0
 11
-63.00000004620569
 21
-59.68756596058043
 31
0.0
  0
LINE
  5
155
330
55
100
AcDbEntity
  8
0
  6
Continuous
 62
     7
100
AcDbLine
 10
-71.70000004620569
 20
-45.10000152587864
 30
0.0
 11
-71.70000004620569
 21
-48.40000152587864
 31
0.0
  0
LINE
  5
156
330
55
100
AcDbEntity
  8
0
  6
Continuous
 62
     7
100
AcDbLine
 10
-71.70000004620569
 20
-45.10000152587864
 30
0.0
 11
-83.40000004620435
 21
-45.10000152587901
 31
0.0
  0
LINE
  5
157
330
55
100
AcDbEntity
  8
0
  6
Continuous
 62
     7
100
AcDbLine
 10
-63.62771872293669
 20
-49.90000152587864
 30
0.0
 11
-62.5000914161878
 21
-49.90000152587864
 31
0.0
  0
LINE
  5
158
330
55
100
AcDbEntity
  8
0
  6
Continuous
 62
     7
100
AcDbLine
 10
-84.82859837052271
 20
-46.10031684164049
 30
0.0
 11
-83.40000004620435
 21
-45.10000152587901
 31
0.0
  0
LINE
  5
159
330
55
100
AcDbEntity
  8
0
  6
Continuous
 62
     7
100
AcDbLine
 10
-62.5000914161878
 20
-50.90000152587864
 30
0.0
 11
-63.14589807995601
 21
-50.90000152587864
 31
0.0
  0
LINE
  5
15A
330
55
100
AcDbEntity
  8
0
  6
Continuous
 62
     7
100
AcDbLine
 10
-63.00000004620569
 20
-56.30000152587864
 30
0.0
 11
-63.00000004620569
 21
-51.90000152587864
 31
0.0
  0
LINE
  5
15B
330
55
100
AcDbEntity
  8
0
  6
Continuous
 62
     7
100
AcDbLine
 10
-63.00000004620569
 20
-56.30000152587864
 30
0.0
 11
-62.5000914161878
 21
-56.30000152587864
 31
0.0
  0
LINE
  5
15C
330
55
100
AcDbEntity
  8
0
  6
Continuous
 62
     7
100
AcDbLine
 10
-62.5000914161878
 20
-57.30000152587864
 30
0.0
 11
-63.00000004620569
 21
-57.30000152587864
 31
0.0
  0
LINE
  5
15D
330
55
100
AcDbEntity
  8
0
  6
Continuous
 62
     7
100
AcDbLine
 10
-88.99689450314483
 20
-51.68638169163681
 30
0.0
 11
-88.60112676206279
 21
-52.25159660219608
 31
0.0
  0
LINE
  5
15E
330
55
100
AcDbEntity
  8
0
  6
Continuous
 62
     7
100
AcDbLine
 10
-88.60112676206279
 20
-52.25159660219608
 30
0.0
 11
-86.43024895538213
 21
-50.73153159742593
 31
0.0
  0
LINE
  5
15F
330
55
100
AcDbEntity
  8
0
  6
Continuous
 62
     7
100
AcDbLine
 10
-56.10000004620568
 20
-62.51243709117686
 30
0.0
 11
-63.00000004620569
 21
-62.51243709117686
 31
0.0
  0
LINE
  5
160
330
55
100
AcDbEntity
  8
0
  6
Continuous
 62
     7
100
AcDbLine
 10
-56.10000004620568
 20
-59.68756596058043
 30
0.0
 11
-63.00000004620569
 21
-59.68756596058043
 31
0.0
  0
LINE
  5
161
330
55
100
AcDbEntity
  8
0
  6
Continuous
 62
     7
100
AcDbLine
 10
-56.10000004620568
 20
-62.51243709117686
 30
0.0
 11
-56.10000004620568
 21
-62.11243709117686
 31
0.0
  0
LINE
  5
162
330
55
100
AcDbEntity
  8
0
  6
Continuous
 62
     7
100
AcDbLine
 10
-56.10000004620568
 20
-59.68756596058043
 30
0.0
 11
-56.10000004620568
 21
-62.11243709117686
 31
0.0
  0
LINE
  5
163
330
55
100
AcDbEntity
  8
0
  6
Continuous
 62
     7
100
AcDbLine
 10
-56.10000004620568
 20
-62.11243709117686
 30
0.0
 11
-63.00000004620569
 21
-62.11243709117686
 31
0.0
  0
LINE
  5
164
330
55
100
AcDbEntity
  8
0
  6
Continuous
 62
     7
100
AcDbLine
 10
-69.07676567354059
 20
-64.72826596831624
 30
0.0
 11
-68.99911996000985
 21
-65.01804371620295
 31
0.0
  0
LINE
  5
165
330
55
100
AcDbEntity
  8
0
  6
Continuous
 62
     7
100
AcDbLine
 10
-72.00192383485238
 20
-65.90000152587865
 30
0.0
 11
-74.2000000462057
 21
-65.90000152587865
 31
0.0
  0
LINE
  5
166
330
55
100
AcDbEntity
  8
0
  6
Continuous
 62
     7
100
AcDbLine
 10
-74.2000000462057
 20
-65.90000152587865
 30
0.0
 11
-74.2000000462057
 21
-64.90000152587866
 31
0.0
  0
LINE
  5
167
330
55
100
AcDbEntity
  8
0
  6
Continuous
 62
     7
100
AcDbLine
 10
-91.90000004620569
 20
-64.90000152587865
 30
0.0
 11
-91.90000004620569
 21
-58.20000152587863
 31
0.0
  0
LINE
  5
168
330
55
100
AcDbEntity
  8
0
  6
Continuous
 62
     7
100
AcDbLine
 10
-74.2000000462057
 20
-64.90000152587866
 30
0.0
 11
-91.90000004620569
 21
-64.90000152587865
 31
0.0
  0
LINE
  5
169
330
55
100
AcDbEntity
  8
0
  6
Continuous
 62
     7
100
AcDbLine
 10
-71.6000000462057
 20
-64.40000152587865
 30
0.0
 11
-72.00192383485238
 21
-65.90000152587865
 31
0.0
  0
LINE
  5
16A
330
55
100
AcDbEntity
  8
0
  6
Continuous
 62
     7
100
AcDbLine
 10
-63.86933328986586
 20
-63.33293866647091
 30
0.0
 11
-69.07676567354059
 21
-64.72826596831624
 31
0.0
  0
LINE
  5
16B
330
55
100
AcDbEntity
  8
0
  6
Continuous
 62
     7
100
AcDbLine
 10
-71.5000000462057
 20
-48.07772020260962
 30
0.0
 11
-71.5000000462057
 21
-48.40000152587864
 31
0.0
  0
LINE
  5
16C
330
55
100
AcDbEntity
  8
0
  6
Continuous
 62
     7
100
AcDbLine
 10
-71.70000004620569
 20
-48.40000152587864
 30
0.0
 11
-71.5000000462057
 21
-48.40000152587864
 31
0.0
  0
LINE
  5
16D
330
55
100
AcDbEntity
  8
0
  6
Continuous
 62
     7
100
AcDbLine
 10
-71.5000000462057
 20
-48.40000152587864
 30
0.0
 11
-66.5000000462057
 21
-48.40000152587864
 31
0.0
  0
LINE
  5
16E
330
55
100
AcDbEntity
  8
0
  6
Continuous
 62
     7
100
AcDbLine
 10
-83.41999008193449
 20
-48.62372564227574
 30
0.0
 11
-83.81575782301684
 21
-48.05851073171614
 31
0.0
  0
LINE
  5
16F
330
55
100
AcDbEntity
  8
0
  6
Continuous
 62
     7
100
AcDbLine
 10
-83.81575782301684
 20
-48.05851073171614
 30
0.0
 11
-84.22678496788456
 21
-48.3463150369619
 31
0.0
  0
LINE
  5
170
330
55
100
AcDbEntity
  8
0
  6
Continuous
 62
     7
100
AcDbLine
 10
-85.59086788861552
 20
-50.14379064704549
 30
0.0
 11
-83.41999008193449
 21
-48.62372564227574
 31
0.0
  0
ARC
  5
171
330
55
100
AcDbEntity
  8
0
  6
Continuous
 62
     7
100
AcDbCircle
 10
-71.90000004620569
 20
-54.92772020260961
 30
0.0
 40
9.499999999999991
100
AcDbArc
 50
37.80432641262135
 51
59.63850849445245
  0
ARC
  5
172
330
55
100
AcDbEntity
  8
0
  6
Continuous
 62
     7
100
AcDbCircle
 10
-63.38795352098354
 20
-63.63053529892945
 30
0.0
 40
0.3879534747778444
100
AcDbArc
 50
195.0000000000006
 51
0.0
  0
ARC
  5
173
330
55
100
AcDbEntity
  8
0
  6
Continuous
 62
     7
100
AcDbCircle
 10
-86.00338871654424
 20
-50.44790052278962
 30
0.0
 40
0.5125000000000982
100
AcDbArc
 50
36.39759662828267
 51
213.6024033717128
  0
ARC
  5
174
330
55
100
AcDbEntity
  8
0
  6
Continuous
 62
     7
100
AcDbCircle
 10
-62.5000914161878
 20
-50.40000152587864
 30
0.0
 40
0.5
100
AcDbArc
 50
270.0
 51
90.0
  0
ARC
  5
175
330
55
100
AcDbEntity
  8
0
  6
Continuous
 62
     7
100
AcDbCircle
 10
-66.5000000462057
 20
-51.90000152587864
 30
0.0
 40
3.500000000000007
100
AcDbArc
 50
0.0
 51
16.60154959902023
  0
ARC
  5
176
330
55
100
AcDbEntity
  8
0
  6
Continuous
 62
     7
100
AcDbCircle
 10
-62.5000914161878
 20
-56.80000152587864
 30
0.0
 40
0.5
100
AcDbArc
 50
270.0
 51
90.0
  0
ARC
  5
177
330
55
100
AcDbEntity
  8
0
  6
Continuous
 62
     7
100
AcDbCircle
 10
-69.48208287315438
 20
-65.14745323875422
 30
0.0
 40
0.4999999999999978
100
AcDbArc
 50
194.9999999999996
 51
15.00000000000116
  0
ARC
  5
178
330
55
100
AcDbEntity
  8
0
  6
Continuous
 62
     7
100
AcDbCircle
 10
-66.5000000462057
 20
-51.90000152587864
 30
0.0
 40
3.499999999999994
100
AcDbArc
 50
34.84990457904655
 51
53.00655185130091
  0
ARC
  5
179
330
55
100
AcDbEntity
  8
0
  6
Continuous
 62
     7
100
AcDbCircle
 10
-66.5000000462057
 20
-51.90000152587864
 30
0.0
 40
3.500000000000011
100
AcDbArc
 50
53.00655185130091
 51
90.0
  0
ARC
  5
17A
330
55
100
AcDbEntity
  8
0
  6
Continuous
 62
     7
100
AcDbCircle
 10
-69.2500000462057
 20
-48.07772020260962
 30
0.0
 40
2.250000000000002
100
AcDbArc
 50
59.63850849445236
 51
180.0
  0
ENDBLK
  5
57
330
55
100
AcDbEntity
  8
0
100
AcDbBlockEnd
  0
BLOCK
  5
5A
330
58
100
AcDbEntity
  8
0
100
AcDbBlockBegin
  2
Rckans1
 70
     0
 10
-74.500000046266
 20
-55.500000953674
 30
0.0
  3
Rckans1
  1

  0
INSERT
  5
59
330
58
100
AcDbEntity
  8
0
100
AcDbBlockReference
  2
0706016_DFK_2_8-select__3
 10
-92.90000004620569
 20
-65.90000152587865
 30
0.0
  0
MTEXT
  5
17B
330
58
100
AcDbEntity
  8
1
 62
     6
100
AcDbMText
 10
-74.500000046266
 20
-71.30000209808316
 30
0.0
 40
2.5
 41
0.0
 71
     2
 72
     1
  1
 
  7
CONVERTER_11
 73
     1
 44
1.32052821128451
  0
ENDBLK
  5
5B
330
58
100
AcDbEntity
  8
0
100
AcDbBlockEnd
  0
BLOCK
  5
5D
330
5C
100
AcDbEntity
  8
0
100
AcDbBlockBegin
  2
0706016_DFK_2_8-select__4
 70
     0
 10
-111.2500041375647
 20
-65.90000152587868
 30
0.0
  3
0706016_DFK_2_8-select__4
  1

  0
LINE
  5
17C
330
5C
100
AcDbEntity
  8
0
  6
Continuous
 62
     7
100
AcDbLine
 10
-111.2500041375647
 20
-49.90000152587867
 30
0.0
 11
-111.2500041375647
 21
-48.40000152587867
 31
0.0
  0
LINE
  5
17D
330
5C
100
AcDbEntity
  8
0
  6
Continuous
 62
     7
100
AcDbLine
 10
-111.2500041375647
 20
-45.10000152587867
 30
0.0
 11
-111.2500041375647
 21
-48.40000152587867
 31
0.0
  0
LINE
  5
17E
330
5C
100
AcDbEntity
  8
0
  6
Continuous
 62
     7
100
AcDbLine
 10
-111.2500041375647
 20
-57.30000152587867
 30
0.0
 11
-111.2500041375647
 21
-56.30000152587867
 31
0.0
  0
LINE
  5
17F
330
5C
100
AcDbEntity
  8
0
  6
Continuous
 62
     7
100
AcDbLine
 10
-110.0500041375647
 20
-46.73061119567755
 30
0.0
 11
-110.0500041375647
 21
-48.40000152587867
 31
0.0
  0
LINE
  5
180
330
5C
100
AcDbEntity
  8
0
  6
Continuous
 62
     7
100
AcDbLine
 10
-108.6785939760509
 20
-62.51243709117689
 30
0.0
 11
-109.3714142990785
 21
-62.11243709117689
 31
0.0
  0
LINE
  5
181
330
5C
100
AcDbEntity
  8
0
  6
Continuous
 62
     7
100
AcDbLine
 10
-111.2500041375647
 20
-64.01848877370733
 30
0.0
 11
-111.2500041375647
 21
-64.72826596831626
 31
0.0
  0
LINE
  5
182
330
5C
100
AcDbEntity
  8
0
  6
Continuous
 62
     7
100
AcDbLine
 10
-111.2500041375647
 20
-57.30000152587867
 30
0.0
 11
-111.2500041375647
 21
-63.63053529892948
 31
0.0
  0
LINE
  5
183
330
5C
100
AcDbEntity
  8
0
  6
Continuous
 62
     7
100
AcDbLine
 10
-111.2500041375647
 20
-63.63053529892948
 30
0.0
 11
-111.2500041375647
 21
-64.01848877370733
 31
0.0
  0
LINE
  5
184
330
5C
100
AcDbEntity
  8
0
  6
Continuous
 62
     7
100
AcDbLine
 10
-111.2500041375647
 20
-65.64745323875425
 30
0.0
 11
-111.2500041375647
 21
-65.90000152587868
 31
0.0
  0
LINE
  5
185
330
5C
100
AcDbEntity
  8
0
  6
Continuous
 62
     7
100
AcDbLine
 10
-107.9714142990785
 20
-59.68756596058046
 30
0.0
 11
-109.3714142990785
 21
-62.11243709117689
 31
0.0
  0
LINE
  5
186
330
5C
100
AcDbEntity
  8
0
  6
Continuous
 62
     7
100
AcDbLine
 10
-105.4000041375647
 20
-56.30000152587867
 30
0.0
 11
-105.4000041375647
 21
-51.90000152587867
 31
0.0
  0
LINE
  5
187
330
5C
100
AcDbEntity
  8
0
  6
Continuous
 62
     7
100
AcDbLine
 10
-105.4000041375647
 20
-57.30000152587867
 30
0.0
 11
-105.4000041375647
 21
-56.30000152587867
 31
0.0
  0
LINE
  5
188
330
5C
100
AcDbEntity
  8
0
  6
Continuous
 62
     7
100
AcDbLine
 10
-107.2785939760509
 20
-60.08756596058046
 30
0.0
 11
-107.9714142990785
 21
-59.68756596058046
 31
0.0
  0
LINE
  5
189
330
5C
100
AcDbEntity
  8
0
  6
Continuous
 62
     7
100
AcDbLine
 10
-105.4000041375647
 20
-64.72826596831626
 30
0.0
 11
-105.4000041375647
 21
-64.01848877370733
 31
0.0
  0
LINE
  5
18A
330
5C
100
AcDbEntity
  8
0
  6
Continuous
 62
     7
100
AcDbLine
 10
-105.4000041375647
 20
-63.63053529892948
 30
0.0
 11
-105.4000041375647
 21
-57.30000152587867
 31
0.0
  0
LINE
  5
18B
330
5C
100
AcDbEntity
  8
0
  6
Continuous
 62
     7
100
AcDbLine
 10
-105.4000041375647
 20
-64.01848877370733
 30
0.0
 11
-105.4000041375647
 21
-63.63053529892948
 31
0.0
  0
LINE
  5
18C
330
5C
100
AcDbEntity
  8
0
  6
Continuous
 62
     7
100
AcDbLine
 10
-111.2500041375647
 20
-56.30000152587867
 30
0.0
 11
-111.2500041375647
 21
-51.90000152587867
 31
0.0
  0
LINE
  5
18D
330
5C
100
AcDbEntity
  8
0
  6
Continuous
 62
     7
100
AcDbLine
 10
-105.4000041375647
 20
-56.30000152587867
 30
0.0
 11
-111.2500041375647
 21
-56.30000152587867
 31
0.0
  0
LINE
  5
18E
330
5C
100
AcDbEntity
  8
0
  6
Continuous
 62
     7
100
AcDbLine
 10
-105.4000041375647
 20
-57.30000152587867
 30
0.0
 11
-111.2500041375647
 21
-57.30000152587867
 31
0.0
  0
LINE
  5
18F
330
5C
100
AcDbEntity
  8
0
  6
Continuous
 62
     7
100
AcDbLine
 10
-105.4000041375647
 20
-50.90000152587867
 30
0.0
 11
-105.4000041375647
 21
-49.90000152587867
 31
0.0
  0
LINE
  5
190
330
5C
100
AcDbEntity
  8
0
  6
Continuous
 62
     7
100
AcDbLine
 10
-105.4000041375647
 20
-48.40000152587867
 30
0.0
 11
-105.4000041375647
 21
-45.10000152587867
 31
0.0
  0
LINE
  5
191
330
5C
100
AcDbEntity
  8
0
  6
Continuous
 62
     7
100
AcDbLine
 10
-105.4000041375647
 20
-49.90000152587867
 30
0.0
 11
-105.4000041375647
 21
-48.40000152587867
 31
0.0
  0
LINE
  5
192
330
5C
100
AcDbEntity
  8
0
  6
Continuous
 62
     7
100
AcDbLine
 10
-106.5500041375647
 20
-46.73061119567755
 30
0.0
 11
-106.5500041375647
 21
-48.40000152587867
 31
0.0
  0
LINE
  5
193
330
5C
100
AcDbEntity
  8
0
  6
Continuous
 62
     7
100
AcDbLine
 10
-110.0500041375647
 20
-48.40000152587867
 30
0.0
 11
-110.0500041375647
 21
-49.10453639467045
 31
0.0
  0
LINE
  5
194
330
5C
100
AcDbEntity
  8
0
  6
Continuous
 62
     7
100
AcDbLine
 10
-106.5500041375647
 20
-48.40000152587867
 30
0.0
 11
-106.5500041375647
 21
-49.10453639467045
 31
0.0
  0
LINE
  5
195
330
5C
100
AcDbEntity
  8
0
  6
Continuous
 62
     7
100
AcDbLine
 10
-110.0500041375647
 20
-48.40000152587867
 30
0.0
 11
-111.2500041375647
 21
-48.40000152587867
 31
0.0
  0
LINE
  5
196
330
5C
100
AcDbEntity
  8
0
  6
Continuous
 62
     7
100
AcDbLine
 10
-105.4000041375647
 20
-48.40000152587867
 30
0.0
 11
-106.5500041375647
 21
-48.40000152587867
 31
0.0
  0
LINE
  5
197
330
5C
100
AcDbEntity
  8
0
  6
Continuous
 62
     7
100
AcDbLine
 10
-105.4000041375647
 20
-50.90000152587867
 30
0.0
 11
-111.2500041375647
 21
-50.90000152587867
 31
0.0
  0
LINE
  5
198
330
5C
100
AcDbEntity
  8
0
  6
Continuous
 62
     7
100
AcDbLine
 10
-105.4000041375647
 20
-50.90000152587867
 30
0.0
 11
-105.4000041375647
 21
-51.90000152587867
 31
0.0
  0
LINE
  5
199
330
5C
100
AcDbEntity
  8
0
  6
Continuous
 62
     7
100
AcDbLine
 10
-111.2500041375647
 20
-50.90000152587867
 30
0.0
 11
-111.2500041375647
 21
-51.90000152587867
 31
0.0
  0
LINE
  5
19A
330
5C
100
AcDbEntity
  8
0
  6
Continuous
 62
     7
100
AcDbLine
 10
-111.2500041375647
 20
-49.90000152587867
 30
0.0
 11
-111.2500041375647
 21
-50.90000152587867
 31
0.0
  0
LINE
  5
19B
330
5C
100
AcDbEntity
  8
0
  6
Continuous
 62
     7
100
AcDbLine
 10
-105.4000041375647
 20
-49.90000152587867
 30
0.0
 11
-111.2500041375647
 21
-49.90000152587867
 31
0.0
  0
LINE
  5
19C
330
5C
100
AcDbEntity
  8
0
  6
Continuous
 62
     7
100
AcDbLine
 10
-106.5500041375647
 20
-49.10453639467045
 30
0.0
 11
-110.0500041375647
 21
-49.10453639467045
 31
0.0
  0
LINE
  5
19D
330
5C
100
AcDbEntity
  8
0
  6
Continuous
 62
     2
100
AcDbLine
 10
-111.2500041375647
 20
-51.90000152587867
 30
0.0
 11
-105.4000041375647
 21
-51.90000152587867
 31
0.0
  0
LINE
  5
19E
330
5C
100
AcDbEntity
  8
0
  6
Continuous
 62
     7
100
AcDbLine
 10
-110.0500041375647
 20
-45.82772020260965
 30
0.0
 11
-110.0500041375647
 21
-46.13629964833626
 31
0.0
  0
LINE
  5
19F
330
5C
100
AcDbEntity
  8
0
  6
Continuous
 62
     7
100
AcDbLine
 10
-106.5500041375647
 20
-45.82772020260965
 30
0.0
 11
-106.5500041375647
 21
-46.13629964833626
 31
0.0
  0
LINE
  5
1A0
330
5C
100
AcDbEntity
  8
0
  6
Continuous
 62
     7
100
AcDbLine
 10
-110.0500041375647
 20
-45.82772020260965
 30
0.0
 11
-106.5500041375647
 21
-45.82772020260965
 31
0.0
  0
LINE
  5
1A1
330
5C
100
AcDbEntity
  8
0
  6
Continuous
 62
     7
100
AcDbLine
 10
-110.0500041375647
 20
-46.13629964833626
 30
0.0
 11
-110.0500041375647
 21
-46.73061119567755
 31
0.0
  0
LINE
  5
1A2
330
5C
100
AcDbEntity
  8
0
  6
Continuous
 62
     2
100
AcDbLine
 10
-110.0500041375647
 20
-46.13629964833626
 30
0.0
 11
-106.5500041375647
 21
-46.13629964833626
 31
0.0
  0
LINE
  5
1A3
330
5C
100
AcDbEntity
  8
0
  6
Continuous
 62
     7
100
AcDbLine
 10
-106.5500041375647
 20
-46.13629964833626
 30
0.0
 11
-106.5500041375647
 21
-46.73061119567755
 31
0.0
  0
LINE
  5
1A4
330
5C
100
AcDbEntity
  8
0
  6
Continuous
 62
     2
100
AcDbLine
 10
-110.0500041375647
 20
-46.73061119567755
 30
0.0
 11
-106.5500041375647
 21
-46.73061119567755
 31
0.0
  0
LINE
  5
1A5
330
5C
100
AcDbEntity
  8
0
  6
Continuous
 62
     7
100
AcDbLine
 10
-105.4000041375647
 20
-45.10000152587867
 30
0.0
 11
-111.2500041375647
 21
-45.10000152587867
 31
0.0
  0
LINE
  5
1A6
330
5C
100
AcDbEntity
  8
0
  6
Continuous
 62
     7
100
AcDbLine
 10
-105.4000041375647
 20
-65.01804371620298
 30
0.0
 11
-105.4000041375647
 21
-64.72826596831626
 31
0.0
  0
LINE
  5
1A7
330
5C
100
AcDbEntity
  8
0
  6
Continuous
 62
     7
100
AcDbLine
 10
-111.2500041375647
 20
-64.72826596831626
 30
0.0
 11
-111.2500041375647
 21
-65.01804371620298
 31
0.0
  0
LINE
  5
1A8
330
5C
100
AcDbEntity
  8
0
  6
Continuous
 62
     7
100
AcDbLine
 10
-105.4000041375647
 20
-64.01848877370733
 30
0.0
 11
-111.2500041375647
 21
-64.01848877370733
 31
0.0
  0
LINE
  5
1A9
330
5C
100
AcDbEntity
  8
0
  6
Continuous
 62
     7
100
AcDbLine
 10
-105.4000041375647
 20
-65.64745323875425
 30
0.0
 11
-111.2500041375647
 21
-65.64745323875425
 31
0.0
  0
LINE
  5
1AA
330
5C
100
AcDbEntity
  8
0
  6
Continuous
 62
     7
100
AcDbLine
 10
-111.2500041375647
 20
-65.01804371620298
 30
0.0
 11
-111.2500041375647
 21
-65.64745323875425
 31
0.0
  0
LINE
  5
1AB
330
5C
100
AcDbEntity
  8
0
  6
Continuous
 62
     7
100
AcDbLine
 10
-105.4000041375647
 20
-65.90000152587868
 30
0.0
 11
-105.4000041375647
 21
-65.64745323875425
 31
0.0
  0
LINE
  5
1AC
330
5C
100
AcDbEntity
  8
0
  6
Continuous
 62
     7
100
AcDbLine
 10
-105.4000041375647
 20
-65.64745323875425
 30
0.0
 11
-105.4000041375647
 21
-65.01804371620298
 31
0.0
  0
LINE
  5
1AD
330
5C
100
AcDbEntity
  8
0
  6
Continuous
 62
     2
100
AcDbLine
 10
-105.4000041375647
 20
-65.01804371620298
 30
0.0
 11
-111.2500041375647
 21
-65.01804371620298
 31
0.0
  0
LINE
  5
1AE
330
5C
100
AcDbEntity
  8
0
  6
Continuous
 62
     7
100
AcDbLine
 10
-111.2500041375647
 20
-64.72826596831626
 30
0.0
 11
-105.4000041375647
 21
-64.72826596831626
 31
0.0
  0
LINE
  5
1AF
330
5C
100
AcDbEntity
  8
0
  6
Continuous
 62
     7
100
AcDbLine
 10
-105.4000041375647
 20
-65.90000152587868
 30
0.0
 11
-111.2500041375647
 21
-65.90000152587868
 31
0.0
  0
LINE
  5
1B0
330
5C
100
AcDbEntity
  8
0
  6
Continuous
 62
     2
100
AcDbLine
 10
-105.4000041375647
 20
-63.63053529892948
 30
0.0
 11
-111.2500041375647
 21
-63.63053529892948
 31
0.0
  0
LINE
  5
1B1
330
5C
100
AcDbEntity
  8
0
  6
Continuous
 62
     7
100
AcDbLine
 10
-108.6785939760509
 20
-62.51243709117689
 30
0.0
 11
-107.2785939760509
 21
-60.08756596058046
 31
0.0
  0
ENDBLK
  5
5E
330
5C
100
AcDbEntity
  8
0
100
AcDbBlockEnd
  0
BLOCK
  5
61
330
5F
100
AcDbEntity
  8
0
100
AcDbBlockBegin
  2
SA_Links1
 70
     0
 10
-108.3250041852434
 20
-55.50000095367403
 30
0.0
  3
SA_Links1
  1

  0
INSERT
  5
60
330
5F
100
AcDbEntity
  8
0
100
AcDbBlockReference
  2
0706016_DFK_2_8-select__4
 10
-111.2500041375647
 20
-65.90000152587868
 30
0.0
  0
MTEXT
  5
1B2
330
5F
100
AcDbEntity
  8
1
 62
     6
100
AcDbMText
 10
-108.3250041852434
 20
-71.30000209808316
 30
0.0
 40
2.5
 41
0.0
 71
     2
 72
     1
  1
 
  7
CONVERTER_11
 73
     1
 44
1.32052821128451
  0
ENDBLK
  5
62
330
5F
100
AcDbEntity
  8
0
100
AcDbBlockEnd
  0
BLOCK
  5
64
330
63
100
AcDbEntity
  8
0
100
AcDbBlockBegin
  2
0706016_DFK_2_8-select__5
 70
     0
 10
-183.9000127424452
 20
-65.90000152587865
 30
0.0
  3
0706016_DFK_2_8-select__5
  1

  0
LINE
  5
1B3
330
63
100
AcDbEntity
  8
0
  6
Continuous
 62
     7
100
AcDbLine
 10
-183.9000127424452
 20
-64.90000152587865
 30
0.0
 11
-183.9000127424452
 21
-65.90000152587865
 31
0.0
  0
LINE
  5
1B4
330
63
100
AcDbEntity
  8
0
  6
Continuous
 62
     7
100
AcDbLine
 10
-183.9000127424452
 20
-64.90000152587865
 30
0.0
 11
-183.9000127424452
 21
-58.20000152587863
 31
0.0
  0
LINE
  5
1B5
330
63
100
AcDbEntity
  8
0
  6
Continuous
 62
     7
100
AcDbLine
 10
-183.9000127424452
 20
-46.10031684164049
 30
0.0
 11
-183.9000127424452
 21
-45.10000152587864
 31
0.0
  0
LINE
  5
1B6
330
63
100
AcDbEntity
  8
0
  6
Continuous
 62
     7
100
AcDbLine
 10
-178.0500127424452
 20
-48.62372564227574
 30
0.0
 11
-183.9000127424452
 21
-48.62372564227574
 31
0.0
  0
LINE
  5
1B7
330
63
100
AcDbEntity
  8
0
  6
Continuous
 62
     7
100
AcDbLine
 10
-183.9000127424452
 20
-49.93540052278952
 30
0.0
 11
-178.0500127424452
 21
-49.93540052278952
 31
0.0
  0
LINE
  5
1B8
330
63
100
AcDbEntity
  8
0
  6
Continuous
 62
     7
100
AcDbLine
 10
-183.9000127424452
 20
-46.10031684164049
 30
0.0
 11
-178.0500127424452
 21
-46.10031684164049
 31
0.0
  0
LINE
  5
1B9
330
63
100
AcDbEntity
  8
0
  6
Continuous
 62
     7
100
AcDbLine
 10
-183.9000127424452
 20
-51.75197313887205
 30
0.0
 11
-178.0500127424452
 21
-51.75197313887205
 31
0.0
  0
LINE
  5
1BA
330
63
100
AcDbEntity
  8
0
  6
Continuous
 62
     7
100
AcDbLine
 10
-183.9000127424452
 20
-50.06488114816952
 30
0.0
 11
-178.0500127424452
 21
-50.06488114816952
 31
0.0
  0
LINE
  5
1BB
330
63
100
AcDbEntity
  8
0
  6
Continuous
 62
     7
100
AcDbLine
 10
-183.9000127424452
 20
-48.3463150369619
 30
0.0
 11
-178.0500127424452
 21
-48.3463150369619
 31
0.0
  0
LINE
  5
1BC
330
63
100
AcDbEntity
  8
0
  6
Continuous
 62
     7
100
AcDbLine
 10
-178.0500127424452
 20
-65.90000152587865
 30
0.0
 11
-178.0500127424452
 21
-64.90000152587865
 31
0.0
  0
LINE
  5
1BD
330
63
100
AcDbEntity
  8
0
  6
Continuous
 62
     7
100
AcDbLine
 10
-183.9000127424452
 20
-65.90000152587865
 30
0.0
 11
-178.0500127424452
 21
-65.90000152587865
 31
0.0
  0
LINE
  5
1BE
330
63
100
AcDbEntity
  8
0
  6
Continuous
 62
     7
100
AcDbLine
 10
-178.0500127424452
 20
-45.10000152587901
 30
0.0
 11
-183.9000127424452
 21
-45.10000152587864
 31
0.0
  0
LINE
  5
1BF
330
63
100
AcDbEntity
  8
0
  6
Continuous
 62
     7
100
AcDbLine
 10
-178.0500127424452
 20
-48.3463150369619
 30
0.0
 11
-178.0500127424452
 21
-46.10031684164049
 31
0.0
  0
LINE
  5
1C0
330
63
100
AcDbEntity
  8
0
  6
Continuous
 62
     7
100
AcDbLine
 10
-178.0500127424452
 20
-48.62372564227574
 30
0.0
 11
-178.0500127424452
 21
-48.3463150369619
 31
0.0
  0
LINE
  5
1C1
330
63
100
AcDbEntity
  8
0
  6
Continuous
 62
     7
100
AcDbLine
 10
-178.0500127424452
 20
-49.93540052278952
 30
0.0
 11
-178.0500127424452
 21
-50.06488114816952
 31
0.0
  0
LINE
  5
1C2
330
63
100
AcDbEntity
  8
0
  6
Continuous
 62
     7
100
AcDbLine
 10
-178.0500127424452
 20
-46.10031684164049
 30
0.0
 11
-178.0500127424452
 21
-45.10000152587901
 31
0.0
  0
LINE
  5
1C3
330
63
100
AcDbEntity
  8
0
  6
Continuous
 62
     7
100
AcDbLine
 10
-178.0500127424452
 20
-51.75197313887205
 30
0.0
 11
-178.0500127424452
 21
-50.06488114816952
 31
0.0
  0
LINE
  5
1C4
330
63
100
AcDbEntity
  8
0
  6
Continuous
 62
     7
100
AcDbLine
 10
-178.0500127424452
 20
-49.93540052278952
 30
0.0
 11
-178.0500127424452
 21
-48.62372564227574
 31
0.0
  0
LINE
  5
1C5
330
63
100
AcDbEntity
  8
0
  6
Continuous
 62
     7
100
AcDbLine
 10
-178.0500127424452
 20
-51.75197313887205
 30
0.0
 11
-178.0500127424452
 21
-58.20000152587863
 31
0.0
  0
LINE
  5
1C6
330
63
100
AcDbEntity
  8
0
  6
Continuous
 62
     7
100
AcDbLine
 10
-182.7515923795488
 20
-56.310895738033
 30
0.0
 11
-179.7641185302908
 21
-53.32342188877506
 31
0.0
  0
LINE
  5
1C7
330
63
100
AcDbEntity
  8
0
  6
Continuous
 62
     7
100
AcDbLine
 10
-182.1859069545996
 20
-56.87658116298223
 30
0.0
 11
-179.1984331053416
 21
-53.88910731372431
 31
0.0
  0
LINE
  5
1C8
330
63
100
AcDbEntity
  8
0
  6
Continuous
 62
     7
100
AcDbLine
 10
-183.9000127424452
 20
-58.20000152587863
 30
0.0
 11
-178.0500127424452
 21
-58.20000152587863
 31
0.0
  0
LINE
  5
1C9
330
63
100
AcDbEntity
  8
0
  6
Continuous
 62
     7
100
AcDbLine
 10
-183.9000127424452
 20
-48.3463150369619
 30
0.0
 11
-183.9000127424452
 21
-46.10031684164049
 31
0.0
  0
LINE
  5
1CA
330
63
100
AcDbEntity
  8
0
  6
Continuous
 62
     7
100
AcDbLine
 10
-183.9000127424452
 20
-48.62372564227574
 30
0.0
 11
-183.9000127424452
 21
-48.3463150369619
 31
0.0
  0
LINE
  5
1CB
330
63
100
AcDbEntity
  8
0
  6
Continuous
 62
     7
100
AcDbLine
 10
-183.9000127424452
 20
-49.93540052278952
 30
0.0
 11
-183.9000127424452
 21
-50.06488114816952
 31
0.0
  0
LINE
  5
1CC
330
63
100
AcDbEntity
  8
0
  6
Continuous
 62
     7
100
AcDbLine
 10
-183.9000127424452
 20
-49.93540052278952
 30
0.0
 11
-183.9000127424452
 21
-48.62372564227574
 31
0.0
  0
LINE
  5
1CD
330
63
100
AcDbEntity
  8
0
  6
Continuous
 62
     7
100
AcDbLine
 10
-183.9000127424452
 20
-51.75197313887205
 30
0.0
 11
-183.9000127424452
 21
-50.06488114816952
 31
0.0
  0
LINE
  5
1CE
330
63
100
AcDbEntity
  8
0
  6
Continuous
 62
     7
100
AcDbLine
 10
-183.9000127424452
 20
-51.75197313887205
 30
0.0
 11
-183.9000127424452
 21
-58.20000152587863
 31
0.0
  0
LINE
  5
1CF
330
63
100
AcDbEntity
  8
0
  6
Continuous
 62
     7
100
AcDbLine
 10
-178.0500127424452
 20
-64.90000152587865
 30
0.0
 11
-178.0500127424452
 21
-58.20000152587863
 31
0.0
  0
LINE
  5
1D0
330
63
100
AcDbEntity
  8
0
  6
Continuous
 62
     7
100
AcDbLine
 10
-178.0500127424452
 20
-64.90000152587865
 30
0.0
 11
-183.9000127424452
 21
-64.90000152587865
 31
0.0
  0
LINE
  5
1D1
330
63
100
AcDbEntity
  8
1
  6
DOT_CENTER
 62
     2
100
AcDbLine
 10
-178.6100127424452
 20
-61.30000152587864
 30
0.0
 11
-183.3400127424452
 21
-61.30000152587864
 31
0.0
  0
LINE
  5
1D2
330
63
100
AcDbEntity
  8
1
  6
DOT_CENTER
 62
     2
100
AcDbLine
 10
-180.9750127424452
 20
-58.93500152587864
 30
0.0
 11
-180.9750127424452
 21
-63.66500152587864
 31
0.0
  0
LINE
  5
1D3
330
63
100
AcDbEntity
  8
1
  6
DOT_CENTER
 62
     2
100
AcDbLine
 10
-178.6100127424452
 20
-55.10000152587864
 30
0.0
 11
-183.3400127424452
 21
-55.10000152587864
 31
0.0
  0
LINE
  5
1D4
330
63
100
AcDbEntity
  8
1
  6
DOT_CENTER
 62
     2
100
AcDbLine
 10
-180.9750127424452
 20
-52.73500152587867
 30
0.0
 11
-180.9750127424452
 21
-57.46500152587861
 31
0.0
  0
ARC
  5
1D5
330
63
100
AcDbEntity
  8
0
  6
Continuous
 62
     7
100
AcDbCircle
 10
-180.9750127424452
 20
-55.10000152587864
 30
0.0
 40
2.150000000000038
100
AcDbArc
 50
214.27784758446
 51
235.7221524155383
  0
ARC
  5
1D6
330
63
100
AcDbEntity
  8
0
  6
Continuous
 62
     7
100
AcDbCircle
 10
-180.9750127424452
 20
-55.10000152587864
 30
0.0
 40
2.149999999999999
100
AcDbArc
 50
34.27784758445979
 51
55.72215241553874
  0
ARC
  5
1D7
330
63
100
AcDbEntity
  8
0
  6
Continuous
 62
     7
100
AcDbCircle
 10
-180.9750127424452
 20
-55.10000152587864
 30
0.0
 40
2.149999999999999
100
AcDbArc
 50
90.0
 51
214.27784758446
  0
ARC
  5
1D8
330
63
100
AcDbEntity
  8
0
  6
Continuous
 62
     7
100
AcDbCircle
 10
-180.9750127424452
 20
-55.10000152587864
 30
0.0
 40
2.150000000000019
100
AcDbArc
 50
55.72215241553874
 51
90.0
  0
ARC
  5
1D9
330
63
100
AcDbEntity
  8
0
  6
Continuous
 62
     7
100
AcDbCircle
 10
-180.9750127424452
 20
-55.10000152587864
 30
0.0
 40
2.150000000000041
100
AcDbArc
 50
235.7221524155383
 51
34.27784758445979
  0
CIRCLE
  5
1DA
330
63
100
AcDbEntity
  8
0
  6
Continuous
 62
     7
100
AcDbCircle
 10
-180.9750127424452
 20
-61.30000152587864
 30
0.0
 40
1.25
  0
CIRCLE
  5
1DB
330
63
100
AcDbEntity
  8
0
  6
Continuous
 62
     7
100
AcDbCircle
 10
-180.9750127424452
 20
-61.30000152587864
 30
0.0
 40
2.149999999999999
  0
ENDBLK
  5
65
330
63
100
AcDbEntity
  8
0
100
AcDbBlockEnd
  0
BLOCK
  5
68
330
66
100
AcDbEntity
  8
0
100
AcDbBlockBegin
  2
SA_Rechts1
 70
     0
 10
-180.9750126947665
 20
-55.500000953674
 30
0.0
  3
SA_Rechts1
  1

  0
INSERT
  5
67
330
66
100
AcDbEntity
  8
0
100
AcDbBlockReference
  2
0706016_DFK_2_8-select__5
 10
-183.9000127424452
 20
-65.90000152587865
 30
0.0
  0
MTEXT
  5
1DC
330
66
100
AcDbEntity
  8
1
 62
     6
100
AcDbMText
 10
-180.9750126947664
 20
-71.30000209808316
 30
0.0
 40
2.5
 41
0.0
 71
     2
 72
     1
  1
 
  7
CONVERTER_11
 73
     1
 44
1.32052821128451
  0
ENDBLK
  5
69
330
66
100
AcDbEntity
  8
0
100
AcDbBlockEnd
  0
BLOCK
  5
6B
330
6A
100
AcDbEntity
  8
0
100
AcDbBlockBegin
  2
0706016_DFK_2_8-select__6
 70
     0
 10
-160.5500080463262
 20
-65.90000152587854
 30
0.0
  3
0706016_DFK_2_8-select__6
  1

  0
LINE
  5
1DD
330
6A
100
AcDbEntity
  8
0
  6
Continuous
 62
     7
100
AcDbLine
 10
-133.2300180105974
 20
-48.62372564227564
 30
0.0
 11
-132.8342502695151
 21
-48.05851073171603
 31
0.0
  0
LINE
  5
1DE
330
6A
100
AcDbEntity
  8
0
  6
Continuous
 62
     7
100
AcDbLine
 10
-144.9500080463262
 20
-48.40000152587854
 30
0.0
 11
-145.1500080463262
 21
-48.40000152587854
 31
0.0
  0
LINE
  5
1DF
330
6A
100
AcDbEntity
  8
0
  6
Continuous
 62
     7
100
AcDbLine
 10
-145.1500080463262
 20
-48.07772020260951
 30
0.0
 11
-145.1500080463262
 21
-48.40000152587854
 31
0.0
  0
LINE
  5
1E0
330
6A
100
AcDbEntity
  8
0
  6
Continuous
 62
     7
100
AcDbLine
 10
-153.0222893695953
 20
-49.90000152587854
 30
0.0
 11
-154.1499166763441
 21
-49.90000152587854
 31
0.0
  0
LINE
  5
1E1
330
6A
100
AcDbEntity
  8
0
  6
Continuous
 62
     7
100
AcDbLine
 10
-124.7500080463262
 20
-64.90000152587854
 30
0.0
 11
-124.7500080463262
 21
-58.20000152587853
 31
0.0
  0
LINE
  5
1E2
330
6A
100
AcDbEntity
  8
0
  6
Continuous
 62
     7
100
AcDbLine
 10
-153.6500080463262
 20
-59.68756596058032
 30
0.0
 11
-153.6500080463262
 21
-60.08756596058033
 31
0.0
  0
LINE
  5
1E3
330
6A
100
AcDbEntity
  8
0
  6
Continuous
 62
     7
100
AcDbLine
 10
-153.6500080463262
 20
-60.08756596058033
 30
0.0
 11
-153.6500080463262
 21
-62.51243709117676
 31
0.0
  0
LINE
  5
1E4
330
6A
100
AcDbEntity
  8
0
  6
Continuous
 62
     7
100
AcDbLine
 10
-153.6500080463262
 20
-57.30000152587854
 30
0.0
 11
-153.6500080463262
 21
-59.68756596058032
 31
0.0
  0
LINE
  5
1E5
330
6A
100
AcDbEntity
  8
0
  6
Continuous
 62
     7
100
AcDbLine
 10
-153.6500080463262
 20
-56.30000152587854
 30
0.0
 11
-154.1499166763441
 21
-56.30000152587854
 31
0.0
  0
LINE
  5
1E6
330
6A
100
AcDbEntity
  8
0
  6
Continuous
 62
     7
100
AcDbLine
 10
-153.6500080463262
 20
-57.30000152587854
 30
0.0
 11
-154.1499166763441
 21
-57.30000152587854
 31
0.0
  0
LINE
  5
1E7
330
6A
100
AcDbEntity
  8
0
  6
Continuous
 62
     7
100
AcDbLine
 10
-152.8873202908619
 20
-63.73094504681556
 30
0.0
 11
-152.7806748026661
 21
-63.3329386664708
 31
0.0
  0
LINE
  5
1E8
330
6A
100
AcDbEntity
  8
0
  6
Continuous
 62
     7
100
AcDbLine
 10
-142.4500080463262
 20
-64.90000152587857
 30
0.0
 11
-124.7500080463262
 21
-64.90000152587854
 31
0.0
  0
LINE
  5
1E9
330
6A
100
AcDbEntity
  8
0
  6
Continuous
 62
     7
100
AcDbLine
 10
-147.5732424189913
 20
-64.72826596831614
 30
0.0
 11
-152.7806748026661
 21
-63.3329386664708
 31
0.0
  0
LINE
  5
1EA
330
6A
100
AcDbEntity
  8
0
  6
Continuous
 62
     7
100
AcDbLine
 10
-160.5500080463262
 20
-62.51243709117676
 30
0.0
 11
-153.6500080463262
 21
-62.51243709117676
 31
0.0
  0
LINE
  5
1EB
330
6A
100
AcDbEntity
  8
0
  6
Continuous
 62
     7
100
AcDbLine
 10
-160.5500080463262
 20
-60.08756596058033
 30
0.0
 11
-160.5500080463262
 21
-59.68756596058032
 31
0.0
  0
LINE
  5
1EC
330
6A
100
AcDbEntity
  8
0
  6
Continuous
 62
     7
100
AcDbLine
 10
-160.5500080463262
 20
-62.51243709117676
 30
0.0
 11
-160.5500080463262
 21
-60.08756596058033
 31
0.0
  0
LINE
  5
1ED
330
6A
100
AcDbEntity
  8
0
  6
Continuous
 62
     7
100
AcDbLine
 10
-160.5500080463262
 20
-60.08756596058033
 30
0.0
 11
-153.6500080463262
 21
-60.08756596058033
 31
0.0
  0
LINE
  5
1EE
330
6A
100
AcDbEntity
  8
0
  6
Continuous
 62
     7
100
AcDbLine
 10
-153.6500080463262
 20
-56.30000152587854
 30
0.0
 11
-153.6500080463262
 21
-51.90000152587854
 31
0.0
  0
LINE
  5
1EF
330
6A
100
AcDbEntity
  8
0
  6
Continuous
 62
     7
100
AcDbLine
 10
-153.6500080463262
 20
-62.51243709117676
 30
0.0
 11
-153.6500080463262
 21
-63.63053529892935
 31
0.0
  0
LINE
  5
1F0
330
6A
100
AcDbEntity
  8
0
  6
Continuous
 62
     7
100
AcDbLine
 10
-160.5500080463262
 20
-59.68756596058032
 30
0.0
 11
-153.6500080463262
 21
-59.68756596058032
 31
0.0
  0
LINE
  5
1F1
330
6A
100
AcDbEntity
  8
0
  6
Continuous
 62
     7
100
AcDbLine
 10
-128.0641407342552
 20
-51.39857738639134
 30
0.0
 11
-127.6531135893871
 21
-51.6863816916367
 31
0.0
  0
LINE
  5
1F2
330
6A
100
AcDbEntity
  8
0
  6
Continuous
 62
     7
100
AcDbLine
 10
-126.1594251100386
 20
-50.06488114816941
 30
0.0
 11
-128.0641407342552
 21
-51.39857738639134
 31
0.0
  0
LINE
  5
1F3
330
6A
100
AcDbEntity
  8
0
  6
Continuous
 62
     7
100
AcDbLine
 10
-153.5041100125759
 20
-50.90000152587854
 30
0.0
 11
-154.1499166763441
 21
-50.90000152587854
 31
0.0
  0
LINE
  5
1F4
330
6A
100
AcDbEntity
  8
0
  6
Continuous
 62
     7
100
AcDbLine
 10
-123.7500080463262
 20
-51.75197313887195
 30
0.0
 11
-126.1594251100386
 21
-50.06488114816941
 31
0.0
  0
LINE
  5
1F5
330
6A
100
AcDbEntity
  8
0
  6
Continuous
 62
     7
100
AcDbLine
 10
-124.7500080463262
 20
-58.20000152587853
 30
0.0
 11
-123.7500080463262
 21
-58.20000152587853
 31
0.0
  0
LINE
  5
1F6
330
6A
100
AcDbEntity
  8
0
  6
Continuous
 62
     7
100
AcDbLine
 10
-123.7500080463262
 20
-51.75197313887195
 30
0.0
 11
-123.7500080463262
 21
-58.20000152587853
 31
0.0
  0
LINE
  5
1F7
330
6A
100
AcDbEntity
  8
0
  6
Continuous
 62
     7
100
AcDbLine
 10
-127.6531135893871
 20
-51.6863816916367
 30
0.0
 11
-128.0488813304691
 21
-52.25159660219597
 31
0.0
  0
LINE
  5
1F8
330
6A
100
AcDbEntity
  8
0
  6
Continuous
 62
     7
100
AcDbLine
 10
-128.0488813304691
 20
-52.25159660219597
 30
0.0
 11
-130.2197591371498
 21
-50.73153159742582
 31
0.0
  0
LINE
  5
1F9
330
6A
100
AcDbEntity
  8
0
  6
Continuous
 62
     7
100
AcDbLine
 10
-144.9500080463262
 20
-45.10000152587854
 30
0.0
 11
-133.2500080463281
 21
-45.10000152587854
 31
0.0
  0
LINE
  5
1FA
330
6A
100
AcDbEntity
  8
0
  6
Continuous
 62
     7
100
AcDbLine
 10
-142.4500080463262
 20
-64.90000152587857
 30
0.0
 11
-142.4500080463262
 21
-65.90000152587854
 31
0.0
  0
LINE
  5
1FB
330
6A
100
AcDbEntity
  8
0
  6
Continuous
 62
     7
100
AcDbLine
 10
-146.4500080463262
 20
-64.40000152587854
 30
0.0
 11
-146.684962306233
 21
-65.27686276130537
 31
0.0
  0
LINE
  5
1FC
330
6A
100
AcDbEntity
  8
0
  6
Continuous
 62
     7
100
AcDbLine
 10
-145.0500080463262
 20
-64.40000152587854
 30
0.0
 11
-146.4500080463262
 21
-64.40000152587854
 31
0.0
  0
LINE
  5
1FD
330
6A
100
AcDbEntity
  8
0
  6
Continuous
 62
     7
100
AcDbLine
 10
-144.9500080463262
 20
-48.40000152587854
 30
0.0
 11
-144.9500080463262
 21
-45.10000152587854
 31
0.0
  0
LINE
  5
1FE
330
6A
100
AcDbEntity
  8
0
  6
Continuous
 62
     7
100
AcDbLine
 10
-147.6508881325221
 20
-65.01804371620284
 30
0.0
 11
-147.5732424189913
 21
-64.72826596831614
 31
0.0
  0
LINE
  5
1FF
330
6A
100
AcDbEntity
  8
0
  6
Continuous
 62
     7
100
AcDbLine
 10
-144.6480842576796
 20
-65.90000152587854
 30
0.0
 11
-145.0500080463262
 21
-64.40000152587854
 31
0.0
  0
LINE
  5
200
330
6A
100
AcDbEntity
  8
0
  6
Continuous
 62
     7
100
AcDbLine
 10
-142.4500080463262
 20
-65.90000152587854
 30
0.0
 11
-144.6480842576796
 21
-65.90000152587854
 31
0.0
  0
LINE
  5
201
330
6A
100
AcDbEntity
  8
0
  6
Continuous
 62
     7
100
AcDbLine
 10
-145.1500080463262
 20
-48.40000152587854
 30
0.0
 11
-150.1500080463262
 21
-48.40000152587854
 31
0.0
  0
LINE
  5
202
330
6A
100
AcDbEntity
  8
0
  6
Continuous
 62
     7
100
AcDbLine
 10
-131.0591402039164
 20
-50.14379064704539
 30
0.0
 11
-133.2300180105974
 21
-48.62372564227564
 31
0.0
  0
LINE
  5
203
330
6A
100
AcDbEntity
  8
0
  6
Continuous
 62
     7
100
AcDbLine
 10
-132.8342502695151
 20
-48.05851073171603
 30
0.0
 11
-132.4232231246474
 21
-48.3463150369618
 31
0.0
  0
LINE
  5
204
330
6A
100
AcDbEntity
  8
0
  6
Continuous
 62
     7
100
AcDbLine
 10
-132.4232231246474
 20
-48.3463150369618
 30
0.0
 11
-131.8214097220092
 21
-46.10031684164039
 31
0.0
  0
LINE
  5
205
330
6A
100
AcDbEntity
  8
0
  6
Continuous
 62
     7
100
AcDbLine
 10
-131.8214097220092
 20
-46.10031684164039
 30
0.0
 11
-133.2500080463281
 21
-45.10000152587854
 31
0.0
  0
LINE
  5
206
330
6A
100
AcDbEntity
  8
0
  6
Continuous
 62
     7
100
AcDbLine
 10
-148.5372794437705
 20
-46.13629964833612
 30
0.0
 11
-149.5518206133131
 21
-46.73061119567741
 31
0.0
  0
ARC
  5
207
330
6A
100
AcDbEntity
  8
0
  6
Continuous
 62
     7
100
AcDbCircle
 10
-150.1500080463262
 20
-51.90000152587854
 30
0.0
 40
3.5
100
AcDbArc
 50
90.0
 51
126.9934481487002
  0
ARC
  5
208
330
6A
100
AcDbEntity
  8
0
  6
Continuous
 62
     7
100
AcDbCircle
 10
-150.1500080463262
 20
-51.90000152587854
 30
0.0
 40
3.500000000000063
100
AcDbArc
 50
126.9934481487002
 51
145.1500954209544
  0
ARC
  5
209
330
6A
100
AcDbEntity
  8
0
  6
Continuous
 62
     7
100
AcDbCircle
 10
-144.7500080463262
 20
-54.92772020260951
 30
0.0
 40
9.500000000000037
100
AcDbArc
 50
120.361491505548
 51
142.195673587379
  0
ARC
  5
20A
330
6A
100
AcDbEntity
  8
0
  6
Continuous
 62
     7
100
AcDbCircle
 10
-153.2620545715484
 20
-63.63053529892935
 30
0.0
 40
0.3879534747778166
100
AcDbArc
 50
180.0
 51
344.9999999999985
  0
ARC
  5
20B
330
6A
100
AcDbEntity
  8
0
  6
Continuous
 62
     7
100
AcDbCircle
 10
-154.1499166763441
 20
-56.80000152587854
 30
0.0
 40
0.5
100
AcDbArc
 50
90.0
 51
270.0
  0
ARC
  5
20C
330
6A
100
AcDbEntity
  8
0
  6
Continuous
 62
     7
100
AcDbCircle
 10
-150.1500080463262
 20
-51.90000152587854
 30
0.0
 40
3.500000000000002
100
AcDbArc
 50
163.3984504009798
 51
180.0
  0
ARC
  5
20D
330
6A
100
AcDbEntity
  8
0
  6
Continuous
 62
     7
100
AcDbCircle
 10
-147.1679252193775
 20
-65.14745323875411
 30
0.0
 40
0.5000000000000702
100
AcDbArc
 50
165.000000000001
 51
345.0
  0
ARC
  5
20E
330
6A
100
AcDbEntity
  8
0
  6
Continuous
 62
     7
100
AcDbCircle
 10
-154.1499166763441
 20
-50.40000152587854
 30
0.0
 40
0.5
100
AcDbArc
 50
90.0
 51
270.0
  0
ARC
  5
20F
330
6A
100
AcDbEntity
  8
0
  6
Continuous
 62
     7
100
AcDbCircle
 10
-130.6466193759877
 20
-50.44790052278952
 30
0.0
 40
0.5125000000001063
100
AcDbArc
 50
326.3975966282896
 51
143.6024033717154
  0
ARC
  5
210
330
6A
100
AcDbEntity
  8
0
  6
Continuous
 62
     7
100
AcDbCircle
 10
-147.4000080463262
 20
-48.07772020260951
 30
0.0
 40
2.25
100
AcDbArc
 50
0.0
 51
120.3614915055486
  0
ENDBLK
  5
6C
330
6A
100
AcDbEntity
  8
0
100
AcDbBlockEnd
  0
BLOCK
  5
6F
330
6D
100
AcDbEntity
  8
0
100
AcDbBlockBegin
  2
Vordans1
 70
     0
 10
-142.150008046266
 20
-55.5000009536739
 30
0.0
  3
Vordans1
  1

  0
INSERT
  5
6E
330
6D
100
AcDbEntity
  8
0
100
AcDbBlockReference
  2
0706016_DFK_2_8-select__6
 10
-160.5500080463262
 20
-65.90000152587854
 30
0.0
  0
MTEXT
  5
211
330
6D
100
AcDbEntity
  8
1
 62
     6
100
AcDbMText
 10
-142.1500080462658
 20
-71.30000209808316
 30
0.0
 40
2.5
 41
0.0
 71
     2
 72
     1
  1
 
  7
CONVERTER_11
 73
     1
 44
1.32052821128451
  0
DIMENSION
  5
21C
330
6D
100
AcDbEntity
  8
1
100
AcDbDimension
  2
*D17
 10
-153.6500080463262
 20
-70.90000152587854
 30
0.0
 11
-138.7000080463262
 21
-69.18750152587853
 31
0.0
 70
    32
  1
<>
 71
     5
 42
-1.0
 53
0.00013888888889
  3
ME10_DIM_11
100
AcDbAlignedDimension
 13
-123.7500080463262
 23
-58.20000152587853
 33
0.0
 14
-153.6500080463262
 24
-63.63053529892935
 34
0.0
100
AcDbRotatedDimension
  0
DIMENSION
  5
227
330
6D
100
AcDbEntity
  8
1
100
AcDbDimension
  2
*D18
 10
-165.5500080463263
 20
-45.10000152587854
 30
0.0
 11
-167.2625080463263
 21
-55.50000152587854
 31
0.0
 70
    32
  1
<>
 71
     5
 42
-1.0
 53
90.0
  3
ME10_DIM_12
100
AcDbAlignedDimension
 13
-144.6480842576796
 23
-65.90000152587854
 33
0.0
 14
-144.9500080463262
 24
-45.10000152587854
 34
0.0
 50
90.0
100
AcDbRotatedDimension
  0
DIMENSION
  5
232
330
6D
100
AcDbEntity
  8
1
100
AcDbDimension
  2
*D19
 10
-123.7500080463262
 20
-74.90000152587854
 30
0.0
 11
-142.1500080463262
 21
-73.18750152587853
 31
0.0
 70
    32
  1
<>
 71
     5
 42
-1.0
 53
0.00013888888889
  3
ME10_DIM_13
100
AcDbAlignedDimension
 13
-160.5500080463262
 23
-62.51243709117676
 33
0.0
 14
-123.7500080463262
 24
-58.20000152587853
 34
0.0
100
AcDbRotatedDimension
  0
ENDBLK
  5
70
330
6D
100
AcDbEntity
  8
0
100
AcDbBlockEnd
  0
BLOCK
  5
72
330
71
100
AcDbEntity
  8
0
100
AcDbBlockBegin
  2
_rahmen
 70
     0
 10
-37.80001609265037
 20
-310.119644251265
 30
0.0
  3
_rahmen
  1

  0
LINE
  5
233
330
71
100
AcDbEntity
  8
1
  6
Continuous
 62
     6
100
AcDbLine
 10
-106.1333494259838
 20
-305.119644251265
 30
0.0
 11
-37.80001609265042
 21
-305.1196442512655
 31
0.0
  0
LINE
  5
234
330
71
100
AcDbEntity
  8
1
  6
Continuous
 62
     6
100
AcDbLine
 10
-37.80001609265082
 20
-296.6196442512655
 30
0.0
 11
-37.80001609265037
 21
-288.1196442512655
 31
0.0
  0
LINE
  5
235
330
71
100
AcDbEntity
  8
1
  6
Continuous
 62
     6
100
AcDbLine
 10
-37.80001609265037
 20
-288.1196442512655
 30
0.0
 11
-37.80001609265133
 21
-283.8696442512655
 31
0.0
  0
LINE
  5
236
330
71
100
AcDbEntity
  8
1
  6
Continuous
 62
     6
100
AcDbLine
 10
-37.80001609265133
 20
-283.8696442512655
 30
0.0
 11
-37.80001609265042
 21
-247.7196442512649
 31
0.0
  0
LINE
  5
237
330
71
100
AcDbEntity
  8
1
  6
Continuous
 62
     2
100
AcDbLine
 10
-242.8000160926504
 20
-310.119644251265
 30
0.0
 11
-311.1333494259835
 21
-310.119644251265
 31
0.0
  0
LINE
  5
238
330
71
100
AcDbEntity
  8
1
  6
Continuous
 62
     2
100
AcDbLine
 10
-106.1333494259838
 20
-310.119644251265
 30
0.0
 11
-37.80001609265037
 21
-310.119644251265
 31
0.0
  0
LINE
  5
239
330
71
100
AcDbEntity
  8
1
  6
Continuous
 62
     2
100
AcDbLine
 10
-106.1333494259838
 20
-310.119644251265
 30
0.0
 11
-106.1333494259838
 21
-305.119644251265
 31
0.0
  0
LINE
  5
23A
330
71
100
AcDbEntity
  8
1
  6
Continuous
 62
     2
100
AcDbLine
 10
-174.466682759317
 20
-310.119644251265
 30
0.0
 11
-174.466682759317
 21
-305.1196442512679
 31
0.0
  0
LINE
  5
23B
330
71
100
AcDbEntity
  8
1
  6
Continuous
 62
     2
100
AcDbLine
 10
-242.8000160926504
 20
-310.119644251265
 30
0.0
 11
-242.8000160926504
 21
-305.119644251265
 31
0.0
  0
LINE
  5
23C
330
71
100
AcDbEntity
  8
1
  6
Continuous
 62
     2
100
AcDbLine
 10
-32.80001609265287
 20
-247.7196442512649
 30
0.0
 11
-32.80001609265287
 21
-190.3196442512648
 31
0.0
  0
LINE
  5
23D
330
71
100
AcDbEntity
  8
1
  6
Continuous
 62
     2
100
AcDbLine
 10
-32.80001609265287
 20
-247.7196442512649
 30
0.0
 11
-37.80001609265042
 21
-247.7196442512649
 31
0.0
  0
LINE
  5
23E
330
71
100
AcDbEntity
  8
1
  6
Continuous
 62
     2
100
AcDbLine
 10
-432.8000160926511
 20
-310.119644251265
 30
0.0
 11
-452.8000160926512
 21
-310.119644251265
 31
0.0
  0
LINE
  5
23F
330
71
100
AcDbEntity
  8
1
  6
Continuous
 62
     2
100
AcDbLine
 10
-379.466682759317
 20
-310.119644251265
 30
0.0
 11
-379.466682759317
 21
-305.119644251265
 31
0.0
  0
LINE
  5
240
330
71
100
AcDbEntity
  8
1
  6
Continuous
 62
     2
100
AcDbLine
 10
-379.466682759317
 20
-310.119644251265
 30
0.0
 11
-311.1333494259835
 21
-310.119644251265
 31
0.0
  0
LINE
  5
241
330
71
100
AcDbEntity
  8
1
  6
Continuous
 62
     6
100
AcDbLine
 10
-379.466682759317
 20
-305.119644251265
 30
0.0
 11
-311.1333494259835
 21
-305.119644251265
 31
0.0
  0
LINE
  5
242
330
71
100
AcDbEntity
  8
1
  6
Continuous
 62
     6
100
AcDbLine
 10
-379.466682759317
 20
-305.119644251265
 30
0.0
 11
-432.8000160926501
 21
-305.119644251265
 31
0.0
  0
LINE
  5
243
330
71
100
AcDbEntity
  8
1
  6
Continuous
 62
     2
100
AcDbLine
 10
-311.1333494259835
 20
-310.119644251265
 30
0.0
 11
-311.1333494259835
 21
-305.119644251265
 31
0.0
  0
LINE
  5
244
330
71
100
AcDbEntity
  8
1
  6
Continuous
 62
     2
100
AcDbLine
 10
-432.8000160926511
 20
-310.119644251265
 30
0.0
 11
-432.8000160926511
 21
-306.119644251265
 31
0.0
  0
LINE
  5
245
330
71
100
AcDbEntity
  8
1
  6
Continuous
 62
     2
100
AcDbLine
 10
-432.8000160926511
 20
-310.119644251265
 30
0.0
 11
-379.466682759317
 21
-310.119644251265
 31
0.0
  0
LINE
  5
246
330
71
100
AcDbEntity
  8
1
  6
Continuous
 62
     2
100
AcDbLine
 10
-222.8000160926532
 20
-310.119644251265
 30
0.0
 11
-242.8000160926504
 21
-310.119644251265
 31
0.0
  0
LINE
  5
247
330
71
100
AcDbEntity
  8
1
  6
Continuous
 62
     2
100
AcDbLine
 10
-222.8000160926532
 20
-310.119644251265
 30
0.0
 11
-222.8000160926532
 21
-306.119644251265
 31
0.0
  0
LINE
  5
248
330
71
100
AcDbEntity
  8
1
  6
Continuous
 62
     2
100
AcDbLine
 10
-222.8000160926532
 20
-310.119644251265
 30
0.0
 11
-174.466682759317
 21
-310.119644251265
 31
0.0
  0
LINE
  5
249
330
71
100
AcDbEntity
  8
1
  6
Continuous
 62
     2
100
AcDbLine
 10
-174.466682759317
 20
-310.119644251265
 30
0.0
 11
-106.1333494259838
 21
-310.119644251265
 31
0.0
  0
LINE
  5
24A
330
71
100
AcDbEntity
  8
1
  6
Continuous
 62
     2
100
AcDbLine
 10
-32.80001609265287
 20
-310.119644251265
 30
0.0
 11
-37.80001609265037
 21
-310.119644251265
 31
0.0
  0
LINE
  5
24B
330
71
100
AcDbEntity
  8
1
  6
Continuous
 62
     2
100
AcDbLine
 10
-32.80001609265287
 20
-305.119644251265
 30
0.0
 11
-32.80001609265287
 21
-310.119644251265
 31
0.0
  0
LINE
  5
24C
330
71
100
AcDbEntity
  8
1
  6
Continuous
 62
     2
100
AcDbLine
 10
-32.80001609265287
 20
-305.119644251265
 30
0.0
 11
-32.80001609265287
 21
-247.7196442512649
 31
0.0
  0
LINE
  5
24D
330
71
100
AcDbEntity
  8
1
  6
Continuous
 62
     2
100
AcDbLine
 10
-32.80001609265287
 20
-13.11964425126499
 30
0.0
 11
-37.80001609265287
 21
-13.11964425126499
 31
0.0
  0
LINE
  5
24E
330
71
100
AcDbEntity
  8
1
  6
Continuous
 62
     6
100
AcDbLine
 10
-37.80001609265287
 20
-18.11964425126499
 30
0.0
 11
-37.80001609265236
 21
-75.51964425126508
 31
0.0
  0
LINE
  5
24F
330
71
100
AcDbEntity
  8
1
  6
Continuous
 62
     2
100
AcDbLine
 10
-32.80001609265287
 20
-13.11964425126499
 30
0.0
 11
-32.80001609265287
 21
-18.11964425126499
 31
0.0
  0
LINE
  5
250
330
71
100
AcDbEntity
  8
1
  6
Continuous
 62
     2
100
AcDbLine
 10
-37.80001609265287
 20
-18.11964425126499
 30
0.0
 11
-37.80001609265287
 21
-13.11964425126499
 31
0.0
  0
LINE
  5
251
330
71
100
AcDbEntity
  8
1
  6
Continuous
 62
     2
100
AcDbLine
 10
-37.80001609265287
 20
-18.11964425126499
 30
0.0
 11
-32.80001609265287
 21
-18.11964425126499
 31
0.0
  0
LINE
  5
252
330
71
100
AcDbEntity
  8
1
  6
Continuous
 62
     2
100
AcDbLine
 10
-32.80001609265287
 20
-18.11964425126499
 30
0.0
 11
-32.80001609265287
 21
-75.51964425126508
 31
0.0
  0
LINE
  5
253
330
71
100
AcDbEntity
  8
1
  6
Continuous
 62
     2
100
AcDbLine
 10
-37.80001609265236
 20
-75.51964425126508
 30
0.0
 11
-32.80001609265287
 21
-75.51964425126508
 31
0.0
  0
LINE
  5
254
330
71
100
AcDbEntity
  8
1
  6
Continuous
 62
     6
100
AcDbLine
 10
-37.80001609265236
 20
-75.51964425126508
 30
0.0
 11
-37.80001609265037
 21
-132.919644251265
 31
0.0
  0
LINE
  5
255
330
71
100
AcDbEntity
  8
1
  6
Continuous
 62
     2
100
AcDbLine
 10
-32.80001609265287
 20
-75.51964425126508
 30
0.0
 11
-32.80001609265287
 21
-132.919644251265
 31
0.0
  0
LINE
  5
256
330
71
100
AcDbEntity
  8
1
  6
Continuous
 62
     2
100
AcDbLine
 10
-37.80001609265037
 20
-132.919644251265
 30
0.0
 11
-32.80001609265287
 21
-132.919644251265
 31
0.0
  0
LINE
  5
257
330
71
100
AcDbEntity
  8
1
  6
Continuous
 62
     6
100
AcDbLine
 10
-37.80001609265037
 20
-132.919644251265
 30
0.0
 11
-37.80001609265037
 21
-190.3196442512648
 31
0.0
  0
LINE
  5
258
330
71
100
AcDbEntity
  8
1
  6
Continuous
 62
     2
100
AcDbLine
 10
-32.80001609265287
 20
-132.919644251265
 30
0.0
 11
-32.80001609265287
 21
-190.3196442512648
 31
0.0
  0
LINE
  5
259
330
71
100
AcDbEntity
  8
1
  6
Continuous
 62
     2
100
AcDbLine
 10
-37.80001609265037
 20
-190.3196442512648
 30
0.0
 11
-32.80001609265287
 21
-190.3196442512648
 31
0.0
  0
LINE
  5
25A
330
71
100
AcDbEntity
  8
1
  6
Continuous
 62
     6
100
AcDbLine
 10
-37.80001609265037
 20
-190.3196442512648
 30
0.0
 11
-37.80001609265042
 21
-247.7196442512649
 31
0.0
  0
LINE
  5
25B
330
71
100
AcDbEntity
  8
1
  6
Continuous
 62
     6
100
AcDbLine
 10
-432.8000160926511
 20
-18.11964425126476
 30
0.0
 11
-379.466682759317
 21
-18.11964425126476
 31
0.0
  0
LINE
  5
25C
330
71
100
AcDbEntity
  8
1
  6
Continuous
 62
     2
100
AcDbLine
 10
-37.80001609265287
 20
-13.11964425126499
 30
0.0
 11
-106.1333494259838
 21
-13.11964425126499
 31
0.0
  0
LINE
  5
25D
330
71
100
AcDbEntity
  8
1
  6
Continuous
 62
     2
100
AcDbLine
 10
-106.1333494259838
 20
-18.11964425126499
 30
0.0
 11
-106.1333494259838
 21
-13.11964425126499
 31
0.0
  0
LINE
  5
25E
330
71
100
AcDbEntity
  8
1
  6
Continuous
 62
     6
100
AcDbLine
 10
-106.1333494259838
 20
-18.11964425126499
 30
0.0
 11
-37.80001609265287
 21
-18.11964425126499
 31
0.0
  0
LINE
  5
25F
330
71
100
AcDbEntity
  8
1
  6
Continuous
 62
     2
100
AcDbLine
 10
-106.1333494259838
 20
-13.11964425126499
 30
0.0
 11
-174.466682759317
 21
-13.11964425126499
 31
0.0
  0
LINE
  5
260
330
71
100
AcDbEntity
  8
1
  6
Continuous
 62
     2
100
AcDbLine
 10
-174.466682759317
 20
-18.11964425126499
 30
0.0
 11
-174.466682759317
 21
-13.11964425126499
 31
0.0
  0
LINE
  5
261
330
71
100
AcDbEntity
  8
1
  6
Continuous
 62
     6
100
AcDbLine
 10
-174.466682759317
 20
-18.11964425126499
 30
0.0
 11
-106.1333494259838
 21
-18.11964425126499
 31
0.0
  0
LINE
  5
262
330
71
100
AcDbEntity
  8
1
  6
Continuous
 62
     2
100
AcDbLine
 10
-174.466682759317
 20
-13.11964425126499
 30
0.0
 11
-222.8000160926532
 21
-13.11964425126499
 31
0.0
  0
LINE
  5
263
330
71
100
AcDbEntity
  8
1
  6
Continuous
 62
     2
100
AcDbLine
 10
-242.8000160926504
 20
-18.11964425126499
 30
0.0
 11
-242.8000160926504
 21
-13.11964425126499
 31
0.0
  0
LINE
  5
264
330
71
100
AcDbEntity
  8
1
  6
Continuous
 62
     6
100
AcDbLine
 10
-242.8000160926504
 20
-18.11964425126499
 30
0.0
 11
-174.466682759317
 21
-18.11964425126499
 31
0.0
  0
LINE
  5
265
330
71
100
AcDbEntity
  8
1
  6
Continuous
 62
     2
100
AcDbLine
 10
-242.8000160926504
 20
-13.11964425126499
 30
0.0
 11
-311.1333494259835
 21
-13.11964425126499
 31
0.0
  0
LINE
  5
266
330
71
100
AcDbEntity
  8
1
  6
Continuous
 62
     2
100
AcDbLine
 10
-311.1333494259835
 20
-18.11964425126499
 30
0.0
 11
-311.1333494259835
 21
-13.11964425126499
 31
0.0
  0
LINE
  5
267
330
71
100
AcDbEntity
  8
1
  6
Continuous
 62
     6
100
AcDbLine
 10
-311.1333494259835
 20
-18.11964425126499
 30
0.0
 11
-242.8000160926504
 21
-18.11964425126499
 31
0.0
  0
LINE
  5
268
330
71
100
AcDbEntity
  8
1
  6
Continuous
 62
     2
100
AcDbLine
 10
-311.1333494259835
 20
-13.11964425126499
 30
0.0
 11
-379.466682759317
 21
-13.11964425126499
 31
0.0
  0
LINE
  5
269
330
71
100
AcDbEntity
  8
1
  6
Continuous
 62
     2
100
AcDbLine
 10
-379.466682759317
 20
-18.11964425126476
 30
0.0
 11
-379.466682759317
 21
-13.11964425126499
 31
0.0
  0
LINE
  5
26A
330
71
100
AcDbEntity
  8
1
  6
Continuous
 62
     6
100
AcDbLine
 10
-379.466682759317
 20
-18.11964425126476
 30
0.0
 11
-311.1333494259835
 21
-18.11964425126499
 31
0.0
  0
LINE
  5
26B
330
71
100
AcDbEntity
  8
1
  6
Continuous
 62
     2
100
AcDbLine
 10
-379.466682759317
 20
-13.11964425126499
 30
0.0
 11
-432.8000160926511
 21
-13.11964425126499
 31
0.0
  0
LINE
  5
26C
330
71
100
AcDbEntity
  8
1
  6
Continuous
 62
     2
100
AcDbLine
 10
-432.8000160926511
 20
-13.11964425126499
 30
0.0
 11
-432.8000160926511
 21
-17.11964425126476
 31
0.0
  0
LINE
  5
26D
330
71
100
AcDbEntity
  8
1
  6
Continuous
 62
     2
100
AcDbLine
 10
-432.8000160926511
 20
-13.11964425126499
 30
0.0
 11
-452.8000160926512
 21
-13.11964425126499
 31
0.0
  0
LINE
  5
26E
330
71
100
AcDbEntity
  8
1
  6
Continuous
 62
     2
100
AcDbLine
 10
-222.8000160926532
 20
-13.11964425126499
 30
0.0
 11
-222.8000160926532
 21
-17.11964425126476
 31
0.0
  0
LINE
  5
26F
330
71
100
AcDbEntity
  8
1
  6
Continuous
 62
     2
100
AcDbLine
 10
-222.8000160926532
 20
-13.11964425126499
 30
0.0
 11
-242.8000160926504
 21
-13.11964425126499
 31
0.0
  0
LINE
  5
270
330
71
100
AcDbEntity
  8
1
  6
Continuous
 62
     2
100
AcDbLine
 10
-452.8000160926512
 20
-13.11964425126499
 30
0.0
 11
-452.8000160926512
 21
-161.619644251265
 31
0.0
  0
LINE
  5
271
330
71
100
AcDbEntity
  8
1
  6
Continuous
 62
     2
100
AcDbLine
 10
-452.8000160926512
 20
-161.619644251265
 30
0.0
 11
-442.8000160926511
 21
-161.619644251265
 31
0.0
  0
LINE
  5
272
330
71
100
AcDbEntity
  8
1
  6
Continuous
 62
     2
100
AcDbLine
 10
-452.8000160926512
 20
-161.619644251265
 30
0.0
 11
-452.8000160926512
 21
-310.119644251265
 31
0.0
  0
LINE
  5
273
330
71
100
AcDbEntity
  8
1
  6
Continuous
 62
     6
100
AcDbLine
 10
-432.8000160926501
 20
-305.119644251265
 30
0.0
 11
-432.8000160926511
 21
-18.11964425126476
 31
0.0
  0
LINE
  5
274
330
71
100
AcDbEntity
  8
1
  6
Continuous
 62
     6
100
AcDbLine
 10
-37.80001609265042
 20
-305.1196442512655
 30
0.0
 11
-37.80001609265082
 21
-296.6196442512655
 31
0.0
  0
LINE
  5
275
330
71
100
AcDbEntity
  8
1
  6
Continuous
 62
     6
100
AcDbLine
 10
-311.1333494259835
 20
-305.119644251265
 30
0.0
 11
-167.3448206194003
 21
-305.119644251268
 31
0.0
  0
LINE
  5
276
330
71
100
AcDbEntity
  8
1
  6
Continuous
 62
     2
100
AcDbLine
 10
-174.466682759317
 20
-305.1196442512679
 30
0.0
 11
-174.466682759317
 21
-305.119644251265
 31
0.0
  0
LINE
  5
277
330
71
100
AcDbEntity
  8
1
  6
Continuous
 62
     6
100
AcDbLine
 10
-37.80001609264858
 20
-288.1196442512655
 30
0.0
 11
-37.80001609264858
 21
-279.6196442512655
 31
0.0
  0
LINE
  5
278
330
71
100
AcDbEntity
  8
1
  6
Continuous
 62
     7
100
AcDbLine
 10
-103.0448206194004
 20
-296.6196442512655
 30
0.0
 11
-103.0448206194004
 21
-288.1196442512655
 31
0.0
  0
LINE
  5
279
330
71
100
AcDbEntity
  8
1
  6
Continuous
 62
     6
100
AcDbLine
 10
-130.9448206194004
 20
-288.1196442512655
 30
0.0
 11
-37.80001609264858
 21
-288.1196442512655
 31
0.0
  0
LINE
  5
27A
330
71
100
AcDbEntity
  8
1
  6
Continuous
 62
     7
100
AcDbLine
 10
-167.3448206194003
 20
-288.1196442512655
 30
0.0
 11
-167.3448206194003
 21
-279.6196442512655
 31
0.0
  0
LINE
  5
27B
330
71
100
AcDbEntity
  8
1
  6
Continuous
 62
     7
100
AcDbLine
 10
-130.9448206194004
 20
-288.1196442512655
 30
0.0
 11
-130.9448206194004
 21
-279.6196442512655
 31
0.0
  0
LINE
  5
27C
330
71
100
AcDbEntity
  8
1
  6
Continuous
 62
     7
100
AcDbLine
 10
-73.2184243743274
 20
-279.6196442512655
 30
0.0
 11
-73.2184243743274
 21
-288.1196442512655
 31
0.0
  0
LINE
  5
27D
330
71
100
AcDbEntity
  8
1
  6
Continuous
 62
     7
100
AcDbLine
 10
-46.71842437432777
 20
-279.6196442512655
 30
0.0
 11
-46.71842437432777
 21
-288.1196442512655
 31
0.0
  0
LINE
  5
27E
330
71
100
AcDbEntity
  8
1
  6
Continuous
 62
     7
100
AcDbLine
 10
-37.80001609264907
 20
-296.6196442512655
 30
0.0
 11
-130.9448206194004
 21
-296.6196442512655
 31
0.0
  0
LINE
  5
27F
102
{ACAD_REACTORS
330
364
330
365
102
}
330
71
100
AcDbEntity
  8
0
  6
Continuous
 62
     2
100
AcDbLine
 10
-153.6373916776329
 20
-295.8193551356022
 30
0.0
 11
-153.6373916776329
 21
-294.946838128799
 31
0.0
  0
LINE
  5
280
102
{ACAD_REACTORS
330
364
330
365
102
}
330
71
100
AcDbEntity
  8
0
  6
Continuous
 62
     2
100
AcDbLine
 10
-153.6373916776329
 20
-296.779123843085
 30
0.0
 11
-153.6373916776329
 21
-297.6516408498884
 31
0.0
  0
LINE
  5
281
102
{ACAD_REACTORS
330
366
330
367
102
}
330
71
100
AcDbEntity
  8
0
  6
Continuous
 62
     2
100
AcDbLine
 10
-138.3043475413425
 20
-295.5576000335618
 30
0.0
 11
-137.2007082417744
 21
-295.5576000335618
 31
0.0
  0
LINE
  5
282
102
{ACAD_REACTORS
330
366
330
367
102
}
330
71
100
AcDbEntity
  8
0
  6
Continuous
 62
     2
100
AcDbLine
 10
-137.5346901983811
 20
-296.7791238430856
 30
0.0
 11
-137.5346901983811
 21
-297.6516408498889
 31
0.0
  0
LINE
  5
283
102
{ACAD_REACTORS
330
370
330
371
102
}
330
71
100
AcDbEntity
  8
0
  6
Continuous
 62
     2
100
AcDbLine
 10
-139.3954468137609
 20
-294.4669537750749
 30
0.0
 11
-137.9974937668206
 21
-292.8860947813
 31
0.0
  0
LINE
  5
284
102
{ACAD_REACTORS
330
370
330
371
102
}
330
71
100
AcDbEntity
  8
0
  6
Continuous
 62
     2
100
AcDbLine
 10
-139.3000233975881
 20
-291.4131442512638
 30
0.0
 11
-137.9974937668206
 21
-292.8860947813
 31
0.0
  0
LINE
  5
285
102
{ACAD_REACTORS
330
370
330
371
102
}
330
71
100
AcDbEntity
  8
0
  6
Continuous
 62
     2
100
AcDbLine
 10
-136.6949641360542
 20
-291.4131442512638
 30
0.0
 11
-135.292239918307
 21
-291.4131442512638
 31
0.0
  0
LINE
  5
286
102
{ACAD_REACTORS
330
370
330
371
102
}
330
71
100
AcDbEntity
  8
0
  6
Continuous
 62
     2
100
AcDbLine
 10
-137.9927225960128
 20
-294.4669537750749
 30
0.0
 11
-137.296131657947
 21
-293.6792219897811
 31
0.0
  0
LINE
  5
287
102
{ACAD_REACTORS
330
370
330
371
102
}
330
71
100
AcDbEntity
  8
0
  6
Continuous
 62
     2
100
AcDbLine
 10
-137.9927225960128
 20
-294.4669537750749
 30
0.0
 11
-139.3954468137609
 21
-294.4669537750749
 31
0.0
  0
LINE
  5
288
102
{ACAD_REACTORS
330
372
330
373
102
}
330
71
100
AcDbEntity
  8
0
  6
Continuous
 62
     2
100
AcDbLine
 10
-139.5147260839778
 20
-294.4669537750749
 30
0.0
 11
-140.7552304942307
 21
-294.4669537750749
 31
0.0
  0
LINE
  5
289
102
{ACAD_REACTORS
330
374
330
375
102
}
330
71
100
AcDbEntity
  8
0
  6
Continuous
 62
     2
100
AcDbLine
 10
-141.6232101023858
 20
-296.6046204417248
 30
0.0
 11
-141.923375339576
 21
-295.8368054757381
 31
0.0
  0
LINE
  5
28A
102
{ACAD_REACTORS
330
374
330
375
102
}
330
71
100
AcDbEntity
  8
0
  6
Continuous
 62
     2
100
AcDbLine
 10
-142.2235405767683
 20
-296.6046204417248
 30
0.0
 11
-141.6232101023858
 21
-296.6046204417248
 31
0.0
  0
LINE
  5
28B
102
{ACAD_REACTORS
330
374
330
375
102
}
330
71
100
AcDbEntity
  8
0
  6
Continuous
 62
     2
100
AcDbLine
 10
-143.9415805916421
 20
-297.8261442512492
 30
0.0
 11
-142.7010761813892
 21
-297.8261442512492
 31
0.0
  0
LINE
  5
28C
102
{ACAD_REACTORS
330
374
330
375
102
}
330
71
100
AcDbEntity
  8
0
  6
Continuous
 62
     2
100
AcDbLine
 10
-142.5436275447029
 20
-294.7723347274381
 30
0.0
 11
-141.3031231344501
 21
-294.7723347274381
 31
0.0
  0
LINE
  5
28D
102
{ACAD_REACTORS
330
374
330
375
102
}
330
71
100
AcDbEntity
  8
0
  6
Continuous
 62
     2
100
AcDbLine
 10
-141.3031231344501
 20
-294.7723347274381
 30
0.0
 11
-139.9051700875098
 21
-297.8261442512492
 31
0.0
  0
LINE
  5
28E
102
{ACAD_REACTORS
330
374
330
375
102
}
330
71
100
AcDbEntity
  8
0
  6
Continuous
 62
     2
100
AcDbLine
 10
-141.1456744977637
 20
-297.8261442512492
 30
0.0
 11
-141.3571545512395
 21
-297.2851837070314
 31
0.0
  0
LINE
  5
28F
102
{ACAD_REACTORS
330
376
330
377
102
}
330
71
100
AcDbEntity
  8
0
  6
Continuous
 62
     2
100
AcDbLine
 10
-145.2879936933497
 20
-297.8261442512492
 30
0.0
 11
-144.0952009911833
 21
-297.8261442512492
 31
0.0
  0
LINE
  5
290
102
{ACAD_REACTORS
330
376
330
377
102
}
330
71
100
AcDbEntity
  8
0
  6
Continuous
 62
     2
100
AcDbLine
 10
-145.2879936933497
 20
-295.5576000335618
 30
0.0
 11
-145.2879936933497
 21
-297.8261442512492
 31
0.0
  0
LINE
  5
291
102
{ACAD_REACTORS
330
376
330
377
102
}
330
71
100
AcDbEntity
  8
0
  6
Continuous
 62
     2
100
AcDbLine
 10
-146.0990927308244
 20
-294.7723347274381
 30
0.0
 11
-146.0990927308244
 21
-295.5576000335618
 31
0.0
  0
LINE
  5
292
102
{ACAD_REACTORS
330
378
330
379
102
}
330
71
100
AcDbEntity
  8
0
  6
Continuous
 62
     2
100
AcDbLine
 10
-144.6198788492517
 20
-294.4669537750749
 30
0.0
 11
-143.4270861470853
 21
-294.4669537750749
 31
0.0
  0
LINE
  5
293
102
{ACAD_REACTORS
330
378
330
379
102
}
330
71
100
AcDbEntity
  8
0
  6
Continuous
 62
     2
100
AcDbLine
 10
-142.1865817368312
 20
-292.7219197614688
 30
0.0
 11
-143.4270861470853
 21
-291.4131442512638
 31
0.0
  0
LINE
  5
294
102
{ACAD_REACTORS
330
378
330
379
102
}
330
71
100
AcDbEntity
  8
0
  6
Continuous
 62
     2
100
AcDbLine
 10
-140.9937890346646
 20
-291.4131442512638
 30
0.0
 11
-142.1865817368312
 21
-291.4131442512638
 31
0.0
  0
LINE
  5
295
102
{ACAD_REACTORS
330
378
330
379
102
}
330
71
100
AcDbEntity
  8
0
  6
Continuous
 62
     2
100
AcDbLine
 10
-140.9937890346646
 20
-294.4669537750749
 30
0.0
 11
-140.9937890346646
 21
-291.4131442512638
 31
0.0
  0
LINE
  5
296
102
{ACAD_REACTORS
330
378
330
379
102
}
330
71
100
AcDbEntity
  8
0
  6
Continuous
 62
     2
100
AcDbLine
 10
-142.1865817368312
 20
-294.4669537750749
 30
0.0
 11
-140.9937890346646
 21
-294.4669537750749
 31
0.0
  0
LINE
  5
297
102
{ACAD_REACTORS
330
378
330
379
102
}
330
71
100
AcDbEntity
  8
0
  6
Continuous
 62
     2
100
AcDbLine
 10
-143.4270861470853
 20
-293.1581782648701
 30
0.0
 11
-142.1865817368312
 21
-294.4669537750749
 31
0.0
  0
LINE
  5
298
102
{ACAD_REACTORS
330
37A
330
37B
102
}
330
71
100
AcDbEntity
  8
0
  6
Continuous
 62
     2
100
AcDbLine
 10
-147.4350205572509
 20
-296.0811102376433
 30
0.0
 11
-148.6755249675039
 21
-294.7723347274381
 31
0.0
  0
LINE
  5
299
102
{ACAD_REACTORS
330
37A
330
37B
102
}
330
71
100
AcDbEntity
  8
0
  6
Continuous
 62
     2
100
AcDbLine
 10
-147.4350205572509
 20
-294.7723347274381
 30
0.0
 11
-147.4350205572509
 21
-296.0811102376433
 31
0.0
  0
LINE
  5
29A
102
{ACAD_REACTORS
330
37A
330
37B
102
}
330
71
100
AcDbEntity
  8
0
  6
Continuous
 62
     2
100
AcDbLine
 10
-146.2422278550845
 20
-294.7723347274381
 30
0.0
 11
-147.4350205572509
 21
-294.7723347274381
 31
0.0
  0
LINE
  5
29B
102
{ACAD_REACTORS
330
37A
330
37B
102
}
330
71
100
AcDbEntity
  8
0
  6
Continuous
 62
     2
100
AcDbLine
 10
-146.2422278550845
 20
-297.8261442512492
 30
0.0
 11
-146.2422278550845
 21
-294.7723347274381
 31
0.0
  0
LINE
  5
29C
102
{ACAD_REACTORS
330
37A
330
37B
102
}
330
71
100
AcDbEntity
  8
0
  6
Continuous
 62
     2
100
AcDbLine
 10
-148.6755249675039
 20
-296.5173687410447
 30
0.0
 11
-147.4350205572509
 21
-297.8261442512492
 31
0.0
  0
LINE
  5
29D
102
{ACAD_REACTORS
330
37A
330
37B
102
}
330
71
100
AcDbEntity
  8
0
  6
Continuous
 62
     2
100
AcDbLine
 10
-148.6755249675039
 20
-297.8261442512492
 30
0.0
 11
-148.6755249675039
 21
-296.5173687410447
 31
0.0
  0
LINE
  5
29E
102
{ACAD_REACTORS
330
36A
330
36B
102
}
330
71
100
AcDbEntity
  8
0
  6
Continuous
 62
     2
100
AcDbLine
 10
-146.1943652161123
 20
-292.1111578567067
 30
0.0
 11
-144.8584373896847
 21
-292.1111578567067
 31
0.0
  0
LINE
  5
29F
102
{ACAD_REACTORS
330
36A
330
36B
102
}
330
71
100
AcDbEntity
  8
0
  6
Continuous
 62
     2
100
AcDbLine
 10
-146.1943652161123
 20
-293.7689401696325
 30
0.0
 11
-146.1943652161123
 21
-293.2890558158907
 31
0.0
  0
LINE
  5
2A0
102
{ACAD_REACTORS
330
36A
330
36B
102
}
330
71
100
AcDbEntity
  8
0
  6
Continuous
 62
     2
100
AcDbLine
 10
-144.8584373896847
 20
-293.7689401696325
 30
0.0
 11
-146.1943652161123
 21
-293.7689401696325
 31
0.0
  0
LINE
  5
2A1
102
{ACAD_REACTORS
330
36A
330
36B
102
}
330
71
100
AcDbEntity
  8
0
  6
Continuous
 62
     2
100
AcDbLine
 10
-144.8584373896847
 20
-294.4669537750749
 30
0.0
 11
-144.8584373896847
 21
-293.7689401696325
 31
0.0
  0
LINE
  5
2A2
102
{ACAD_REACTORS
330
36A
330
36B
102
}
330
71
100
AcDbEntity
  8
0
  6
Continuous
 62
     2
100
AcDbLine
 10
-148.0087571134656
 20
-294.4669537750749
 30
0.0
 11
-144.8584373896847
 21
-294.4669537750749
 31
0.0
  0
LINE
  5
2A3
102
{ACAD_REACTORS
330
36A
330
36B
102
}
330
71
100
AcDbEntity
  8
0
  6
Continuous
 62
     2
100
AcDbLine
 10
-148.0087571134656
 20
-291.4131442512638
 30
0.0
 11
-144.8584373896847
 21
-291.4131442512638
 31
0.0
  0
LINE
  5
2A4
102
{ACAD_REACTORS
330
36A
330
36B
102
}
330
71
100
AcDbEntity
  8
0
  6
Continuous
 62
     2
100
AcDbLine
 10
-144.8584373896847
 20
-292.1111578567067
 30
0.0
 11
-144.8584373896847
 21
-291.4131442512638
 31
0.0
  0
LINE
  5
2A5
102
{ACAD_REACTORS
330
37C
330
37D
102
}
330
71
100
AcDbEntity
  8
0
  6
Continuous
 62
     2
100
AcDbLine
 10
-150.8701126086057
 20
-292.4819775845983
 30
0.0
 11
-150.8701126086057
 21
-291.4131442512638
 31
0.0
  0
LINE
  5
2A6
102
{ACAD_REACTORS
330
37C
330
37D
102
}
330
71
100
AcDbEntity
  8
0
  6
Continuous
 62
     2
100
AcDbLine
 10
-150.8701126086057
 20
-291.4131442512638
 30
0.0
 11
-149.6773199064392
 21
-291.4131442512638
 31
0.0
  0
LINE
  5
2A7
102
{ACAD_REACTORS
330
37C
330
37D
102
}
330
71
100
AcDbEntity
  8
0
  6
Continuous
 62
     2
100
AcDbLine
 10
-150.8701126086057
 20
-293.3326816662312
 30
0.0
 11
-151.9197701865131
 21
-293.3326816662312
 31
0.0
  0
LINE
  5
2A8
102
{ACAD_REACTORS
330
37C
330
37D
102
}
330
71
100
AcDbEntity
  8
0
  6
Continuous
 62
     2
100
AcDbLine
 10
-151.9197701865131
 20
-293.3326816662312
 30
0.0
 11
-151.9197701865131
 21
-294.4669537750749
 31
0.0
  0
LINE
  5
2A9
102
{ACAD_REACTORS
330
37C
330
37D
102
}
330
71
100
AcDbEntity
  8
0
  6
Continuous
 62
     2
100
AcDbLine
 10
-153.1125628886797
 20
-291.4131442512638
 30
0.0
 11
-153.1125628886797
 21
-294.4669537750749
 31
0.0
  0
LINE
  5
2AA
102
{ACAD_REACTORS
330
36E
330
36F
102
}
330
71
100
AcDbEntity
  8
0
  6
Continuous
 62
     2
100
AcDbLine
 10
-155.0687429202334
 20
-292.7819777460461
 30
0.0
 11
-155.0687429202334
 21
-292.0762500967038
 31
0.0
  0
LINE
  5
2AB
102
{ACAD_REACTORS
330
36E
330
36F
102
}
330
71
100
AcDbEntity
  8
0
  6
Continuous
 62
     2
100
AcDbLine
 10
-156.3092473304874
 20
-294.4669537750749
 30
0.0
 11
-155.0687429202334
 21
-294.4669537750749
 31
0.0
  0
LINE
  5
2AC
102
{ACAD_REACTORS
330
36E
330
36F
102
}
330
71
100
AcDbEntity
  8
0
  6
Continuous
 62
     2
100
AcDbLine
 10
-155.0687429202334
 20
-294.4669537750749
 30
0.0
 11
-155.0687429202334
 21
-293.5238755339311
 31
0.0
  0
LINE
  5
2AD
102
{ACAD_REACTORS
330
368
330
369
102
}
330
71
100
AcDbEntity
  8
0
  6
Continuous
 62
     2
100
AcDbLine
 10
-160.6141931796989
 20
-297.1135886956923
 30
0.0
 11
-162.0900264407085
 21
-297.1135886956923
 31
0.0
  0
LINE
  5
2AE
102
{ACAD_REACTORS
330
368
330
369
102
}
330
71
100
AcDbEntity
  8
0
  6
Continuous
 62
     2
100
AcDbLine
 10
-163.1081657328378
 20
-291.8373888666657
 30
0.0
 11
-163.1081657328378
 21
-297.401899635866
 31
0.0
  0
LINE
  5
2AF
102
{ACAD_REACTORS
330
368
330
369
102
}
330
71
100
AcDbEntity
  8
0
  6
Continuous
 62
     2
100
AcDbLine
 10
-162.683921117455
 20
-291.4131442512819
 30
0.0
 11
-157.2106090267381
 21
-291.4131442512819
 31
0.0
  0
LINE
  5
2B0
102
{ACAD_REACTORS
330
368
330
369
102
}
330
71
100
AcDbEntity
  8
0
  6
Continuous
 62
     2
100
AcDbLine
 10
-156.7863644113542
 20
-291.8373888666657
 30
0.0
 11
-156.7863644113542
 21
-297.401899635866
 31
0.0
  0
LINE
  5
2B1
102
{ACAD_REACTORS
330
368
330
369
102
}
330
71
100
AcDbEntity
  8
0
  6
Continuous
 62
     2
100
AcDbLine
 10
-157.2106090267381
 20
-297.8261442512492
 30
0.0
 11
-162.683921117455
 21
-297.8261442512492
 31
0.0
  0
LINE
  5
2B2
102
{ACAD_REACTORS
330
368
330
369
102
}
330
71
100
AcDbEntity
  8
0
  6
Continuous
 62
     2
100
AcDbLine
 10
-160.2984762566223
 20
-296.7978717726156
 30
0.0
 11
-160.2984762566223
 21
-295.267100841084
 31
0.0
  0
LINE
  5
2B3
102
{ACAD_REACTORS
330
368
330
369
102
}
330
71
100
AcDbEntity
  8
0
  6
Continuous
 62
     2
100
AcDbLine
 10
-160.2984762566223
 20
-293.0454413489591
 30
0.0
 11
-160.2984762566223
 21
-292.4414167298985
 31
0.0
  0
LINE
  5
2B4
102
{ACAD_REACTORS
330
368
330
369
102
}
330
71
100
AcDbEntity
  8
0
  6
Continuous
 62
     2
100
AcDbLine
 10
-162.0900264407085
 20
-292.1256998068224
 30
0.0
 11
-160.6141931796989
 21
-292.1256998068224
 31
0.0
  0
LINE
  5
2B5
102
{ACAD_REACTORS
330
368
330
369
102
}
330
71
100
AcDbEntity
  8
0
  6
Continuous
 62
     2
100
AcDbLine
 10
-162.4057433637841
 20
-292.4414167298985
 30
0.0
 11
-162.4057433637841
 21
-296.7978717726156
 31
0.0
  0
LINE
  5
2B6
102
{ACAD_REACTORS
330
36E
330
36F
102
}
330
71
100
AcDbEntity
  8
0
  6
Continuous
 62
     2
100
AcDbLine
 10
-155.0687429202334
 20
-293.5238755339311
 30
0.0
 11
-154.309975332453
 21
-293.5238755339311
 31
0.0
  0
LINE
  5
2B7
102
{ACAD_REACTORS
330
36E
330
36F
102
}
330
71
100
AcDbEntity
  8
0
  6
Continuous
 62
     2
100
AcDbLine
 10
-156.3092473304874
 20
-291.4131442512638
 30
0.0
 11
-154.309975332453
 21
-291.4131442512638
 31
0.0
  0
LINE
  5
2B8
102
{ACAD_REACTORS
330
36E
330
36F
102
}
330
71
100
AcDbEntity
  8
0
  6
Continuous
 62
     2
100
AcDbLine
 10
-156.3092473304874
 20
-291.4131442512638
 30
0.0
 11
-156.3092473304874
 21
-294.4669537750749
 31
0.0
  0
LINE
  5
2B9
102
{ACAD_REACTORS
330
36E
330
36F
102
}
330
71
100
AcDbEntity
  8
0
  6
Continuous
 62
     2
100
AcDbLine
 10
-155.0687429202334
 20
-292.7819777460461
 30
0.0
 11
-154.7514478586914
 21
-292.7819777460461
 31
0.0
  0
LINE
  5
2BA
102
{ACAD_REACTORS
330
36E
330
36F
102
}
330
71
100
AcDbEntity
  8
0
  6
Continuous
 62
     2
100
AcDbLine
 10
-155.0687429202334
 20
-292.0762500967038
 30
0.0
 11
-154.7514478586914
 21
-292.0762500967038
 31
0.0
  0
LINE
  5
2BB
102
{ACAD_REACTORS
330
37C
330
37D
102
}
330
71
100
AcDbEntity
  8
0
  6
Continuous
 62
     2
100
AcDbLine
 10
-151.9197701865131
 20
-292.4819775845983
 30
0.0
 11
-150.8701126086057
 21
-292.4819775845983
 31
0.0
  0
LINE
  5
2BC
102
{ACAD_REACTORS
330
37C
330
37D
102
}
330
71
100
AcDbEntity
  8
0
  6
Continuous
 62
     2
100
AcDbLine
 10
-151.9197701865131
 20
-291.4131442512638
 30
0.0
 11
-151.9197701865131
 21
-292.4819775845983
 31
0.0
  0
LINE
  5
2BD
102
{ACAD_REACTORS
330
37C
330
37D
102
}
330
71
100
AcDbEntity
  8
0
  6
Continuous
 62
     2
100
AcDbLine
 10
-153.1125628886797
 20
-291.4131442512638
 30
0.0
 11
-151.9197701865131
 21
-291.4131442512638
 31
0.0
  0
LINE
  5
2BE
102
{ACAD_REACTORS
330
37C
330
37D
102
}
330
71
100
AcDbEntity
  8
0
  6
Continuous
 62
     2
100
AcDbLine
 10
-151.9197701865131
 20
-294.4669537750749
 30
0.0
 11
-153.1125628886797
 21
-294.4669537750749
 31
0.0
  0
LINE
  5
2BF
102
{ACAD_REACTORS
330
37C
330
37D
102
}
330
71
100
AcDbEntity
  8
0
  6
Continuous
 62
     2
100
AcDbLine
 10
-150.8701126086057
 20
-294.4669537750749
 30
0.0
 11
-150.8701126086057
 21
-293.3326816662312
 31
0.0
  0
LINE
  5
2C0
102
{ACAD_REACTORS
330
37C
330
37D
102
}
330
71
100
AcDbEntity
  8
0
  6
Continuous
 62
     2
100
AcDbLine
 10
-149.6773199064392
 20
-294.4669537750749
 30
0.0
 11
-150.8701126086057
 21
-294.4669537750749
 31
0.0
  0
LINE
  5
2C1
102
{ACAD_REACTORS
330
37C
330
37D
102
}
330
71
100
AcDbEntity
  8
0
  6
Continuous
 62
     2
100
AcDbLine
 10
-149.6773199064392
 20
-291.4131442512638
 30
0.0
 11
-149.6773199064392
 21
-294.4669537750749
 31
0.0
  0
LINE
  5
2C2
102
{ACAD_REACTORS
330
36A
330
36B
102
}
330
71
100
AcDbEntity
  8
0
  6
Continuous
 62
     2
100
AcDbLine
 10
-146.1943652161123
 20
-293.2890558158907
 30
0.0
 11
-144.8584373896847
 21
-293.2890558158907
 31
0.0
  0
LINE
  5
2C3
102
{ACAD_REACTORS
330
36A
330
36B
102
}
330
71
100
AcDbEntity
  8
0
  6
Continuous
 62
     2
100
AcDbLine
 10
-144.8584373896847
 20
-293.2890558158907
 30
0.0
 11
-144.8584373896847
 21
-292.5910422104483
 31
0.0
  0
LINE
  5
2C4
102
{ACAD_REACTORS
330
36A
330
36B
102
}
330
71
100
AcDbEntity
  8
0
  6
Continuous
 62
     2
100
AcDbLine
 10
-144.8584373896847
 20
-292.5910422104483
 30
0.0
 11
-146.1943652161123
 21
-292.5910422104483
 31
0.0
  0
LINE
  5
2C5
102
{ACAD_REACTORS
330
36A
330
36B
102
}
330
71
100
AcDbEntity
  8
0
  6
Continuous
 62
     2
100
AcDbLine
 10
-146.1943652161123
 20
-292.5910422104483
 30
0.0
 11
-146.1943652161123
 21
-292.1111578567067
 31
0.0
  0
LINE
  5
2C6
102
{ACAD_REACTORS
330
37A
330
37B
102
}
330
71
100
AcDbEntity
  8
0
  6
Continuous
 62
     2
100
AcDbLine
 10
-149.8683176696714
 20
-297.8261442512492
 30
0.0
 11
-148.6755249675039
 21
-297.8261442512492
 31
0.0
  0
LINE
  5
2C7
102
{ACAD_REACTORS
330
37A
330
37B
102
}
330
71
100
AcDbEntity
  8
0
  6
Continuous
 62
     2
100
AcDbLine
 10
-147.4350205572509
 20
-297.8261442512492
 30
0.0
 11
-146.2422278550845
 21
-297.8261442512492
 31
0.0
  0
LINE
  5
2C8
102
{ACAD_REACTORS
330
37A
330
37B
102
}
330
71
100
AcDbEntity
  8
0
  6
Continuous
 62
     2
100
AcDbLine
 10
-148.6755249675039
 20
-294.7723347274381
 30
0.0
 11
-149.8683176696714
 21
-294.7723347274381
 31
0.0
  0
LINE
  5
2C9
102
{ACAD_REACTORS
330
37A
330
37B
102
}
330
71
100
AcDbEntity
  8
0
  6
Continuous
 62
     2
100
AcDbLine
 10
-149.8683176696714
 20
-294.7723347274381
 30
0.0
 11
-149.8683176696714
 21
-297.8261442512492
 31
0.0
  0
LINE
  5
2CA
102
{ACAD_REACTORS
330
378
330
379
102
}
330
71
100
AcDbEntity
  8
0
  6
Continuous
 62
     2
100
AcDbLine
 10
-142.1865817368312
 20
-291.4131442512638
 30
0.0
 11
-142.1865817368312
 21
-292.7219197614688
 31
0.0
  0
LINE
  5
2CB
102
{ACAD_REACTORS
330
378
330
379
102
}
330
71
100
AcDbEntity
  8
0
  6
Continuous
 62
     2
100
AcDbLine
 10
-143.4270861470853
 20
-291.4131442512638
 30
0.0
 11
-144.6198788492517
 21
-291.4131442512638
 31
0.0
  0
LINE
  5
2CC
102
{ACAD_REACTORS
330
378
330
379
102
}
330
71
100
AcDbEntity
  8
0
  6
Continuous
 62
     2
100
AcDbLine
 10
-144.6198788492517
 20
-291.4131442512638
 30
0.0
 11
-144.6198788492517
 21
-294.4669537750749
 31
0.0
  0
LINE
  5
2CD
102
{ACAD_REACTORS
330
378
330
379
102
}
330
71
100
AcDbEntity
  8
0
  6
Continuous
 62
     2
100
AcDbLine
 10
-143.4270861470853
 20
-294.4669537750749
 30
0.0
 11
-143.4270861470853
 21
-293.1581782648701
 31
0.0
  0
LINE
  5
2CE
102
{ACAD_REACTORS
330
376
330
377
102
}
330
71
100
AcDbEntity
  8
0
  6
Continuous
 62
     2
100
AcDbLine
 10
-144.0952009911833
 20
-297.8261442512492
 30
0.0
 11
-144.0952009911833
 21
-295.5576000335618
 31
0.0
  0
LINE
  5
2CF
102
{ACAD_REACTORS
330
376
330
377
102
}
330
71
100
AcDbEntity
  8
0
  6
Continuous
 62
     2
100
AcDbLine
 10
-144.0952009911833
 20
-295.5576000335618
 30
0.0
 11
-143.2841019537107
 21
-295.5576000335618
 31
0.0
  0
LINE
  5
2D0
102
{ACAD_REACTORS
330
376
330
377
102
}
330
71
100
AcDbEntity
  8
0
  6
Continuous
 62
     2
100
AcDbLine
 10
-143.2841019537107
 20
-295.5576000335618
 30
0.0
 11
-143.2841019537107
 21
-294.7723347274381
 31
0.0
  0
LINE
  5
2D1
102
{ACAD_REACTORS
330
376
330
377
102
}
330
71
100
AcDbEntity
  8
0
  6
Continuous
 62
     2
100
AcDbLine
 10
-143.2841019537107
 20
-294.7723347274381
 30
0.0
 11
-146.0990927308244
 21
-294.7723347274381
 31
0.0
  0
LINE
  5
2D2
102
{ACAD_REACTORS
330
376
330
377
102
}
330
71
100
AcDbEntity
  8
0
  6
Continuous
 62
     2
100
AcDbLine
 10
-146.0990927308244
 20
-295.5576000335618
 30
0.0
 11
-145.2879936933497
 21
-295.5576000335618
 31
0.0
  0
LINE
  5
2D3
102
{ACAD_REACTORS
330
374
330
375
102
}
330
71
100
AcDbEntity
  8
0
  6
Continuous
 62
     2
100
AcDbLine
 10
-142.4895961279134
 20
-297.2851837070314
 30
0.0
 11
-141.3571545512395
 21
-297.2851837070314
 31
0.0
  0
LINE
  5
2D4
102
{ACAD_REACTORS
330
374
330
375
102
}
330
71
100
AcDbEntity
  8
0
  6
Continuous
 62
     2
100
AcDbLine
 10
-139.9051700875098
 20
-297.8261442512492
 30
0.0
 11
-141.1456744977637
 21
-297.8261442512492
 31
0.0
  0
LINE
  5
2D5
102
{ACAD_REACTORS
330
374
330
375
102
}
330
71
100
AcDbEntity
  8
0
  6
Continuous
 62
     2
100
AcDbLine
 10
-142.5436275447029
 20
-294.7723347274381
 30
0.0
 11
-143.9415805916421
 21
-297.8261442512492
 31
0.0
  0
LINE
  5
2D6
102
{ACAD_REACTORS
330
374
330
375
102
}
330
71
100
AcDbEntity
  8
0
  6
Continuous
 62
     2
100
AcDbLine
 10
-142.7010761813892
 20
-297.8261442512492
 30
0.0
 11
-142.4895961279134
 21
-297.2851837070314
 31
0.0
  0
LINE
  5
2D7
102
{ACAD_REACTORS
330
374
330
375
102
}
330
71
100
AcDbEntity
  8
0
  6
Continuous
 62
     2
100
AcDbLine
 10
-142.2235405767683
 20
-296.6046204417248
 30
0.0
 11
-141.923375339576
 21
-295.8368054757381
 31
0.0
  0
LINE
  5
2D8
102
{ACAD_REACTORS
330
372
330
373
102
}
330
71
100
AcDbEntity
  8
0
  6
Continuous
 62
     2
100
AcDbLine
 10
-140.7552304942307
 20
-294.4669537750749
 30
0.0
 11
-140.7552304942307
 21
-291.4131442512638
 31
0.0
  0
LINE
  5
2D9
102
{ACAD_REACTORS
330
372
330
373
102
}
330
71
100
AcDbEntity
  8
0
  6
Continuous
 62
     2
100
AcDbLine
 10
-139.5147260839778
 20
-291.4131442512638
 30
0.0
 11
-139.5147260839778
 21
-294.4669537750749
 31
0.0
  0
LINE
  5
2DA
102
{ACAD_REACTORS
330
372
330
373
102
}
330
71
100
AcDbEntity
  8
0
  6
Continuous
 62
     2
100
AcDbLine
 10
-140.7552304942307
 20
-291.4131442512638
 30
0.0
 11
-139.5147260839778
 21
-291.4131442512638
 31
0.0
  0
LINE
  5
2DB
102
{ACAD_REACTORS
330
370
330
371
102
}
330
71
100
AcDbEntity
  8
0
  6
Continuous
 62
     2
100
AcDbLine
 10
-137.296131657947
 20
-293.6792219897811
 30
0.0
 11
-136.5995407198816
 21
-294.4669537750749
 31
0.0
  0
LINE
  5
2DC
102
{ACAD_REACTORS
330
370
330
371
102
}
330
71
100
AcDbEntity
  8
0
  6
Continuous
 62
     2
100
AcDbLine
 10
-136.5995407198816
 20
-294.4669537750749
 30
0.0
 11
-135.1968165021333
 21
-294.4669537750749
 31
0.0
  0
LINE
  5
2DD
102
{ACAD_REACTORS
330
370
330
371
102
}
330
71
100
AcDbEntity
  8
0
  6
Continuous
 62
     2
100
AcDbLine
 10
-136.5947695490736
 20
-292.8860947813
 30
0.0
 11
-135.1968165021333
 21
-294.4669537750749
 31
0.0
  0
LINE
  5
2DE
102
{ACAD_REACTORS
330
370
330
371
102
}
330
71
100
AcDbEntity
  8
0
  6
Continuous
 62
     2
100
AcDbLine
 10
-136.5947695490736
 20
-292.8860947813
 30
0.0
 11
-135.292239918307
 21
-291.4131442512638
 31
0.0
  0
LINE
  5
2DF
102
{ACAD_REACTORS
330
370
330
371
102
}
330
71
100
AcDbEntity
  8
0
  6
Continuous
 62
     2
100
AcDbLine
 10
-137.296131657947
 20
-292.0929675728193
 30
0.0
 11
-136.6949641360542
 21
-291.4131442512638
 31
0.0
  0
LINE
  5
2E0
102
{ACAD_REACTORS
330
370
330
371
102
}
330
71
100
AcDbEntity
  8
0
  6
Continuous
 62
     2
100
AcDbLine
 10
-137.8972991798389
 20
-291.4131442512638
 30
0.0
 11
-137.296131657947
 21
-292.0929675728193
 31
0.0
  0
LINE
  5
2E1
102
{ACAD_REACTORS
330
370
330
371
102
}
330
71
100
AcDbEntity
  8
0
  6
Continuous
 62
     2
100
AcDbLine
 10
-137.8972991798389
 20
-291.4131442512638
 30
0.0
 11
-139.3000233975881
 21
-291.4131442512638
 31
0.0
  0
LINE
  5
2E2
102
{ACAD_REACTORS
330
366
330
367
102
}
330
71
100
AcDbEntity
  8
0
  6
Continuous
 62
     2
100
AcDbLine
 10
-137.2007082417744
 20
-297.8261442512492
 30
0.0
 11
-136.0079155396067
 21
-297.8261442512492
 31
0.0
  0
LINE
  5
2E3
102
{ACAD_REACTORS
330
366
330
367
102
}
330
71
100
AcDbEntity
  8
0
  6
Continuous
 62
     2
100
AcDbLine
 10
-136.0079155396067
 20
-297.8261442512492
 30
0.0
 11
-136.0079155396067
 21
-295.5576000335618
 31
0.0
  0
LINE
  5
2E4
102
{ACAD_REACTORS
330
366
330
367
102
}
330
71
100
AcDbEntity
  8
0
  6
Continuous
 62
     2
100
AcDbLine
 10
-136.0079155396067
 20
-295.5576000335618
 30
0.0
 11
-135.1968165021333
 21
-295.5576000335618
 31
0.0
  0
LINE
  5
2E5
102
{ACAD_REACTORS
330
366
330
367
102
}
330
71
100
AcDbEntity
  8
0
  6
Continuous
 62
     2
100
AcDbLine
 10
-135.1968165021333
 20
-295.5576000335618
 30
0.0
 11
-135.1968165021333
 21
-294.7723347274381
 31
0.0
  0
LINE
  5
2E6
102
{ACAD_REACTORS
330
366
330
367
102
}
330
71
100
AcDbEntity
  8
0
  6
Continuous
 62
     2
100
AcDbLine
 10
-138.5817620207619
 20
-294.7723347274387
 30
0.0
 11
-135.1968165021333
 21
-294.7723347274381
 31
0.0
  0
LINE
  5
2E7
102
{ACAD_REACTORS
330
366
330
367
102
}
330
71
100
AcDbEntity
  8
0
  6
Continuous
 62
     2
100
AcDbLine
 10
-137.2007082417744
 20
-295.5576000335618
 30
0.0
 11
-137.2007082417744
 21
-297.8261442512492
 31
0.0
  0
LINE
  5
2E8
102
{ACAD_REACTORS
330
368
330
369
102
}
330
71
100
AcDbEntity
  8
0
  6
Continuous
 62
     2
100
AcDbLine
 10
-159.8301946772535
 20
-295.8472641016847
 30
0.0
 11
-159.8301946772535
 21
-295.2654126949896
 31
0.0
  0
LINE
  5
2E9
102
{ACAD_REACTORS
330
368
330
369
102
}
330
71
100
AcDbEntity
  8
0
  6
Continuous
 62
     2
100
AcDbLine
 10
-159.8301946772535
 20
-293.0471294950535
 30
0.0
 11
-159.8301946772535
 21
-292.4415942065467
 31
0.0
  0
LINE
  5
2EA
330
71
100
AcDbEntity
  8
1
  6
Continuous
 62
     6
100
AcDbLine
 10
-81.30001609265037
 20
-305.1196442512655
 30
0.0
 11
-37.80001609265042
 21
-305.1196442512655
 31
0.0
  0
LINE
  5
2EB
330
71
100
AcDbEntity
  8
1
  6
Continuous
 62
     6
100
AcDbLine
 10
-131.3000160926504
 20
-305.1196442512655
 30
0.0
 11
-149.1448206194004
 21
-305.1196442512655
 31
0.0
  0
LINE
  5
2EC
330
71
100
AcDbEntity
  8
1
  6
Continuous
 62
     6
100
AcDbLine
 10
-167.3448206194003
 20
-288.1196442512655
 30
0.0
 11
-130.9448206194004
 21
-288.1196442512655
 31
0.0
  0
LINE
  5
2ED
330
71
100
AcDbEntity
  8
1
  6
Continuous
 62
     6
100
AcDbLine
 10
-37.80001609265042
 20
-305.1196442512655
 30
0.0
 11
-37.80001609264907
 21
-296.6196442512655
 31
0.0
  0
LINE
  5
2EE
330
71
100
AcDbEntity
  8
1
  6
Continuous
 62
     6
100
AcDbLine
 10
-130.9448206194004
 20
-305.1196442512655
 30
0.0
 11
-81.30001609265037
 21
-305.1196442512655
 31
0.0
  0
LINE
  5
2EF
330
71
100
AcDbEntity
  8
1
  6
Continuous
 62
     7
100
AcDbLine
 10
-167.3448206194003
 20
-288.1196442512655
 30
0.0
 11
-167.3448206194003
 21
-300.8696442512655
 31
0.0
  0
LINE
  5
2F0
330
71
100
AcDbEntity
  8
1
  6
Continuous
 62
     7
100
AcDbLine
 10
-130.9448206194004
 20
-288.1196442512655
 30
0.0
 11
-130.9448206194004
 21
-300.8696442512655
 31
0.0
  0
LINE
  5
2F1
330
71
100
AcDbEntity
  8
1
  6
Continuous
 62
     6
100
AcDbLine
 10
-130.9448206194004
 20
-305.1196442512655
 30
0.0
 11
-131.3000160926504
 21
-305.1196442512655
 31
0.0
  0
LINE
  5
2F2
330
71
100
AcDbEntity
  8
1
  6
Continuous
 62
     6
100
AcDbLine
 10
-37.80001609264858
 20
-288.1196442512655
 30
0.0
 11
-37.80001609264907
 21
-296.6196442512655
 31
0.0
  0
LINE
  5
2F3
330
71
100
AcDbEntity
  8
1
  6
Continuous
 62
     2
100
AcDbLine
 10
-163.1081657328378
 20
-282.7446442512656
 30
0.0
 11
-158.1081657328378
 21
-281.4946442512656
 31
0.0
  0
LINE
  5
2F4
330
71
100
AcDbEntity
  8
1
  6
Continuous
 62
     2
100
AcDbLine
 10
-163.1081657328378
 20
-285.2446442512656
 30
0.0
 11
-163.1081657328378
 21
-282.7446442512656
 31
0.0
  0
LINE
  5
2F5
330
71
100
AcDbEntity
  8
1
  6
Continuous
 62
     2
100
AcDbLine
 10
-158.1081657328378
 20
-286.4946442512656
 30
0.0
 11
-163.1081657328378
 21
-285.2446442512656
 31
0.0
  0
LINE
  5
2F6
330
71
100
AcDbEntity
  8
1
  6
Continuous
 62
     2
100
AcDbLine
 10
-158.1081657328378
 20
-281.4946442512656
 30
0.0
 11
-158.1081657328378
 21
-286.4946442512656
 31
0.0
  0
LINE
  5
2F7
330
71
100
AcDbEntity
  8
1
  6
Continuous
 62
     7
100
AcDbLine
 10
-167.3448206194003
 20
-300.8696442512655
 30
0.0
 11
-149.1448206194004
 21
-300.8696442512655
 31
0.0
  0
LINE
  5
2F8
330
71
100
AcDbEntity
  8
1
  6
Continuous
 62
     7
100
AcDbLine
 10
-167.3448206194003
 20
-300.8696442512655
 30
0.0
 11
-167.3448206194003
 21
-305.1196442512655
 31
0.0
  0
LINE
  5
2F9
330
71
100
AcDbEntity
  8
1
  6
Continuous
 62
     7
100
AcDbLine
 10
-130.9448206194004
 20
-300.8696442512655
 30
0.0
 11
-130.9448206194004
 21
-305.1196442512655
 31
0.0
  0
LINE
  5
2FA
330
71
100
AcDbEntity
  8
1
  6
Continuous
 62
     7
100
AcDbLine
 10
-149.1448206194004
 20
-300.8696442512655
 30
0.0
 11
-149.1448206194004
 21
-305.1196442512655
 31
0.0
  0
LINE
  5
2FB
330
71
100
AcDbEntity
  8
1
  6
Continuous
 62
     6
100
AcDbLine
 10
-149.1448206194004
 20
-305.1196442512655
 30
0.0
 11
-167.3448206194003
 21
-305.1196442512655
 31
0.0
  0
LINE
  5
2FC
330
71
100
AcDbEntity
  8
1
  6
Continuous
 62
     7
100
AcDbLine
 10
-149.1448206194004
 20
-300.8696442512655
 30
0.0
 11
-130.9448206194004
 21
-300.8696442512655
 31
0.0
  0
LINE
  5
2FD
330
71
100
AcDbEntity
  8
1
  6
Continuous
 62
     6
100
AcDbLine
 10
-167.3448206194003
 20
-279.6196442512655
 30
0.0
 11
-37.80001609264858
 21
-279.6196442512655
 31
0.0
  0
LINE
  5
2FE
330
71
100
AcDbEntity
  8
1
  6
PHANTOM
 62
     2
100
AcDbLine
 10
-151.8581657328378
 20
-283.9946442512656
 30
0.0
 11
-157.3581657328378
 21
-283.9946442512656
 31
0.0
  0
LINE
  5
2FF
330
71
100
AcDbEntity
  8
1
  6
PHANTOM
 62
     2
100
AcDbLine
 10
-154.6081657328378
 20
-281.2446442512655
 30
0.0
 11
-154.6081657328378
 21
-286.7446442512655
 31
0.0
  0
LINE
  5
300
330
71
100
AcDbEntity
  8
1
  6
DOT_CENTER
 62
     2
100
AcDbLine
 10
-163.3581657328378
 20
-283.9946442512656
 30
0.0
 11
-157.8581657328378
 21
-283.9946442512656
 31
0.0
  0
ARC
  5
301
102
{ACAD_REACTORS
330
36C
330
36D
102
}
330
71
100
AcDbEntity
  8
0
  6
Continuous
 62
     2
100
AcDbCircle
 10
-151.9531726204403
 20
-296.299239489344
 30
0.0
 40
0.7717997786795
100
AcDbArc
 50
321.8795802028465
 51
38.1204197971668
  0
ARC
  5
302
102
{ACAD_REACTORS
330
36C
330
36D
102
}
330
71
100
AcDbEntity
  8
0
  6
Continuous
 62
     2
100
AcDbCircle
 10
-151.7534325840939
 20
-296.4559706674638
 30
0.0
 40
0.5179085730138424
100
AcDbArc
 50
218.1204197971879
 51
321.8795802027908
  0
ARC
  5
303
102
{ACAD_REACTORS
330
36C
330
36D
102
}
330
71
100
AcDbEntity
  8
0
  6
Continuous
 62
     2
100
AcDbCircle
 10
-151.5536925477479
 20
-296.299239489344
 30
0.0
 40
0.7717997786795733
100
AcDbArc
 50
141.8795802028293
 51
218.1204197971574
  0
ARC
  5
304
102
{ACAD_REACTORS
330
36C
330
36D
102
}
330
71
100
AcDbEntity
  8
0
  6
Continuous
 62
     2
100
AcDbCircle
 10
-151.7534325840939
 20
-296.1425083112234
 30
0.0
 40
0.5179085730132454
100
AcDbArc
 50
38.12041979715975
 51
141.8795802028616
  0
ARC
  5
305
102
{ACAD_REACTORS
330
364
330
365
102
}
330
71
100
AcDbEntity
  8
0
  6
Continuous
 62
     2
100
AcDbCircle
 10
-154.8154467196579
 20
-297.7097058547521
 30
0.0
 40
2.227384008973513
100
AcDbArc
 50
58.06909105003785
 51
71.55192388186722
  0
ARC
  5
306
102
{ACAD_REACTORS
330
364
330
365
102
}
330
71
100
AcDbEntity
  8
0
  6
Continuous
 62
     2
100
AcDbCircle
 10
-154.5537190186991
 20
-296.0941680600049
 30
0.0
 40
0.5115800601948179
100
AcDbArc
 50
113.3722778881916
 51
151.4785267423156
  0
ARC
  5
307
102
{ACAD_REACTORS
330
364
330
365
102
}
330
71
100
AcDbEntity
  8
0
  6
Continuous
 62
     2
100
AcDbCircle
 10
-154.1763617606187
 20
-296.299239489344
 30
0.0
 40
0.9410597353333294
100
AcDbArc
 50
151.4785267422693
 51
208.5214732576911
  0
ARC
  5
308
102
{ACAD_REACTORS
330
364
330
365
102
}
330
71
100
AcDbEntity
  8
0
  6
Continuous
 62
     2
100
AcDbCircle
 10
-154.9733195947507
 20
-292.9865585440874
 30
0.0
 40
4.852596863498329
100
AcDbArc
 50
275.1581447696237
 51
285.9799912583524
  0
ARC
  5
309
102
{ACAD_REACTORS
330
364
330
365
102
}
330
71
100
AcDbEntity
  8
0
  6
Continuous
 62
     2
100
AcDbCircle
 10
-154.6844635000148
 20
-296.1864491273091
 30
0.0
 40
1.63969512393941
100
AcDbArc
 50
195.0618917770925
 51
275.1581447696363
  0
ARC
  5
30A
102
{ACAD_REACTORS
330
364
330
365
102
}
330
71
100
AcDbEntity
  8
0
  6
Continuous
 62
     2
100
AcDbCircle
 10
-155.1035913434776
 20
-296.299239489344
 30
0.0
 40
1.205656168390974
100
AcDbArc
 50
164.9381082228713
 51
195.0618917770948
  0
ARC
  5
30B
102
{ACAD_REACTORS
330
364
330
365
102
}
330
71
100
AcDbEntity
  8
0
  6
Continuous
 62
     2
100
AcDbCircle
 10
-154.6844635000148
 20
-296.4120298513788
 30
0.0
 40
1.639695123940499
100
AcDbArc
 50
84.84185523036533
 51
164.9381082228864
  0
ARC
  5
30C
102
{ACAD_REACTORS
330
368
330
369
102
}
330
71
100
AcDbEntity
  8
0
  6
Continuous
 62
     2
100
AcDbCircle
 10
-159.5144777541767
 20
-295.2654126949896
 30
0.0
 40
0.3157169230765328
100
AcDbArc
 50
115.3740086783519
 51
180.0
  0
ARC
  5
30D
102
{ACAD_REACTORS
330
368
330
369
102
}
330
71
100
AcDbEntity
  8
0
  6
Continuous
 62
     2
100
AcDbCircle
 10
-159.5144777541767
 20
-293.0471294950535
 30
0.0
 40
0.315716923076792
100
AcDbArc
 50
180.0
 51
244.6259913216305
  0
ARC
  5
30E
102
{ACAD_REACTORS
330
368
330
369
102
}
330
71
100
AcDbEntity
  8
0
  6
Continuous
 62
     2
100
AcDbCircle
 10
-159.5088616188667
 20
-294.1444291541156
 30
0.0
 40
2.01856113193338
100
AcDbArc
 50
269.8110329575827
 51
90.18896704241737
  0
ARC
  5
30F
102
{ACAD_REACTORS
330
368
330
369
102
}
330
71
100
AcDbEntity
  8
0
  6
Continuous
 62
     2
100
AcDbCircle
 10
-159.5144777541767
 20
-295.8472641016847
 30
0.0
 40
0.315716923076792
100
AcDbArc
 50
180.0
 51
269.8110329574335
  0
ARC
  5
310
102
{ACAD_REACTORS
330
366
330
367
102
}
330
71
100
AcDbEntity
  8
0
  6
Continuous
 62
     2
100
AcDbCircle
 10
-138.4510175394462
 20
-296.0941680600049
 30
0.0
 40
0.5115800601944048
100
AcDbArc
 50
109.3371432194823
 51
151.4785267424182
  0
ARC
  5
311
102
{ACAD_REACTORS
330
366
330
367
102
}
330
71
100
AcDbEntity
  8
0
  6
Continuous
 62
     2
100
AcDbCircle
 10
-138.4510175394462
 20
-296.5043109186825
 30
0.0
 40
0.5115800601959967
100
AcDbArc
 50
208.5214732576881
 51
246.6277221118428
  0
ARC
  5
312
102
{ACAD_REACTORS
330
366
330
367
102
}
330
71
100
AcDbEntity
  8
0
  6
Continuous
 62
     2
100
AcDbCircle
 10
-139.0008898642236
 20
-296.299239489344
 30
0.0
 40
1.205656168393004
100
AcDbArc
 50
164.9381082228972
 51
195.0618917770924
  0
ARC
  5
313
102
{ACAD_REACTORS
330
366
330
367
102
}
330
71
100
AcDbEntity
  8
0
  6
Continuous
 62
     2
100
AcDbCircle
 10
-138.5817620207619
 20
-296.4120298513788
 30
0.0
 40
1.639695123940101
100
AcDbArc
 50
90.0
 51
164.9381082228957
  0
ARC
  5
314
102
{ACAD_REACTORS
330
36A
330
36B
102
}
330
71
100
AcDbEntity
  8
0
  6
Continuous
 62
     2
100
AcDbCircle
 10
-148.0087571134656
 20
-292.9400490131695
 30
0.0
 40
1.526904761905712
100
AcDbArc
 50
90.0
 51
270.0
  0
ARC
  5
315
102
{ACAD_REACTORS
330
36E
330
36F
102
}
330
71
100
AcDbEntity
  8
0
  6
Continuous
 62
     2
100
AcDbCircle
 10
-154.7514478586914
 20
-292.429113921375
 30
0.0
 40
0.3528638246710898
100
AcDbArc
 50
270.0
 51
90.0
  0
ARC
  5
316
102
{ACAD_REACTORS
330
368
330
369
102
}
330
71
100
AcDbEntity
  8
0
  6
Continuous
 62
     2
100
AcDbCircle
 10
-162.0900264407085
 20
-292.4414167298985
 30
0.0
 40
0.3157169230760815
100
AcDbArc
 50
90.0
 51
180.0
  0
ARC
  5
317
102
{ACAD_REACTORS
330
368
330
369
102
}
330
71
100
AcDbEntity
  8
0
  6
Continuous
 62
     2
100
AcDbCircle
 10
-160.0916087321239
 20
-294.1562710950212
 30
0.0
 40
0.9118975235576555
100
AcDbArc
 50
115.1944106485211
 51
244.8055893514911
  0
ARC
  5
318
102
{ACAD_REACTORS
330
368
330
369
102
}
330
71
100
AcDbEntity
  8
0
  6
Continuous
 62
     2
100
AcDbCircle
 10
-160.6141931796989
 20
-295.267100841084
 30
0.0
 40
0.315716923076593
100
AcDbArc
 50
0.0
 51
64.805589351446
  0
ARC
  5
319
102
{ACAD_REACTORS
330
368
330
369
102
}
330
71
100
AcDbEntity
  8
0
  6
Continuous
 62
     2
100
AcDbCircle
 10
-162.683921117455
 20
-297.401899635866
 30
0.0
 40
0.4242446153828041
100
AcDbArc
 50
180.0
 51
270.0
  0
ARC
  5
31A
102
{ACAD_REACTORS
330
36A
330
36B
102
}
330
71
100
AcDbEntity
  8
0
  6
Continuous
 62
     2
100
AcDbCircle
 10
-147.7924851033004
 20
-292.7833178350491
 30
0.0
 40
0.5179085730133893
100
AcDbArc
 50
38.12041979713927
 51
141.8795802028666
  0
ARC
  5
31B
102
{ACAD_REACTORS
330
36A
330
36B
102
}
330
71
100
AcDbEntity
  8
0
  6
Continuous
 62
     2
100
AcDbCircle
 10
-147.5927450669542
 20
-292.9400490131695
 30
0.0
 40
0.7717997786795895
100
AcDbArc
 50
141.8795802028517
 51
218.1204197971583
  0
ARC
  5
31C
102
{ACAD_REACTORS
330
36C
330
36D
102
}
330
71
100
AcDbEntity
  8
0
  6
Continuous
 62
     2
100
AcDbCircle
 10
-151.7534325840939
 20
-295.7606644790405
 30
0.0
 40
2.065479772208738
100
AcDbArc
 50
242.45185182434
 51
297.5481481756845
  0
ARC
  5
31D
102
{ACAD_REACTORS
330
36C
330
36D
102
}
330
71
100
AcDbEntity
  8
0
  6
Continuous
 62
     2
100
AcDbCircle
 10
-151.7534325840939
 20
-296.8378144996468
 30
0.0
 40
2.065479772208744
100
AcDbArc
 50
62.45185182430892
 51
117.5481481756666
  0
ARC
  5
31E
102
{ACAD_REACTORS
330
36C
330
36D
102
}
330
71
100
AcDbEntity
  8
0
  6
Continuous
 62
     2
100
AcDbCircle
 10
-152.0343724759273
 20
-296.299239489344
 30
0.0
 40
1.458034083651667
100
AcDbArc
 50
117.5481481756588
 51
242.451851824337
  0
ARC
  5
31F
102
{ACAD_REACTORS
330
36C
330
36D
102
}
330
71
100
AcDbEntity
  8
0
  6
Continuous
 62
     2
100
AcDbCircle
 10
-151.4724926922607
 20
-296.299239489344
 30
0.0
 40
1.458034083652017
100
AcDbArc
 50
297.5481481757046
 51
62.4518518242996
  0
ARC
  5
320
102
{ACAD_REACTORS
330
36A
330
36B
102
}
330
71
100
AcDbEntity
  8
0
  6
Continuous
 62
     2
100
AcDbCircle
 10
-147.7924851033004
 20
-293.0967801912901
 30
0.0
 40
0.5179085730134564
100
AcDbArc
 50
218.1204197971334
 51
321.8795802028607
  0
ARC
  5
321
102
{ACAD_REACTORS
330
36A
330
36B
102
}
330
71
100
AcDbEntity
  8
0
  6
Continuous
 62
     2
100
AcDbCircle
 10
-147.9922251396466
 20
-292.9400490131695
 30
0.0
 40
0.7717997786796054
100
AcDbArc
 50
321.8795802028366
 51
38.12041979715352
  0
ARC
  5
322
102
{ACAD_REACTORS
330
368
330
369
102
}
330
71
100
AcDbEntity
  8
0
  6
Continuous
 62
     2
100
AcDbCircle
 10
-157.2106090267381
 20
-297.401899635866
 30
0.0
 40
0.424244615383202
100
AcDbArc
 50
270.0
 51
0.0
  0
ARC
  5
323
102
{ACAD_REACTORS
330
368
330
369
102
}
330
71
100
AcDbEntity
  8
0
  6
Continuous
 62
     2
100
AcDbCircle
 10
-157.2106090267381
 20
-291.8373888666657
 30
0.0
 40
0.4242446153838841
100
AcDbArc
 50
0.0
 51
90.0
  0
ARC
  5
324
102
{ACAD_REACTORS
330
368
330
369
102
}
330
71
100
AcDbEntity
  8
0
  6
Continuous
 62
     2
100
AcDbCircle
 10
-162.683921117455
 20
-291.8373888666657
 30
0.0
 40
0.4242446153838273
100
AcDbArc
 50
90.0
 51
180.0
  0
ARC
  5
325
102
{ACAD_REACTORS
330
368
330
369
102
}
330
71
100
AcDbEntity
  8
0
  6
Continuous
 62
     2
100
AcDbCircle
 10
-160.6141931796989
 20
-296.7978717726156
 30
0.0
 40
0.3157169230766499
100
AcDbArc
 50
270.0
 51
0.0
  0
ARC
  5
326
102
{ACAD_REACTORS
330
368
330
369
102
}
330
71
100
AcDbEntity
  8
0
  6
Continuous
 62
     2
100
AcDbCircle
 10
-160.6141931796989
 20
-293.0454413489591
 30
0.0
 40
0.3157169230760143
100
AcDbArc
 50
295.1944106485716
 51
0.0
  0
ARC
  5
327
102
{ACAD_REACTORS
330
368
330
369
102
}
330
71
100
AcDbEntity
  8
0
  6
Continuous
 62
     2
100
AcDbCircle
 10
-160.6141931796989
 20
-292.4414167298985
 30
0.0
 40
0.315716923076593
100
AcDbArc
 50
0.0
 51
90.0
  0
ARC
  5
328
102
{ACAD_REACTORS
330
368
330
369
102
}
330
71
100
AcDbEntity
  8
0
  6
Continuous
 62
     2
100
AcDbCircle
 10
-162.0900264407085
 20
-296.7978717726156
 30
0.0
 40
0.3157169230755983
100
AcDbArc
 50
180.0
 51
270.0
  0
ARC
  5
329
102
{ACAD_REACTORS
330
36E
330
36F
102
}
330
71
100
AcDbEntity
  8
0
  6
Continuous
 62
     2
100
AcDbCircle
 10
-154.309975332453
 20
-292.4685098925975
 30
0.0
 40
1.055365641333594
100
AcDbArc
 50
270.0
 51
90.0
  0
ARC
  5
32A
102
{ACAD_REACTORS
330
366
330
367
102
}
330
71
100
AcDbEntity
  8
0
  6
Continuous
 62
     2
100
AcDbCircle
 10
-138.5817620207619
 20
-296.1864491273091
 30
0.0
 40
1.639695123940531
100
AcDbArc
 50
195.0618917771004
 51
275.1581447696762
  0
ARC
  5
32B
102
{ACAD_REACTORS
330
366
330
367
102
}
330
71
100
AcDbEntity
  8
0
  6
Continuous
 62
     2
100
AcDbCircle
 10
-138.8706181154978
 20
-292.9865585440874
 30
0.0
 40
4.852596863498945
100
AcDbArc
 50
275.1581447696372
 51
285.9799912583381
  0
ARC
  5
32C
102
{ACAD_REACTORS
330
366
330
367
102
}
330
71
100
AcDbEntity
  8
0
  6
Continuous
 62
     2
100
AcDbCircle
 10
-138.712745240405
 20
-294.8887731239357
 30
0.0
 40
2.227384008972827
100
AcDbArc
 50
288.4480761181328
 51
301.9309089499386
  0
ARC
  5
32D
102
{ACAD_REACTORS
330
366
330
367
102
}
330
71
100
AcDbEntity
  8
0
  6
Continuous
 62
     2
100
AcDbCircle
 10
-138.294577506743
 20
-296.1423188999725
 30
0.0
 40
0.9059297849852095
100
AcDbArc
 50
246.6277221118105
 51
288.4480761180772
  0
ARC
  5
32E
102
{ACAD_REACTORS
330
366
330
367
102
}
330
71
100
AcDbEntity
  8
0
  6
Continuous
 62
     2
100
AcDbCircle
 10
-138.0736602813647
 20
-296.299239489344
 30
0.0
 40
0.9410597353350352
100
AcDbArc
 50
151.4785267423573
 51
208.521473257667
  0
ARC
  5
32F
102
{ACAD_REACTORS
330
366
330
367
102
}
330
71
100
AcDbEntity
  8
0
  6
Continuous
 62
     2
100
AcDbCircle
 10
-138.3043475413425
 20
-296.5121230403879
 30
0.0
 40
0.9545230068260935
100
AcDbArc
 50
90.0
 51
109.3371432194281
  0
ARC
  5
330
102
{ACAD_REACTORS
330
368
330
369
102
}
330
71
100
AcDbEntity
  8
0
  6
Continuous
 62
     2
100
AcDbCircle
 10
-159.5144777541767
 20
-292.4415942065467
 30
0.0
 40
0.3157169230762988
100
AcDbArc
 50
90.18896704256642
 51
180.0
  0
ARC
  5
331
102
{ACAD_REACTORS
330
368
330
369
102
}
330
71
100
AcDbEntity
  8
0
  6
Continuous
 62
     2
100
AcDbCircle
 10
-160.0405204522646
 20
-294.1562710950212
 30
0.0
 40
0.9118481501444333
100
AcDbArc
 50
295.3740086781772
 51
64.62599132181052
  0
ARC
  5
332
102
{ACAD_REACTORS
330
364
330
365
102
}
330
71
100
AcDbEntity
  8
0
  6
Continuous
 62
     2
100
AcDbCircle
 10
-154.8154467196579
 20
-294.8887731239353
 30
0.0
 40
2.227384008972665
100
AcDbArc
 50
288.4480761181342
 51
301.9309089499644
  0
ARC
  5
333
102
{ACAD_REACTORS
330
364
330
365
102
}
330
71
100
AcDbEntity
  8
0
  6
Continuous
 62
     2
100
AcDbCircle
 10
-154.397278985997
 20
-296.1423188999725
 30
0.0
 40
0.9059297849848149
100
AcDbArc
 50
246.6277221118682
 51
288.448076118155
  0
ARC
  5
334
102
{ACAD_REACTORS
330
364
330
365
102
}
330
71
100
AcDbEntity
  8
0
  6
Continuous
 62
     2
100
AcDbCircle
 10
-154.5537190186991
 20
-296.5043109186825
 30
0.0
 40
0.5115800601946948
100
AcDbArc
 50
208.5214732576732
 51
246.6277221118311
  0
ARC
  5
335
102
{ACAD_REACTORS
330
364
330
365
102
}
330
71
100
AcDbEntity
  8
0
  6
Continuous
 62
     2
100
AcDbCircle
 10
-154.397278985997
 20
-296.4561600787155
 30
0.0
 40
0.9059297849854037
100
AcDbArc
 50
71.55192388186086
 51
113.372277888129
  0
ARC
  5
336
102
{ACAD_REACTORS
330
364
330
365
102
}
330
71
100
AcDbEntity
  8
0
  6
Continuous
 62
     2
100
AcDbCircle
 10
-154.9733195947507
 20
-299.6119204345998
 30
0.0
 40
4.852596863497986
100
AcDbArc
 50
74.0200087416471
 51
84.84185523037608
  0
CIRCLE
  5
337
102
{ACAD_REACTORS
330
368
330
369
102
}
330
71
100
AcDbEntity
  8
0
  6
Continuous
 62
     2
100
AcDbCircle
 10
-160.0643354669374
 20
-294.1562710950212
 30
0.0
 40
0.4709789327785074
  0
CIRCLE
  5
338
330
71
100
AcDbEntity
  8
1
  6
Continuous
 62
     2
100
AcDbCircle
 10
-154.6081657328378
 20
-283.9946442512656
 30
0.0
 40
1.25
  0
CIRCLE
  5
339
330
71
100
AcDbEntity
  8
1
  6
Continuous
 62
     2
100
AcDbCircle
 10
-154.6081657328378
 20
-283.9946442512656
 30
0.0
 40
2.5
  0
TEXT
  5
33A
330
71
100
AcDbEntity
  8
1
 62
     7
100
AcDbText
 10
-73.13334942598374
 20
-309.119644251265
 30
0.0
 40
2.5
  1
6
 41
0.9
  7
CONVERTER_11
100
AcDbText
  0
TEXT
  5
33B
330
71
100
AcDbEntity
  8
1
 62
     7
100
AcDbText
 10
-141.4666827593172
 20
-309.119644251265
 30
0.0
 40
2.5
  1
5
 41
0.9
  7
CONVERTER_11
100
AcDbText
  0
TEXT
  5
33C
330
71
100
AcDbEntity
  8
1
 62
     7
100
AcDbText
 10
-209.8000160926504
 20
-309.119644251265
 30
0.0
 40
2.5
  1
4
 41
0.9
  7
CONVERTER_11
100
AcDbText
  0
TEXT
  5
33D
330
71
100
AcDbEntity
  8
1
 62
     7
100
AcDbText
 10
-278.1333494259835
 20
-309.119644251265
 30
0.0
 40
2.5
  1
3
 41
0.9
  7
CONVERTER_11
100
AcDbText
  0
TEXT
  5
33E
330
71
100
AcDbEntity
  8
1
 62
     7
100
AcDbText
 10
-36.80001609265037
 20
-277.619644251265
 30
0.0
 40
2.5
  1
E
 41
0.9
  7
CONVERTER_11
100
AcDbText
  0
TEXT
  5
33F
330
71
100
AcDbEntity
  8
1
 62
     7
100
AcDbText
 10
-414.8000160926501
 20
-309.119644251265
 30
0.0
 40
2.5
  1
1
 41
0.9
  7
CONVERTER_11
100
AcDbText
  0
TEXT
  5
340
330
71
100
AcDbEntity
  8
1
 62
     7
100
AcDbText
 10
-346.466682759317
 20
-309.119644251265
 30
0.0
 40
2.5
  1
2
 41
0.9
  7
CONVERTER_11
100
AcDbText
  0
TEXT
  5
341
330
71
100
AcDbEntity
  8
1
 62
     7
100
AcDbText
 10
-36.80001609265037
 20
-220.2196442512649
 30
0.0
 40
2.5
  1
D
 41
0.9
  7
CONVERTER_11
100
AcDbText
  0
TEXT
  5
342
330
71
100
AcDbEntity
  8
1
 62
     7
100
AcDbText
 10
-36.80001609265037
 20
-162.8196442512648
 30
0.0
 40
2.5
  1
C
 41
0.9
  7
CONVERTER_11
100
AcDbText
  0
TEXT
  5
343
330
71
100
AcDbEntity
  8
1
 62
     7
100
AcDbText
 10
-36.80001609265037
 20
-105.419644251265
 30
0.0
 40
2.5
  1
B
 41
0.9
  7
CONVERTER_11
100
AcDbText
  0
TEXT
  5
344
330
71
100
AcDbEntity
  8
1
 62
     7
100
AcDbText
 10
-36.80001609265037
 20
-48.01964425126509
 30
0.0
 40
2.5
  1
A
 41
0.9
  7
CONVERTER_11
100
AcDbText
  0
TEXT
  5
345
330
71
100
AcDbEntity
  8
1
 62
     7
100
AcDbText
 10
-73.13334942598374
 20
-17.11964425126476
 30
0.0
 40
2.5
  1
6
 41
0.9
  7
CONVERTER_11
100
AcDbText
  0
TEXT
  5
346
330
71
100
AcDbEntity
  8
1
 62
     7
100
AcDbText
 10
-141.466682759317
 20
-17.11964425126476
 30
0.0
 40
2.5
  1
5
 41
0.9
  7
CONVERTER_11
100
AcDbText
  0
TEXT
  5
347
330
71
100
AcDbEntity
  8
1
 62
     7
100
AcDbText
 10
-209.8000160926504
 20
-17.11964425126476
 30
0.0
 40
2.5
  1
4
 41
0.9
  7
CONVERTER_11
100
AcDbText
  0
TEXT
  5
348
330
71
100
AcDbEntity
  8
1
 62
     7
100
AcDbText
 10
-278.1333494259835
 20
-17.11964425126476
 30
0.0
 40
2.5
  1
3
 41
0.9
  7
CONVERTER_11
100
AcDbText
  0
TEXT
  5
349
330
71
100
AcDbEntity
  8
1
 62
     7
100
AcDbText
 10
-346.466682759317
 20
-17.11964425126476
 30
0.0
 40
2.5
  1
2
 41
0.9
  7
CONVERTER_11
100
AcDbText
  0
TEXT
  5
34A
330
71
100
AcDbEntity
  8
1
 62
     7
100
AcDbText
 10
-414.8000160926501
 20
-17.11964425126476
 30
0.0
 40
2.5
  1
1
 41
0.9
  7
CONVERTER_11
100
AcDbText
  0
TEXT
  5
34B
330
71
100
AcDbEntity
  8
1
 62
     7
100
AcDbText
 10
-111.9712728973866
 20
-286.8196442512656
 30
0.0
 40
2.5
  1
/
 41
0.9
  7
CONVERTER_11
100
AcDbText
  0
TEXT
  5
34D
330
71
100
AcDbEntity
  8
1
 62
     7
100
AcDbText
 10
-109.8149084003446
 20
-286.8196442512656
 30
0.0
 40
2.5
  1
00
 41
0.81
  7
CONVERTER_12
100
AcDbText
  0
TEXT
  5
34E
330
71
100
AcDbEntity
  8
1
 62
     3
100
AcDbText
 10
-72.2184243743274
 20
-286.8196442512656
 30
0.0
 40
2.5
  1
01.02.2016
 41
0.81
  7
CONVERTER_12
100
AcDbText
  0
MTEXT
  5
34F
330
71
100
AcDbEntity
  8
1
 62
     2
100
AcDbMText
 10
-72.2184243743274
 20
-280.6196442512655
 30
0.0
 40
1.8
 41
0.0
 71
     1
 72
     1
  1
date
  7
CONVERTER_11
 73
     1
 44
1.32052821128451
  0
MTEXT
  5
350
330
71
100
AcDbEntity
  8
1
 62
     2
100
AcDbMText
 10
-102.0448206194004
 20
-289.1196442512655
 30
0.0
 40
1.8
 41
0.0
 71
     1
 72
     1
  1
document-type
  7
CONVERTER_11
 73
     1
 44
1.20048019207683
  0
TEXT
  5
351
330
71
100
AcDbEntity
  8
1
 62
     3
100
AcDbText
 10
-102.0448206194004
 20
-295.3196442512656
 30
0.0
 40
2.5
  1
Customer drawing select
 41
0.81
  7
CONVERTER_12
100
AcDbText
  0
MTEXT
  5
353
330
71
100
AcDbEntity
  8
1
 62
     2
100
AcDbMText
 10
-129.8448206194004
 20
-280.6196442512655
 30
0.0
 40
1.8
 41
0.0
 71
     1
 72
     1
  1
document-No. / RI
  7
CONVERTER_13
 73
     1
 44
1.32052821128451
  0
TEXT
  5
354
330
71
100
AcDbEntity
  8
1
 62
     7
100
AcDbText
 10
-129.8448206194004
 20
-286.8196442512656
 30
0.0
 40
2.5
  1
00920815
 41
0.81
  7
CONVERTER_12
100
AcDbText
  0
MTEXT
  5
356
330
71
100
AcDbEntity
  8
1
 62
     3
100
AcDbMText
 10
-42.25922023348807
 20
-286.8196442512655
 30
0.0
 40
2.5
 41
0.0
 71
     8
 72
     1
  1
2:1
  7
CONVERTER_14
 73
     1
 44
1.32052821128451
  0
MTEXT
  5
357
330
71
100
AcDbEntity
  8
1
 62
     2
100
AcDbMText
 10
-45.61842437432757
 20
-280.6196442512655
 30
0.0
 40
1.8
 41
0.0
 71
     1
 72
     1
  1
scale
  7
CONVERTER_11
 73
     1
 44
1.20048019207683
  0
MTEXT
  5
358
330
71
100
AcDbEntity
  8
1
 62
     2
100
AcDbMText
 10
-129.8448206194004
 20
-289.1196442512655
 30
0.0
 40
1.8
 41
0.0
 71
     1
 72
     1
  1
ident.-No.
  7
CONVERTER_11
 73
     1
 44
1.20048019207683
  0
TEXT
  5
359
330
71
100
AcDbEntity
  8
1
 62
     7
100
AcDbText
 10
-129.4448206194006
 20
-295.3196442512656
 30
0.0
 40
2.5
  1
0706016
 41
0.81
  7
CONVERTER_12
100
AcDbText
  0
MTEXT
  5
35A
330
71
100
AcDbEntity
  8
1
 62
     2
100
AcDbMText
 10
-201.7558438886099
 20
-292.3696442512668
 30
0.0
 40
2.0
 41
0.0
 71
     5
 72
     1
  1
General Information\P- Simplified representation\P- Document excluded from change process\P- Linear dimensions [mm]
  7
CONVERTER_11
 73
     1
 44
1.20048019207683
  0
MTEXT
  5
35B
330
71
100
AcDbEntity
  8
1
 62
     3
100
AcDbMText
 10
-141.1448206194004
 20
-283.9946442512655
 30
0.0
 40
2.5
 41
0.0
 71
     5
 72
     1
  1
DIN A3
  7
CONVERTER_11
 73
     1
 44
1.20048019207683
  0
MTEXT
  5
35C
330
71
100
AcDbEntity
  8
1
 62
     2
100
AcDbMText
 10
-129.9448206194004
 20
-297.6196442512655
 30
0.0
 40
1.8
 41
0.0
 71
     1
 72
     1
  1
description
  7
CONVERTER_11
 73
     1
 44
1.20048019207683
  0
MTEXT
  5
35D
330
71
100
AcDbEntity
  8
1
 62
     7
100
AcDbMText
 10
-84.37241835602487
 20
-301.8696442512654
 30
0.0
 40
3.0
 41
0.0
 71
     5
 72
     1
  1
DFK-2,8
  7
CONVERTER_12
 73
     1
 44
1.20048019207683
  0
TEXT
  5
35E
330
71
100
AcDbEntity
  8
1
 62
     2
100
AcDbText
 10
-142.9095118095868
 20
-303.8696442512655
 30
0.0
 40
1.8
  1
1
 41
0.9
  7
CONVERTER_11
100
AcDbText
  0
TEXT
  5
35F
330
71
100
AcDbEntity
  8
1
 62
     2
100
AcDbText
 10
-157.6985556490583
 20
-303.9188929050674
 30
0.0
 40
1.8
  1
1
 41
0.9
  7
CONVERTER_11
100
AcDbText
  0
TEXT
  5
360
330
71
100
AcDbEntity
  8
1
 62
     2
100
AcDbText
 10
-166.3448206194003
 20
-303.8786614662573
 30
0.0
 40
1.8
  1
page
 41
0.9
  7
CONVERTER_11
100
AcDbText
  0
TEXT
  5
361
330
71
100
AcDbEntity
  8
1
 62
     2
100
AcDbText
 10
-148.1448206194005
 20
-303.8786614662571
 30
0.0
 40
1.8
  1
of
 41
0.9
  7
CONVERTER_11
100
AcDbText
  0
MTEXT
  5
362
330
71
100
AcDbEntity
  8
1
 62
     3
100
AcDbMText
 10
-434.5315490923911
 20
-132.1333601376113
 30
0.0
 40
1.8
 41
0.0
 71
     7
 72
     1
  3
Transfer or duplication of this document as well as the utilisation or\Pcommunication of its content are not permitted unless express consent\Pis granted. Violations give rise to claims for damages. All rights reserved\Pin case of patent, utility mo
  1
del or design patent registrations.
  7
CONVERTER_11
 11
0.0
 21
1.0
 31
0.0
 73
     1
 44
0.99639855942377
  0
MTEXT
  5
363
330
71
100
AcDbEntity
  8
1
 62
     3
100
AcDbMText
 10
-434.3773427812972
 20
-305.0927301517644
 30
0.0
 40
1.8
 41
0.0
 71
     7
 72
     1
  3
Weitergabe sowie Vervielf\U+00e4ltigung dieses Dokuments, Verwertung und \PMitteilung seines Inhalts sind verboten, soweit nicht ausdr\U+00fccklich gestattet. \PZuwiderhandlungen verpflichten zu Schadenersatz. Alle Rechte f\U+00fcr den Fall\Pder Pat
  1
ent-, Gebrauchsmuster- oder Designeintragung vorbehalten.
  7
CONVERTER_11
 11
0.0
 21
1.0
 31
0.0
 73
     1
 44
0.99639855942377
  0
HATCH
  5
364
330
71
100
AcDbEntity
  8
1
  6
Continuous
 62
     2
100
AcDbHatch
 10
0.0
 20
0.0
 30
0.0
210
0.0
220
0.0
230
1.0
  2
CUSTOM0
 70
     0
 71
     1
 91
        1
 92
        1
 93
       14
 72
     2
 10
-155.1035913434776
 20
-296.299239489344
 40
1.205656168390974
 50
164.9381082228713
 51
195.0618917770948
 73
     1
 72
     2
 10
-154.6844635000148
 20
-296.1864491273091
 40
1.63969512393941
 50
195.0618917770925
 51
275.1581447696363
 73
     1
 72
     2
 10
-154.9733195947507
 20
-292.9865585440874
 40
4.852596863498329
 50
275.1581447696237
 51
285.9799912583524
 73
     1
 72
     1
 10
-153.6373916776329
 20
-297.6516408498884
 11
-153.6373916776329
 21
-296.779123843085
 72
     2
 10
-154.8154467196579
 20
-294.8887731239353
 40
2.227384008972665
 50
58.06909105003557
 51
71.5519238818658
 73
     0
 72
     2
 10
-154.397278985997
 20
-296.1423188999725
 40
0.9059297849848149
 50
71.55192388184494
 51
113.3722778881318
 73
     0
 72
     2
 10
-154.5537190186991
 20
-296.5043109186825
 40
0.5115800601946948
 50
113.3722778881689
 51
151.4785267423268
 73
     0
 72
     2
 10
-154.1763617606187
 20
-296.299239489344
 40
0.9410597353333294
 50
151.4785267423089
 51
208.5214732577306
 73
     0
 72
     2
 10
-154.5537190186991
 20
-296.0941680600049
 40
0.5115800601948179
 50
208.5214732576844
 51
246.6277221118083
 73
     0
 72
     2
 10
-154.397278985997
 20
-296.4561600787155
 40
0.9059297849854037
 50
246.627722111871
 51
288.4480761181392
 73
     0
 72
     2
 10
-154.8154467196579
 20
-297.7097058547521
 40
2.227384008973513
 50
288.4480761181328
 51
301.9309089499621
 73
     0
 72
     1
 10
-153.6373916776329
 20
-295.8193551356022
 11
-153.6373916776329
 21
-294.946838128799
 72
     2
 10
-154.9733195947507
 20
-299.6119204345998
 40
4.852596863497986
 50
74.0200087416471
 51
84.84185523037608
 73
     1
 72
     2
 10
-154.6844635000148
 20
-296.4120298513788
 40
1.639695123940499
 50
84.84185523036533
 51
164.9381082228864
 73
     1
 97
       14
330
336
330
27F
330
305
330
335
330
306
330
307
330
334
330
333
330
332
330
280
330
308
330
309
330
30A
330
30B
 75
     1
 76
     2
 52
45.0
 41
0.1
 77
     0
 78
     1
 53
45.0
 43
62.7811309658083
 44
-72.3161373035813
 45
-0.1414213562373095
 46
0.0
 79
     0
 98
        1
 10
0.0
 20
0.0
  0
HATCH
  5
365
330
71
100
AcDbEntity
  8
1
  6
Continuous
 62
     2
100
AcDbHatch
 10
0.0
 20
0.0
 30
0.0
210
0.0
220
0.0
230
1.0
  2
CUSTOM1
 70
     0
 71
     1
 91
        1
 92
        1
 93
       14
 72
     2
 10
-155.1035913434776
 20
-296.299239489344
 40
1.205656168390974
 50
164.9381082228713
 51
195.0618917770948
 73
     1
 72
     2
 10
-154.6844635000148
 20
-296.1864491273091
 40
1.63969512393941
 50
195.0618917770925
 51
275.1581447696363
 73
     1
 72
     2
 10
-154.9733195947507
 20
-292.9865585440874
 40
4.852596863498329
 50
275.1581447696237
 51
285.9799912583524
 73
     1
 72
     1
 10
-153.6373916776329
 20
-297.6516408498884
 11
-153.6373916776329
 21
-296.779123843085
 72
     2
 10
-154.8154467196579
 20
-294.8887731239353
 40
2.227384008972665
 50
58.06909105003557
 51
71.5519238818658
 73
     0
 72
     2
 10
-154.397278985997
 20
-296.1423188999725
 40
0.9059297849848149
 50
71.55192388184494
 51
113.3722778881318
 73
     0
 72
     2
 10
-154.5537190186991
 20
-296.5043109186825
 40
0.5115800601946948
 50
113.3722778881689
 51
151.4785267423268
 73
     0
 72
     2
 10
-154.1763617606187
 20
-296.299239489344
 40
0.9410597353333294
 50
151.4785267423089
 51
208.5214732577306
 73
     0
 72
     2
 10
-154.5537190186991
 20
-296.0941680600049
 40
0.5115800601948179
 50
208.5214732576844
 51
246.6277221118083
 73
     0
 72
     2
 10
-154.397278985997
 20
-296.4561600787155
 40
0.9059297849854037
 50
246.627722111871
 51
288.4480761181392
 73
     0
 72
     2
 10
-154.8154467196579
 20
-297.7097058547521
 40
2.227384008973513
 50
288.4480761181328
 51
301.9309089499621
 73
     0
 72
     1
 10
-153.6373916776329
 20
-295.8193551356022
 11
-153.6373916776329
 21
-294.946838128799
 72
     2
 10
-154.9733195947507
 20
-299.6119204345998
 40
4.852596863497986
 50
74.0200087416471
 51
84.84185523037608
 73
     1
 72
     2
 10
-154.6844635000148
 20
-296.4120298513788
 40
1.639695123940499
 50
84.84185523036533
 51
164.9381082228864
 73
     1
 97
       14
330
336
330
27F
330
305
330
335
330
306
330
307
330
334
330
333
330
332
330
280
330
308
330
309
330
30A
330
30B
 75
     1
 76
     2
 52
45.0
 41
0.1
 77
     0
 78
     1
 53
45.0
 43
62.7811309658083
 44
-72.3161373035813
 45
-0.1414213562373095
 46
0.0
 79
     0
 98
        1
 10
0.0
 20
0.0
  0
HATCH
  5
366
330
71
100
AcDbEntity
  8
1
  6
Continuous
 62
     2
100
AcDbHatch
 10
0.0
 20
0.0
 30
0.0
210
0.0
220
0.0
230
1.0
  2
CUSTOM2
 70
     0
 71
     1
 91
        1
 92
        1
 93
       18
 72
     2
 10
-138.5817620207619
 20
-296.4120298513788
 40
1.639695123940101
 50
90.0
 51
164.9381082228957
 73
     1
 72
     2
 10
-139.0008898642236
 20
-296.299239489344
 40
1.205656168393004
 50
164.9381082228972
 51
195.0618917770924
 73
     1
 72
     2
 10
-138.5817620207619
 20
-296.1864491273091
 40
1.639695123940531
 50
195.0618917771004
 51
275.1581447696762
 73
     1
 72
     2
 10
-138.8706181154978
 20
-292.9865585440874
 40
4.852596863498945
 50
275.1581447696372
 51
285.9799912583381
 73
     1
 72
     1
 10
-137.5346901983811
 20
-297.6516408498889
 11
-137.5346901983811
 21
-296.7791238430856
 72
     2
 10
-138.712745240405
 20
-294.8887731239357
 40
2.227384008972827
 50
58.06909105006142
 51
71.55192388186722
 73
     0
 72
     2
 10
-138.294577506743
 20
-296.1423188999725
 40
0.9059297849852095
 50
71.55192388192279
 51
113.3722778881895
 73
     0
 72
     2
 10
-138.4510175394462
 20
-296.5043109186825
 40
0.5115800601959967
 50
113.3722778881572
 51
151.4785267423119
 73
     0
 72
     2
 10
-138.0736602813647
 20
-296.299239489344
 40
0.9410597353350352
 50
151.478526742333
 51
208.5214732576427
 73
     0
 72
     2
 10
-138.4510175394462
 20
-296.0941680600049
 40
0.5115800601944048
 50
208.5214732575818
 51
250.6628567805177
 73
     0
 72
     2
 10
-138.3043475413425
 20
-296.5121230403879
 40
0.9545230068260935
 50
250.6628567805719
 51
270.0
 73
     0
 72
     1
 10
-138.3043475413425
 20
-295.5576000335618
 11
-137.2007082417744
 21
-295.5576000335618
 72
     1
 10
-137.2007082417744
 20
-295.5576000335618
 11
-137.2007082417744
 21
-297.8261442512492
 72
     1
 10
-137.2007082417744
 20
-297.8261442512492
 11
-136.0079155396067
 21
-297.8261442512492
 72
     1
 10
-136.0079155396067
 20
-297.8261442512492
 11
-136.0079155396067
 21
-295.5576000335618
 72
     1
 10
-136.0079155396067
 20
-295.5576000335618
 11
-135.1968165021333
 21
-295.5576000335618
 72
     1
 10
-135.1968165021333
 20
-295.5576000335618
 11
-135.1968165021333
 21
-294.7723347274381
 72
     1
 10
-135.1968165021333
 20
-294.7723347274381
 11
-138.5817620207619
 21
-294.7723347274387
 97
       18
330
2E5
330
2E4
330
2E3
330
2E2
330
2E7
330
281
330
32F
330
310
330
32E
330
311
330
32D
330
32C
330
282
330
32B
330
32A
330
312
330
313
330
2E6
 75
     1
 76
     2
 52
45.0
 41
0.1
 77
     0
 78
     1
 53
45.0
 43
62.7811309658083
 44
-72.3161373035813
 45
-0.1414213562373095
 46
0.0
 79
     0
 98
        1
 10
0.0
 20
0.0
  0
HATCH
  5
367
330
71
100
AcDbEntity
  8
1
  6
Continuous
 62
     2
100
AcDbHatch
 10
0.0
 20
0.0
 30
0.0
210
0.0
220
0.0
230
1.0
  2
CUSTOM3
 70
     0
 71
     1
 91
        1
 92
        1
 93
       18
 72
     2
 10
-138.5817620207619
 20
-296.4120298513788
 40
1.639695123940101
 50
90.0
 51
164.9381082228957
 73
     1
 72
     2
 10
-139.0008898642236
 20
-296.299239489344
 40
1.205656168393004
 50
164.9381082228972
 51
195.0618917770924
 73
     1
 72
     2
 10
-138.5817620207619
 20
-296.1864491273091
 40
1.639695123940531
 50
195.0618917771004
 51
275.1581447696762
 73
     1
 72
     2
 10
-138.8706181154978
 20
-292.9865585440874
 40
4.852596863498945
 50
275.1581447696372
 51
285.9799912583381
 73
     1
 72
     1
 10
-137.5346901983811
 20
-297.6516408498889
 11
-137.5346901983811
 21
-296.7791238430856
 72
     2
 10
-138.712745240405
 20
-294.8887731239357
 40
2.227384008972827
 50
58.06909105006142
 51
71.55192388186722
 73
     0
 72
     2
 10
-138.294577506743
 20
-296.1423188999725
 40
0.9059297849852095
 50
71.55192388192279
 51
113.3722778881895
 73
     0
 72
     2
 10
-138.4510175394462
 20
-296.5043109186825
 40
0.5115800601959967
 50
113.3722778881572
 51
151.4785267423119
 73
     0
 72
     2
 10
-138.0736602813647
 20
-296.299239489344
 40
0.9410597353350352
 50
151.478526742333
 51
208.5214732576427
 73
     0
 72
     2
 10
-138.4510175394462
 20
-296.0941680600049
 40
0.5115800601944048
 50
208.5214732575818
 51
250.6628567805177
 73
     0
 72
     2
 10
-138.3043475413425
 20
-296.5121230403879
 40
0.9545230068260935
 50
250.6628567805719
 51
270.0
 73
     0
 72
     1
 10
-138.3043475413425
 20
-295.5576000335618
 11
-137.2007082417744
 21
-295.5576000335618
 72
     1
 10
-137.2007082417744
 20
-295.5576000335618
 11
-137.2007082417744
 21
-297.8261442512492
 72
     1
 10
-137.2007082417744
 20
-297.8261442512492
 11
-136.0079155396067
 21
-297.8261442512492
 72
     1
 10
-136.0079155396067
 20
-297.8261442512492
 11
-136.0079155396067
 21
-295.5576000335618
 72
     1
 10
-136.0079155396067
 20
-295.5576000335618
 11
-135.1968165021333
 21
-295.5576000335618
 72
     1
 10
-135.1968165021333
 20
-295.5576000335618
 11
-135.1968165021333
 21
-294.7723347274381
 72
     1
 10
-135.1968165021333
 20
-294.7723347274381
 11
-138.5817620207619
 21
-294.7723347274387
 97
       18
330
2E5
330
2E4
330
2E3
330
2E2
330
2E7
330
281
330
32F
330
310
330
32E
330
311
330
32D
330
32C
330
282
330
32B
330
32A
330
312
330
313
330
2E6
 75
     1
 76
     2
 52
45.0
 41
0.1
 77
     0
 78
     1
 53
45.0
 43
62.7811309658083
 44
-72.3161373035813
 45
-0.1414213562373095
 46
0.0
 79
     0
 98
        1
 10
0.0
 20
0.0
  0
HATCH
  5
368
330
71
100
AcDbEntity
  8
1
  6
Continuous
 62
     2
100
AcDbHatch
 10
0.0
 20
0.0
 30
0.0
210
0.0
220
0.0
230
1.0
  2
CUSTOM4
 70
     0
 71
     1
 91
        4
 92
        1
 93
        8
 72
     2
 10
-162.683921117455
 20
-291.8373888666657
 40
0.4242446153838273
 50
90.0
 51
180.0
 73
     1
 72
     1
 10
-163.1081657328378
 20
-291.8373888666657
 11
-163.1081657328378
 21
-297.401899635866
 72
     2
 10
-162.683921117455
 20
-297.401899635866
 40
0.4242446153828041
 50
180.0
 51
270.0
 73
     1
 72
     1
 10
-162.683921117455
 20
-297.8261442512492
 11
-157.2106090267381
 21
-297.8261442512492
 72
     2
 10
-157.2106090267381
 20
-297.401899635866
 40
0.424244615383202
 50
270.0
 51
360.0
 73
     1
 72
     1
 10
-156.7863644113542
 20
-297.401899635866
 11
-156.7863644113542
 21
-291.8373888666657
 72
     2
 10
-157.2106090267381
 20
-291.8373888666657
 40
0.4242446153838841
 50
0.0
 51
90.0
 73
     1
 72
     1
 10
-157.2106090267381
 20
-291.4131442512819
 11
-162.683921117455
 21
-291.4131442512819
 97
        8
330
323
330
2B0
330
322
330
2B1
330
319
330
2AE
330
324
330
2AF
 92
       16
 93
       12
 72
     1
 10
-162.0900264407085
 20
-297.1135886956923
 11
-160.6141931796989
 21
-297.1135886956923
 72
     2
 10
-160.6141931796989
 20
-296.7978717726156
 40
0.3157169230766499
 50
270.0
 51
360.0
 73
     1
 72
     1
 10
-160.2984762566223
 20
-296.7978717726156
 11
-160.2984762566223
 21
-295.267100841084
 72
     2
 10
-160.6141931796989
 20
-295.267100841084
 40
0.315716923076593
 50
0.0
 51
64.805589351446
 73
     1
 72
     2
 10
-160.0916087321239
 20
-294.1562710950212
 40
0.9118975235576555
 50
115.1944106485089
 51
244.8055893514789
 73
     0
 72
     2
 10
-160.6141931796989
 20
-293.0454413489591
 40
0.3157169230760143
 50
295.1944106485716
 51
360.0
 73
     1
 72
     1
 10
-160.2984762566223
 20
-293.0454413489591
 11
-160.2984762566223
 21
-292.4414167298985
 72
     2
 10
-160.6141931796989
 20
-292.4414167298985
 40
0.315716923076593
 50
0.0
 51
90.0
 73
     1
 72
     1
 10
-160.6141931796989
 20
-292.1256998068224
 11
-162.0900264407085
 21
-292.1256998068224
 72
     2
 10
-162.0900264407085
 20
-292.4414167298985
 40
0.3157169230760815
 50
90.0
 51
180.0
 73
     1
 72
     1
 10
-162.4057433637841
 20
-292.4414167298985
 11
-162.4057433637841
 21
-296.7978717726156
 72
     2
 10
-162.0900264407085
 20
-296.7978717726156
 40
0.3157169230755983
 50
180.0
 51
270.0
 73
     1
 97
       12
330
2B5
330
316
330
2B4
330
327
330
2B3
330
326
330
317
330
318
330
2B2
330
325
330
2AD
330
328
 92
       16
 93
        8
 72
     2
 10
-160.0405204522646
 20
-294.1562710950212
 40
0.9118481501444333
 50
295.3740086781772
 51
424.6259913218105
 73
     1
 72
     2
 10
-159.5144777541767
 20
-293.0471294950535
 40
0.315716923076792
 50
115.3740086783695
 51
180.0
 73
     0
 72
     1
 10
-159.8301946772535
 20
-293.0471294950535
 11
-159.8301946772535
 21
-292.4415942065467
 72
     2
 10
-159.5144777541767
 20
-292.4415942065467
 40
0.3157169230762988
 50
180.0
 51
269.8110329574336
 73
     0
 72
     2
 10
-159.5088616188667
 20
-294.1444291541156
 40
2.01856113193338
 50
269.8110329575827
 51
450.1889670424174
 73
     0
 72
     2
 10
-159.5144777541767
 20
-295.8472641016847
 40
0.315716923076792
 50
90.18896704256652
 51
180.0
 73
     0
 72
     1
 10
-159.8301946772535
 20
-295.8472641016847
 11
-159.8301946772535
 21
-295.2654126949896
 72
     2
 10
-159.5144777541767
 20
-295.2654126949896
 40
0.3157169230765328
 50
180.0
 51
244.6259913216482
 73
     0
 97
        8
330
331
330
30D
330
2E9
330
330
330
30E
330
30F
330
2E8
330
30C
 92
       16
 93
        1
 72
     2
 10
-160.0643354669374
 20
-294.1562710950212
 40
0.4709789327785074
 50
0.0
 51
360.0
 73
     1
 97
        1
330
337
 75
     1
 76
     2
 52
45.0
 41
0.1
 77
     0
 78
     1
 53
45.0
 43
62.7811309658083
 44
-72.3161373035813
 45
-0.1414213562373095
 46
0.0
 79
     0
 98
        1
 10
0.0
 20
0.0
  0
HATCH
  5
369
330
71
100
AcDbEntity
  8
1
  6
Continuous
 62
     2
100
AcDbHatch
 10
0.0
 20
0.0
 30
0.0
210
0.0
220
0.0
230
1.0
  2
CUSTOM5
 70
     0
 71
     1
 91
        4
 92
        1
 93
        8
 72
     2
 10
-162.683921117455
 20
-291.8373888666657
 40
0.4242446153838273
 50
90.0
 51
180.0
 73
     1
 72
     1
 10
-163.1081657328378
 20
-291.8373888666657
 11
-163.1081657328378
 21
-297.401899635866
 72
     2
 10
-162.683921117455
 20
-297.401899635866
 40
0.4242446153828041
 50
180.0
 51
270.0
 73
     1
 72
     1
 10
-162.683921117455
 20
-297.8261442512492
 11
-157.2106090267381
 21
-297.8261442512492
 72
     2
 10
-157.2106090267381
 20
-297.401899635866
 40
0.424244615383202
 50
270.0
 51
360.0
 73
     1
 72
     1
 10
-156.7863644113542
 20
-297.401899635866
 11
-156.7863644113542
 21
-291.8373888666657
 72
     2
 10
-157.2106090267381
 20
-291.8373888666657
 40
0.4242446153838841
 50
0.0
 51
90.0
 73
     1
 72
     1
 10
-157.2106090267381
 20
-291.4131442512819
 11
-162.683921117455
 21
-291.4131442512819
 97
        8
330
323
330
2B0
330
322
330
2B1
330
319
330
2AE
330
324
330
2AF
 92
       16
 93
       12
 72
     1
 10
-162.0900264407085
 20
-297.1135886956923
 11
-160.6141931796989
 21
-297.1135886956923
 72
     2
 10
-160.6141931796989
 20
-296.7978717726156
 40
0.3157169230766499
 50
270.0
 51
360.0
 73
     1
 72
     1
 10
-160.2984762566223
 20
-296.7978717726156
 11
-160.2984762566223
 21
-295.267100841084
 72
     2
 10
-160.6141931796989
 20
-295.267100841084
 40
0.315716923076593
 50
0.0
 51
64.805589351446
 73
     1
 72
     2
 10
-160.0916087321239
 20
-294.1562710950212
 40
0.9118975235576555
 50
115.1944106485089
 51
244.8055893514789
 73
     0
 72
     2
 10
-160.6141931796989
 20
-293.0454413489591
 40
0.3157169230760143
 50
295.1944106485716
 51
360.0
 73
     1
 72
     1
 10
-160.2984762566223
 20
-293.0454413489591
 11
-160.2984762566223
 21
-292.4414167298985
 72
     2
 10
-160.6141931796989
 20
-292.4414167298985
 40
0.315716923076593
 50
0.0
 51
90.0
 73
     1
 72
     1
 10
-160.6141931796989
 20
-292.1256998068224
 11
-162.0900264407085
 21
-292.1256998068224
 72
     2
 10
-162.0900264407085
 20
-292.4414167298985
 40
0.3157169230760815
 50
90.0
 51
180.0
 73
     1
 72
     1
 10
-162.4057433637841
 20
-292.4414167298985
 11
-162.4057433637841
 21
-296.7978717726156
 72
     2
 10
-162.0900264407085
 20
-296.7978717726156
 40
0.3157169230755983
 50
180.0
 51
270.0
 73
     1
 97
       12
330
2B5
330
316
330
2B4
330
327
330
2B3
330
326
330
317
330
318
330
2B2
330
325
330
2AD
330
328
 92
       16
 93
        8
 72
     2
 10
-160.0405204522646
 20
-294.1562710950212
 40
0.9118481501444333
 50
295.3740086781772
 51
424.6259913218105
 73
     1
 72
     2
 10
-159.5144777541767
 20
-293.0471294950535
 40
0.315716923076792
 50
115.3740086783695
 51
180.0
 73
     0
 72
     1
 10
-159.8301946772535
 20
-293.0471294950535
 11
-159.8301946772535
 21
-292.4415942065467
 72
     2
 10
-159.5144777541767
 20
-292.4415942065467
 40
0.3157169230762988
 50
180.0
 51
269.8110329574336
 73
     0
 72
     2
 10
-159.5088616188667
 20
-294.1444291541156
 40
2.01856113193338
 50
269.8110329575827
 51
450.1889670424174
 73
     0
 72
     2
 10
-159.5144777541767
 20
-295.8472641016847
 40
0.315716923076792
 50
90.18896704256652
 51
180.0
 73
     0
 72
     1
 10
-159.8301946772535
 20
-295.8472641016847
 11
-159.8301946772535
 21
-295.2654126949896
 72
     2
 10
-159.5144777541767
 20
-295.2654126949896
 40
0.3157169230765328
 50
180.0
 51
244.6259913216482
 73
     0
 97
        8
330
331
330
30D
330
2E9
330
330
330
30E
330
30F
330
2E8
330
30C
 92
       16
 93
        1
 72
     2
 10
-160.0643354669374
 20
-294.1562710950212
 40
0.4709789327785074
 50
0.0
 51
360.0
 73
     1
 97
        1
330
337
 75
     1
 76
     2
 52
45.0
 41
0.1
 77
     0
 78
     1
 53
45.0
 43
62.7811309658083
 44
-72.3161373035813
 45
-0.1414213562373095
 46
0.0
 79
     0
 98
        1
 10
0.0
 20
0.0
  0
HATCH
  5
36A
330
71
100
AcDbEntity
  8
1
  6
Continuous
 62
     2
100
AcDbHatch
 10
0.0
 20
0.0
 30
0.0
210
0.0
220
0.0
230
1.0
  2
CUSTOM6
 70
     0
 71
     1
 91
        2
 92
        1
 93
       12
 72
     2
 10
-148.0087571134656
 20
-292.9400490131695
 40
1.526904761905712
 50
90.0
 51
270.0
 73
     1
 72
     1
 10
-148.0087571134656
 20
-294.4669537750749
 11
-144.8584373896847
 21
-294.4669537750749
 72
     1
 10
-144.8584373896847
 20
-294.4669537750749
 11
-144.8584373896847
 21
-293.7689401696325
 72
     1
 10
-144.8584373896847
 20
-293.7689401696325
 11
-146.1943652161123
 21
-293.7689401696325
 72
     1
 10
-146.1943652161123
 20
-293.7689401696325
 11
-146.1943652161123
 21
-293.2890558158907
 72
     1
 10
-146.1943652161123
 20
-293.2890558158907
 11
-144.8584373896847
 21
-293.2890558158907
 72
     1
 10
-144.8584373896847
 20
-293.2890558158907
 11
-144.8584373896847
 21
-292.5910422104483
 72
     1
 10
-144.8584373896847
 20
-292.5910422104483
 11
-146.1943652161123
 21
-292.5910422104483
 72
     1
 10
-146.1943652161123
 20
-292.5910422104483
 11
-146.1943652161123
 21
-292.1111578567067
 72
     1
 10
-146.1943652161123
 20
-292.1111578567067
 11
-144.8584373896847
 21
-292.1111578567067
 72
     1
 10
-144.8584373896847
 20
-292.1111578567067
 11
-144.8584373896847
 21
-291.4131442512638
 72
     1
 10
-144.8584373896847
 20
-291.4131442512638
 11
-148.0087571134656
 21
-291.4131442512638
 97
       12
330
2A4
330
29E
330
2C5
330
2C4
330
2C3
330
2C2
330
29F
330
2A0
330
2A1
330
2A2
330
314
330
2A3
 92
       16
 93
        4
 72
     2
 10
-147.5927450669542
 20
-292.9400490131695
 40
0.7717997786795895
 50
141.8795802028517
 51
218.1204197971583
 73
     1
 72
     2
 10
-147.7924851033004
 20
-293.0967801912901
 40
0.5179085730134564
 50
218.1204197971334
 51
321.8795802028607
 73
     1
 72
     2
 10
-147.9922251396466
 20
-292.9400490131695
 40
0.7717997786796054
 50
321.8795802028366
 51
398.1204197971535
 73
     1
 72
     2
 10
-147.7924851033004
 20
-292.7833178350491
 40
0.5179085730133893
 50
38.12041979713927
 51
141.8795802028666
 73
     1
 97
        4
330
321
330
320
330
31B
330
31A
 75
     1
 76
     2
 52
45.0
 41
0.1
 77
     0
 78
     1
 53
45.0
 43
62.7811309658083
 44
-72.3161373035813
 45
-0.1414213562373095
 46
0.0
 79
     0
 98
        1
 10
0.0
 20
0.0
  0
HATCH
  5
36B
330
71
100
AcDbEntity
  8
1
  6
Continuous
 62
     2
100
AcDbHatch
 10
0.0
 20
0.0
 30
0.0
210
0.0
220
0.0
230
1.0
  2
CUSTOM7
 70
     0
 71
     1
 91
        2
 92
        1
 93
       12
 72
     2
 10
-148.0087571134656
 20
-292.9400490131695
 40
1.526904761905712
 50
90.0
 51
270.0
 73
     1
 72
     1
 10
-148.0087571134656
 20
-294.4669537750749
 11
-144.8584373896847
 21
-294.4669537750749
 72
     1
 10
-144.8584373896847
 20
-294.4669537750749
 11
-144.8584373896847
 21
-293.7689401696325
 72
     1
 10
-144.8584373896847
 20
-293.7689401696325
 11
-146.1943652161123
 21
-293.7689401696325
 72
     1
 10
-146.1943652161123
 20
-293.7689401696325
 11
-146.1943652161123
 21
-293.2890558158907
 72
     1
 10
-146.1943652161123
 20
-293.2890558158907
 11
-144.8584373896847
 21
-293.2890558158907
 72
     1
 10
-144.8584373896847
 20
-293.2890558158907
 11
-144.8584373896847
 21
-292.5910422104483
 72
     1
 10
-144.8584373896847
 20
-292.5910422104483
 11
-146.1943652161123
 21
-292.5910422104483
 72
     1
 10
-146.1943652161123
 20
-292.5910422104483
 11
-146.1943652161123
 21
-292.1111578567067
 72
     1
 10
-146.1943652161123
 20
-292.1111578567067
 11
-144.8584373896847
 21
-292.1111578567067
 72
     1
 10
-144.8584373896847
 20
-292.1111578567067
 11
-144.8584373896847
 21
-291.4131442512638
 72
     1
 10
-144.8584373896847
 20
-291.4131442512638
 11
-148.0087571134656
 21
-291.4131442512638
 97
       12
330
2A4
330
29E
330
2C5
330
2C4
330
2C3
330
2C2
330
29F
330
2A0
330
2A1
330
2A2
330
314
330
2A3
 92
       16
 93
        4
 72
     2
 10
-147.5927450669542
 20
-292.9400490131695
 40
0.7717997786795895
 50
141.8795802028517
 51
218.1204197971583
 73
     1
 72
     2
 10
-147.7924851033004
 20
-293.0967801912901
 40
0.5179085730134564
 50
218.1204197971334
 51
321.8795802028607
 73
     1
 72
     2
 10
-147.9922251396466
 20
-292.9400490131695
 40
0.7717997786796054
 50
321.8795802028366
 51
398.1204197971535
 73
     1
 72
     2
 10
-147.7924851033004
 20
-292.7833178350491
 40
0.5179085730133893
 50
38.12041979713927
 51
141.8795802028666
 73
     1
 97
        4
330
321
330
320
330
31B
330
31A
 75
     1
 76
     2
 52
45.0
 41
0.1
 77
     0
 78
     1
 53
45.0
 43
62.7811309658083
 44
-72.3161373035813
 45
-0.1414213562373095
 46
0.0
 79
     0
 98
        1
 10
0.0
 20
0.0
  0
HATCH
  5
36C
330
71
100
AcDbEntity
  8
1
  6
Continuous
 62
     2
100
AcDbHatch
 10
0.0
 20
0.0
 30
0.0
210
0.0
220
0.0
230
1.0
  2
CUSTOM8
 70
     0
 71
     1
 91
        2
 92
        1
 93
        4
 72
     2
 10
-152.0343724759273
 20
-296.299239489344
 40
1.458034083651667
 50
117.5481481756588
 51
242.451851824337
 73
     1
 72
     2
 10
-151.7534325840939
 20
-295.7606644790405
 40
2.065479772208738
 50
242.45185182434
 51
297.5481481756845
 73
     1
 72
     2
 10
-151.4724926922607
 20
-296.299239489344
 40
1.458034083652017
 50
297.5481481757046
 51
422.4518518242996
 73
     1
 72
     2
 10
-151.7534325840939
 20
-296.8378144996468
 40
2.065479772208744
 50
62.45185182430892
 51
117.5481481756666
 73
     1
 97
        4
330
31F
330
31C
330
31E
330
31D
 92
       16
 93
        4
 72
     2
 10
-151.7534325840939
 20
-296.1425083112234
 40
0.5179085730132454
 50
38.12041979715975
 51
141.8795802028616
 73
     1
 72
     2
 10
-151.5536925477479
 20
-296.299239489344
 40
0.7717997786795733
 50
141.8795802028293
 51
218.1204197971574
 73
     1
 72
     2
 10
-151.7534325840939
 20
-296.4559706674638
 40
0.5179085730138424
 50
218.1204197971879
 51
321.8795802027908
 73
     1
 72
     2
 10
-151.9531726204403
 20
-296.299239489344
 40
0.7717997786795
 50
321.8795802028465
 51
398.1204197971668
 73
     1
 97
        4
330
302
330
303
330
304
330
301
 75
     1
 76
     2
 52
45.0
 41
0.1
 77
     0
 78
     1
 53
45.0
 43
62.7811309658083
 44
-72.3161373035813
 45
-0.1414213562373095
 46
0.0
 79
     0
 98
        1
 10
0.0
 20
0.0
  0
HATCH
  5
36D
330
71
100
AcDbEntity
  8
1
  6
Continuous
 62
     2
100
AcDbHatch
 10
0.0
 20
0.0
 30
0.0
210
0.0
220
0.0
230
1.0
  2
CUSTOM9
 70
     0
 71
     1
 91
        2
 92
        1
 93
        4
 72
     2
 10
-152.0343724759273
 20
-296.299239489344
 40
1.458034083651667
 50
117.5481481756588
 51
242.451851824337
 73
     1
 72
     2
 10
-151.7534325840939
 20
-295.7606644790405
 40
2.065479772208738
 50
242.45185182434
 51
297.5481481756845
 73
     1
 72
     2
 10
-151.4724926922607
 20
-296.299239489344
 40
1.458034083652017
 50
297.5481481757046
 51
422.4518518242996
 73
     1
 72
     2
 10
-151.7534325840939
 20
-296.8378144996468
 40
2.065479772208744
 50
62.45185182430892
 51
117.5481481756666
 73
     1
 97
        4
330
31F
330
31C
330
31E
330
31D
 92
       16
 93
        4
 72
     2
 10
-151.7534325840939
 20
-296.1425083112234
 40
0.5179085730132454
 50
38.12041979715975
 51
141.8795802028616
 73
     1
 72
     2
 10
-151.5536925477479
 20
-296.299239489344
 40
0.7717997786795733
 50
141.8795802028293
 51
218.1204197971574
 73
     1
 72
     2
 10
-151.7534325840939
 20
-296.4559706674638
 40
0.5179085730138424
 50
218.1204197971879
 51
321.8795802027908
 73
     1
 72
     2
 10
-151.9531726204403
 20
-296.299239489344
 40
0.7717997786795
 50
321.8795802028465
 51
398.1204197971668
 73
     1
 97
        4
330
302
330
303
330
304
330
301
 75
     1
 76
     2
 52
45.0
 41
0.1
 77
     0
 78
     1
 53
45.0
 43
62.7811309658083
 44
-72.3161373035813
 45
-0.1414213562373095
 46
0.0
 79
     0
 98
        1
 10
0.0
 20
0.0
  0
HATCH
  5
36E
330
71
100
AcDbEntity
  8
1
  6
Continuous
 62
     2
100
AcDbHatch
 10
0.0
 20
0.0
 30
0.0
210
0.0
220
0.0
230
1.0
  2
CUSTOM10
 70
     0
 71
     1
 91
        2
 92
        1
 93
        6
 72
     1
 10
-156.3092473304874
 20
-291.4131442512638
 11
-156.3092473304874
 21
-294.4669537750749
 72
     1
 10
-156.3092473304874
 20
-294.4669537750749
 11
-155.0687429202334
 21
-294.4669537750749
 72
     1
 10
-155.0687429202334
 20
-294.4669537750749
 11
-155.0687429202334
 21
-293.5238755339311
 72
     1
 10
-155.0687429202334
 20
-293.5238755339311
 11
-154.309975332453
 21
-293.5238755339311
 72
     2
 10
-154.309975332453
 20
-292.4685098925975
 40
1.055365641333594
 50
270.0
 51
450.0
 73
     1
 72
     1
 10
-154.309975332453
 20
-291.4131442512638
 11
-156.3092473304874
 21
-291.4131442512638
 97
        6
330
329
330
2B6
330
2AC
330
2AB
330
2B8
330
2B7
 92
       16
 93
        4
 72
     1
 10
-154.7514478586914
 20
-292.0762500967038
 11
-155.0687429202334
 21
-292.0762500967038
 72
     1
 10
-155.0687429202334
 20
-292.0762500967038
 11
-155.0687429202334
 21
-292.7819777460461
 72
     1
 10
-155.0687429202334
 20
-292.7819777460461
 11
-154.7514478586914
 21
-292.7819777460461
 72
     2
 10
-154.7514478586914
 20
-292.429113921375
 40
0.3528638246710898
 50
270.0
 51
450.0
 73
     1
 97
        4
330
2B9
330
2AA
330
2BA
330
315
 75
     1
 76
     2
 52
45.0
 41
0.1
 77
     0
 78
     1
 53
45.0
 43
62.7811309658083
 44
-72.3161373035813
 45
-0.1414213562373095
 46
0.0
 79
     0
 98
        1
 10
0.0
 20
0.0
  0
HATCH
  5
36F
330
71
100
AcDbEntity
  8
1
  6
Continuous
 62
     2
100
AcDbHatch
 10
0.0
 20
0.0
 30
0.0
210
0.0
220
0.0
230
1.0
  2
CUSTOM11
 70
     0
 71
     1
 91
        2
 92
        1
 93
        6
 72
     1
 10
-156.3092473304874
 20
-291.4131442512638
 11
-156.3092473304874
 21
-294.4669537750749
 72
     1
 10
-156.3092473304874
 20
-294.4669537750749
 11
-155.0687429202334
 21
-294.4669537750749
 72
     1
 10
-155.0687429202334
 20
-294.4669537750749
 11
-155.0687429202334
 21
-293.5238755339311
 72
     1
 10
-155.0687429202334
 20
-293.5238755339311
 11
-154.309975332453
 21
-293.5238755339311
 72
     2
 10
-154.309975332453
 20
-292.4685098925975
 40
1.055365641333594
 50
270.0
 51
450.0
 73
     1
 72
     1
 10
-154.309975332453
 20
-291.4131442512638
 11
-156.3092473304874
 21
-291.4131442512638
 97
        6
330
329
330
2B6
330
2AC
330
2AB
330
2B8
330
2B7
 92
       16
 93
        4
 72
     1
 10
-154.7514478586914
 20
-292.0762500967038
 11
-155.0687429202334
 21
-292.0762500967038
 72
     1
 10
-155.0687429202334
 20
-292.0762500967038
 11
-155.0687429202334
 21
-292.7819777460461
 72
     1
 10
-155.0687429202334
 20
-292.7819777460461
 11
-154.7514478586914
 21
-292.7819777460461
 72
     2
 10
-154.7514478586914
 20
-292.429113921375
 40
0.3528638246710898
 50
270.0
 51
450.0
 73
     1
 97
        4
330
2B9
330
2AA
330
2BA
330
315
 75
     1
 76
     2
 52
45.0
 41
0.1
 77
     0
 78
     1
 53
45.0
 43
62.7811309658083
 44
-72.3161373035813
 45
-0.1414213562373095
 46
0.0
 79
     0
 98
        1
 10
0.0
 20
0.0
  0
HATCH
  5
370
330
71
100
AcDbEntity
  8
1
  6
Continuous
 62
     2
100
AcDbHatch
 10
0.0
 20
0.0
 30
0.0
210
0.0
220
0.0
230
1.0
  2
CUSTOM12
 70
     0
 71
     1
 91
        1
 92
        1
 93
       12
 72
     1
 10
-136.6949641360542
 20
-291.4131442512638
 11
-135.292239918307
 21
-291.4131442512638
 72
     1
 10
-135.292239918307
 20
-291.4131442512638
 11
-136.5947695490736
 21
-292.8860947813
 72
     1
 10
-136.5947695490736
 20
-292.8860947813
 11
-135.1968165021333
 21
-294.4669537750749
 72
     1
 10
-135.1968165021333
 20
-294.4669537750749
 11
-136.5995407198816
 21
-294.4669537750749
 72
     1
 10
-136.5995407198816
 20
-294.4669537750749
 11
-137.296131657947
 21
-293.6792219897811
 72
     1
 10
-137.296131657947
 20
-293.6792219897811
 11
-137.9927225960128
 21
-294.4669537750749
 72
     1
 10
-137.9927225960128
 20
-294.4669537750749
 11
-139.3954468137609
 21
-294.4669537750749
 72
     1
 10
-139.3954468137609
 20
-294.4669537750749
 11
-137.9974937668206
 21
-292.8860947813
 72
     1
 10
-137.9974937668206
 20
-292.8860947813
 11
-139.3000233975881
 21
-291.4131442512638
 72
     1
 10
-139.3000233975881
 20
-291.4131442512638
 11
-137.8972991798389
 21
-291.4131442512638
 72
     1
 10
-137.8972991798389
 20
-291.4131442512638
 11
-137.296131657947
 21
-292.0929675728193
 72
     1
 10
-137.296131657947
 20
-292.0929675728193
 11
-136.6949641360542
 21
-291.4131442512638
 97
       12
330
285
330
2DE
330
2DD
330
2DC
330
2DB
330
286
330
287
330
283
330
284
330
2E1
330
2E0
330
2DF
 75
     1
 76
     2
 52
45.0
 41
0.1
 77
     0
 78
     1
 53
45.0
 43
62.7811309658083
 44
-72.3161373035813
 45
-0.1414213562373095
 46
0.0
 79
     0
 98
        1
 10
0.0
 20
0.0
  0
HATCH
  5
371
330
71
100
AcDbEntity
  8
1
  6
Continuous
 62
     2
100
AcDbHatch
 10
0.0
 20
0.0
 30
0.0
210
0.0
220
0.0
230
1.0
  2
CUSTOM13
 70
     0
 71
     1
 91
        1
 92
        1
 93
       12
 72
     1
 10
-136.6949641360542
 20
-291.4131442512638
 11
-135.292239918307
 21
-291.4131442512638
 72
     1
 10
-135.292239918307
 20
-291.4131442512638
 11
-136.5947695490736
 21
-292.8860947813
 72
     1
 10
-136.5947695490736
 20
-292.8860947813
 11
-135.1968165021333
 21
-294.4669537750749
 72
     1
 10
-135.1968165021333
 20
-294.4669537750749
 11
-136.5995407198816
 21
-294.4669537750749
 72
     1
 10
-136.5995407198816
 20
-294.4669537750749
 11
-137.296131657947
 21
-293.6792219897811
 72
     1
 10
-137.296131657947
 20
-293.6792219897811
 11
-137.9927225960128
 21
-294.4669537750749
 72
     1
 10
-137.9927225960128
 20
-294.4669537750749
 11
-139.3954468137609
 21
-294.4669537750749
 72
     1
 10
-139.3954468137609
 20
-294.4669537750749
 11
-137.9974937668206
 21
-292.8860947813
 72
     1
 10
-137.9974937668206
 20
-292.8860947813
 11
-139.3000233975881
 21
-291.4131442512638
 72
     1
 10
-139.3000233975881
 20
-291.4131442512638
 11
-137.8972991798389
 21
-291.4131442512638
 72
     1
 10
-137.8972991798389
 20
-291.4131442512638
 11
-137.296131657947
 21
-292.0929675728193
 72
     1
 10
-137.296131657947
 20
-292.0929675728193
 11
-136.6949641360542
 21
-291.4131442512638
 97
       12
330
285
330
2DE
330
2DD
330
2DC
330
2DB
330
286
330
287
330
283
330
284
330
2E1
330
2E0
330
2DF
 75
     1
 76
     2
 52
45.0
 41
0.1
 77
     0
 78
     1
 53
45.0
 43
62.7811309658083
 44
-72.3161373035813
 45
-0.1414213562373095
 46
0.0
 79
     0
 98
        1
 10
0.0
 20
0.0
  0
HATCH
  5
372
330
71
100
AcDbEntity
  8
1
  6
Continuous
 62
     2
100
AcDbHatch
 10
0.0
 20
0.0
 30
0.0
210
0.0
220
0.0
230
1.0
  2
CUSTOM14
 70
     0
 71
     1
 91
        1
 92
        1
 93
        4
 72
     1
 10
-139.5147260839778
 20
-291.4131442512638
 11
-139.5147260839778
 21
-294.4669537750749
 72
     1
 10
-139.5147260839778
 20
-294.4669537750749
 11
-140.7552304942307
 21
-294.4669537750749
 72
     1
 10
-140.7552304942307
 20
-294.4669537750749
 11
-140.7552304942307
 21
-291.4131442512638
 72
     1
 10
-140.7552304942307
 20
-291.4131442512638
 11
-139.5147260839778
 21
-291.4131442512638
 97
        4
330
2D9
330
288
330
2D8
330
2DA
 75
     1
 76
     2
 52
45.0
 41
0.1
 77
     0
 78
     1
 53
45.0
 43
62.7811309658083
 44
-72.3161373035813
 45
-0.1414213562373095
 46
0.0
 79
     0
 98
        1
 10
0.0
 20
0.0
  0
HATCH
  5
373
330
71
100
AcDbEntity
  8
1
  6
Continuous
 62
     2
100
AcDbHatch
 10
0.0
 20
0.0
 30
0.0
210
0.0
220
0.0
230
1.0
  2
CUSTOM15
 70
     0
 71
     1
 91
        1
 92
        1
 93
        4
 72
     1
 10
-139.5147260839778
 20
-291.4131442512638
 11
-139.5147260839778
 21
-294.4669537750749
 72
     1
 10
-139.5147260839778
 20
-294.4669537750749
 11
-140.7552304942307
 21
-294.4669537750749
 72
     1
 10
-140.7552304942307
 20
-294.4669537750749
 11
-140.7552304942307
 21
-291.4131442512638
 72
     1
 10
-140.7552304942307
 20
-291.4131442512638
 11
-139.5147260839778
 21
-291.4131442512638
 97
        4
330
2D9
330
288
330
2D8
330
2DA
 75
     1
 76
     2
 52
45.0
 41
0.1
 77
     0
 78
     1
 53
45.0
 43
62.7811309658083
 44
-72.3161373035813
 45
-0.1414213562373095
 46
0.0
 79
     0
 98
        1
 10
0.0
 20
0.0
  0
HATCH
  5
374
330
71
100
AcDbEntity
  8
1
  6
Continuous
 62
     2
100
AcDbHatch
 10
0.0
 20
0.0
 30
0.0
210
0.0
220
0.0
230
1.0
  2
CUSTOM16
 70
     0
 71
     1
 91
        2
 92
        1
 93
        8
 72
     1
 10
-139.9051700875098
 20
-297.8261442512492
 11
-141.1456744977637
 21
-297.8261442512492
 72
     1
 10
-141.1456744977637
 20
-297.8261442512492
 11
-141.3571545512395
 21
-297.2851837070314
 72
     1
 10
-141.3571545512395
 20
-297.2851837070314
 11
-142.4895961279134
 21
-297.2851837070314
 72
     1
 10
-142.4895961279134
 20
-297.2851837070314
 11
-142.7010761813892
 21
-297.8261442512492
 72
     1
 10
-142.7010761813892
 20
-297.8261442512492
 11
-143.9415805916421
 21
-297.8261442512492
 72
     1
 10
-143.9415805916421
 20
-297.8261442512492
 11
-142.5436275447029
 21
-294.7723347274381
 72
     1
 10
-142.5436275447029
 20
-294.7723347274381
 11
-141.3031231344501
 21
-294.7723347274381
 72
     1
 10
-141.3031231344501
 20
-294.7723347274381
 11
-139.9051700875098
 21
-297.8261442512492
 97
        8
330
2D4
330
28E
330
2D3
330
2D6
330
28B
330
2D5
330
28C
330
28D
 92
       16
 93
        3
 72
     1
 10
-142.2235405767683
 20
-296.6046204417248
 11
-141.6232101023858
 21
-296.6046204417248
 72
     1
 10
-141.6232101023858
 20
-296.6046204417248
 11
-141.923375339576
 21
-295.8368054757381
 72
     1
 10
-141.923375339576
 20
-295.8368054757381
 11
-142.2235405767683
 21
-296.6046204417248
 97
        3
330
28A
330
289
330
2D7
 75
     1
 76
     2
 52
45.0
 41
0.1
 77
     0
 78
     1
 53
45.0
 43
62.7811309658083
 44
-72.3161373035813
 45
-0.1414213562373095
 46
0.0
 79
     0
 98
        1
 10
0.0
 20
0.0
  0
HATCH
  5
375
330
71
100
AcDbEntity
  8
1
  6
Continuous
 62
     2
100
AcDbHatch
 10
0.0
 20
0.0
 30
0.0
210
0.0
220
0.0
230
1.0
  2
CUSTOM17
 70
     0
 71
     1
 91
        2
 92
        1
 93
        8
 72
     1
 10
-139.9051700875098
 20
-297.8261442512492
 11
-141.1456744977637
 21
-297.8261442512492
 72
     1
 10
-141.1456744977637
 20
-297.8261442512492
 11
-141.3571545512395
 21
-297.2851837070314
 72
     1
 10
-141.3571545512395
 20
-297.2851837070314
 11
-142.4895961279134
 21
-297.2851837070314
 72
     1
 10
-142.4895961279134
 20
-297.2851837070314
 11
-142.7010761813892
 21
-297.8261442512492
 72
     1
 10
-142.7010761813892
 20
-297.8261442512492
 11
-143.9415805916421
 21
-297.8261442512492
 72
     1
 10
-143.9415805916421
 20
-297.8261442512492
 11
-142.5436275447029
 21
-294.7723347274381
 72
     1
 10
-142.5436275447029
 20
-294.7723347274381
 11
-141.3031231344501
 21
-294.7723347274381
 72
     1
 10
-141.3031231344501
 20
-294.7723347274381
 11
-139.9051700875098
 21
-297.8261442512492
 97
        8
330
2D4
330
28E
330
2D3
330
2D6
330
28B
330
2D5
330
28C
330
28D
 92
       16
 93
        3
 72
     1
 10
-142.2235405767683
 20
-296.6046204417248
 11
-141.6232101023858
 21
-296.6046204417248
 72
     1
 10
-141.6232101023858
 20
-296.6046204417248
 11
-141.923375339576
 21
-295.8368054757381
 72
     1
 10
-141.923375339576
 20
-295.8368054757381
 11
-142.2235405767683
 21
-296.6046204417248
 97
        3
330
28A
330
289
330
2D7
 75
     1
 76
     2
 52
45.0
 41
0.1
 77
     0
 78
     1
 53
45.0
 43
62.7811309658083
 44
-72.3161373035813
 45
-0.1414213562373095
 46
0.0
 79
     0
 98
        1
 10
0.0
 20
0.0
  0
HATCH
  5
376
330
71
100
AcDbEntity
  8
1
  6
Continuous
 62
     2
100
AcDbHatch
 10
0.0
 20
0.0
 30
0.0
210
0.0
220
0.0
230
1.0
  2
CUSTOM18
 70
     0
 71
     1
 91
        1
 92
        1
 93
        8
 72
     1
 10
-146.0990927308244
 20
-294.7723347274381
 11
-146.0990927308244
 21
-295.5576000335618
 72
     1
 10
-146.0990927308244
 20
-295.5576000335618
 11
-145.2879936933497
 21
-295.5576000335618
 72
     1
 10
-145.2879936933497
 20
-295.5576000335618
 11
-145.2879936933497
 21
-297.8261442512492
 72
     1
 10
-145.2879936933497
 20
-297.8261442512492
 11
-144.0952009911833
 21
-297.8261442512492
 72
     1
 10
-144.0952009911833
 20
-297.8261442512492
 11
-144.0952009911833
 21
-295.5576000335618
 72
     1
 10
-144.0952009911833
 20
-295.5576000335618
 11
-143.2841019537107
 21
-295.5576000335618
 72
     1
 10
-143.2841019537107
 20
-295.5576000335618
 11
-143.2841019537107
 21
-294.7723347274381
 72
     1
 10
-143.2841019537107
 20
-294.7723347274381
 11
-146.0990927308244
 21
-294.7723347274381
 97
        8
330
2D0
330
2CF
330
2CE
330
28F
330
290
330
2D2
330
291
330
2D1
 75
     1
 76
     2
 52
45.0
 41
0.1
 77
     0
 78
     1
 53
45.0
 43
62.7811309658083
 44
-72.3161373035813
 45
-0.1414213562373095
 46
0.0
 79
     0
 98
        1
 10
0.0
 20
0.0
  0
HATCH
  5
377
330
71
100
AcDbEntity
  8
1
  6
Continuous
 62
     2
100
AcDbHatch
 10
0.0
 20
0.0
 30
0.0
210
0.0
220
0.0
230
1.0
  2
CUSTOM19
 70
     0
 71
     1
 91
        1
 92
        1
 93
        8
 72
     1
 10
-146.0990927308244
 20
-294.7723347274381
 11
-146.0990927308244
 21
-295.5576000335618
 72
     1
 10
-146.0990927308244
 20
-295.5576000335618
 11
-145.2879936933497
 21
-295.5576000335618
 72
     1
 10
-145.2879936933497
 20
-295.5576000335618
 11
-145.2879936933497
 21
-297.8261442512492
 72
     1
 10
-145.2879936933497
 20
-297.8261442512492
 11
-144.0952009911833
 21
-297.8261442512492
 72
     1
 10
-144.0952009911833
 20
-297.8261442512492
 11
-144.0952009911833
 21
-295.5576000335618
 72
     1
 10
-144.0952009911833
 20
-295.5576000335618
 11
-143.2841019537107
 21
-295.5576000335618
 72
     1
 10
-143.2841019537107
 20
-295.5576000335618
 11
-143.2841019537107
 21
-294.7723347274381
 72
     1
 10
-143.2841019537107
 20
-294.7723347274381
 11
-146.0990927308244
 21
-294.7723347274381
 97
        8
330
2D0
330
2CF
330
2CE
330
28F
330
290
330
2D2
330
291
330
2D1
 75
     1
 76
     2
 52
45.0
 41
0.1
 77
     0
 78
     1
 53
45.0
 43
62.7811309658083
 44
-72.3161373035813
 45
-0.1414213562373095
 46
0.0
 79
     0
 98
        1
 10
0.0
 20
0.0
  0
HATCH
  5
378
330
71
100
AcDbEntity
  8
1
  6
Continuous
 62
     2
100
AcDbHatch
 10
0.0
 20
0.0
 30
0.0
210
0.0
220
0.0
230
1.0
  2
CUSTOM20
 70
     0
 71
     1
 91
        1
 92
        1
 93
       10
 72
     1
 10
-143.4270861470853
 20
-291.4131442512638
 11
-144.6198788492517
 21
-291.4131442512638
 72
     1
 10
-144.6198788492517
 20
-291.4131442512638
 11
-144.6198788492517
 21
-294.4669537750749
 72
     1
 10
-144.6198788492517
 20
-294.4669537750749
 11
-143.4270861470853
 21
-294.4669537750749
 72
     1
 10
-143.4270861470853
 20
-294.4669537750749
 11
-143.4270861470853
 21
-293.1581782648701
 72
     1
 10
-143.4270861470853
 20
-293.1581782648701
 11
-142.1865817368312
 21
-294.4669537750749
 72
     1
 10
-142.1865817368312
 20
-294.4669537750749
 11
-140.9937890346646
 21
-294.4669537750749
 72
     1
 10
-140.9937890346646
 20
-294.4669537750749
 11
-140.9937890346646
 21
-291.4131442512638
 72
     1
 10
-140.9937890346646
 20
-291.4131442512638
 11
-142.1865817368312
 21
-291.4131442512638
 72
     1
 10
-142.1865817368312
 20
-291.4131442512638
 11
-142.1865817368312
 21
-292.7219197614688
 72
     1
 10
-142.1865817368312
 20
-292.7219197614688
 11
-143.4270861470853
 21
-291.4131442512638
 97
       10
330
2CA
330
294
330
295
330
296
330
297
330
2CD
330
292
330
2CC
330
2CB
330
293
 75
     1
 76
     2
 52
45.0
 41
0.1
 77
     0
 78
     1
 53
45.0
 43
62.7811309658083
 44
-72.3161373035813
 45
-0.1414213562373095
 46
0.0
 79
     0
 98
        1
 10
0.0
 20
0.0
  0
HATCH
  5
379
330
71
100
AcDbEntity
  8
1
  6
Continuous
 62
     2
100
AcDbHatch
 10
0.0
 20
0.0
 30
0.0
210
0.0
220
0.0
230
1.0
  2
CUSTOM21
 70
     0
 71
     1
 91
        1
 92
        1
 93
       10
 72
     1
 10
-143.4270861470853
 20
-291.4131442512638
 11
-144.6198788492517
 21
-291.4131442512638
 72
     1
 10
-144.6198788492517
 20
-291.4131442512638
 11
-144.6198788492517
 21
-294.4669537750749
 72
     1
 10
-144.6198788492517
 20
-294.4669537750749
 11
-143.4270861470853
 21
-294.4669537750749
 72
     1
 10
-143.4270861470853
 20
-294.4669537750749
 11
-143.4270861470853
 21
-293.1581782648701
 72
     1
 10
-143.4270861470853
 20
-293.1581782648701
 11
-142.1865817368312
 21
-294.4669537750749
 72
     1
 10
-142.1865817368312
 20
-294.4669537750749
 11
-140.9937890346646
 21
-294.4669537750749
 72
     1
 10
-140.9937890346646
 20
-294.4669537750749
 11
-140.9937890346646
 21
-291.4131442512638
 72
     1
 10
-140.9937890346646
 20
-291.4131442512638
 11
-142.1865817368312
 21
-291.4131442512638
 72
     1
 10
-142.1865817368312
 20
-291.4131442512638
 11
-142.1865817368312
 21
-292.7219197614688
 72
     1
 10
-142.1865817368312
 20
-292.7219197614688
 11
-143.4270861470853
 21
-291.4131442512638
 97
       10
330
2CA
330
294
330
295
330
296
330
297
330
2CD
330
292
330
2CC
330
2CB
330
293
 75
     1
 76
     2
 52
45.0
 41
0.1
 77
     0
 78
     1
 53
45.0
 43
62.7811309658083
 44
-72.3161373035813
 45
-0.1414213562373095
 46
0.0
 79
     0
 98
        1
 10
0.0
 20
0.0
  0
HATCH
  5
37A
330
71
100
AcDbEntity
  8
1
  6
Continuous
 62
     2
100
AcDbHatch
 10
0.0
 20
0.0
 30
0.0
210
0.0
220
0.0
230
1.0
  2
CUSTOM22
 70
     0
 71
     1
 91
        1
 92
        1
 93
       10
 72
     1
 10
-148.6755249675039
 20
-294.7723347274381
 11
-149.8683176696714
 21
-294.7723347274381
 72
     1
 10
-149.8683176696714
 20
-294.7723347274381
 11
-149.8683176696714
 21
-297.8261442512492
 72
     1
 10
-149.8683176696714
 20
-297.8261442512492
 11
-148.6755249675039
 21
-297.8261442512492
 72
     1
 10
-148.6755249675039
 20
-297.8261442512492
 11
-148.6755249675039
 21
-296.5173687410447
 72
     1
 10
-148.6755249675039
 20
-296.5173687410447
 11
-147.4350205572509
 21
-297.8261442512492
 72
     1
 10
-147.4350205572509
 20
-297.8261442512492
 11
-146.2422278550845
 21
-297.8261442512492
 72
     1
 10
-146.2422278550845
 20
-297.8261442512492
 11
-146.2422278550845
 21
-294.7723347274381
 72
     1
 10
-146.2422278550845
 20
-294.7723347274381
 11
-147.4350205572509
 21
-294.7723347274381
 72
     1
 10
-147.4350205572509
 20
-294.7723347274381
 11
-147.4350205572509
 21
-296.0811102376433
 72
     1
 10
-147.4350205572509
 20
-296.0811102376433
 11
-148.6755249675039
 21
-294.7723347274381
 97
       10
330
299
330
29A
330
29B
330
2C7
330
29C
330
29D
330
2C6
330
2C9
330
2C8
330
298
 75
     1
 76
     2
 52
45.0
 41
0.1
 77
     0
 78
     1
 53
45.0
 43
62.7811309658083
 44
-72.3161373035813
 45
-0.1414213562373095
 46
0.0
 79
     0
 98
        1
 10
0.0
 20
0.0
  0
HATCH
  5
37B
330
71
100
AcDbEntity
  8
1
  6
Continuous
 62
     2
100
AcDbHatch
 10
0.0
 20
0.0
 30
0.0
210
0.0
220
0.0
230
1.0
  2
CUSTOM23
 70
     0
 71
     1
 91
        1
 92
        1
 93
       10
 72
     1
 10
-148.6755249675039
 20
-294.7723347274381
 11
-149.8683176696714
 21
-294.7723347274381
 72
     1
 10
-149.8683176696714
 20
-294.7723347274381
 11
-149.8683176696714
 21
-297.8261442512492
 72
     1
 10
-149.8683176696714
 20
-297.8261442512492
 11
-148.6755249675039
 21
-297.8261442512492
 72
     1
 10
-148.6755249675039
 20
-297.8261442512492
 11
-148.6755249675039
 21
-296.5173687410447
 72
     1
 10
-148.6755249675039
 20
-296.5173687410447
 11
-147.4350205572509
 21
-297.8261442512492
 72
     1
 10
-147.4350205572509
 20
-297.8261442512492
 11
-146.2422278550845
 21
-297.8261442512492
 72
     1
 10
-146.2422278550845
 20
-297.8261442512492
 11
-146.2422278550845
 21
-294.7723347274381
 72
     1
 10
-146.2422278550845
 20
-294.7723347274381
 11
-147.4350205572509
 21
-294.7723347274381
 72
     1
 10
-147.4350205572509
 20
-294.7723347274381
 11
-147.4350205572509
 21
-296.0811102376433
 72
     1
 10
-147.4350205572509
 20
-296.0811102376433
 11
-148.6755249675039
 21
-294.7723347274381
 97
       10
330
299
330
29A
330
29B
330
2C7
330
29C
330
29D
330
2C6
330
2C9
330
2C8
330
298
 75
     1
 76
     2
 52
45.0
 41
0.1
 77
     0
 78
     1
 53
45.0
 43
62.7811309658083
 44
-72.3161373035813
 45
-0.1414213562373095
 46
0.0
 79
     0
 98
        1
 10
0.0
 20
0.0
  0
HATCH
  5
37C
330
71
100
AcDbEntity
  8
1
  6
Continuous
 62
     2
100
AcDbHatch
 10
0.0
 20
0.0
 30
0.0
210
0.0
220
0.0
230
1.0
  2
CUSTOM24
 70
     0
 71
     1
 91
        1
 92
        1
 93
       12
 72
     1
 10
-149.6773199064392
 20
-291.4131442512638
 11
-149.6773199064392
 21
-294.4669537750749
 72
     1
 10
-149.6773199064392
 20
-294.4669537750749
 11
-150.8701126086057
 21
-294.4669537750749
 72
     1
 10
-150.8701126086057
 20
-294.4669537750749
 11
-150.8701126086057
 21
-293.3326816662312
 72
     1
 10
-150.8701126086057
 20
-293.3326816662312
 11
-151.9197701865131
 21
-293.3326816662312
 72
     1
 10
-151.9197701865131
 20
-293.3326816662312
 11
-151.9197701865131
 21
-294.4669537750749
 72
     1
 10
-151.9197701865131
 20
-294.4669537750749
 11
-153.1125628886797
 21
-294.4669537750749
 72
     1
 10
-153.1125628886797
 20
-294.4669537750749
 11
-153.1125628886797
 21
-291.4131442512638
 72
     1
 10
-153.1125628886797
 20
-291.4131442512638
 11
-151.9197701865131
 21
-291.4131442512638
 72
     1
 10
-151.9197701865131
 20
-291.4131442512638
 11
-151.9197701865131
 21
-292.4819775845983
 72
     1
 10
-151.9197701865131
 20
-292.4819775845983
 11
-150.8701126086057
 21
-292.4819775845983
 72
     1
 10
-150.8701126086057
 20
-292.4819775845983
 11
-150.8701126086057
 21
-291.4131442512638
 72
     1
 10
-150.8701126086057
 20
-291.4131442512638
 11
-149.6773199064392
 21
-291.4131442512638
 97
       12
330
2C1
330
2C0
330
2BF
330
2A7
330
2A8
330
2BE
330
2A9
330
2BD
330
2BC
330
2BB
330
2A5
330
2A6
 75
     1
 76
     2
 52
45.0
 41
0.1
 77
     0
 78
     1
 53
45.0
 43
62.7811309658083
 44
-72.3161373035813
 45
-0.1414213562373095
 46
0.0
 79
     0
 98
        1
 10
0.0
 20
0.0
  0
HATCH
  5
37D
330
71
100
AcDbEntity
  8
1
  6
Continuous
 62
     2
100
AcDbHatch
 10
0.0
 20
0.0
 30
0.0
210
0.0
220
0.0
230
1.0
  2
CUSTOM25
 70
     0
 71
     1
 91
        1
 92
        1
 93
       12
 72
     1
 10
-149.6773199064392
 20
-291.4131442512638
 11
-149.6773199064392
 21
-294.4669537750749
 72
     1
 10
-149.6773199064392
 20
-294.4669537750749
 11
-150.8701126086057
 21
-294.4669537750749
 72
     1
 10
-150.8701126086057
 20
-294.4669537750749
 11
-150.8701126086057
 21
-293.3326816662312
 72
     1
 10
-150.8701126086057
 20
-293.3326816662312
 11
-151.9197701865131
 21
-293.3326816662312
 72
     1
 10
-151.9197701865131
 20
-293.3326816662312
 11
-151.9197701865131
 21
-294.4669537750749
 72
     1
 10
-151.9197701865131
 20
-294.4669537750749
 11
-153.1125628886797
 21
-294.4669537750749
 72
     1
 10
-153.1125628886797
 20
-294.4669537750749
 11
-153.1125628886797
 21
-291.4131442512638
 72
     1
 10
-153.1125628886797
 20
-291.4131442512638
 11
-151.9197701865131
 21
-291.4131442512638
 72
     1
 10
-151.9197701865131
 20
-291.4131442512638
 11
-151.9197701865131
 21
-292.4819775845983
 72
     1
 10
-151.9197701865131
 20
-292.4819775845983
 11
-150.8701126086057
 21
-292.4819775845983
 72
     1
 10
-150.8701126086057
 20
-292.4819775845983
 11
-150.8701126086057
 21
-291.4131442512638
 72
     1
 10
-150.8701126086057
 20
-291.4131442512638
 11
-149.6773199064392
 21
-291.4131442512638
 97
       12
330
2C1
330
2C0
330
2BF
330
2A7
330
2A8
330
2BE
330
2A9
330
2BD
330
2BC
330
2BB
330
2A5
330
2A6
 75
     1
 76
     2
 52
45.0
 41
0.1
 77
     0
 78
     1
 53
45.0
 43
62.7811309658083
 44
-72.3161373035813
 45
-0.1414213562373095
 46
0.0
 79
     0
 98
        1
 10
0.0
 20
0.0
  0
ENDBLK
  5
73
330
71
100
AcDbEntity
  8
0
100
AcDbBlockEnd
  0
BLOCK
  5
75
330
74
100
AcDbEntity
  8
0
100
AcDbBlockBegin
  2
_punkt
 70
     0
 10
-37.80001609265042
 20
-305.1196442512655
 30
0.0
  3
_punkt
  1

  0
LINE
  5
37E
330
74
100
AcDbEntity
  8
1
  6
Continuous
 62
     2
100
AcDbLine
 10
-37.80001609265037
 20
-305.1196442512655
 30
0.0
 11
-37.80001609265037
 21
-310.119644251265
 31
0.0
  0
LINE
  5
37F
330
74
100
AcDbEntity
  8
1
  6
Continuous
 62
     2
100
AcDbLine
 10
-37.80001609265037
 20
-305.1196442512655
 30
0.0
 11
-32.80001609265275
 21
-305.1196442512655
 31
0.0
  0
ENDBLK
  5
76
330
74
100
AcDbEntity
  8
0
100
AcDbBlockEnd
  0
BLOCK
  5
7A
330
77
100
AcDbEntity
  8
0
100
AcDbBlockBegin
  2
A3I_CS
 70
     0
 10
-37.80001609265037
 20
-310.119644251265
 30
0.0
  3
A3I_CS
  1

  0
INSERT
  5
78
330
77
100
AcDbEntity
  8
1
100
AcDbBlockReference
  2
_rahmen
 10
-37.80001609265037
 20
-310.119644251265
 30
0.0
  0
INSERT
  5
79
330
77
100
AcDbEntity
  8
1
100
AcDbBlockReference
  2
_punkt
 10
-37.80001609265042
 20
-305.1196442512655
 30
0.0
  0
ENDBLK
  5
7B
330
77
100
AcDbEntity
  8
0
100
AcDbBlockEnd
  0
BLOCK
  5
143
330
13C
100
AcDbEntity
  8
0
100
AcDbBlockBegin
  2
*D16
 70
     1
 10
0.0
 20
0.0
 30
0.0
  3
*D16
  1

  0
LINE
  5
13D
330
13C
100
AcDbEntity
  8
1
  6
Continuous
 62
     2
100
AcDbLine
 10
-165.5500083242805
 20
-94.80000390055338
 30
0.0
 11
-165.5500083242805
 21
-88.95000390055338
 31
0.0
  0
LINE
  5
13E
330
13C
100
AcDbEntity
  8
1
  6
Continuous
 62
     2
100
AcDbLine
 10
-154.6499169542984
 20
-88.95000390055338
 30
0.0
 11
-166.3000083242805
 21
-88.95000390055338
 31
0.0
  0
LINE
  5
13F
330
13C
100
AcDbEntity
  8
1
  6
Continuous
 62
     2
100
AcDbLine
 10
-154.6499169542984
 20
-94.80000390055338
 30
0.0
 11
-166.3000083242805
 21
-94.80000390055338
 31
0.0
  0
SOLID
  5
140
330
13C
100
AcDbEntity
  8
1
 62
     2
100
AcDbTrace
 10
-165.7804001950584
 20
-93.05000390055338
 30
0.0
 11
-165.3196164535026
 21
-93.05000390055338
 31
0.0
 12
-165.5500083242805
 22
-94.80000390055338
 32
0.0
 13
-165.5500083242805
 23
-94.80000390055338
 33
0.0
  0
SOLID
  5
141
330
13C
100
AcDbEntity
  8
1
 62
     2
100
AcDbTrace
 10
-165.3196164535026
 20
-90.70000390055338
 30
0.0
 11
-165.7804001950584
 21
-90.70000390055338
 31
0.0
 12
-165.5500083242805
 22
-88.95000390055338
 32
0.0
 13
-165.5500083242805
 23
-88.95000390055338
 33
0.0
  0
MTEXT
  5
142
330
13C
100
AcDbEntity
  8
1
 62
     3
100
AcDbMText
 10
-166.4750083242805
 20
-94.28125390055338
 30
0.0
 40
1.75
 41
0.0
 71
     7
 72
     1
  1
5,85
  7
CONVERTER_11
 11
0.0
 21
1.0
 31
0.0
 73
     1
 44
0.60024009603842
  0
ENDBLK
  5
144
330
13C
100
AcDbEntity
  8
0
100
AcDbBlockEnd
  0
BLOCK
  5
219
330
212
100
AcDbEntity
  8
0
100
AcDbBlockBegin
  2
*D17
 70
     1
 10
0.0
 20
0.0
 30
0.0
  3
*D17
  1

  0
LINE
  5
213
330
212
100
AcDbEntity
  8
1
  6
Continuous
 62
     2
100
AcDbLine
 10
-153.6500080463262
 20
-70.90000152587854
 30
0.0
 11
-123.7500080463262
 21
-70.90000152587854
 31
0.0
  0
LINE
  5
214
330
212
100
AcDbEntity
  8
1
  6
Continuous
 62
     2
100
AcDbLine
 10
-123.7500080463262
 20
-58.20000152587853
 30
0.0
 11
-123.7500080463262
 21
-71.65000152587854
 31
0.0
  0
LINE
  5
215
330
212
100
AcDbEntity
  8
1
  6
Continuous
 62
     2
100
AcDbLine
 10
-153.6500080463262
 20
-63.63053529892935
 30
0.0
 11
-153.6500080463262
 21
-71.65000152587854
 31
0.0
  0
SOLID
  5
216
330
212
100
AcDbEntity
  8
1
 62
     2
100
AcDbTrace
 10
-151.9000080463262
 20
-70.6696096551006
 30
0.0
 11
-151.9000080463262
 21
-71.13039339665647
 31
0.0
 12
-153.6500080463262
 22
-70.90000152587854
 32
0.0
 13
-153.6500080463262
 23
-70.90000152587854
 33
0.0
  0
SOLID
  5
217
330
212
100
AcDbEntity
  8
1
 62
     2
100
AcDbTrace
 10
-125.5000080463262
 20
-71.13039339665647
 30
0.0
 11
-125.5000080463262
 21
-70.6696096551006
 31
0.0
 12
-123.7500080463262
 22
-70.90000152587854
 32
0.0
 13
-123.7500080463262
 23
-70.90000152587854
 33
0.0
  0
MTEXT
  5
218
330
212
100
AcDbEntity
  8
1
 62
     3
100
AcDbMText
 10
-141.1062580463262
 20
-69.97500152587853
 30
0.0
 40
1.75
 41
0.0
 71
     7
 72
     1
  1
29,9
  7
CONVERTER_11
 11
0.9999999999970619
 21
2.424068405545306E-6
 31
0.0
 73
     1
 44
0.60024009603842
  0
ENDBLK
  5
21A
330
212
100
AcDbEntity
  8
0
100
AcDbBlockEnd
  0
BLOCK
  5
224
330
21D
100
AcDbEntity
  8
0
100
AcDbBlockBegin
  2
*D18
 70
     1
 10
0.0
 20
0.0
 30
0.0
  3
*D18
  1

  0
LINE
  5
21E
330
21D
100
AcDbEntity
  8
1
  6
Continuous
 62
     2
100
AcDbLine
 10
-165.5500080463263
 20
-45.10000152587854
 30
0.0
 11
-165.5500080463263
 21
-65.90000152587854
 31
0.0
  0
LINE
  5
21F
330
21D
100
AcDbEntity
  8
1
  6
Continuous
 62
     2
100
AcDbLine
 10
-144.6480842576796
 20
-65.90000152587854
 30
0.0
 11
-166.3000080463263
 21
-65.90000152587854
 31
0.0
  0
LINE
  5
220
330
21D
100
AcDbEntity
  8
1
  6
Continuous
 62
     2
100
AcDbLine
 10
-144.9500080463263
 20
-45.10000152587854
 30
0.0
 11
-166.3000080463263
 21
-45.10000152587854
 31
0.0
  0
SOLID
  5
221
330
21D
100
AcDbEntity
  8
1
 62
     2
100
AcDbTrace
 10
-165.3196161755484
 20
-46.85000152587854
 30
0.0
 11
-165.7803999171042
 21
-46.85000152587854
 31
0.0
 12
-165.5500080463263
 22
-45.10000152587854
 32
0.0
 13
-165.5500080463263
 23
-45.10000152587854
 33
0.0
  0
SOLID
  5
222
330
21D
100
AcDbEntity
  8
1
 62
     2
100
AcDbTrace
 10
-165.7803999171042
 20
-64.15000152587854
 30
0.0
 11
-165.3196161755484
 21
-64.15000152587854
 31
0.0
 12
-165.5500080463263
 22
-65.90000152587854
 32
0.0
 13
-165.5500080463263
 23
-65.90000152587854
 33
0.0
  0
MTEXT
  5
223
330
21D
100
AcDbEntity
  8
1
 62
     3
100
AcDbMText
 10
-166.4750080463263
 20
-57.90625152587854
 30
0.0
 40
1.75
 41
0.0
 71
     7
 72
     1
  1
20,8
  7
CONVERTER_11
 11
0.0
 21
1.0
 31
0.0
 73
     1
 44
0.60024009603842
  0
ENDBLK
  5
225
330
21D
100
AcDbEntity
  8
0
100
AcDbBlockEnd
  0
BLOCK
  5
22F
330
228
100
AcDbEntity
  8
0
100
AcDbBlockBegin
  2
*D19
 70
     1
 10
0.0
 20
0.0
 30
0.0
  3
*D19
  1

  0
LINE
  5
229
330
228
100
AcDbEntity
  8
1
  6
Continuous
 62
     2
100
AcDbLine
 10
-123.7500080463262
 20
-74.90000152587854
 30
0.0
 11
-160.5500080463262
 21
-74.90000152587854
 31
0.0
  0
LINE
  5
22A
330
228
100
AcDbEntity
  8
1
  6
Continuous
 62
     2
100
AcDbLine
 10
-123.7500080463262
 20
-58.20000152587853
 30
0.0
 11
-123.7500080463262
 21
-75.65000152587854
 31
0.0
  0
LINE
  5
22B
330
228
100
AcDbEntity
  8
1
  6
Continuous
 62
     2
100
AcDbLine
 10
-160.5500080463262
 20
-62.51243709117676
 30
0.0
 11
-160.5500080463262
 21
-75.65000152587854
 31
0.0
  0
SOLID
  5
22C
330
228
100
AcDbEntity
  8
1
 62
     2
100
AcDbTrace
 10
-125.5000080463262
 20
-75.13039339665647
 30
0.0
 11
-125.5000080463262
 21
-74.6696096551006
 31
0.0
 12
-123.7500080463262
 22
-74.90000152587854
 32
0.0
 13
-123.7500080463262
 23
-74.90000152587854
 33
0.0
  0
SOLID
  5
22D
330
228
100
AcDbEntity
  8
1
 62
     2
100
AcDbTrace
 10
-158.8000080463262
 20
-74.6696096551006
 30
0.0
 11
-158.8000080463262
 21
-75.13039339665647
 31
0.0
 12
-160.5500080463262
 22
-74.90000152587854
 32
0.0
 13
-160.5500080463262
 23
-74.90000152587854
 33
0.0
  0
MTEXT
  5
22E
330
228
100
AcDbEntity
  8
1
 62
     3
100
AcDbMText
 10
-144.5562580463262
 20
-73.97500152587853
 30
0.0
 40
1.75
 41
0.0
 71
     7
 72
     1
  1
36,8
  7
CONVERTER_11
 11
0.9999999999970619
 21
2.424068405545306E-6
 31
0.0
 73
     1
 44
0.60024009603842
  0
ENDBLK
  5
230
330
228
100
AcDbEntity
  8
0
100
AcDbBlockEnd
  0
ENDSEC
  0
SECTION
  2
ENTITIES
  0
INSERT
  5
7C
330
1F
100
AcDbEntity
  8
0
100
AcDbBlockReference
  2
Allg1
 10
-109.489294
 20
-217.430258
 30
0.0
 41
2.0
 42
2.0
 43
2.0
  0
INSERT
  5
7D
330
1F
100
AcDbEntity
  8
0
100
AcDbBlockReference
  2
Drfsicht1
 10
-284.3000166484404
 20
-183.7500077057493
 30
0.0
 41
2.0
 42
2.0
 43
2.0
  0
INSERT
  5
7E
330
1F
100
AcDbEntity
  8
0
100
AcDbBlockReference
  2
Rckans1
 10
-149.000000092532
 20
-111.000001907348
 30
0.0
 41
2.0
 42
2.0
 43
2.0
  0
INSERT
  5
7F
330
1F
100
AcDbEntity
  8
0
100
AcDbBlockReference
  2
SA_Links1
 10
-216.6500083704868
 20
-111.0000019073481
 30
0.0
 41
2.0
 42
2.0
 43
2.0
  0
INSERT
  5
80
330
1F
100
AcDbEntity
  8
0
100
AcDbBlockReference
  2
SA_Rechts1
 10
-361.950025389533
 20
-111.000001907348
 30
0.0
 41
2.0
 42
2.0
 43
2.0
  0
INSERT
  5
81
330
1F
100
AcDbEntity
  8
0
100
AcDbBlockReference
  2
Vordans1
 10
-284.300016092532
 20
-111.0000019073478
 30
0.0
 41
2.0
 42
2.0
 43
2.0
  0
INSERT
  5
82
330
1F
100
AcDbEntity
  8
0
100
AcDbBlockReference
  2
A3I_CS
 10
-37.80001609265037
 20
-310.119644251265
 30
0.0
  0
ENDSEC
  0
SECTION
  2
OBJECTS
  0
DICTIONARY
  5
C
330
0
100
AcDbDictionary
281
     1
  3
ACAD_GROUP
350
D
  3
ACAD_LAYOUT
350
1A
  3
ACAD_MATERIAL
350
3B
  3
ACAD_MLEADERSTYLE
350
382
  3
ACAD_MLINESTYLE
350
17
  3
ACAD_PLOTSETTINGS
350
19
  3
ACAD_PLOTSTYLENAME
350
E
  3
ACAD_VISUALSTYLE
350
2A
  3
AcDbVariableDictionary
350
380
  0
DICTIONARY
  5
D
102
{ACAD_REACTORS
330
C
102
}
330
C
100
AcDbDictionary
281
     1
  0
DICTIONARY
  5
1A
102
{ACAD_REACTORS
330
C
102
}
330
C
100
AcDbDictionary
281
     1
  3
Layout1
350
1E
  3
Layout2
350
26
  3
Model
350
22
  0
DICTIONARY
  5
3B
102
{ACAD_REACTORS
330
C
102
}
330
C
100
AcDbDictionary
281
     1
  3
ByBlock
350
3D
  3
ByLayer
350
3C
  3
Global
350
3E
  0
DICTIONARY
  5
382
102
{ACAD_REACTORS
330
C
102
}
330
C
100
AcDbDictionary
281
     1
  0
DICTIONARY
  5
17
102
{ACAD_REACTORS
330
C
102
}
330
C
100
AcDbDictionary
281
     1
  3
Standard
350
18
  0
DICTIONARY
  5
19
102
{ACAD_REACTORS
330
C
102
}
330
C
100
AcDbDictionary
281
     1
  0
ACDBDICTIONARYWDFLT
  5
E
102
{ACAD_REACTORS
330
C
102
}
330
C
100
AcDbDictionary
281
     1
  3
Normal
350
F
100
AcDbDictionaryWithDefault
340
F
  0
DICTIONARY
  5
2A
102
{ACAD_REACTORS
330
C
102
}
330
C
100
AcDbDictionary
281
     1
  3
2dWireframe
350
2F
  3
3D Hidden
350
31
  3
3dWireframe
350
30
  3
Basic
350
32
  3
Brighten
350
36
  3
ColorChange
350
3A
  3
Conceptual
350
34
  3
Dim
350
35
  3
Facepattern
350
39
  3
Flat
350
2B
  3
FlatWithEdges
350
2C
  3
Gouraud
350
2D
  3
GouraudWithEdges
350
2E
  3
Linepattern
350
38
  3
Realistic
350
33
  3
Thicken
350
37
  0
DICTIONARY
  5
380
102
{ACAD_REACTORS
330
C
102
}
330
C
100
AcDbDictionary
281
     1
  3
DIMASSOC
350
383
  3
HIDETEXT
350
384
  0
LAYOUT
  5
1E
102
{ACAD_REACTORS
330
1A
102
}
330
1A
100
AcDbPlotSettings
  1

  2
none_device
  4

  6

 40
0.0
 41
0.0
 42
0.0
 43
0.0
 44
0.0
 45
0.0
 46
0.0
 47
0.0
 48
0.0
 49
0.0
140
0.0
141
0.0
142
1.0
143
1.0
 70
   688
 72
     0
 73
     0
 74
     5
  7

 75
    16
147
1.0
148
0.0
149
0.0
100
AcDbLayout
  1
Layout1
 70
     1
 71
     1
 10
0.0
 20
0.0
 11
12.0
 21
9.0
 12
0.0
 22
0.0
 32
0.0
 14
1.00000000000000E+20
 24
1.00000000000000E+20
 34
1.00000000000000E+20
 15
-1.00000000000000E+20
 25
-1.00000000000000E+20
 35
-1.00000000000000E+20
146
0.0
 13
0.0
 23
0.0
 33
0.0
 16
1.0
 26
0.0
 36
0.0
 17
0.0
 27
1.0
 37
0.0
 76
     0
330
1B
  0
LAYOUT
  5
26
102
{ACAD_REACTORS
330
1A
102
}
330
1A
100
AcDbPlotSettings
  1

  2
none_device
  4

  6

 40
0.0
 41
0.0
 42
0.0
 43
0.0
 44
0.0
 45
0.0
 46
0.0
 47
0.0
 48
0.0
 49
0.0
140
0.0
141
0.0
142
1.0
143
1.0
 70
   688
 72
     0
 73
     0
 74
     5
  7

 75
    16
147
1.0
148
0.0
149
0.0
100
AcDbLayout
  1
Layout2
 70
     1
 71
     2
 10
0.0
 20
0.0
 11
0.0
 21
0.0
 12
0.0
 22
0.0
 32
0.0
 14
0.0
 24
0.0
 34
0.0
 15
0.0
 25
0.0
 35
0.0
146
0.0
 13
0.0
 23
0.0
 33
0.0
 16
1.0
 26
0.0
 36
0.0
 17
0.0
 27
1.0
 37
0.0
 76
     0
330
23
  0
LAYOUT
  5
22
102
{ACAD_REACTORS
330
1A
102
}
330
1A
100
AcDbPlotSettings
  1

  2
none_device
  4

  6

 40
0.0
 41
0.0
 42
0.0
 43
0.0
 44
0.0
 45
0.0
 46
0.0
 47
0.0
 48
0.0
 49
0.0
140
0.0
141
0.0
142
1.0
143
1.0
 70
  1712
 72
     0
 73
     0
 74
     0
  7

 75
     0
147
1.0
148
0.0
149
0.0
100
AcDbLayout
  1
Model
 70
     1
 71
     0
 10
0.0
 20
0.0
 11
12.0
 21
9.0
 12
0.0
 22
0.0
 32
0.0
 14
-452.8000160926512
 24
-310.119644251265
 34
0.0
 15
-32.80001609265275
 25
-13.11964425126499
 35
0.0
146
0.0
 13
0.0
 23
0.0
 33
0.0
 16
1.0
 26
0.0
 36
0.0
 17
0.0
 27
1.0
 37
0.0
 76
     0
330
1F
331
29
  0
MATERIAL
  5
3D
102
{ACAD_REACTORS
330
3B
102
}
102
{ACAD_XDICTIONARY
360
3A7
102
}
330
3B
100
AcDbMaterial
  1
ByBlock
  0
MATERIAL
  5
3C
102
{ACAD_REACTORS
330
3B
102
}
102
{ACAD_XDICTIONARY
360
3A5
102
}
330
3B
100
AcDbMaterial
  1
ByLayer
  0
MATERIAL
  5
3E
102
{ACAD_REACTORS
330
3B
102
}
102
{ACAD_XDICTIONARY
360
3A9
102
}
330
3B
100
AcDbMaterial
  1
Global
  0
MLINESTYLE
  5
18
102
{ACAD_REACTORS
330
17
102
}
330
17
100
AcDbMlineStyle
  2
Standard
 70
     0
  3

 62
   256
 51
90.0
 52
90.0
 71
     2
 49
0.5
 62
   256
  6
BYLAYER
 49
-0.5
 62
   256
  6
BYLAYER
  0
ACDBPLACEHOLDER
  5
F
102
{ACAD_REACTORS
330
E
102
}
330
E
  0
VISUALSTYLE
  5
2F
102
{ACAD_REACTORS
330
2A
102
}
102
{ACAD_XDICTIONARY
360
38D
102
}
330
2A
100
AcDbVisualStyle
  2
2dWireframe
 70
     4
 71
     0
 72
     2
 73
     0
 90
        0
 40
-0.6
 41
-30.0
 62
     5
 63
     7
 74
     1
 91
        4
 64
     7
 65
   257
 75
     1
175
     1
 42
1.0
 92
        0
 66
   257
 43
1.0
 76
     1
 77
     6
 78
     2
 67
     7
 79
     5
170
     0
171
     0
290
     0
174
     0
 93
        1
 44
0.0
173
     0
291
     0
 45
0.0
1001
ACAD
1000
AcDbSavedByObjectVersion
1070
     0
  0
VISUALSTYLE
  5
31
102
{ACAD_REACTORS
330
2A
102
}
102
{ACAD_XDICTIONARY
360
391
102
}
330
2A
100
AcDbVisualStyle
  2
3D Hidden
 70
     6
 71
     1
 72
     2
 73
     2
 90
        0
 40
-0.6
 41
-30.0
 62
     5
 63
     7
 74
     2
 91
        2
 64
     7
 65
   257
 75
     2
175
     1
 42
40.0
 92
        0
 66
   257
 43
1.0
 76
     1
 77
     6
 78
     2
 67
     7
 79
     3
170
     0
171
     0
290
     0
174
     0
 93
        1
 44
0.0
173
     0
291
     0
 45
0.0
1001
ACAD
1000
AcDbSavedByObjectVersion
1070
     0
  0
VISUALSTYLE
  5
30
102
{ACAD_REACTORS
330
2A
102
}
102
{ACAD_XDICTIONARY
360
38F
102
}
330
2A
100
AcDbVisualStyle
  2
3dWireframe
 70
     5
 71
     0
 72
     2
 73
     0
 90
        0
 40
-0.6
 41
-30.0
 62
     5
 63
     7
 74
     1
 91
        4
 64
     7
 65
   257
 75
     1
175
     1
 42
1.0
 92
        0
 66
   257
 43
1.0
 76
     1
 77
     6
 78
     2
 67
     7
 79
     5
170
     0
171
     0
290
     0
174
     0
 93
        1
 44
0.0
173
     0
291
     0
 45
0.0
1001
ACAD
1000
AcDbSavedByObjectVersion
1070
     0
  0
VISUALSTYLE
  5
32
102
{ACAD_REACTORS
330
2A
102
}
102
{ACAD_XDICTIONARY
360
393
102
}
330
2A
100
AcDbVisualStyle
  2
Basic
 70
     7
 71
     1
 72
     0
 73
     1
 90
        0
 40
-0.6
 41
-30.0
 62
     5
 63
     7
 74
     0
 91
        4
 64
     7
 65
   257
 75
     1
175
     1
 42
1.0
 92
        8
 66
     7
 43
1.0
 76
     1
 77
     6
 78
     2
 67
     7
 79
     5
170
     0
171
     0
290
     0
174
     0
 93
        1
 44
0.0
173
     0
291
     1
 45
0.0
1001
ACAD
1000
AcDbSavedByObjectVersion
1070
     0
  0
VISUALSTYLE
  5
36
102
{ACAD_REACTORS
330
2A
102
}
102
{ACAD_XDICTIONARY
360
39B
102
}
330
2A
100
AcDbVisualStyle
  2
Brighten
 70
    12
 71
     2
 72
     2
 73
     0
 90
        0
 40
-0.6
 41
-30.0
 62
     5
 63
     7
 74
     1
 91
        4
 64
     7
 65
   257
 75
     1
175
     1
 42
1.0
 92
        8
 66
     7
 43
1.0
 76
     1
 77
     6
 78
     2
 67
     7
 79
     5
170
     0
171
     0
290
     0
174
     0
 93
        1
 44
50.0
173
     0
291
     1
 45
0.0
1001
ACAD
1000
AcDbSavedByObjectVersion
1070
     0
  0
VISUALSTYLE
  5
3A
102
{ACAD_REACTORS
330
2A
102
}
102
{ACAD_XDICTIONARY
360
3A3
102
}
330
2A
100
AcDbVisualStyle
  2
ColorChange
 70
    16
 71
     2
 72
     2
 73
     3
 90
        0
 40
-0.6
 41
-30.0
 62
     5
 63
     8
 74
     1
 91
        4
 64
     7
 65
   257
 75
     1
175
     1
 42
1.0
 92
        8
 66
     8
 43
1.0
 76
     1
 77
     6
 78
     2
 67
     7
 79
     5
170
     0
171
     0
290
     0
174
     0
 93
        1
 44
0.0
173
     0
291
     1
 45
0.0
1001
ACAD
1000
AcDbSavedByObjectVersion
1070
     0
  0
VISUALSTYLE
  5
34
102
{ACAD_REACTORS
330
2A
102
}
102
{ACAD_XDICTIONARY
360
397
102
}
330
2A
100
AcDbVisualStyle
  2
Conceptual
 70
     9
 71
     3
 72
     2
 73
     0
 90
        0
 40
-0.6
 41
-30.0
 62
     5
 63
     7
 74
     2
 91
        2
 64
     7
 65
   257
 75
     1
175
     1
 42
40.0
 92
        8
 66
     7
 43
1.0
 76
     1
 77
     6
 78
     2
 67
     7
 79
     3
170
     0
171
     0
290
     0
174
     0
 93
        1
 44
0.0
173
     0
291
     0
 45
0.0
1001
ACAD
1000
AcDbSavedByObjectVersion
1070
     0
  0
VISUALSTYLE
  5
35
102
{ACAD_REACTORS
330
2A
102
}
102
{ACAD_XDICTIONARY
360
399
102
}
330
2A
100
AcDbVisualStyle
  2
Dim
 70
    11
 71
     2
 72
     2
 73
     0
 90
        0
 40
-0.6
 41
-30.0
 62
     5
 63
     7
 74
     1
 91
        4
 64
     7
 65
   257
 75
     1
175
     1
 42
1.0
 92
        8
 66
     7
 43
1.0
 76
     1
 77
     6
 78
     2
 67
     7
 79
     5
170
     0
171
     0
290
     0
174
     0
 93
        1
 44
-50.0
173
     0
291
     1
 45
0.0
1001
ACAD
1000
AcDbSavedByObjectVersion
1070
     0
  0
VISUALSTYLE
  5
39
102
{ACAD_REACTORS
330
2A
102
}
102
{ACAD_XDICTIONARY
360
3A1
102
}
330
2A
100
AcDbVisualStyle
  2
Facepattern
 70
    15
 71
     2
 72
     2
 73
     0
 90
        0
 40
-0.6
 41
-30.0
 62
     5
 63
     7
 74
     1
 91
        4
 64
     7
 65
   257
 75
     1
175
     1
 42
1.0
 92
        8
 66
     7
 43
1.0
 76
     1
 77
     6
 78
     2
 67
     7
 79
     5
170
     0
171
     0
290
     0
174
     0
 93
        1
 44
0.0
173
     0
291
     1
 45
0.0
1001
ACAD
1000
AcDbSavedByObjectVersion
1070
     0
  0
VISUALSTYLE
  5
2B
102
{ACAD_REACTORS
330
2A
102
}
102
{ACAD_XDICTIONARY
360
385
102
}
330
2A
100
AcDbVisualStyle
  2
Flat
 70
     0
 71
     2
 72
     1
 73
     1
 90
        2
 40
-0.6
 41
30.0
 62
     5
 63
     7
 74
     0
 91
        4
 64
     7
 65
   257
 75
     1
175
     1
 42
1.0
 92
        8
 66
     7
 43
1.0
 76
     1
 77
     6
 78
     2
 67
     7
 79
     5
170
     0
171
     0
290
     0
174
     0
 93
       13
 44
0.0
173
     0
291
     1
 45
0.0
1001
ACAD
1000
AcDbSavedByObjectVersion
1070
     0
  0
VISUALSTYLE
  5
2C
102
{ACAD_REACTORS
330
2A
102
}
102
{ACAD_XDICTIONARY
360
387
102
}
330
2A
100
AcDbVisualStyle
  2
FlatWithEdges
 70
     1
 71
     2
 72
     1
 73
     1
 90
        2
 40
-0.6
 41
30.0
 62
     5
 63
     7
 74
     1
 91
        4
 64
     7
 65
   257
 75
     1
175
     1
 42
1.0
 92
        0
 66
   257
 43
1.0
 76
     1
 77
     6
 78
     2
 67
     7
 79
     5
170
     0
171
     0
290
     0
174
     0
 93
       13
 44
0.0
173
     0
291
     1
 45
0.0
1001
ACAD
1000
AcDbSavedByObjectVersion
1070
     0
  0
VISUALSTYLE
  5
2D
102
{ACAD_REACTORS
330
2A
102
}
102
{ACAD_XDICTIONARY
360
389
102
}
330
2A
100
AcDbVisualStyle
  2
Gouraud
 70
     2
 71
     2
 72
     2
 73
     1
 90
        2
 40
-0.6
 41
30.0
 62
     5
 63
     7
 74
     0
 91
        4
 64
     7
 65
   257
 75
     1
175
     1
 42
1.0
 92
        0
 66
     7
 43
1.0
 76
     1
 77
     6
 78
     2
 67
     7
 79
     5
170
     0
171
     0
290
     0
174
     0
 93
       13
 44
0.0
173
     0
291
     1
 45
0.0
1001
ACAD
1000
AcDbSavedByObjectVersion
1070
     0
  0
VISUALSTYLE
  5
2E
102
{ACAD_REACTORS
330
2A
102
}
102
{ACAD_XDICTIONARY
360
38B
102
}
330
2A
100
AcDbVisualStyle
  2
GouraudWithEdges
 70
     3
 71
     2
 72
     2
 73
     1
 90
        2
 40
-0.6
 41
30.0
 62
     5
 63
     7
 74
     1
 91
        4
 64
     7
 65
   257
 75
     1
175
     1
 42
1.0
 92
        0
 66
   257
 43
1.0
 76
     1
 77
     6
 78
     2
 67
     7
 79
     5
170
     0
171
     0
290
     0
174
     0
 93
       13
 44
0.0
173
     0
291
     1
 45
0.0
1001
ACAD
1000
AcDbSavedByObjectVersion
1070
     0
  0
VISUALSTYLE
  5
38
102
{ACAD_REACTORS
330
2A
102
}
102
{ACAD_XDICTIONARY
360
39F
102
}
330
2A
100
AcDbVisualStyle
  2
Linepattern
 70
    14
 71
     2
 72
     2
 73
     0
 90
        0
 40
-0.6
 41
-30.0
 62
     5
 63
     7
 74
     1
 91
        4
 64
     7
 65
   257
 75
     7
175
     7
 42
1.0
 92
        8
 66
     7
 43
1.0
 76
     1
 77
     6
 78
     2
 67
     7
 79
     5
170
     0
171
     0
290
     0
174
     0
 93
        1
 44
0.0
173
     0
291
     1
 45
0.0
1001
ACAD
1000
AcDbSavedByObjectVersion
1070
     0
  0
VISUALSTYLE
  5
33
102
{ACAD_REACTORS
330
2A
102
}
102
{ACAD_XDICTIONARY
360
395
102
}
330
2A
100
AcDbVisualStyle
  2
Realistic
 70
     8
 71
     2
 72
     2
 73
     0
 90
        0
 40
-0.6
 41
-30.0
 62
     5
 63
     7
 74
     1
 91
        0
 64
     7
 65
   257
 75
     1
175
     1
 42
1.0
 92
        8
 66
     8
 43
1.0
 76
     1
 77
     6
 78
     2
 67
     7
 79
     5
170
     0
171
     0
290
     0
174
     0
 93
       13
 44
0.0
173
     0
291
     0
 45
0.0
1001
ACAD
1000
AcDbSavedByObjectVersion
1070
     0
  0
VISUALSTYLE
  5
37
102
{ACAD_REACTORS
330
2A
102
}
102
{ACAD_XDICTIONARY
360
39D
102
}
330
2A
100
AcDbVisualStyle
  2
Thicken
 70
    13
 71
     2
 72
     2
 73
     0
 90
        0
 40
-0.6
 41
-30.0
 62
     5
 63
     7
 74
     1
 91
        4
 64
     7
 65
   257
 75
     1
175
     1
 42
1.0
 92
       12
 66
     7
 43
1.0
 76
     1
 77
     6
 78
     2
 67
     7
 79
     5
170
     0
171
     0
290
     0
174
     0
 93
        1
 44
0.0
173
     0
291
     1
 45
0.0
1001
ACAD
1000
AcDbSavedByObjectVersion
1070
     0
  0
DICTIONARYVAR
  5
383
102
{ACAD_REACTORS
330
380
102
}
330
380
100
DictionaryVariables
280
     0
  1
2
  0
DICTIONARYVAR
  5
384
102
{ACAD_REACTORS
330
380
102
}
330
380
100
DictionaryVariables
280
     0
  1
1
  0
DICTIONARY
  5
3A7
330
3D
100
AcDbDictionary
280
     1
281
     1
  3
ACAD_XREC_ROUNDTRIP
360
3A8
  0
DICTIONARY
  5
3A5
330
3C
100
AcDbDictionary
280
     1
281
     1
  3
ACAD_XREC_ROUNDTRIP
360
3A6
  0
DICTIONARY
  5
3A9
330
3E
100
AcDbDictionary
280
     1
281
     1
  3
ACAD_XREC_ROUNDTRIP
360
3AA
  0
DICTIONARY
  5
38D
330
2F
100
AcDbDictionary
280
     1
281
     1
  3
ACAD_XREC_ROUNDTRIP
360
38E
  0
DICTIONARY
  5
391
330
31
100
AcDbDictionary
280
     1
281
     1
  3
ACAD_XREC_ROUNDTRIP
360
392
  0
DICTIONARY
  5
38F
330
30
100
AcDbDictionary
280
     1
281
     1
  3
ACAD_XREC_ROUNDTRIP
360
390
  0
DICTIONARY
  5
393
330
32
100
AcDbDictionary
280
     1
281
     1
  3
ACAD_XREC_ROUNDTRIP
360
394
  0
DICTIONARY
  5
39B
330
36
100
AcDbDictionary
280
     1
281
     1
  3
ACAD_XREC_ROUNDTRIP
360
39C
  0
DICTIONARY
  5
3A3
330
3A
100
AcDbDictionary
280
     1
281
     1
  3
ACAD_XREC_ROUNDTRIP
360
3A4
  0
DICTIONARY
  5
397
330
34
100
AcDbDictionary
280
     1
281
     1
  3
ACAD_XREC_ROUNDTRIP
360
398
  0
DICTIONARY
  5
399
330
35
100
AcDbDictionary
280
     1
281
     1
  3
ACAD_XREC_ROUNDTRIP
360
39A
  0
DICTIONARY
  5
3A1
330
39
100
AcDbDictionary
280
     1
281
     1
  3
ACAD_XREC_ROUNDTRIP
360
3A2
  0
DICTIONARY
  5
385
330
2B
100
AcDbDictionary
280
     1
281
     1
  3
ACAD_XREC_ROUNDTRIP
360
386
  0
DICTIONARY
  5
387
330
2C
100
AcDbDictionary
280
     1
281
     1
  3
ACAD_XREC_ROUNDTRIP
360
388
  0
DICTIONARY
  5
389
330
2D
100
AcDbDictionary
280
     1
281
     1
  3
ACAD_XREC_ROUNDTRIP
360
38A
  0
DICTIONARY
  5
38B
330
2E
100
AcDbDictionary
280
     1
281
     1
  3
ACAD_XREC_ROUNDTRIP
360
38C
  0
DICTIONARY
  5
39F
330
38
100
AcDbDictionary
280
     1
281
     1
  3
ACAD_XREC_ROUNDTRIP
360
3A0
  0
DICTIONARY
  5
395
330
33
100
AcDbDictionary
280
     1
281
     1
  3
ACAD_XREC_ROUNDTRIP
360
396
  0
DICTIONARY
  5
39D
330
37
100
AcDbDictionary
280
     1
281
     1
  3
ACAD_XREC_ROUNDTRIP
360
39E
  0
XRECORD
  5
3A8
102
{ACAD_REACTORS
330
3A7
102
}
330
3A7
100
AcDbXrecord
280
     1
102
MATERIAL
148
0.0
149
0.0
149
0.0
 93
        0
 94
      127
282
     0
 72
     1
 77
     1
171
     1
175
     1
179
     1
273
     0
  0
XRECORD
  5
3A6
102
{ACAD_REACTORS
330
3A5
102
}
330
3A5
100
AcDbXrecord
280
     1
102
MATERIAL
148
0.0
149
0.0
149
0.0
 93
        0
 94
      127
282
     0
 72
     1
 77
     1
171
     1
175
     1
179
     1
273
     0
  0
XRECORD
  5
3AA
102
{ACAD_REACTORS
330
3A9
102
}
330
3A9
100
AcDbXrecord
280
     1
102
MATERIAL
148
0.0
149
0.0
149
0.0
 93
        0
 94
      127
282
     0
 72
     1
 77
     1
171
     1
175
     1
179
     1
273
     0
  0
XRECORD
  5
38E
102
{ACAD_REACTORS
330
38D
102
}
330
38D
100
AcDbXrecord
280
     1
102
RTVSPropertyOp0
 70
     1
102
RTVSPropertyOp1
 70
     1
102
RTVSPropertyOp2
 70
     1
102
RTVSPropertyOp3
 70
     1
102
RTVSPropertyOp4
 70
     1
102
RTVSPropertyOp5
 70
     1
102
RTVSPropertyOp6
 70
     1
102
RTVSPropertyOp7
 70
     1
102
RTVSPropertyOp8
 70
     1
102
RTVSPropertyOp9
 70
     1
102
RTVSPropertyOp10
 70
     1
102
RTVSPropertyOp11
 70
     1
102
RTVSPropertyOp12
 70
     1
102
RTVSPropertyOp13
 70
     1
102
RTVSPropertyOp14
 70
     1
102
RTVSPropertyOp15
 70
     1
102
RTVSPropertyOp16
 70
     1
102
RTVSPropertyOp17
 70
     1
102
RTVSPropertyOp18
 70
     1
102
RTVSPropertyOp19
 70
     1
102
RTVSPropertyOp20
 70
     1
102
RTVSPropertyOp21
 70
     1
102
RTVSPropertyOp22
 70
     1
102
RTVSPropertyOp23
 70
     1
102
RTVSPropertyOp24
 70
     1
102
RTVSPropertyOp25
 70
     1
102
RTVSPropertyOp26
 70
     1
102
RTVSPropertyOp27
 70
     1
102
RTVSPropertyOp28
 70
     1
102
RTVSPropertyOp29
 70
     1
102
RTVSPropertyOp30
 70
     1
102
RTVSPropertyOp31
 70
     1
102
RTVSPropertyOp32
 70
     1
  0
XRECORD
  5
392
102
{ACAD_REACTORS
330
391
102
}
330
391
100
AcDbXrecord
280
     1
102
RTVSPropertyOp0
 70
     1
102
RTVSPropertyOp1
 70
     1
102
RTVSPropertyOp2
 70
     1
102
RTVSPropertyOp3
 70
     1
102
RTVSPropertyOp4
 70
     1
102
RTVSPropertyOp5
 70
     1
102
RTVSPropertyOp6
 70
     1
102
RTVSPropertyOp7
 70
     1
102
RTVSPropertyOp8
 70
     1
102
RTVSPropertyOp9
 70
     1
102
RTVSPropertyOp10
 70
     1
102
RTVSPropertyOp11
 70
     1
102
RTVSPropertyOp12
 70
     1
102
RTVSPropertyOp13
 70
     1
102
RTVSPropertyOp14
 70
     1
102
RTVSPropertyOp15
 70
     1
102
RTVSPropertyOp16
 70
     1
102
RTVSPropertyOp17
 70
     1
102
RTVSPropertyOp18
 70
     1
102
RTVSPropertyOp19
 70
     1
102
RTVSPropertyOp20
 70
     1
102
RTVSPropertyOp21
 70
     1
102
RTVSPropertyOp22
 70
     1
102
RTVSPropertyOp23
 70
     1
102
RTVSPropertyOp24
 70
     1
102
RTVSPropertyOp25
 70
     1
102
RTVSPropertyOp26
 70
     1
102
RTVSPropertyOp27
 70
     1
102
RTVSPropertyOp28
 70
     1
102
RTVSPropertyOp29
 70
     1
102
RTVSPropertyOp30
 70
     1
102
RTVSPropertyOp31
 70
     1
102
RTVSPropertyOp32
 70
     1
  0
XRECORD
  5
390
102
{ACAD_REACTORS
330
38F
102
}
330
38F
100
AcDbXrecord
280
     1
102
RTVSPropertyOp0
 70
     1
102
RTVSPropertyOp1
 70
     1
102
RTVSPropertyOp2
 70
     1
102
RTVSPropertyOp3
 70
     1
102
RTVSPropertyOp4
 70
     1
102
RTVSPropertyOp5
 70
     1
102
RTVSPropertyOp6
 70
     1
102
RTVSPropertyOp7
 70
     1
102
RTVSPropertyOp8
 70
     1
102
RTVSPropertyOp9
 70
     1
102
RTVSPropertyOp10
 70
     1
102
RTVSPropertyOp11
 70
     1
102
RTVSPropertyOp12
 70
     1
102
RTVSPropertyOp13
 70
     1
102
RTVSPropertyOp14
 70
     1
102
RTVSPropertyOp15
 70
     1
102
RTVSPropertyOp16
 70
     1
102
RTVSPropertyOp17
 70
     1
102
RTVSPropertyOp18
 70
     1
102
RTVSPropertyOp19
 70
     1
102
RTVSPropertyOp20
 70
     1
102
RTVSPropertyOp21
 70
     1
102
RTVSPropertyOp22
 70
     1
102
RTVSPropertyOp23
 70
     1
102
RTVSPropertyOp24
 70
     1
102
RTVSPropertyOp25
 70
     1
102
RTVSPropertyOp26
 70
     1
102
RTVSPropertyOp27
 70
     1
102
RTVSPropertyOp28
 70
     1
102
RTVSPropertyOp29
 70
     1
102
RTVSPropertyOp30
 70
     1
102
RTVSPropertyOp31
 70
     1
102
RTVSPropertyOp32
 70
     1
  0
XRECORD
  5
394
102
{ACAD_REACTORS
330
393
102
}
330
393
100
AcDbXrecord
280
     1
102
RTVSPropertyOp0
 70
     1
102
RTVSPropertyOp1
 70
     1
102
RTVSPropertyOp2
 70
     1
102
RTVSPropertyOp3
 70
     1
102
RTVSPropertyOp4
 70
     1
102
RTVSPropertyOp5
 70
     1
102
RTVSPropertyOp6
 70
     1
102
RTVSPropertyOp7
 70
     1
102
RTVSPropertyOp8
 70
     1
102
RTVSPropertyOp9
 70
     1
102
RTVSPropertyOp10
 70
     1
102
RTVSPropertyOp11
 70
     1
102
RTVSPropertyOp12
 70
     1
102
RTVSPropertyOp13
 70
     1
102
RTVSPropertyOp14
 70
     1
102
RTVSPropertyOp15
 70
     1
102
RTVSPropertyOp16
 70
     1
102
RTVSPropertyOp17
 70
     1
102
RTVSPropertyOp18
 70
     1
102
RTVSPropertyOp19
 70
     1
102
RTVSPropertyOp20
 70
     1
102
RTVSPropertyOp21
 70
     1
102
RTVSPropertyOp22
 70
     1
102
RTVSPropertyOp23
 70
     1
102
RTVSPropertyOp24
 70
     1
102
RTVSPropertyOp25
 70
     1
102
RTVSPropertyOp26
 70
     1
102
RTVSPropertyOp27
 70
     1
102
RTVSPropertyOp28
 70
     1
102
RTVSPropertyOp29
 70
     1
102
RTVSPropertyOp30
 70
     1
102
RTVSPropertyOp31
 70
     1
102
RTVSPropertyOp32
 70
     1
  0
XRECORD
  5
39C
102
{ACAD_REACTORS
330
39B
102
}
330
39B
100
AcDbXrecord
280
     1
102
RTVSPropertyOp0
 70
     1
102
RTVSPropertyOp1
 70
     1
102
RTVSPropertyOp2
 70
     1
102
RTVSPropertyOp3
 70
     1
102
RTVSPropertyOp4
 70
     1
102
RTVSPropertyOp5
 70
     1
102
RTVSPropertyOp6
 70
     1
102
RTVSPropertyOp7
 70
     1
102
RTVSPropertyOp8
 70
     1
102
RTVSPropertyOp9
 70
     1
102
RTVSPropertyOp10
 70
     1
102
RTVSPropertyOp11
 70
     1
102
RTVSPropertyOp12
 70
     1
102
RTVSPropertyOp13
 70
     1
102
RTVSPropertyOp14
 70
     1
102
RTVSPropertyOp15
 70
     1
102
RTVSPropertyOp16
 70
     1
102
RTVSPropertyOp17
 70
     1
102
RTVSPropertyOp18
 70
     1
102
RTVSPropertyOp19
 70
     1
102
RTVSPropertyOp20
 70
     1
102
RTVSPropertyOp21
 70
     1
102
RTVSPropertyOp22
 70
     1
102
RTVSPropertyOp23
 70
     1
102
RTVSPropertyOp24
 70
     1
102
RTVSPropertyOp25
 70
     1
102
RTVSPropertyOp26
 70
     1
102
RTVSPropertyOp27
 70
     1
102
RTVSPropertyOp28
 70
     1
102
RTVSPropertyOp29
 70
     1
102
RTVSPropertyOp30
 70
     1
102
RTVSPropertyOp31
 70
     1
102
RTVSPropertyOp32
 70
     1
  0
XRECORD
  5
3A4
102
{ACAD_REACTORS
330
3A3
102
}
330
3A3
100
AcDbXrecord
280
     1
102
RTVSPropertyOp0
 70
     1
102
RTVSPropertyOp1
 70
     1
102
RTVSPropertyOp2
 70
     1
102
RTVSPropertyOp3
 70
     1
102
RTVSPropertyOp4
 70
     1
102
RTVSPropertyOp5
 70
     1
102
RTVSPropertyOp6
 70
     1
102
RTVSPropertyOp7
 70
     1
102
RTVSPropertyOp8
 70
     1
102
RTVSPropertyOp9
 70
     1
102
RTVSPropertyOp10
 70
     1
102
RTVSPropertyOp11
 70
     1
102
RTVSPropertyOp12
 70
     1
102
RTVSPropertyOp13
 70
     1
102
RTVSPropertyOp14
 70
     1
102
RTVSPropertyOp15
 70
     1
102
RTVSPropertyOp16
 70
     1
102
RTVSPropertyOp17
 70
     1
102
RTVSPropertyOp18
 70
     1
102
RTVSPropertyOp19
 70
     1
102
RTVSPropertyOp20
 70
     1
102
RTVSPropertyOp21
 70
     1
102
RTVSPropertyOp22
 70
     1
102
RTVSPropertyOp23
 70
     1
102
RTVSPropertyOp24
 70
     1
102
RTVSPropertyOp25
 70
     1
102
RTVSPropertyOp26
 70
     1
102
RTVSPropertyOp27
 70
     1
102
RTVSPropertyOp28
 70
     1
102
RTVSPropertyOp29
 70
     1
102
RTVSPropertyOp30
 70
     1
102
RTVSPropertyOp31
 70
     1
102
RTVSPropertyOp32
 70
     1
  0
XRECORD
  5
398
102
{ACAD_REACTORS
330
397
102
}
330
397
100
AcDbXrecord
280
     1
102
RTVSPropertyOp0
 70
     1
102
RTVSPropertyOp1
 70
     1
102
RTVSPropertyOp2
 70
     1
102
RTVSPropertyOp3
 70
     1
102
RTVSPropertyOp4
 70
     1
102
RTVSPropertyOp5
 70
     1
102
RTVSPropertyOp6
 70
     1
102
RTVSPropertyOp7
 70
     1
102
RTVSPropertyOp8
 70
     1
102
RTVSPropertyOp9
 70
     1
102
RTVSPropertyOp10
 70
     1
102
RTVSPropertyOp11
 70
     1
102
RTVSPropertyOp12
 70
     1
102
RTVSPropertyOp13
 70
     1
102
RTVSPropertyOp14
 70
     1
102
RTVSPropertyOp15
 70
     1
102
RTVSPropertyOp16
 70
     1
102
RTVSPropertyOp17
 70
     1
102
RTVSPropertyOp18
 70
     1
102
RTVSPropertyOp19
 70
     1
102
RTVSPropertyOp20
 70
     1
102
RTVSPropertyOp21
 70
     1
102
RTVSPropertyOp22
 70
     1
102
RTVSPropertyOp23
 70
     1
102
RTVSPropertyOp24
 70
     1
102
RTVSPropertyOp25
 70
     1
102
RTVSPropertyOp26
 70
     1
102
RTVSPropertyOp27
 70
     1
102
RTVSPropertyOp28
 70
     1
102
RTVSPropertyOp29
 70
     1
102
RTVSPropertyOp30
 70
     1
102
RTVSPropertyOp31
 70
     1
102
RTVSPropertyOp32
 70
     1
  0
XRECORD
  5
39A
102
{ACAD_REACTORS
330
399
102
}
330
399
100
AcDbXrecord
280
     1
102
RTVSPropertyOp0
 70
     1
102
RTVSPropertyOp1
 70
     1
102
RTVSPropertyOp2
 70
     1
102
RTVSPropertyOp3
 70
     1
102
RTVSPropertyOp4
 70
     1
102
RTVSPropertyOp5
 70
     1
102
RTVSPropertyOp6
 70
     1
102
RTVSPropertyOp7
 70
     1
102
RTVSPropertyOp8
 70
     1
102
RTVSPropertyOp9
 70
     1
102
RTVSPropertyOp10
 70
     1
102
RTVSPropertyOp11
 70
     1
102
RTVSPropertyOp12
 70
     1
102
RTVSPropertyOp13
 70
     1
102
RTVSPropertyOp14
 70
     1
102
RTVSPropertyOp15
 70
     1
102
RTVSPropertyOp16
 70
     1
102
RTVSPropertyOp17
 70
     1
102
RTVSPropertyOp18
 70
     1
102
RTVSPropertyOp19
 70
     1
102
RTVSPropertyOp20
 70
     1
102
RTVSPropertyOp21
 70
     1
102
RTVSPropertyOp22
 70
     1
102
RTVSPropertyOp23
 70
     1
102
RTVSPropertyOp24
 70
     1
102
RTVSPropertyOp25
 70
     1
102
RTVSPropertyOp26
 70
     1
102
RTVSPropertyOp27
 70
     1
102
RTVSPropertyOp28
 70
     1
102
RTVSPropertyOp29
 70
     1
102
RTVSPropertyOp30
 70
     1
102
RTVSPropertyOp31
 70
     1
102
RTVSPropertyOp32
 70
     1
  0
XRECORD
  5
3A2
102
{ACAD_REACTORS
330
3A1
102
}
330
3A1
100
AcDbXrecord
280
     1
102
RTVSPropertyOp0
 70
     1
102
RTVSPropertyOp1
 70
     1
102
RTVSPropertyOp2
 70
     1
102
RTVSPropertyOp3
 70
     1
102
RTVSPropertyOp4
 70
     1
102
RTVSPropertyOp5
 70
     1
102
RTVSPropertyOp6
 70
     1
102
RTVSPropertyOp7
 70
     1
102
RTVSPropertyOp8
 70
     1
102
RTVSPropertyOp9
 70
     1
102
RTVSPropertyOp10
 70
     1
102
RTVSPropertyOp11
 70
     1
102
RTVSPropertyOp12
 70
     1
102
RTVSPropertyOp13
 70
     1
102
RTVSPropertyOp14
 70
     1
102
RTVSPropertyOp15
 70
     1
102
RTVSPropertyOp16
 70
     1
102
RTVSPropertyOp17
 70
     1
102
RTVSPropertyOp18
 70
     1
102
RTVSPropertyOp19
 70
     1
102
RTVSPropertyOp20
 70
     1
102
RTVSPropertyOp21
 70
     1
102
RTVSPropertyOp22
 70
     1
102
RTVSPropertyOp23
 70
     1
102
RTVSPropertyOp24
 70
     1
102
RTVSPropertyOp25
 70
     1
102
RTVSPropertyOp26
 70
     1
102
RTVSPropertyOp27
 70
     1
102
RTVSPropertyOp28
 70
     1
102
RTVSPropertyOp29
 70
     1
102
RTVSPropertyOp30
 70
     1
102
RTVSPropertyOp31
 70
     1
102
RTVSPropertyOp32
 70
     1
  0
XRECORD
  5
386
102
{ACAD_REACTORS
330
385
102
}
330
385
100
AcDbXrecord
280
     1
102
RTVSPropertyOp0
 70
     1
102
RTVSPropertyOp1
 70
     1
102
RTVSPropertyOp2
 70
     1
102
RTVSPropertyOp3
 70
     1
102
RTVSPropertyOp4
 70
     1
102
RTVSPropertyOp5
 70
     1
102
RTVSPropertyOp6
 70
     1
102
RTVSPropertyOp7
 70
     1
102
RTVSPropertyOp8
 70
     1
102
RTVSPropertyOp9
 70
     1
102
RTVSPropertyOp10
 70
     1
102
RTVSPropertyOp11
 70
     1
102
RTVSPropertyOp12
 70
     1
102
RTVSPropertyOp13
 70
     1
102
RTVSPropertyOp14
 70
     1
102
RTVSPropertyOp15
 70
     1
102
RTVSPropertyOp16
 70
     1
102
RTVSPropertyOp17
 70
     1
102
RTVSPropertyOp18
 70
     1
102
RTVSPropertyOp19
 70
     1
102
RTVSPropertyOp20
 70
     1
102
RTVSPropertyOp21
 70
     1
102
RTVSPropertyOp22
 70
     1
102
RTVSPropertyOp23
 70
     1
102
RTVSPropertyOp24
 70
     1
102
RTVSPropertyOp25
 70
     1
102
RTVSPropertyOp26
 70
     1
102
RTVSPropertyOp27
 70
     1
102
RTVSPropertyOp28
 70
     1
102
RTVSPropertyOp29
 70
     1
102
RTVSPropertyOp30
 70
     1
102
RTVSPropertyOp31
 70
     1
102
RTVSPropertyOp32
 70
     1
  0
XRECORD
  5
388
102
{ACAD_REACTORS
330
387
102
}
330
387
100
AcDbXrecord
280
     1
102
RTVSPropertyOp0
 70
     1
102
RTVSPropertyOp1
 70
     1
102
RTVSPropertyOp2
 70
     1
102
RTVSPropertyOp3
 70
     1
102
RTVSPropertyOp4
 70
     1
102
RTVSPropertyOp5
 70
     1
102
RTVSPropertyOp6
 70
     1
102
RTVSPropertyOp7
 70
     1
102
RTVSPropertyOp8
 70
     1
102
RTVSPropertyOp9
 70
     1
102
RTVSPropertyOp10
 70
     1
102
RTVSPropertyOp11
 70
     1
102
RTVSPropertyOp12
 70
     1
102
RTVSPropertyOp13
 70
     1
102
RTVSPropertyOp14
 70
     1
102
RTVSPropertyOp15
 70
     1
102
RTVSPropertyOp16
 70
     1
102
RTVSPropertyOp17
 70
     1
102
RTVSPropertyOp18
 70
     1
102
RTVSPropertyOp19
 70
     1
102
RTVSPropertyOp20
 70
     1
102
RTVSPropertyOp21
 70
     1
102
RTVSPropertyOp22
 70
     1
102
RTVSPropertyOp23
 70
     1
102
RTVSPropertyOp24
 70
     1
102
RTVSPropertyOp25
 70
     1
102
RTVSPropertyOp26
 70
     1
102
RTVSPropertyOp27
 70
     1
102
RTVSPropertyOp28
 70
     1
102
RTVSPropertyOp29
 70
     1
102
RTVSPropertyOp30
 70
     1
102
RTVSPropertyOp31
 70
     1
102
RTVSPropertyOp32
 70
     1
  0
XRECORD
  5
38A
102
{ACAD_REACTORS
330
389
102
}
330
389
100
AcDbXrecord
280
     1
102
RTVSPropertyOp0
 70
     1
102
RTVSPropertyOp1
 70
     1
102
RTVSPropertyOp2
 70
     1
102
RTVSPropertyOp3
 70
     1
102
RTVSPropertyOp4
 70
     1
102
RTVSPropertyOp5
 70
     1
102
RTVSPropertyOp6
 70
     1
102
RTVSPropertyOp7
 70
     1
102
RTVSPropertyOp8
 70
     1
102
RTVSPropertyOp9
 70
     1
102
RTVSPropertyOp10
 70
     1
102
RTVSPropertyOp11
 70
     1
102
RTVSPropertyOp12
 70
     1
102
RTVSPropertyOp13
 70
     1
102
RTVSPropertyOp14
 70
     1
102
RTVSPropertyOp15
 70
     1
102
RTVSPropertyOp16
 70
     1
102
RTVSPropertyOp17
 70
     1
102
RTVSPropertyOp18
 70
     1
102
RTVSPropertyOp19
 70
     1
102
RTVSPropertyOp20
 70
     1
102
RTVSPropertyOp21
 70
     1
102
RTVSPropertyOp22
 70
     1
102
RTVSPropertyOp23
 70
     1
102
RTVSPropertyOp24
 70
     1
102
RTVSPropertyOp25
 70
     1
102
RTVSPropertyOp26
 70
     1
102
RTVSPropertyOp27
 70
     1
102
RTVSPropertyOp28
 70
     1
102
RTVSPropertyOp29
 70
     1
102
RTVSPropertyOp30
 70
     1
102
RTVSPropertyOp31
 70
     1
102
RTVSPropertyOp32
 70
     1
  0
XRECORD
  5
38C
102
{ACAD_REACTORS
330
38B
102
}
330
38B
100
AcDbXrecord
280
     1
102
RTVSPropertyOp0
 70
     1
102
RTVSPropertyOp1
 70
     1
102
RTVSPropertyOp2
 70
     1
102
RTVSPropertyOp3
 70
     1
102
RTVSPropertyOp4
 70
     1
102
RTVSPropertyOp5
 70
     1
102
RTVSPropertyOp6
 70
     1
102
RTVSPropertyOp7
 70
     1
102
RTVSPropertyOp8
 70
     1
102
RTVSPropertyOp9
 70
     1
102
RTVSPropertyOp10
 70
     1
102
RTVSPropertyOp11
 70
     1
102
RTVSPropertyOp12
 70
     1
102
RTVSPropertyOp13
 70
     1
102
RTVSPropertyOp14
 70
     1
102
RTVSPropertyOp15
 70
     1
102
RTVSPropertyOp16
 70
     1
102
RTVSPropertyOp17
 70
     1
102
RTVSPropertyOp18
 70
     1
102
RTVSPropertyOp19
 70
     1
102
RTVSPropertyOp20
 70
     1
102
RTVSPropertyOp21
 70
     1
102
RTVSPropertyOp22
 70
     1
102
RTVSPropertyOp23
 70
     1
102
RTVSPropertyOp24
 70
     1
102
RTVSPropertyOp25
 70
     1
102
RTVSPropertyOp26
 70
     1
102
RTVSPropertyOp27
 70
     1
102
RTVSPropertyOp28
 70
     1
102
RTVSPropertyOp29
 70
     1
102
RTVSPropertyOp30
 70
     1
102
RTVSPropertyOp31
 70
     1
102
RTVSPropertyOp32
 70
     1
  0
XRECORD
  5
3A0
102
{ACAD_REACTORS
330
39F
102
}
330
39F
100
AcDbXrecord
280
     1
102
RTVSPropertyOp0
 70
     1
102
RTVSPropertyOp1
 70
     1
102
RTVSPropertyOp2
 70
     1
102
RTVSPropertyOp3
 70
     1
102
RTVSPropertyOp4
 70
     1
102
RTVSPropertyOp5
 70
     1
102
RTVSPropertyOp6
 70
     1
102
RTVSPropertyOp7
 70
     1
102
RTVSPropertyOp8
 70
     1
102
RTVSPropertyOp9
 70
     1
102
RTVSPropertyOp10
 70
     1
102
RTVSPropertyOp11
 70
     1
102
RTVSPropertyOp12
 70
     1
102
RTVSPropertyOp13
 70
     1
102
RTVSPropertyOp14
 70
     1
102
RTVSPropertyOp15
 70
     1
102
RTVSPropertyOp16
 70
     1
102
RTVSPropertyOp17
 70
     1
102
RTVSPropertyOp18
 70
     1
102
RTVSPropertyOp19
 70
     1
102
RTVSPropertyOp20
 70
     1
102
RTVSPropertyOp21
 70
     1
102
RTVSPropertyOp22
 70
     1
102
RTVSPropertyOp23
 70
     1
102
RTVSPropertyOp24
 70
     1
102
RTVSPropertyOp25
 70
     1
102
RTVSPropertyOp26
 70
     1
102
RTVSPropertyOp27
 70
     1
102
RTVSPropertyOp28
 70
     1
102
RTVSPropertyOp29
 70
     1
102
RTVSPropertyOp30
 70
     1
102
RTVSPropertyOp31
 70
     1
102
RTVSPropertyOp32
 70
     1
  0
XRECORD
  5
396
102
{ACAD_REACTORS
330
395
102
}
330
395
100
AcDbXrecord
280
     1
102
RTVSPropertyOp0
 70
     1
102
RTVSPropertyOp1
 70
     1
102
RTVSPropertyOp2
 70
     1
102
RTVSPropertyOp3
 70
     1
102
RTVSPropertyOp4
 70
     1
102
RTVSPropertyOp5
 70
     1
102
RTVSPropertyOp6
 70
     1
102
RTVSPropertyOp7
 70
     1
102
RTVSPropertyOp8
 70
     1
102
RTVSPropertyOp9
 70
     1
102
RTVSPropertyOp10
 70
     1
102
RTVSPropertyOp11
 70
     1
102
RTVSPropertyOp12
 70
     1
102
RTVSPropertyOp13
 70
     1
102
RTVSPropertyOp14
 70
     1
102
RTVSPropertyOp15
 70
     1
102
RTVSPropertyOp16
 70
     1
102
RTVSPropertyOp17
 70
     1
102
RTVSPropertyOp18
 70
     1
102
RTVSPropertyOp19
 70
     1
102
RTVSPropertyOp20
 70
     1
102
RTVSPropertyOp21
 70
     1
102
RTVSPropertyOp22
 70
     1
102
RTVSPropertyOp23
 70
     1
102
RTVSPropertyOp24
 70
     1
102
RTVSPropertyOp25
 70
     1
102
RTVSPropertyOp26
 70
     1
102
RTVSPropertyOp27
 70
     1
102
RTVSPropertyOp28
 70
     1
102
RTVSPropertyOp29
 70
     1
102
RTVSPropertyOp30
 70
     1
102
RTVSPropertyOp31
 70
     1
102
RTVSPropertyOp32
 70
     1
  0
XRECORD
  5
39E
102
{ACAD_REACTORS
330
39D
102
}
330
39D
100
AcDbXrecord
280
     1
102
RTVSPropertyOp0
 70
     1
102
RTVSPropertyOp1
 70
     1
102
RTVSPropertyOp2
 70
     1
102
RTVSPropertyOp3
 70
     1
102
RTVSPropertyOp4
 70
     1
102
RTVSPropertyOp5
 70
     1
102
RTVSPropertyOp6
 70
     1
102
RTVSPropertyOp7
 70
     1
102
RTVSPropertyOp8
 70
     1
102
RTVSPropertyOp9
 70
     1
102
RTVSPropertyOp10
 70
     1
102
RTVSPropertyOp11
 70
     1
102
RTVSPropertyOp12
 70
     1
102
RTVSPropertyOp13
 70
     1
102
RTVSPropertyOp14
 70
     1
102
RTVSPropertyOp15
 70
     1
102
RTVSPropertyOp16
 70
     1
102
RTVSPropertyOp17
 70
     1
102
RTVSPropertyOp18
 70
     1
102
RTVSPropertyOp19
 70
     1
102
RTVSPropertyOp20
 70
     1
102
RTVSPropertyOp21
 70
     1
102
RTVSPropertyOp22
 70
     1
102
RTVSPropertyOp23
 70
     1
102
RTVSPropertyOp24
 70
     1
102
RTVSPropertyOp25
 70
     1
102
RTVSPropertyOp26
 70
     1
102
RTVSPropertyOp27
 70
     1
102
RTVSPropertyOp28
 70
     1
102
RTVSPropertyOp29
 70
     1
102
RTVSPropertyOp30
 70
     1
102
RTVSPropertyOp31
 70
     1
102
RTVSPropertyOp32
 70
     1
  0
ENDSEC
  0
EOF
