  0
SECTION
  2
HEADER
  9
$ACADVER
  1
AC1015
  9
$ACADMAINTVER
 70
     6
  9
$DWGCODEPAGE
  3
ANSI_1252
  9
$INSBASE
 10
0.0
 20
0.0
 30
0.0
  9
$EXTMIN
 10
-1208.499999999994
 20
-1174.999999999995
 30
0.0
  9
$EXTMAX
 10
-911.4999999999959
 20
-964.9999999999949
 30
0.0
  9
$LIMMIN
 10
0.0
 20
0.0
  9
$LIMMAX
 10
12.0
 20
9.0
  9
$ORTHOMODE
 70
     0
  9
$REGENMODE
 70
     1
  9
$FILLMODE
 70
     1
  9
$QTEXTMODE
 70
     0
  9
$MIRRTEXT
 70
     1
  9
$LTSCALE
 40
1.0
  9
$ATTMODE
 70
     1
  9
$TEXTSIZE
 40
0.2
  9
$TRACEWID
 40
0.05
  9
$TEXTSTYLE
  7
Standard
  9
$CLAYER
  8
0
  9
$CELTYPE
  6
ByLayer
  9
$CECOLOR
 62
   256
  9
$CELTSCALE
 40
1.0
  9
$DISPSILH
 70
     0
  9
$DIMSCALE
 40
1.0
  9
$DIMASZ
 40
0.18
  9
$DIMEXO
 40
0.0625
  9
$DIMDLI
 40
0.38
  9
$DIMRND
 40
0.0
  9
$DIMDLE
 40
0.0
  9
$DIMEXE
 40
0.18
  9
$DIMTP
 40
0.0
  9
$DIMTM
 40
0.0
  9
$DIMTXT
 40
0.18
  9
$DIMCEN
 40
0.09
  9
$DIMTSZ
 40
0.0
  9
$DIMTOL
 70
     0
  9
$DIMLIM
 70
     0
  9
$DIMTIH
 70
     1
  9
$DIMTOH
 70
     1
  9
$DIMSE1
 70
     0
  9
$DIMSE2
 70
     0
  9
$DIMTAD
 70
     0
  9
$DIMZIN
 70
     0
  9
$DIMBLK
  1

  9
$DIMASO
 70
     1
  9
$DIMSHO
 70
     1
  9
$DIMPOST
  1

  9
$DIMAPOST
  1

  9
$DIMALT
 70
     0
  9
$DIMALTD
 70
     2
  9
$DIMALTF
 40
25.4
  9
$DIMLFAC
 40
1.0
  9
$DIMTOFL
 70
     0
  9
$DIMTVP
 40
0.0
  9
$DIMTIX
 70
     0
  9
$DIMSOXD
 70
     0
  9
$DIMSAH
 70
     0
  9
$DIMBLK1
  1

  9
$DIMBLK2
  1

  9
$DIMSTYLE
  2
Standard
  9
$DIMCLRD
 70
     0
  9
$DIMCLRE
 70
     0
  9
$DIMCLRT
 70
     0
  9
$DIMTFAC
 40
1.0
  9
$DIMGAP
 40
0.09
  9
$DIMJUST
 70
     0
  9
$DIMSD1
 70
     0
  9
$DIMSD2
 70
     0
  9
$DIMTOLJ
 70
     1
  9
$DIMTZIN
 70
     0
  9
$DIMALTZ
 70
     0
  9
$DIMALTTZ
 70
     0
  9
$DIMUPT
 70
     0
  9
$DIMDEC
 70
     4
  9
$DIMTDEC
 70
     4
  9
$DIMALTU
 70
     2
  9
$DIMALTTD
 70
     2
  9
$DIMTXSTY
  7
Standard
  9
$DIMAUNIT
 70
     0
  9
$DIMADEC
 70
     0
  9
$DIMALTRND
 40
0.0
  9
$DIMAZIN
 70
     0
  9
$DIMDSEP
 70
    46
  9
$DIMATFIT
 70
     3
  9
$DIMFRAC
 70
     0
  9
$DIMLDRBLK
  1

  9
$DIMLUNIT
 70
     2
  9
$DIMLWD
 70
    -2
  9
$DIMLWE
 70
    -2
  9
$DIMTMOVE
 70
     0
  9
$LUNITS
 70
     2
  9
$LUPREC
 70
     4
  9
$SKETCHINC
 40
0.1
  9
$FILLETRAD
 40
0.5
  9
$AUNITS
 70
     0
  9
$AUPREC
 70
     0
  9
$MENU
  1
.
  9
$ELEVATION
 40
0.0
  9
$PELEVATION
 40
0.0
  9
$THICKNESS
 40
0.0
  9
$LIMCHECK
 70
     0
  9
$CHAMFERA
 40
0.5
  9
$CHAMFERB
 40
0.5
  9
$CHAMFERC
 40
1.0
  9
$CHAMFERD
 40
0.0
  9
$SKPOLY
 70
     0
  9
$TDCREATE
 40
2456449.463507569
  9
$TDUCREATE
 40
2456449.380174236
  9
$TDUPDATE
 40
2456449.463509236
  9
$TDUUPDATE
 40
2456449.380175903
  9
$TDINDWG
 40
0.0000000116
  9
$TDUSRTIMER
 40
0.0000000116
  9
$USRTIMER
 70
     1
  9
$ANGBASE
 50
0.0
  9
$ANGDIR
 70
     0
  9
$PDMODE
 70
     0
  9
$PDSIZE
 40
0.0
  9
$PLINEWID
 40
0.0
  9
$SPLFRAME
 70
     0
  9
$SPLINETYPE
 70
     6
  9
$SPLINESEGS
 70
     8
  9
$HANDSEED
  5
308
  9
$SURFTAB1
 70
     6
  9
$SURFTAB2
 70
     6
  9
$SURFTYPE
 70
     6
  9
$SURFU
 70
     6
  9
$SURFV
 70
     6
  9
$UCSBASE
  2

  9
$UCSNAME
  2

  9
$UCSORG
 10
0.0
 20
0.0
 30
0.0
  9
$UCSXDIR
 10
1.0
 20
0.0
 30
0.0
  9
$UCSYDIR
 10
0.0
 20
1.0
 30
0.0
  9
$UCSORTHOREF
  2

  9
$UCSORTHOVIEW
 70
     0
  9
$UCSORGTOP
 10
0.0
 20
0.0
 30
0.0
  9
$UCSORGBOTTOM
 10
0.0
 20
0.0
 30
0.0
  9
$UCSORGLEFT
 10
0.0
 20
0.0
 30
0.0
  9
$UCSORGRIGHT
 10
0.0
 20
0.0
 30
0.0
  9
$UCSORGFRONT
 10
0.0
 20
0.0
 30
0.0
  9
$UCSORGBACK
 10
0.0
 20
0.0
 30
0.0
  9
$PUCSBASE
  2

  9
$PUCSNAME
  2

  9
$PUCSORG
 10
0.0
 20
0.0
 30
0.0
  9
$PUCSXDIR
 10
1.0
 20
0.0
 30
0.0
  9
$PUCSYDIR
 10
0.0
 20
1.0
 30
0.0
  9
$PUCSORTHOREF
  2

  9
$PUCSORTHOVIEW
 70
     0
  9
$PUCSORGTOP
 10
0.0
 20
0.0
 30
0.0
  9
$PUCSORGBOTTOM
 10
0.0
 20
0.0
 30
0.0
  9
$PUCSORGLEFT
 10
0.0
 20
0.0
 30
0.0
  9
$PUCSORGRIGHT
 10
0.0
 20
0.0
 30
0.0
  9
$PUCSORGFRONT
 10
0.0
 20
0.0
 30
0.0
  9
$PUCSORGBACK
 10
0.0
 20
0.0
 30
0.0
  9
$USERI1
 70
     0
  9
$USERI2
 70
     0
  9
$USERI3
 70
     0
  9
$USERI4
 70
     0
  9
$USERI5
 70
     0
  9
$USERR1
 40
18.1
  9
$USERR2
 40
0.0
  9
$USERR3
 40
0.0
  9
$USERR4
 40
0.0
  9
$USERR5
 40
0.0
  9
$WORLDVIEW
 70
     1
  9
$SHADEDGE
 70
     3
  9
$SHADEDIF
 70
    70
  9
$TILEMODE
 70
     1
  9
$MAXACTVP
 70
    64
  9
$PINSBASE
 10
0.0
 20
0.0
 30
0.0
  9
$PLIMCHECK
 70
     0
  9
$PEXTMIN
 10
1.00000000000000E+20
 20
1.00000000000000E+20
 30
1.00000000000000E+20
  9
$PEXTMAX
 10
-1.00000000000000E+20
 20
-1.00000000000000E+20
 30
-1.00000000000000E+20
  9
$PLIMMIN
 10
0.0
 20
0.0
  9
$PLIMMAX
 10
12.0
 20
9.0
  9
$UNITMODE
 70
     0
  9
$VISRETAIN
 70
     1
  9
$PLINEGEN
 70
     0
  9
$PSLTSCALE
 70
     1
  9
$TREEDEPTH
 70
  3020
  9
$CMLSTYLE
  2
Standard
  9
$CMLJUST
 70
     0
  9
$CMLSCALE
 40
1.0
  9
$PROXYGRAPHICS
 70
     1
  9
$MEASUREMENT
 70
     1
  9
$CELWEIGHT
370
    -1
  9
$ENDCAPS
280
     0
  9
$JOINSTYLE
280
     0
  9
$LWDISPLAY
290
     0
  9
$INSUNITS
 70
     4
  9
$HYPERLINKBASE
  1

  9
$STYLESHEET
  1

  9
$XEDIT
290
     1
  9
$CEPSNTYPE
380
     0
  9
$PSTYLEMODE
290
     1
  9
$FINGERPRINTGUID
  2
{22BB0EBA-7521-4216-8A55-9A2D6D557221}
  9
$VERSIONGUID
  2
{FAEB1C32-E019-11D5-929B-00C0DF256EC4}
  9
$EXTNAMES
290
     1
  9
$PSVPSCALE
 40
0.0
  9
$OLESTARTUP
290
     0
  0
ENDSEC
  0
SECTION
  2
CLASSES
  0
CLASS
  1
ACDBDICTIONARYWDFLT
  2
AcDbDictionaryWithDefault
  3
ObjectDBX Classes
 90
        0
280
     0
281
     0
  0
CLASS
  1
VISUALSTYLE
  2
AcDbVisualStyle
  3
ObjectDBX Classes
 90
     4095
280
     0
281
     0
  0
CLASS
  1
MATERIAL
  2
AcDbMaterial
  3
ObjectDBX Classes
 90
     1153
280
     0
281
     0
  0
CLASS
  1
DICTIONARYVAR
  2
AcDbDictionaryVar
  3
ObjectDBX Classes
 90
        0
280
     0
281
     0
  0
CLASS
  1
ACDBPLACEHOLDER
  2
AcDbPlaceHolder
  3
ObjectDBX Classes
 90
        0
280
     0
281
     0
  0
CLASS
  1
LAYOUT
  2
AcDbLayout
  3
ObjectDBX Classes
 90
        0
280
     0
281
     0
  0
ENDSEC
  0
SECTION
  2
TABLES
  0
TABLE
  2
VPORT
  5
8
330
0
100
AcDbSymbolTable
 70
     1
  0
VPORT
  5
29
330
8
100
AcDbSymbolTableRecord
100
AcDbViewportTableRecord
  2
*Active
 70
     0
 10
0.0
 20
0.0
 11
1.0
 21
1.0
 12
-1059.999999999995
 22
-1069.999999999995
 13
0.0
 23
0.0
 14
0.5
 24
0.5
 15
0.5
 25
0.5
 16
0.0
 26
0.0
 36
1.0
 17
0.0
 27
0.0
 37
0.0
 40
231.0000000000001
 41
1.60267857142857
 42
50.0
 43
0.0
 44
0.0
 50
0.0
 51
0.0
 71
     0
 72
   100
 73
     1
 74
     3
 75
     0
 76
     0
 77
     0
 78
     0
281
     0
 65
     1
110
0.0
120
0.0
130
0.0
111
1.0
121
0.0
131
0.0
112
0.0
122
1.0
132
0.0
 79
     0
146
0.0
  0
ENDTAB
  0
TABLE
  2
LTYPE
  5
5
330
0
100
AcDbSymbolTable
 70
     8
  0
LTYPE
  5
14
330
5
100
AcDbSymbolTableRecord
100
AcDbLinetypeTableRecord
  2
ByBlock
 70
     0
  3

 72
    65
 73
     0
 40
0.0
  0
LTYPE
  5
15
330
5
100
AcDbSymbolTableRecord
100
AcDbLinetypeTableRecord
  2
ByLayer
 70
     0
  3

 72
    65
 73
     0
 40
0.0
  0
LTYPE
  5
16
330
5
100
AcDbSymbolTableRecord
100
AcDbLinetypeTableRecord
  2
Continuous
 70
     0
  3
Solid line
 72
    65
 73
     0
 40
0.0
  0
LTYPE
  5
3F
330
5
100
AcDbSymbolTableRecord
100
AcDbLinetypeTableRecord
  2
DASHED
 70
     0
  3
Dashed
 72
    65
 73
     2
 40
15.0
 49
7.0
 74
     0
 49
-8.0
 74
     0
  0
LTYPE
  5
40
330
5
100
AcDbSymbolTableRecord
100
AcDbLinetypeTableRecord
  2
DOTTED
 70
     0
  3
Dotted
 72
    65
 73
     2
 40
1.0
 49
0.0
 74
     0
 49
-1.0
 74
     0
  0
LTYPE
  5
41
330
5
100
AcDbSymbolTableRecord
100
AcDbLinetypeTableRecord
  2
DOT_CENTER
 70
     0
  3
Dot_Center
 72
    65
 73
     4
 40
14.0
 49
12.0
 74
     0
 49
-1.0
 74
     0
 49
0.0
 74
     0
 49
-1.0
 74
     0
  0
LTYPE
  5
42
330
5
100
AcDbSymbolTableRecord
100
AcDbLinetypeTableRecord
  2
LONG_DASHED
 70
     0
  3
Long_Dashed
 72
    65
 73
     2
 40
15.0
 49
10.0
 74
     0
 49
-5.0
 74
     0
  0
LTYPE
  5
43
330
5
100
AcDbSymbolTableRecord
100
AcDbLinetypeTableRecord
  2
DASH_CENTER
 70
     0
  3
Dash_Center
 72
    65
 73
     4
 40
14.0
 49
11.0
 74
     0
 49
-1.0
 74
     0
 49
1.0
 74
     0
 49
-1.0
 74
     0
  0
LTYPE
  5
44
330
5
100
AcDbSymbolTableRecord
100
AcDbLinetypeTableRecord
  2
PHANTOM
 70
     0
  3
Phantom
 72
    65
 73
     6
 40
13.0
 49
10.0
 74
     0
 49
-1.0
 74
     0
 49
0.0
 74
     0
 49
-1.0
 74
     0
 49
0.0
 74
     0
 49
-1.0
 74
     0
  0
LTYPE
  5
45
330
5
100
AcDbSymbolTableRecord
100
AcDbLinetypeTableRecord
  2
CENTER_DASH_DASH
 70
     0
  3
Center_Dash_Dash
 72
    65
 73
     6
 40
14.0
 49
9.0
 74
     0
 49
-1.0
 74
     0
 49
1.0
 74
     0
 49
-1.0
 74
     0
 49
1.0
 74
     0
 49
-1.0
 74
     0
  0
ENDTAB
  0
TABLE
  2
LAYER
  5
2
330
0
100
AcDbSymbolTable
 70
     2
  0
LAYER
  5
10
330
2
100
AcDbSymbolTableRecord
100
AcDbLayerTableRecord
  2
0
 70
     0
 62
     7
  6
Continuous
370
    -3
390
F
  0
LAYER
  5
46
330
2
100
AcDbSymbolTableRecord
100
AcDbLayerTableRecord
  2
1
 70
     0
 62
     7
  6
Continuous
370
    -3
390
F
  0
ENDTAB
  0
TABLE
  2
STYLE
  5
3
330
0
100
AcDbSymbolTable
 70
     9
  0
STYLE
  5
11
330
3
100
AcDbSymbolTableRecord
100
AcDbTextStyleTableRecord
  2
Standard
 70
     0
 40
0.0
 41
1.0
 50
0.0
 71
     0
 42
0.2
  3
txt
  4

  0
STYLE
  5
8C
330
3
100
AcDbSymbolTableRecord
100
AcDbTextStyleTableRecord
  2
CONVERTER_11
 70
     0
 40
0.0
 41
0.9
 50
0.0
 71
     0
 42
0.2
  3
txt.shx
  4

  0
STYLE
  5
25B
330
3
100
AcDbSymbolTableRecord
100
AcDbTextStyleTableRecord
  2
CONVERTER_12
 70
     0
 40
0.0
 41
0.63
 50
0.0
 71
     0
 42
0.2
  3
txt.shx
  4

  0
STYLE
  5
25E
330
3
100
AcDbSymbolTableRecord
100
AcDbTextStyleTableRecord
  2
CONVERTER_13
 70
     0
 40
0.0
 41
0.72
 50
0.0
 71
     0
 42
0.2
  3
txt.shx
  4

  0
STYLE
  5
262
330
3
100
AcDbSymbolTableRecord
100
AcDbTextStyleTableRecord
  2
CONVERTER_14
 70
     0
 40
0.0
 41
0.765
 50
0.0
 71
     0
 42
0.2
  3
txt.shx
  4

  0
STYLE
  5
29A
330
3
100
AcDbSymbolTableRecord
100
AcDbTextStyleTableRecord
  2
CONVERTER_15
 70
     0
 40
0.0
 41
0.855
 50
0.0
 71
     0
 42
0.2
  3
txt.shx
  4

  0
STYLE
  5
2B6
330
3
100
AcDbSymbolTableRecord
100
AcDbTextStyleTableRecord
  2
CONVERTER_16
 70
     0
 40
0.0
 41
0.54
 50
0.0
 71
     0
 42
0.2
  3
txt.shx
  4

  0
STYLE
  5
2B8
330
3
100
AcDbSymbolTableRecord
100
AcDbTextStyleTableRecord
  2
CONVERTER_17
 70
     0
 40
0.0
 41
0.81
 50
0.0
 71
     0
 42
0.2
  3
txt.shx
  4

  0
STYLE
  5
2BF
330
3
100
AcDbSymbolTableRecord
100
AcDbTextStyleTableRecord
  2
CONVERTER_18
 70
     0
 40
0.0
 41
0.45
 50
0.0
 71
     0
 42
0.2
  3
txt.shx
  4

  0
ENDTAB
  0
TABLE
  2
VIEW
  5
6
330
0
100
AcDbSymbolTable
 70
     0
  0
ENDTAB
  0
TABLE
  2
UCS
  5
7
330
0
100
AcDbSymbolTable
 70
     0
  0
ENDTAB
  0
TABLE
  2
APPID
  5
9
330
0
100
AcDbSymbolTable
 70
     1
  0
APPID
  5
12
330
9
100
AcDbSymbolTableRecord
100
AcDbRegAppTableRecord
  2
ACAD
 70
     0
  0
ENDTAB
  0
TABLE
  2
DIMSTYLE
  5
A
330
0
100
AcDbSymbolTable
 70
     4
100
AcDbDimStyleTable
  0
DIMSTYLE
105
27
330
A
100
AcDbSymbolTableRecord
100
AcDbDimStyleTableRecord
  2
Standard
 70
     0
178
     0
340
11
  0
DIMSTYLE
105
A8
102
{ACAD_REACTORS
330
A9
102
}
330
A
100
AcDbSymbolTableRecord
100
AcDbDimStyleTableRecord
  2
ME10_DIM_10
 70
     0
 41
3.5
 42
0.0
 44
2.0
 73
     0
 74
     0
 77
     1
 78
     8
140
3.5
147
2.0
172
     1
173
     1
174
     1
175
     1
176
     2
177
     2
178
     3
340
8C
  0
DIMSTYLE
105
CF
102
{ACAD_REACTORS
330
D0
102
}
330
A
100
AcDbSymbolTableRecord
100
AcDbDimStyleTableRecord
  2
ME10_DIM_11
 70
     0
 41
3.5
 42
0.0
 44
2.0
 73
     0
 74
     0
 77
     1
 78
     8
140
3.5
147
2.0
172
     1
173
     1
174
     1
175
     1
176
     2
177
     2
178
     3
340
8C
  0
DIMSTYLE
105
DC
102
{ACAD_REACTORS
330
DD
102
}
330
A
100
AcDbSymbolTableRecord
100
AcDbDimStyleTableRecord
  2
ME10_DIM_12
 70
     0
 41
3.5
 42
0.0
 44
2.0
 73
     0
 74
     0
 77
     1
 78
     8
140
3.5
147
2.0
172
     1
173
     1
174
     1
175
     1
176
     2
177
     2
178
     3
340
8C
  0
ENDTAB
  0
TABLE
  2
BLOCK_RECORD
  5
1
330
0
100
AcDbSymbolTable
 70
    19
  0
BLOCK_RECORD
  5
1F
330
1
100
AcDbSymbolTableRecord
100
AcDbBlockTableRecord
  2
*Model_Space
340
22
  0
BLOCK_RECORD
  5
1B
330
1
100
AcDbSymbolTableRecord
100
AcDbBlockTableRecord
  2
*Paper_Space
340
1E
  0
BLOCK_RECORD
  5
23
330
1
100
AcDbSymbolTableRecord
100
AcDbBlockTableRecord
  2
*Paper_Space0
340
26
  0
BLOCK_RECORD
  5
47
330
1
100
AcDbSymbolTableRecord
100
AcDbBlockTableRecord
  2
0402174_NLS_CU_3_10_SN_1000MM_select__1
340
0
102
{BLKREFS
331
4B
102
}
  0
BLOCK_RECORD
  5
4A
330
1
100
AcDbSymbolTableRecord
100
AcDbBlockTableRecord
  2
AllgSicht1
340
0
102
{BLKREFS
331
7C
102
}
  0
BLOCK_RECORD
  5
4E
330
1
100
AcDbSymbolTableRecord
100
AcDbBlockTableRecord
  2
0402174_NLS_CU_3_10_SN_1000MM_select__2
340
0
102
{BLKREFS
331
52
102
}
  0
BLOCK_RECORD
  5
51
330
1
100
AcDbSymbolTableRecord
100
AcDbBlockTableRecord
  2
Drfsicht1
340
0
102
{BLKREFS
331
7D
102
}
  0
BLOCK_RECORD
  5
55
330
1
100
AcDbSymbolTableRecord
100
AcDbBlockTableRecord
  2
0402174_NLS_CU_3_10_SN_1000MM_select__3
340
0
102
{BLKREFS
331
59
102
}
  0
BLOCK_RECORD
  5
58
330
1
100
AcDbSymbolTableRecord
100
AcDbBlockTableRecord
  2
Rckans1
340
0
102
{BLKREFS
331
7E
102
}
  0
BLOCK_RECORD
  5
5C
330
1
100
AcDbSymbolTableRecord
100
AcDbBlockTableRecord
  2
0402174_NLS_CU_3_10_SN_1000MM_select__4
340
0
102
{BLKREFS
331
60
102
}
  0
BLOCK_RECORD
  5
5F
330
1
100
AcDbSymbolTableRecord
100
AcDbBlockTableRecord
  2
SA_Links1
340
0
102
{BLKREFS
331
7F
102
}
  0
BLOCK_RECORD
  5
63
330
1
100
AcDbSymbolTableRecord
100
AcDbBlockTableRecord
  2
0402174_NLS_CU_3_10_SN_1000MM_select__5
340
0
102
{BLKREFS
331
67
102
}
  0
BLOCK_RECORD
  5
66
330
1
100
AcDbSymbolTableRecord
100
AcDbBlockTableRecord
  2
SA_Rechts1
340
0
102
{BLKREFS
331
80
102
}
  0
BLOCK_RECORD
  5
6A
330
1
100
AcDbSymbolTableRecord
100
AcDbBlockTableRecord
  2
0402174_NLS_CU_3_10_SN_1000MM_select__6
340
0
102
{BLKREFS
331
6E
102
}
  0
BLOCK_RECORD
  5
6D
330
1
100
AcDbSymbolTableRecord
100
AcDbBlockTableRecord
  2
Vordans1
340
0
102
{BLKREFS
331
81
102
}
  0
BLOCK_RECORD
  5
71
330
1
100
AcDbSymbolTableRecord
100
AcDbBlockTableRecord
  2
_punkt
340
0
102
{BLKREFS
331
78
102
}
  0
BLOCK_RECORD
  5
74
330
1
100
AcDbSymbolTableRecord
100
AcDbBlockTableRecord
  2
_rahmen
340
0
102
{BLKREFS
331
79
102
}
  0
BLOCK_RECORD
  5
77
330
1
100
AcDbSymbolTableRecord
100
AcDbBlockTableRecord
  2
A4I
340
0
102
{BLKREFS
331
82
102
}
  0
BLOCK_RECORD
  5
9F
330
1
100
AcDbSymbolTableRecord
100
AcDbBlockTableRecord
  2
*D16
340
0
  0
BLOCK_RECORD
  5
C6
330
1
100
AcDbSymbolTableRecord
100
AcDbBlockTableRecord
  2
*D17
340
0
  0
BLOCK_RECORD
  5
D1
330
1
100
AcDbSymbolTableRecord
100
AcDbBlockTableRecord
  2
*D18
340
0
  0
ENDTAB
  0
ENDSEC
  0
SECTION
  2
BLOCKS
  0
BLOCK
  5
20
330
1F
100
AcDbEntity
  8
0
100
AcDbBlockBegin
  2
*Model_Space
 70
     0
 10
0.0
 20
0.0
 30
0.0
  3
*Model_Space
  1

  0
ENDBLK
  5
21
330
1F
100
AcDbEntity
  8
0
100
AcDbBlockEnd
  0
BLOCK
  5
1C
330
1B
100
AcDbEntity
 67
     1
  8
0
100
AcDbBlockBegin
  2
*Paper_Space
 70
     0
 10
0.0
 20
0.0
 30
0.0
  3
*Paper_Space
  1

  0
ENDBLK
  5
1D
330
1B
100
AcDbEntity
 67
     1
  8
0
100
AcDbBlockEnd
  0
BLOCK
  5
24
330
23
100
AcDbEntity
  8
0
100
AcDbBlockBegin
  2
*Paper_Space0
 70
     0
 10
0.0
 20
0.0
 30
0.0
  3
*Paper_Space0
  1

  0
ENDBLK
  5
25
330
23
100
AcDbEntity
  8
0
100
AcDbBlockEnd
  0
BLOCK
  5
48
330
47
100
AcDbEntity
  8
0
100
AcDbBlockBegin
  2
0402174_NLS_CU_3_10_SN_1000MM_select__1
 70
     0
 10
-980.3301270189197
 20
-1124.199673200285
 30
0.0
  3
0402174_NLS_CU_3_10_SN_1000MM_select__1
  1

  0
LINE
  5
83
330
47
100
AcDbEntity
  8
0
  6
Continuous
 62
     7
100
AcDbLine
 10
-971.6698729810753
 20
-1121.601596988932
 30
0.0
 11
-921.6698729810753
 21
-1078.30032679971
 31
0.0
  0
LINE
  5
84
330
47
100
AcDbEntity
  8
0
  6
Continuous
 62
     7
100
AcDbLine
 10
-980.3301270189197
 20
-1119.101596988932
 30
0.0
 11
-930.3301270189197
 21
-1075.80032679971
 31
0.0
  0
LINE
  5
85
330
47
100
AcDbEntity
  8
0
  6
Continuous
 62
     7
100
AcDbLine
 10
-980.3301270189197
 20
-1119.101596988932
 30
0.0
 11
-971.6698729810753
 21
-1121.601596988932
 31
0.0
  0
LINE
  5
86
330
47
100
AcDbEntity
  8
0
  6
Continuous
 62
     7
100
AcDbLine
 10
-980.3301270189197
 20
-1119.101596988932
 30
0.0
 11
-980.3301270189197
 21
-1121.699673200285
 31
0.0
  0
LINE
  5
87
330
47
100
AcDbEntity
  8
0
  6
Continuous
 62
     7
100
AcDbLine
 10
-930.3301270189197
 20
-1075.80032679971
 30
0.0
 11
-921.6698729810753
 21
-1078.30032679971
 31
0.0
  0
LINE
  5
88
330
47
100
AcDbEntity
  8
0
  6
Continuous
 62
     7
100
AcDbLine
 10
-921.6698729810753
 20
-1078.30032679971
 30
0.0
 11
-921.6698729810753
 21
-1080.898403011064
 31
0.0
  0
LINE
  5
89
330
47
100
AcDbEntity
  8
0
  6
Continuous
 62
     7
100
AcDbLine
 10
-980.3301270189197
 20
-1121.699673200285
 30
0.0
 11
-971.6698729810753
 21
-1124.199673200285
 31
0.0
  0
LINE
  5
8A
330
47
100
AcDbEntity
  8
0
  6
Continuous
 62
     7
100
AcDbLine
 10
-971.6698729810753
 20
-1124.199673200285
 30
0.0
 11
-921.6698729810753
 21
-1080.898403011064
 31
0.0
  0
LINE
  5
8B
330
47
100
AcDbEntity
  8
0
  6
Continuous
 62
     7
100
AcDbLine
 10
-971.6698729810753
 20
-1121.601596988932
 30
0.0
 11
-971.6698729810753
 21
-1124.199673200285
 31
0.0
  0
ENDBLK
  5
49
330
47
100
AcDbEntity
  8
0
100
AcDbBlockEnd
  0
BLOCK
  5
4C
330
4A
100
AcDbEntity
  8
0
100
AcDbBlockBegin
  2
AllgSicht1
 70
     0
 10
-951.0
 20
-1100.0
 30
0.0
  3
AllgSicht1
  1

  0
INSERT
  5
4B
330
4A
100
AcDbEntity
  8
0
100
AcDbBlockReference
  2
0402174_NLS_CU_3_10_SN_1000MM_select__1
 10
-980.3301270189197
 20
-1124.199673200285
 30
0.0
  0
MTEXT
  5
8D
330
4A
100
AcDbEntity
  8
1
 62
     6
100
AcDbMText
 10
-951.0
 20
-1129.199673200288
 30
0.0
 40
5.0
 41
0.0
 71
     2
 72
     1
  1
 
  7
CONVERTER_11
 73
     1
 44
1.32052821128451
  0
ENDBLK
  5
4D
330
4A
100
AcDbEntity
  8
0
100
AcDbBlockEnd
  0
BLOCK
  5
4F
330
4E
100
AcDbEntity
  8
0
100
AcDbBlockBegin
  2
0402174_NLS_CU_3_10_SN_1000MM_select__2
 70
     0
 10
-1098.0
 20
-1130.499999999985
 30
0.0
  3
0402174_NLS_CU_3_10_SN_1000MM_select__2
  1

  0
LINE
  5
8E
330
4E
100
AcDbEntity
  8
0
  6
Continuous
 62
     2
100
AcDbLine
 10
-1097.5
 20
-1085.891930999985
 30
0.0
 11
-1094.5
 21
-1087.891930999985
 31
0.0
  0
LINE
  5
8F
330
4E
100
AcDbEntity
  8
0
  6
Continuous
 62
     7
100
AcDbLine
 10
-1098.0
 20
-1130.499999999985
 30
0.0
 11
-1088.0
 21
-1130.499999999985
 31
0.0
  0
LINE
  5
90
330
4E
100
AcDbEntity
  8
0
  6
Continuous
 62
     7
100
AcDbLine
 10
-1088.0
 20
-1081.558597666652
 30
0.0
 11
-1088.0
 21
-1048.499999999985
 31
0.0
  0
LINE
  5
91
330
4E
100
AcDbEntity
  8
0
  6
Continuous
 62
     7
100
AcDbLine
 10
-1088.0
 20
-1130.499999999985
 30
0.0
 11
-1088.0
 21
-1087.558597666652
 31
0.0
  0
LINE
  5
92
330
4E
100
AcDbEntity
  8
0
  6
Continuous
 62
     2
100
AcDbLine
 10
-1091.5
 20
-1085.891930999985
 30
0.0
 11
-1088.5
 21
-1087.891930999985
 31
0.0
  0
LINE
  5
93
330
4E
100
AcDbEntity
  8
0
  6
Continuous
 62
     2
100
AcDbLine
 10
-1088.5
 20
-1087.891930999985
 30
0.0
 11
-1088.0
 21
-1087.558597666652
 31
0.0
  0
LINE
  5
94
330
4E
100
AcDbEntity
  8
0
  6
Continuous
 62
     2
100
AcDbLine
 10
-1094.5
 20
-1087.891930999985
 30
0.0
 11
-1091.5
 21
-1085.891930999985
 31
0.0
  0
LINE
  5
95
330
4E
100
AcDbEntity
  8
0
  6
Continuous
 62
     2
100
AcDbLine
 10
-1098.0
 20
-1086.225264333318
 30
0.0
 11
-1097.5
 21
-1085.891930999985
 31
0.0
  0
LINE
  5
96
330
4E
100
AcDbEntity
  8
0
  6
Continuous
 62
     7
100
AcDbLine
 10
-1098.0
 20
-1130.499999999985
 30
0.0
 11
-1098.0
 21
-1086.225264333318
 31
0.0
  0
LINE
  5
97
330
4E
100
AcDbEntity
  8
0
  6
Continuous
 62
     2
100
AcDbLine
 10
-1094.5
 20
-1081.891930999985
 30
0.0
 11
-1097.5
 21
-1079.891930999985
 31
0.0
  0
LINE
  5
98
330
4E
100
AcDbEntity
  8
0
  6
Continuous
 62
     2
100
AcDbLine
 10
-1091.5
 20
-1079.891930999985
 30
0.0
 11
-1094.5
 21
-1081.891930999985
 31
0.0
  0
LINE
  5
99
330
4E
100
AcDbEntity
  8
0
  6
Continuous
 62
     2
100
AcDbLine
 10
-1088.5
 20
-1081.891930999985
 30
0.0
 11
-1091.5
 21
-1079.891930999985
 31
0.0
  0
LINE
  5
9A
330
4E
100
AcDbEntity
  8
0
  6
Continuous
 62
     2
100
AcDbLine
 10
-1097.5
 20
-1079.891930999985
 30
0.0
 11
-1098.0
 21
-1080.225264333318
 31
0.0
  0
LINE
  5
9B
330
4E
100
AcDbEntity
  8
0
  6
Continuous
 62
     2
100
AcDbLine
 10
-1088.0
 20
-1081.558597666652
 30
0.0
 11
-1088.5
 21
-1081.891930999985
 31
0.0
  0
LINE
  5
9C
330
4E
100
AcDbEntity
  8
0
  6
Continuous
 62
     7
100
AcDbLine
 10
-1098.0
 20
-1048.499999999985
 30
0.0
 11
-1088.0
 21
-1048.499999999985
 31
0.0
  0
LINE
  5
9D
330
4E
100
AcDbEntity
  8
0
  6
Continuous
 62
     7
100
AcDbLine
 10
-1098.0
 20
-1080.225264333318
 30
0.0
 11
-1098.0
 21
-1048.499999999985
 31
0.0
  0
ENDBLK
  5
50
330
4E
100
AcDbEntity
  8
0
100
AcDbBlockEnd
  0
BLOCK
  5
53
330
51
100
AcDbEntity
  8
0
100
AcDbBlockBegin
  2
Drfsicht1
 70
     0
 10
-1093.0
 20
-1080.49999999999
 30
0.0
  3
Drfsicht1
  1

  0
INSERT
  5
52
330
51
100
AcDbEntity
  8
0
100
AcDbBlockReference
  2
0402174_NLS_CU_3_10_SN_1000MM_select__2
 10
-1098.0
 20
-1130.499999999985
 30
0.0
  0
MTEXT
  5
9E
330
51
100
AcDbEntity
  8
1
 62
     6
100
AcDbMText
 10
-1085.272905311775
 20
-1135.499999999985
 30
0.0
 40
5.0
 41
0.0
 71
     2
 72
     1
  1
 
  7
CONVERTER_11
 73
     1
 44
1.32052821128451
  0
DIMENSION
  5
A9
330
51
100
AcDbEntity
  8
1
100
AcDbDimension
  2
*D16
 10
-1074.54581062355
 20
-1048.499999999985
 30
0.0
 11
-1078.29581062355
 21
-1085.315003633156
 31
0.0
 70
    33
  1
1000
 71
     5
 42
-1.0
 53
90.0
  3
ME10_DIM_10
100
AcDbAlignedDimension
 13
-1088.0
 23
-1130.499999999985
 33
0.0
 14
-1088.0
 24
-1048.499999999985
 34
0.0
  0
ENDBLK
  5
54
330
51
100
AcDbEntity
  8
0
100
AcDbBlockEnd
  0
BLOCK
  5
56
330
55
100
AcDbEntity
  8
0
100
AcDbBlockBegin
  2
0402174_NLS_CU_3_10_SN_1000MM_select__3
 70
     0
 10
-945.0
 20
-1014.5
 30
0.0
  3
0402174_NLS_CU_3_10_SN_1000MM_select__3
  1

  0
LINE
  5
AA
330
55
100
AcDbEntity
  8
0
  6
Continuous
 62
     7
100
AcDbLine
 10
-935.0
 20
-1014.5
 30
0.0
 11
-945.0
 21
-1014.5
 31
0.0
  0
LINE
  5
AB
330
55
100
AcDbEntity
  8
0
  6
Continuous
 62
     7
100
AcDbLine
 10
-945.0
 20
-1011.5
 30
0.0
 11
-945.0
 21
-1014.5
 31
0.0
  0
LINE
  5
AC
330
55
100
AcDbEntity
  8
0
  6
Continuous
 62
     7
100
AcDbLine
 10
-935.0
 20
-1011.5
 30
0.0
 11
-935.0
 21
-1014.5
 31
0.0
  0
LINE
  5
AD
330
55
100
AcDbEntity
  8
0
  6
Continuous
 62
     7
100
AcDbLine
 10
-935.0
 20
-1011.5
 30
0.0
 11
-945.0
 21
-1011.5
 31
0.0
  0
ENDBLK
  5
57
330
55
100
AcDbEntity
  8
0
100
AcDbBlockEnd
  0
BLOCK
  5
5A
330
58
100
AcDbEntity
  8
0
100
AcDbBlockBegin
  2
Rckans1
 70
     0
 10
-940.0
 20
-1013.0
 30
0.0
  3
Rckans1
  1

  0
INSERT
  5
59
330
58
100
AcDbEntity
  8
0
100
AcDbBlockReference
  2
0402174_NLS_CU_3_10_SN_1000MM_select__3
 10
-945.0
 20
-1014.5
 30
0.0
  0
MTEXT
  5
AE
330
58
100
AcDbEntity
  8
1
 62
     6
100
AcDbMText
 10
-940.0
 20
-1019.5
 30
0.0
 40
5.0
 41
0.0
 71
     2
 72
     1
  1
 
  7
CONVERTER_11
 73
     1
 44
1.32052821128451
  0
ENDBLK
  5
5B
330
58
100
AcDbEntity
  8
0
100
AcDbBlockEnd
  0
BLOCK
  5
5D
330
5C
100
AcDbEntity
  8
0
100
AcDbBlockBegin
  2
0402174_NLS_CU_3_10_SN_1000MM_select__4
 70
     0
 10
-1048.50000000001
 20
-1014.5
 30
0.0
  3
0402174_NLS_CU_3_10_SN_1000MM_select__4
  1

  0
LINE
  5
AF
330
5C
100
AcDbEntity
  8
0
  6
Continuous
 62
     2
100
AcDbLine
 10
-1005.66851700001
 20
-1011.5
 30
0.0
 11
-1007.66851700001
 21
-1014.5
 31
0.0
  0
LINE
  5
B0
330
5C
100
AcDbEntity
  8
0
  6
Continuous
 62
     7
100
AcDbLine
 10
-1005.66851700001
 20
-1011.5
 30
0.0
 11
-1048.50000000001
 21
-1011.5
 31
0.0
  0
LINE
  5
B1
330
5C
100
AcDbEntity
  8
0
  6
Continuous
 62
     7
100
AcDbLine
 10
-1048.50000000001
 20
-1011.5
 30
0.0
 11
-1048.50000000001
 21
-1014.5
 31
0.0
  0
LINE
  5
B2
330
5C
100
AcDbEntity
  8
0
  6
Continuous
 62
     7
100
AcDbLine
 10
-1007.66851700001
 20
-1014.5
 30
0.0
 11
-1048.50000000001
 21
-1014.5
 31
0.0
  0
LINE
  5
B3
330
5C
100
AcDbEntity
  8
0
  6
Continuous
 62
     7
100
AcDbLine
 10
-969.50000000001
 20
-1011.5
 30
0.0
 11
-969.50000000001
 21
-1014.5
 31
0.0
  0
LINE
  5
B4
330
5C
100
AcDbEntity
  8
0
  6
Continuous
 62
     7
100
AcDbLine
 10
-969.50000000001
 20
-1011.5
 30
0.0
 11
-999.66851700001
 21
-1011.5
 31
0.0
  0
LINE
  5
B5
330
5C
100
AcDbEntity
  8
0
  6
Continuous
 62
     2
100
AcDbLine
 10
-1001.66851700001
 20
-1014.5
 30
0.0
 11
-999.66851700001
 21
-1011.5
 31
0.0
  0
LINE
  5
B6
330
5C
100
AcDbEntity
  8
0
  6
Continuous
 62
     7
100
AcDbLine
 10
-969.50000000001
 20
-1014.5
 30
0.0
 11
-1001.66851700001
 21
-1014.5
 31
0.0
  0
ENDBLK
  5
5E
330
5C
100
AcDbEntity
  8
0
100
AcDbBlockEnd
  0
BLOCK
  5
61
330
5F
100
AcDbEntity
  8
0
100
AcDbBlockBegin
  2
SA_Links1
 70
     0
 10
-998.500000000005
 20
-1013.0
 30
0.0
  3
SA_Links1
  1

  0
INSERT
  5
60
330
5F
100
AcDbEntity
  8
0
100
AcDbBlockReference
  2
0402174_NLS_CU_3_10_SN_1000MM_select__4
 10
-1048.50000000001
 20
-1014.5
 30
0.0
  0
MTEXT
  5
B7
330
5F
100
AcDbEntity
  8
1
 62
     6
100
AcDbMText
 10
-1009.00000000001
 20
-1019.5
 30
0.0
 40
5.0
 41
0.0
 71
     2
 72
     1
  1
 
  7
CONVERTER_11
 73
     1
 44
1.32052821128451
  0
ENDBLK
  5
62
330
5F
100
AcDbEntity
  8
0
100
AcDbBlockEnd
  0
BLOCK
  5
64
330
63
100
AcDbEntity
  8
0
100
AcDbBlockBegin
  2
0402174_NLS_CU_3_10_SN_1000MM_select__5
 70
     0
 10
-1199.999999999985
 20
-1014.5
 30
0.0
  3
0402174_NLS_CU_3_10_SN_1000MM_select__5
  1

  0
LINE
  5
B8
330
63
100
AcDbEntity
  8
0
  6
Continuous
 62
     2
100
AcDbLine
 10
-1167.831482999985
 20
-1011.5
 30
0.0
 11
-1169.831482999985
 21
-1014.5
 31
0.0
  0
LINE
  5
B9
330
63
100
AcDbEntity
  8
0
  6
Continuous
 62
     7
100
AcDbLine
 10
-1199.999999999985
 20
-1011.5
 30
0.0
 11
-1199.999999999985
 21
-1014.5
 31
0.0
  0
LINE
  5
BA
330
63
100
AcDbEntity
  8
0
  6
Continuous
 62
     7
100
AcDbLine
 10
-1199.999999999985
 20
-1014.5
 30
0.0
 11
-1169.831482999985
 21
-1014.5
 31
0.0
  0
LINE
  5
BB
330
63
100
AcDbEntity
  8
0
  6
Continuous
 62
     7
100
AcDbLine
 10
-1199.999999999985
 20
-1011.5
 30
0.0
 11
-1167.831482999985
 21
-1011.5
 31
0.0
  0
LINE
  5
BC
330
63
100
AcDbEntity
  8
0
  6
Continuous
 62
     2
100
AcDbLine
 10
-1163.831482999985
 20
-1014.5
 30
0.0
 11
-1161.831482999985
 21
-1011.5
 31
0.0
  0
LINE
  5
BD
330
63
100
AcDbEntity
  8
0
  6
Continuous
 62
     7
100
AcDbLine
 10
-1163.831482999985
 20
-1014.5
 30
0.0
 11
-1120.999999999985
 21
-1014.5
 31
0.0
  0
LINE
  5
BE
330
63
100
AcDbEntity
  8
0
  6
Continuous
 62
     7
100
AcDbLine
 10
-1120.999999999985
 20
-1011.5
 30
0.0
 11
-1120.999999999985
 21
-1014.5
 31
0.0
  0
LINE
  5
BF
330
63
100
AcDbEntity
  8
0
  6
Continuous
 62
     7
100
AcDbLine
 10
-1161.831482999985
 20
-1011.5
 30
0.0
 11
-1120.999999999985
 21
-1011.5
 31
0.0
  0
ENDBLK
  5
65
330
63
100
AcDbEntity
  8
0
100
AcDbBlockEnd
  0
BLOCK
  5
68
330
66
100
AcDbEntity
  8
0
100
AcDbBlockBegin
  2
SA_Rechts1
 70
     0
 10
-1149.99999999999
 20
-1013.0
 30
0.0
  3
SA_Rechts1
  1

  0
INSERT
  5
67
330
66
100
AcDbEntity
  8
0
100
AcDbBlockReference
  2
0402174_NLS_CU_3_10_SN_1000MM_select__5
 10
-1199.999999999985
 20
-1014.5
 30
0.0
  0
MTEXT
  5
C0
330
66
100
AcDbEntity
  8
1
 62
     6
100
AcDbMText
 10
-1160.499999999985
 20
-1019.5
 30
0.0
 40
5.0
 41
0.0
 71
     2
 72
     1
  1
 
  7
CONVERTER_11
 73
     1
 44
1.32052821128451
  0
ENDBLK
  5
69
330
66
100
AcDbEntity
  8
0
100
AcDbBlockEnd
  0
BLOCK
  5
6B
330
6A
100
AcDbEntity
  8
0
100
AcDbBlockBegin
  2
0402174_NLS_CU_3_10_SN_1000MM_select__6
 70
     0
 10
-1098.0
 20
-1014.5
 30
0.0
  3
0402174_NLS_CU_3_10_SN_1000MM_select__6
  1

  0
LINE
  5
C1
330
6A
100
AcDbEntity
  8
0
  6
Continuous
 62
     7
100
AcDbLine
 10
-1098.0
 20
-1011.5
 30
0.0
 11
-1088.0
 21
-1011.5
 31
0.0
  0
LINE
  5
C2
330
6A
100
AcDbEntity
  8
0
  6
Continuous
 62
     7
100
AcDbLine
 10
-1098.0
 20
-1011.5
 30
0.0
 11
-1098.0
 21
-1014.5
 31
0.0
  0
LINE
  5
C3
330
6A
100
AcDbEntity
  8
0
  6
Continuous
 62
     7
100
AcDbLine
 10
-1098.0
 20
-1014.5
 30
0.0
 11
-1088.0
 21
-1014.5
 31
0.0
  0
LINE
  5
C4
330
6A
100
AcDbEntity
  8
0
  6
Continuous
 62
     7
100
AcDbLine
 10
-1088.0
 20
-1011.5
 30
0.0
 11
-1088.0
 21
-1014.5
 31
0.0
  0
ENDBLK
  5
6C
330
6A
100
AcDbEntity
  8
0
100
AcDbBlockEnd
  0
BLOCK
  5
6F
330
6D
100
AcDbEntity
  8
0
100
AcDbBlockBegin
  2
Vordans1
 70
     0
 10
-1093.0
 20
-1013.0
 30
0.0
  3
Vordans1
  1

  0
INSERT
  5
6E
330
6D
100
AcDbEntity
  8
0
100
AcDbBlockReference
  2
0402174_NLS_CU_3_10_SN_1000MM_select__6
 10
-1098.0
 20
-1014.5
 30
0.0
  0
MTEXT
  5
C5
330
6D
100
AcDbEntity
  8
1
 62
     6
100
AcDbMText
 10
-1093.0
 20
-1019.5
 30
0.0
 40
5.0
 41
0.0
 71
     2
 72
     1
  1
 
  7
CONVERTER_11
 73
     1
 44
1.32052821128451
  0
DIMENSION
  5
D0
330
6D
100
AcDbEntity
  8
1
100
AcDbDimension
  2
*D17
 10
-1088.0
 20
-1026.16126004177
 30
0.0
 11
-1093.0
 21
-1022.41126004177
 31
0.0
 70
    33
  1
<>
 71
     5
 42
-1.0
 53
0.00013888888889
  3
ME10_DIM_11
100
AcDbAlignedDimension
 13
-1098.0
 23
-1014.5
 33
0.0
 14
-1088.0
 24
-1014.5
 34
0.0
  0
DIMENSION
  5
DD
330
6D
100
AcDbEntity
  8
1
100
AcDbDimension
  2
*D18
 10
-1074.54581062355
 20
-1011.5
 30
0.0
 11
-1078.29581062355
 21
-1005.17919994059
 31
0.0
 70
    33
  1
<>
 71
     5
 42
-1.0
 53
90.0
  3
ME10_DIM_12
100
AcDbAlignedDimension
 13
-1088.0
 23
-1014.5
 33
0.0
 14
-1088.0
 24
-1011.5
 34
0.0
  0
ENDBLK
  5
70
330
6D
100
AcDbEntity
  8
0
100
AcDbBlockEnd
  0
BLOCK
  5
72
330
71
100
AcDbEntity
  8
0
100
AcDbBlockBegin
  2
_punkt
 70
     0
 10
-916.499999999995
 20
-1169.999999999995
 30
0.0
  3
_punkt
  1

  0
LINE
  5
DE
330
71
100
AcDbEntity
  8
1
  6
Continuous
 62
     2
100
AcDbLine
 10
-916.499999999995
 20
-1169.999999999995
 30
0.0
 11
-916.499999999995
 21
-1174.999999999995
 31
0.0
  0
LINE
  5
DF
330
71
100
AcDbEntity
  8
1
  6
Continuous
 62
     2
100
AcDbLine
 10
-916.499999999995
 20
-1169.999999999995
 30
0.0
 11
-911.4999999999959
 21
-1169.999999999995
 31
0.0
  0
ENDBLK
  5
73
330
71
100
AcDbEntity
  8
0
100
AcDbBlockEnd
  0
BLOCK
  5
75
330
74
100
AcDbEntity
  8
0
100
AcDbBlockBegin
  2
_rahmen
 70
     0
 10
-916.499999999995
 20
-1174.999999999995
 30
0.0
  3
_rahmen
  1

  0
POINT
  5
E0
330
74
100
AcDbEntity
  8
1
 62
     3
 60
     1
100
AcDbPoint
 10
-979.9999999999926
 20
-1148.749999999995
 30
0.0
  0
LINE
  5
E1
102
{ACAD_REACTORS
330
2C3
330
2C4
102
}
330
74
100
AcDbEntity
  8
0
  6
Continuous
 62
     2
100
AcDbLine
 10
-1031.557673169912
 20
-1162.491496598628
 30
0.0
 11
-1031.557673169912
 21
-1161.770408163253
 31
0.0
  0
LINE
  5
E2
102
{ACAD_REACTORS
330
2C3
330
2C4
102
}
330
74
100
AcDbEntity
  8
0
  6
Continuous
 62
     2
100
AcDbLine
 10
-1031.557673169912
 20
-1163.284693877539
 30
0.0
 11
-1031.557673169912
 21
-1164.005782312914
 31
0.0
  0
LINE
  5
E3
102
{ACAD_REACTORS
330
2C5
330
2C6
102
}
330
74
100
AcDbEntity
  8
0
  6
Continuous
 62
     2
100
AcDbLine
 10
-1018.885735867193
 20
-1162.275170068016
 30
0.0
 11
-1017.973637272509
 21
-1162.275170068016
 31
0.0
  0
LINE
  5
E4
102
{ACAD_REACTORS
330
2C5
330
2C6
102
}
330
74
100
AcDbEntity
  8
0
  6
Continuous
 62
     2
100
AcDbLine
 10
-1018.249655418465
 20
-1163.28469387754
 30
0.0
 11
-1018.249655418465
 21
-1164.005782312914
 31
0.0
  0
LINE
  5
E5
102
{ACAD_REACTORS
330
2CF
330
2D0
102
}
330
74
100
AcDbEntity
  8
0
  6
Continuous
 62
     2
100
AcDbLine
 10
-1019.787470803076
 20
-1161.373809523812
 30
0.0
 11
-1018.632137706431
 21
-1160.067314487634
 31
0.0
  0
LINE
  5
E6
102
{ACAD_REACTORS
330
2CF
330
2D0
102
}
330
74
100
AcDbEntity
  8
0
  6
Continuous
 62
     2
100
AcDbLine
 10
-1019.70860847566
 20
-1158.850000000001
 30
0.0
 11
-1018.632137706431
 21
-1160.067314487634
 31
0.0
  0
LINE
  5
E7
102
{ACAD_REACTORS
330
2CF
330
2D0
102
}
330
74
100
AcDbEntity
  8
0
  6
Continuous
 62
     2
100
AcDbLine
 10
-1017.555666937203
 20
-1158.850000000001
 30
0.0
 11
-1016.396390724188
 21
-1158.850000000001
 31
0.0
  0
LINE
  5
E8
102
{ACAD_REACTORS
330
2CF
330
2D0
102
}
330
74
100
AcDbEntity
  8
0
  6
Continuous
 62
     2
100
AcDbLine
 10
-1018.628194590061
 20
-1161.373809523812
 30
0.0
 11
-1018.052499599924
 21
-1160.722791519437
 31
0.0
  0
LINE
  5
E9
102
{ACAD_REACTORS
330
2CF
330
2D0
102
}
330
74
100
AcDbEntity
  8
0
  6
Continuous
 62
     2
100
AcDbLine
 10
-1018.628194590061
 20
-1161.373809523812
 30
0.0
 11
-1019.787470803076
 21
-1161.373809523812
 31
0.0
  0
LINE
  5
EA
102
{ACAD_REACTORS
330
2D1
330
2D2
102
}
330
74
100
AcDbEntity
  8
0
  6
Continuous
 62
     2
100
AcDbLine
 10
-1019.886048712346
 20
-1161.373809523812
 30
0.0
 11
-1020.911258968754
 21
-1161.373809523812
 31
0.0
  0
LINE
  5
EB
102
{ACAD_REACTORS
330
2D3
330
2D4
102
}
330
74
100
AcDbEntity
  8
0
  6
Continuous
 62
     2
100
AcDbLine
 10
-1021.62859748789
 20
-1163.140476190465
 30
0.0
 11
-1021.876667931849
 21
-1162.505918367335
 31
0.0
  0
LINE
  5
EC
102
{ACAD_REACTORS
330
2D3
330
2D4
102
}
330
74
100
AcDbEntity
  8
0
  6
Continuous
 62
     2
100
AcDbLine
 10
-1022.124738375809
 20
-1163.140476190465
 30
0.0
 11
-1021.62859748789
 21
-1163.140476190465
 31
0.0
  0
LINE
  5
ED
102
{ACAD_REACTORS
330
2D3
330
2D4
102
}
330
74
100
AcDbEntity
  8
0
  6
Continuous
 62
     2
100
AcDbLine
 10
-1023.544606156697
 20
-1164.149999999989
 30
0.0
 11
-1022.519395900289
 21
-1164.149999999989
 31
0.0
  0
LINE
  5
EE
102
{ACAD_REACTORS
330
2D3
330
2D4
102
}
330
74
100
AcDbEntity
  8
0
  6
Continuous
 62
     2
100
AcDbLine
 10
-1022.389273060053
 20
-1161.626190476178
 30
0.0
 11
-1021.364062803646
 21
-1161.626190476178
 31
0.0
  0
LINE
  5
EF
102
{ACAD_REACTORS
330
2D3
330
2D4
102
}
330
74
100
AcDbEntity
  8
0
  6
Continuous
 62
     2
100
AcDbLine
 10
-1021.364062803646
 20
-1161.626190476178
 30
0.0
 11
-1020.208729707001
 21
-1164.149999999989
 31
0.0
  0
LINE
  5
F0
102
{ACAD_REACTORS
330
2D3
330
2D4
102
}
330
74
100
AcDbEntity
  8
0
  6
Continuous
 62
     2
100
AcDbLine
 10
-1021.233939963409
 20
-1164.149999999989
 30
0.0
 11
-1021.408716867108
 21
-1163.702925170057
 31
0.0
  0
LINE
  5
F1
102
{ACAD_REACTORS
330
2D5
330
2D6
102
}
330
74
100
AcDbEntity
  8
0
  6
Continuous
 62
     2
100
AcDbLine
 10
-1024.657344257282
 20
-1164.149999999989
 30
0.0
 11
-1023.671565164582
 21
-1164.149999999989
 31
0.0
  0
LINE
  5
F2
102
{ACAD_REACTORS
330
2D5
330
2D6
102
}
330
74
100
AcDbEntity
  8
0
  6
Continuous
 62
     2
100
AcDbLine
 10
-1024.657344257282
 20
-1162.275170068016
 30
0.0
 11
-1024.657344257282
 21
-1164.149999999989
 31
0.0
  0
LINE
  5
F3
102
{ACAD_REACTORS
330
2D5
330
2D6
102
}
330
74
100
AcDbEntity
  8
0
  6
Continuous
 62
     2
100
AcDbLine
 10
-1025.327674040319
 20
-1161.626190476178
 30
0.0
 11
-1025.327674040319
 21
-1162.275170068016
 31
0.0
  0
LINE
  5
F4
102
{ACAD_REACTORS
330
2D7
330
2D8
102
}
330
74
100
AcDbEntity
  8
0
  6
Continuous
 62
     2
100
AcDbLine
 10
-1024.105183229101
 20
-1161.373809523812
 30
0.0
 11
-1023.119404136402
 21
-1161.373809523812
 31
0.0
  0
LINE
  5
F5
102
{ACAD_REACTORS
330
2D7
330
2D8
102
}
330
74
100
AcDbEntity
  8
0
  6
Continuous
 62
     2
100
AcDbLine
 10
-1022.094193879994
 20
-1159.931632653063
 30
0.0
 11
-1023.119404136402
 21
-1158.850000000001
 31
0.0
  0
LINE
  5
F6
102
{ACAD_REACTORS
330
2D7
330
2D8
102
}
330
74
100
AcDbEntity
  8
0
  6
Continuous
 62
     2
100
AcDbLine
 10
-1021.108414787294
 20
-1158.850000000001
 30
0.0
 11
-1022.094193879994
 21
-1158.850000000001
 31
0.0
  0
LINE
  5
F7
102
{ACAD_REACTORS
330
2D7
330
2D8
102
}
330
74
100
AcDbEntity
  8
0
  6
Continuous
 62
     2
100
AcDbLine
 10
-1021.108414787294
 20
-1161.373809523812
 30
0.0
 11
-1021.108414787294
 21
-1158.850000000001
 31
0.0
  0
LINE
  5
F8
102
{ACAD_REACTORS
330
2D7
330
2D8
102
}
330
74
100
AcDbEntity
  8
0
  6
Continuous
 62
     2
100
AcDbLine
 10
-1022.094193879994
 20
-1161.373809523812
 30
0.0
 11
-1021.108414787294
 21
-1161.373809523812
 31
0.0
  0
LINE
  5
F9
102
{ACAD_REACTORS
330
2D7
330
2D8
102
}
330
74
100
AcDbEntity
  8
0
  6
Continuous
 62
     2
100
AcDbLine
 10
-1023.119404136402
 20
-1160.29217687075
 30
0.0
 11
-1022.094193879994
 21
-1161.373809523812
 31
0.0
  0
LINE
  5
FA
102
{ACAD_REACTORS
330
2D9
330
2DA
102
}
330
74
100
AcDbEntity
  8
0
  6
Continuous
 62
     2
100
AcDbLine
 10
-1026.431746624142
 20
-1162.70782312924
 30
0.0
 11
-1027.45695688055
 21
-1161.626190476178
 31
0.0
  0
LINE
  5
FB
102
{ACAD_REACTORS
330
2D9
330
2DA
102
}
330
74
100
AcDbEntity
  8
0
  6
Continuous
 62
     2
100
AcDbLine
 10
-1026.431746624142
 20
-1161.626190476178
 30
0.0
 11
-1026.431746624142
 21
-1162.70782312924
 31
0.0
  0
LINE
  5
FC
102
{ACAD_REACTORS
330
2D9
330
2DA
102
}
330
74
100
AcDbEntity
  8
0
  6
Continuous
 62
     2
100
AcDbLine
 10
-1025.445967531442
 20
-1161.626190476178
 30
0.0
 11
-1026.431746624142
 21
-1161.626190476178
 31
0.0
  0
LINE
  5
FD
102
{ACAD_REACTORS
330
2D9
330
2DA
102
}
330
74
100
AcDbEntity
  8
0
  6
Continuous
 62
     2
100
AcDbLine
 10
-1025.445967531442
 20
-1164.149999999989
 30
0.0
 11
-1025.445967531442
 21
-1161.626190476178
 31
0.0
  0
LINE
  5
FE
102
{ACAD_REACTORS
330
2D9
330
2DA
102
}
330
74
100
AcDbEntity
  8
0
  6
Continuous
 62
     2
100
AcDbLine
 10
-1027.45695688055
 20
-1163.068367346927
 30
0.0
 11
-1026.431746624142
 21
-1164.149999999989
 31
0.0
  0
LINE
  5
FF
102
{ACAD_REACTORS
330
2D9
330
2DA
102
}
330
74
100
AcDbEntity
  8
0
  6
Continuous
 62
     2
100
AcDbLine
 10
-1027.45695688055
 20
-1164.149999999989
 30
0.0
 11
-1027.45695688055
 21
-1163.068367346927
 31
0.0
  0
LINE
  5
100
102
{ACAD_REACTORS
330
2C9
330
2CA
102
}
330
74
100
AcDbEntity
  8
0
  6
Continuous
 62
     2
100
AcDbLine
 10
-1025.406411631466
 20
-1159.426870748301
 30
0.0
 11
-1024.302339047641
 21
-1159.426870748301
 31
0.0
  0
LINE
  5
101
102
{ACAD_REACTORS
330
2C9
330
2CA
102
}
330
74
100
AcDbEntity
  8
0
  6
Continuous
 62
     2
100
AcDbLine
 10
-1025.406411631466
 20
-1160.796938775512
 30
0.0
 11
-1025.406411631466
 21
-1160.400340136057
 31
0.0
  0
LINE
  5
102
102
{ACAD_REACTORS
330
2C9
330
2CA
102
}
330
74
100
AcDbEntity
  8
0
  6
Continuous
 62
     2
100
AcDbLine
 10
-1024.302339047641
 20
-1160.796938775512
 30
0.0
 11
-1025.406411631466
 21
-1160.796938775512
 31
0.0
  0
LINE
  5
103
102
{ACAD_REACTORS
330
2C9
330
2CA
102
}
330
74
100
AcDbEntity
  8
0
  6
Continuous
 62
     2
100
AcDbLine
 10
-1024.302339047641
 20
-1161.373809523812
 30
0.0
 11
-1024.302339047641
 21
-1160.796938775512
 31
0.0
  0
LINE
  5
104
102
{ACAD_REACTORS
330
2C9
330
2CA
102
}
330
74
100
AcDbEntity
  8
0
  6
Continuous
 62
     2
100
AcDbLine
 10
-1026.905909067295
 20
-1161.373809523812
 30
0.0
 11
-1024.302339047641
 21
-1161.373809523812
 31
0.0
  0
LINE
  5
105
102
{ACAD_REACTORS
330
2C9
330
2CA
102
}
330
74
100
AcDbEntity
  8
0
  6
Continuous
 62
     2
100
AcDbLine
 10
-1026.905909067295
 20
-1158.850000000001
 30
0.0
 11
-1024.302339047641
 21
-1158.850000000001
 31
0.0
  0
LINE
  5
106
102
{ACAD_REACTORS
330
2C9
330
2CA
102
}
330
74
100
AcDbEntity
  8
0
  6
Continuous
 62
     2
100
AcDbLine
 10
-1024.302339047641
 20
-1159.426870748301
 30
0.0
 11
-1024.302339047641
 21
-1158.850000000001
 31
0.0
  0
LINE
  5
107
102
{ACAD_REACTORS
330
2DB
330
2DC
102
}
330
74
100
AcDbEntity
  8
0
  6
Continuous
 62
     2
100
AcDbLine
 10
-1029.270665674849
 20
-1159.733333333335
 30
0.0
 11
-1029.270665674849
 21
-1158.850000000001
 31
0.0
  0
LINE
  5
108
102
{ACAD_REACTORS
330
2DB
330
2DC
102
}
330
74
100
AcDbEntity
  8
0
  6
Continuous
 62
     2
100
AcDbLine
 10
-1029.270665674849
 20
-1158.850000000001
 30
0.0
 11
-1028.284886582149
 21
-1158.850000000001
 31
0.0
  0
LINE
  5
109
102
{ACAD_REACTORS
330
2DB
330
2DC
102
}
330
74
100
AcDbEntity
  8
0
  6
Continuous
 62
     2
100
AcDbLine
 10
-1029.270665674849
 20
-1160.436394557825
 30
0.0
 11
-1030.138151276425
 21
-1160.436394557825
 31
0.0
  0
LINE
  5
10A
102
{ACAD_REACTORS
330
2DB
330
2DC
102
}
330
74
100
AcDbEntity
  8
0
  6
Continuous
 62
     2
100
AcDbLine
 10
-1030.138151276425
 20
-1160.436394557825
 30
0.0
 11
-1030.138151276425
 21
-1161.373809523812
 31
0.0
  0
LINE
  5
10B
102
{ACAD_REACTORS
330
2DB
330
2DC
102
}
330
74
100
AcDbEntity
  8
0
  6
Continuous
 62
     2
100
AcDbLine
 10
-1031.123930369125
 20
-1158.850000000001
 30
0.0
 11
-1031.123930369125
 21
-1161.373809523812
 31
0.0
  0
LINE
  5
10C
102
{ACAD_REACTORS
330
2CD
330
2CE
102
}
330
74
100
AcDbEntity
  8
0
  6
Continuous
 62
     2
100
AcDbLine
 10
-1032.740608081153
 20
-1159.981267351061
 30
0.0
 11
-1032.740608081153
 21
-1159.398021359869
 31
0.0
  0
LINE
  5
10D
102
{ACAD_REACTORS
330
2CD
330
2CE
102
}
330
74
100
AcDbEntity
  8
0
  6
Continuous
 62
     2
100
AcDbLine
 10
-1033.765818337561
 20
-1161.373809523812
 30
0.0
 11
-1032.740608081153
 21
-1161.373809523812
 31
0.0
  0
LINE
  5
10E
102
{ACAD_REACTORS
330
2CD
330
2CE
102
}
330
74
100
AcDbEntity
  8
0
  6
Continuous
 62
     2
100
AcDbLine
 10
-1032.740608081153
 20
-1161.373809523812
 30
0.0
 11
-1032.740608081153
 21
-1160.594406018734
 31
0.0
  0
LINE
  5
10F
102
{ACAD_REACTORS
330
2C7
330
2C8
102
}
330
74
100
AcDbEntity
  8
0
  6
Continuous
 62
     2
100
AcDbLine
 10
-1037.323624824512
 20
-1163.561111111099
 30
0.0
 11
-1038.543321734438
 21
-1163.561111111099
 31
0.0
  0
LINE
  5
110
102
{ACAD_REACTORS
330
2C7
330
2C8
102
}
330
74
100
AcDbEntity
  8
0
  6
Continuous
 62
     2
100
AcDbLine
 10
-1039.384759165949
 20
-1159.200615384631
 30
0.0
 11
-1039.384759165949
 21
-1163.799384615375
 31
0.0
  0
LINE
  5
111
102
{ACAD_REACTORS
330
2C7
330
2C8
102
}
330
74
100
AcDbEntity
  8
0
  6
Continuous
 62
     2
100
AcDbLine
 10
-1039.034143781335
 20
-1158.850000000016
 30
0.0
 11
-1034.510745359256
 21
-1158.850000000016
 31
0.0
  0
LINE
  5
112
102
{ACAD_REACTORS
330
2C7
330
2C8
102
}
330
74
100
AcDbEntity
  8
0
  6
Continuous
 62
     2
100
AcDbLine
 10
-1034.160129974641
 20
-1159.200615384631
 30
0.0
 11
-1034.160129974641
 21
-1163.799384615375
 31
0.0
  0
LINE
  5
113
102
{ACAD_REACTORS
330
2C7
330
2C8
102
}
330
74
100
AcDbEntity
  8
0
  6
Continuous
 62
     2
100
AcDbLine
 10
-1034.510745359256
 20
-1164.149999999989
 30
0.0
 11
-1039.034143781335
 21
-1164.149999999989
 31
0.0
  0
LINE
  5
114
102
{ACAD_REACTORS
330
2C7
330
2C8
102
}
330
74
100
AcDbEntity
  8
0
  6
Continuous
 62
     2
100
AcDbLine
 10
-1037.06270174759
 20
-1163.300188034176
 30
0.0
 11
-1037.06270174759
 21
-1162.035088090762
 31
0.0
  0
LINE
  5
115
102
{ACAD_REACTORS
330
2C7
330
2C8
102
}
330
74
100
AcDbEntity
  8
0
  6
Continuous
 62
     2
100
AcDbLine
 10
-1037.06270174759
 20
-1160.199005865865
 30
0.0
 11
-1037.06270174759
 21
-1159.699811965815
 31
0.0
  0
LINE
  5
116
102
{ACAD_REACTORS
330
2C7
330
2C8
102
}
330
74
100
AcDbEntity
  8
0
  6
Continuous
 62
     2
100
AcDbLine
 10
-1038.543321734438
 20
-1159.438888888892
 30
0.0
 11
-1037.323624824512
 21
-1159.438888888892
 31
0.0
  0
LINE
  5
117
102
{ACAD_REACTORS
330
2C7
330
2C8
102
}
330
74
100
AcDbEntity
  8
0
  6
Continuous
 62
     2
100
AcDbLine
 10
-1038.80424481136
 20
-1159.699811965815
 30
0.0
 11
-1038.80424481136
 21
-1163.300188034176
 31
0.0
  0
LINE
  5
118
102
{ACAD_REACTORS
330
2CD
330
2CE
102
}
330
74
100
AcDbEntity
  8
0
  6
Continuous
 62
     2
100
AcDbLine
 10
-1032.740608081153
 20
-1160.594406018734
 30
0.0
 11
-1032.113527430094
 21
-1160.594406018734
 31
0.0
  0
LINE
  5
119
102
{ACAD_REACTORS
330
2CD
330
2CE
102
}
330
74
100
AcDbEntity
  8
0
  6
Continuous
 62
     2
100
AcDbLine
 10
-1033.765818337561
 20
-1158.850000000001
 30
0.0
 11
-1032.113527430094
 21
-1158.850000000001
 31
0.0
  0
LINE
  5
11A
102
{ACAD_REACTORS
330
2CD
330
2CE
102
}
330
74
100
AcDbEntity
  8
0
  6
Continuous
 62
     2
100
AcDbLine
 10
-1033.765818337561
 20
-1158.850000000001
 30
0.0
 11
-1033.765818337561
 21
-1161.373809523812
 31
0.0
  0
LINE
  5
11B
102
{ACAD_REACTORS
330
2CD
330
2CE
102
}
330
74
100
AcDbEntity
  8
0
  6
Continuous
 62
     2
100
AcDbLine
 10
-1032.740608081153
 20
-1159.981267351061
 30
0.0
 11
-1032.478380757564
 21
-1159.981267351061
 31
0.0
  0
LINE
  5
11C
102
{ACAD_REACTORS
330
2CD
330
2CE
102
}
330
74
100
AcDbEntity
  8
0
  6
Continuous
 62
     2
100
AcDbLine
 10
-1032.740608081153
 20
-1159.398021359869
 30
0.0
 11
-1032.478380757564
 21
-1159.398021359869
 31
0.0
  0
LINE
  5
11D
102
{ACAD_REACTORS
330
2DB
330
2DC
102
}
330
74
100
AcDbEntity
  8
0
  6
Continuous
 62
     2
100
AcDbLine
 10
-1030.138151276425
 20
-1159.733333333335
 30
0.0
 11
-1029.270665674849
 21
-1159.733333333335
 31
0.0
  0
LINE
  5
11E
102
{ACAD_REACTORS
330
2DB
330
2DC
102
}
330
74
100
AcDbEntity
  8
0
  6
Continuous
 62
     2
100
AcDbLine
 10
-1030.138151276425
 20
-1158.850000000001
 30
0.0
 11
-1030.138151276425
 21
-1159.733333333335
 31
0.0
  0
LINE
  5
11F
102
{ACAD_REACTORS
330
2DB
330
2DC
102
}
330
74
100
AcDbEntity
  8
0
  6
Continuous
 62
     2
100
AcDbLine
 10
-1031.123930369125
 20
-1158.850000000001
 30
0.0
 11
-1030.138151276425
 21
-1158.850000000001
 31
0.0
  0
LINE
  5
120
102
{ACAD_REACTORS
330
2DB
330
2DC
102
}
330
74
100
AcDbEntity
  8
0
  6
Continuous
 62
     2
100
AcDbLine
 10
-1030.138151276425
 20
-1161.373809523812
 30
0.0
 11
-1031.123930369125
 21
-1161.373809523812
 31
0.0
  0
LINE
  5
121
102
{ACAD_REACTORS
330
2DB
330
2DC
102
}
330
74
100
AcDbEntity
  8
0
  6
Continuous
 62
     2
100
AcDbLine
 10
-1029.270665674849
 20
-1161.373809523812
 30
0.0
 11
-1029.270665674849
 21
-1160.436394557825
 31
0.0
  0
LINE
  5
122
102
{ACAD_REACTORS
330
2DB
330
2DC
102
}
330
74
100
AcDbEntity
  8
0
  6
Continuous
 62
     2
100
AcDbLine
 10
-1028.284886582149
 20
-1161.373809523812
 30
0.0
 11
-1029.270665674849
 21
-1161.373809523812
 31
0.0
  0
LINE
  5
123
102
{ACAD_REACTORS
330
2DB
330
2DC
102
}
330
74
100
AcDbEntity
  8
0
  6
Continuous
 62
     2
100
AcDbLine
 10
-1028.284886582149
 20
-1158.850000000001
 30
0.0
 11
-1028.284886582149
 21
-1161.373809523812
 31
0.0
  0
LINE
  5
124
102
{ACAD_REACTORS
330
2C9
330
2CA
102
}
330
74
100
AcDbEntity
  8
0
  6
Continuous
 62
     2
100
AcDbLine
 10
-1025.406411631466
 20
-1160.400340136057
 30
0.0
 11
-1024.302339047641
 21
-1160.400340136057
 31
0.0
  0
LINE
  5
125
102
{ACAD_REACTORS
330
2C9
330
2CA
102
}
330
74
100
AcDbEntity
  8
0
  6
Continuous
 62
     2
100
AcDbLine
 10
-1024.302339047641
 20
-1160.400340136057
 30
0.0
 11
-1024.302339047641
 21
-1159.823469387757
 31
0.0
  0
LINE
  5
126
102
{ACAD_REACTORS
330
2C9
330
2CA
102
}
330
74
100
AcDbEntity
  8
0
  6
Continuous
 62
     2
100
AcDbLine
 10
-1024.302339047641
 20
-1159.823469387757
 30
0.0
 11
-1025.406411631466
 21
-1159.823469387757
 31
0.0
  0
LINE
  5
127
102
{ACAD_REACTORS
330
2C9
330
2CA
102
}
330
74
100
AcDbEntity
  8
0
  6
Continuous
 62
     2
100
AcDbLine
 10
-1025.406411631466
 20
-1159.823469387757
 30
0.0
 11
-1025.406411631466
 21
-1159.426870748301
 31
0.0
  0
LINE
  5
128
102
{ACAD_REACTORS
330
2D9
330
2DA
102
}
330
74
100
AcDbEntity
  8
0
  6
Continuous
 62
     2
100
AcDbLine
 10
-1028.44273597325
 20
-1164.149999999989
 30
0.0
 11
-1027.45695688055
 21
-1164.149999999989
 31
0.0
  0
LINE
  5
129
102
{ACAD_REACTORS
330
2D9
330
2DA
102
}
330
74
100
AcDbEntity
  8
0
  6
Continuous
 62
     2
100
AcDbLine
 10
-1026.431746624142
 20
-1164.149999999989
 30
0.0
 11
-1025.445967531442
 21
-1164.149999999989
 31
0.0
  0
LINE
  5
12A
102
{ACAD_REACTORS
330
2D9
330
2DA
102
}
330
74
100
AcDbEntity
  8
0
  6
Continuous
 62
     2
100
AcDbLine
 10
-1027.45695688055
 20
-1161.626190476178
 30
0.0
 11
-1028.44273597325
 21
-1161.626190476178
 31
0.0
  0
LINE
  5
12B
102
{ACAD_REACTORS
330
2D9
330
2DA
102
}
330
74
100
AcDbEntity
  8
0
  6
Continuous
 62
     2
100
AcDbLine
 10
-1028.44273597325
 20
-1161.626190476178
 30
0.0
 11
-1028.44273597325
 21
-1164.149999999989
 31
0.0
  0
LINE
  5
12C
102
{ACAD_REACTORS
330
2D7
330
2D8
102
}
330
74
100
AcDbEntity
  8
0
  6
Continuous
 62
     2
100
AcDbLine
 10
-1022.094193879994
 20
-1158.850000000001
 30
0.0
 11
-1022.094193879994
 21
-1159.931632653063
 31
0.0
  0
LINE
  5
12D
102
{ACAD_REACTORS
330
2D7
330
2D8
102
}
330
74
100
AcDbEntity
  8
0
  6
Continuous
 62
     2
100
AcDbLine
 10
-1023.119404136402
 20
-1158.850000000001
 30
0.0
 11
-1024.105183229101
 21
-1158.850000000001
 31
0.0
  0
LINE
  5
12E
102
{ACAD_REACTORS
330
2D7
330
2D8
102
}
330
74
100
AcDbEntity
  8
0
  6
Continuous
 62
     2
100
AcDbLine
 10
-1024.105183229101
 20
-1158.850000000001
 30
0.0
 11
-1024.105183229101
 21
-1161.373809523812
 31
0.0
  0
LINE
  5
12F
102
{ACAD_REACTORS
330
2D7
330
2D8
102
}
330
74
100
AcDbEntity
  8
0
  6
Continuous
 62
     2
100
AcDbLine
 10
-1023.119404136402
 20
-1161.373809523812
 30
0.0
 11
-1023.119404136402
 21
-1160.29217687075
 31
0.0
  0
LINE
  5
130
102
{ACAD_REACTORS
330
2D5
330
2D6
102
}
330
74
100
AcDbEntity
  8
0
  6
Continuous
 62
     2
100
AcDbLine
 10
-1023.671565164582
 20
-1164.149999999989
 30
0.0
 11
-1023.671565164582
 21
-1162.275170068016
 31
0.0
  0
LINE
  5
131
102
{ACAD_REACTORS
330
2D5
330
2D6
102
}
330
74
100
AcDbEntity
  8
0
  6
Continuous
 62
     2
100
AcDbLine
 10
-1023.671565164582
 20
-1162.275170068016
 30
0.0
 11
-1023.001235381547
 21
-1162.275170068016
 31
0.0
  0
LINE
  5
132
102
{ACAD_REACTORS
330
2D5
330
2D6
102
}
330
74
100
AcDbEntity
  8
0
  6
Continuous
 62
     2
100
AcDbLine
 10
-1023.001235381547
 20
-1162.275170068016
 30
0.0
 11
-1023.001235381547
 21
-1161.626190476178
 31
0.0
  0
LINE
  5
133
102
{ACAD_REACTORS
330
2D5
330
2D6
102
}
330
74
100
AcDbEntity
  8
0
  6
Continuous
 62
     2
100
AcDbLine
 10
-1023.001235381547
 20
-1161.626190476178
 30
0.0
 11
-1025.327674040319
 21
-1161.626190476178
 31
0.0
  0
LINE
  5
134
102
{ACAD_REACTORS
330
2D5
330
2D6
102
}
330
74
100
AcDbEntity
  8
0
  6
Continuous
 62
     2
100
AcDbLine
 10
-1025.327674040319
 20
-1162.275170068016
 30
0.0
 11
-1024.657344257282
 21
-1162.275170068016
 31
0.0
  0
LINE
  5
135
102
{ACAD_REACTORS
330
2D3
330
2D4
102
}
330
74
100
AcDbEntity
  8
0
  6
Continuous
 62
     2
100
AcDbLine
 10
-1022.34461899659
 20
-1163.702925170057
 30
0.0
 11
-1021.408716867108
 21
-1163.702925170057
 31
0.0
  0
LINE
  5
136
102
{ACAD_REACTORS
330
2D3
330
2D4
102
}
330
74
100
AcDbEntity
  8
0
  6
Continuous
 62
     2
100
AcDbLine
 10
-1020.208729707001
 20
-1164.149999999989
 30
0.0
 11
-1021.233939963409
 21
-1164.149999999989
 31
0.0
  0
LINE
  5
137
102
{ACAD_REACTORS
330
2D3
330
2D4
102
}
330
74
100
AcDbEntity
  8
0
  6
Continuous
 62
     2
100
AcDbLine
 10
-1022.389273060053
 20
-1161.626190476178
 30
0.0
 11
-1023.544606156697
 21
-1164.149999999989
 31
0.0
  0
LINE
  5
138
102
{ACAD_REACTORS
330
2D3
330
2D4
102
}
330
74
100
AcDbEntity
  8
0
  6
Continuous
 62
     2
100
AcDbLine
 10
-1022.519395900289
 20
-1164.149999999989
 30
0.0
 11
-1022.34461899659
 21
-1163.702925170057
 31
0.0
  0
LINE
  5
139
102
{ACAD_REACTORS
330
2D3
330
2D4
102
}
330
74
100
AcDbEntity
  8
0
  6
Continuous
 62
     2
100
AcDbLine
 10
-1022.124738375809
 20
-1163.140476190465
 30
0.0
 11
-1021.876667931849
 21
-1162.505918367335
 31
0.0
  0
LINE
  5
13A
102
{ACAD_REACTORS
330
2D1
330
2D2
102
}
330
74
100
AcDbEntity
  8
0
  6
Continuous
 62
     2
100
AcDbLine
 10
-1020.911258968754
 20
-1161.373809523812
 30
0.0
 11
-1020.911258968754
 21
-1158.850000000001
 31
0.0
  0
LINE
  5
13B
102
{ACAD_REACTORS
330
2D1
330
2D2
102
}
330
74
100
AcDbEntity
  8
0
  6
Continuous
 62
     2
100
AcDbLine
 10
-1019.886048712346
 20
-1158.850000000001
 30
0.0
 11
-1019.886048712346
 21
-1161.373809523812
 31
0.0
  0
LINE
  5
13C
102
{ACAD_REACTORS
330
2D1
330
2D2
102
}
330
74
100
AcDbEntity
  8
0
  6
Continuous
 62
     2
100
AcDbLine
 10
-1020.911258968754
 20
-1158.850000000001
 30
0.0
 11
-1019.886048712346
 21
-1158.850000000001
 31
0.0
  0
LINE
  5
13D
102
{ACAD_REACTORS
330
2CF
330
2D0
102
}
330
74
100
AcDbEntity
  8
0
  6
Continuous
 62
     2
100
AcDbLine
 10
-1018.052499599924
 20
-1160.722791519437
 30
0.0
 11
-1017.476804609787
 21
-1161.373809523812
 31
0.0
  0
LINE
  5
13E
102
{ACAD_REACTORS
330
2CF
330
2D0
102
}
330
74
100
AcDbEntity
  8
0
  6
Continuous
 62
     2
100
AcDbLine
 10
-1017.476804609787
 20
-1161.373809523812
 30
0.0
 11
-1016.317528396772
 21
-1161.373809523812
 31
0.0
  0
LINE
  5
13F
102
{ACAD_REACTORS
330
2CF
330
2D0
102
}
330
74
100
AcDbEntity
  8
0
  6
Continuous
 62
     2
100
AcDbLine
 10
-1017.472861493417
 20
-1160.067314487634
 30
0.0
 11
-1016.317528396772
 21
-1161.373809523812
 31
0.0
  0
LINE
  5
140
102
{ACAD_REACTORS
330
2CF
330
2D0
102
}
330
74
100
AcDbEntity
  8
0
  6
Continuous
 62
     2
100
AcDbLine
 10
-1017.472861493417
 20
-1160.067314487634
 30
0.0
 11
-1016.396390724188
 21
-1158.850000000001
 31
0.0
  0
LINE
  5
141
102
{ACAD_REACTORS
330
2CF
330
2D0
102
}
330
74
100
AcDbEntity
  8
0
  6
Continuous
 62
     2
100
AcDbLine
 10
-1018.052499599924
 20
-1159.411837455832
 30
0.0
 11
-1017.555666937203
 21
-1158.850000000001
 31
0.0
  0
LINE
  5
142
102
{ACAD_REACTORS
330
2CF
330
2D0
102
}
330
74
100
AcDbEntity
  8
0
  6
Continuous
 62
     2
100
AcDbLine
 10
-1018.549332262645
 20
-1158.850000000001
 30
0.0
 11
-1018.052499599924
 21
-1159.411837455832
 31
0.0
  0
LINE
  5
143
102
{ACAD_REACTORS
330
2CF
330
2D0
102
}
330
74
100
AcDbEntity
  8
0
  6
Continuous
 62
     2
100
AcDbLine
 10
-1018.549332262645
 20
-1158.850000000001
 30
0.0
 11
-1019.70860847566
 21
-1158.850000000001
 31
0.0
  0
LINE
  5
144
102
{ACAD_REACTORS
330
2C5
330
2C6
102
}
330
74
100
AcDbEntity
  8
0
  6
Continuous
 62
     2
100
AcDbLine
 10
-1017.973637272509
 20
-1164.149999999989
 30
0.0
 11
-1016.987858179808
 21
-1164.149999999989
 31
0.0
  0
LINE
  5
145
102
{ACAD_REACTORS
330
2C5
330
2C6
102
}
330
74
100
AcDbEntity
  8
0
  6
Continuous
 62
     2
100
AcDbLine
 10
-1016.987858179808
 20
-1164.149999999989
 30
0.0
 11
-1016.987858179808
 21
-1162.275170068016
 31
0.0
  0
LINE
  5
146
102
{ACAD_REACTORS
330
2C5
330
2C6
102
}
330
74
100
AcDbEntity
  8
0
  6
Continuous
 62
     2
100
AcDbLine
 10
-1016.987858179808
 20
-1162.275170068016
 30
0.0
 11
-1016.317528396772
 21
-1162.275170068016
 31
0.0
  0
LINE
  5
147
102
{ACAD_REACTORS
330
2C5
330
2C6
102
}
330
74
100
AcDbEntity
  8
0
  6
Continuous
 62
     2
100
AcDbLine
 10
-1016.317528396772
 20
-1162.275170068016
 30
0.0
 11
-1016.317528396772
 21
-1161.626190476178
 31
0.0
  0
LINE
  5
148
102
{ACAD_REACTORS
330
2C5
330
2C6
102
}
330
74
100
AcDbEntity
  8
0
  6
Continuous
 62
     2
100
AcDbLine
 10
-1019.115004032002
 20
-1161.626190476179
 30
0.0
 11
-1016.317528396772
 21
-1161.626190476178
 31
0.0
  0
LINE
  5
149
102
{ACAD_REACTORS
330
2C5
330
2C6
102
}
330
74
100
AcDbEntity
  8
0
  6
Continuous
 62
     2
100
AcDbLine
 10
-1017.973637272509
 20
-1162.275170068016
 30
0.0
 11
-1017.973637272509
 21
-1164.149999999989
 31
0.0
  0
LINE
  5
14A
102
{ACAD_REACTORS
330
2C7
330
2C8
102
}
330
74
100
AcDbEntity
  8
0
  6
Continuous
 62
     2
100
AcDbLine
 10
-1036.675692177863
 20
-1162.514561859853
 30
0.0
 11
-1036.675692177863
 21
-1162.0336929287
 31
0.0
  0
LINE
  5
14B
102
{ACAD_REACTORS
330
2C7
330
2C8
102
}
330
74
100
AcDbEntity
  8
0
  6
Continuous
 62
     2
100
AcDbLine
 10
-1036.675692177863
 20
-1160.200401027926
 30
0.0
 11
-1036.675692177863
 21
-1159.699958640731
 31
0.0
  0
LINE
  5
14C
330
74
100
AcDbEntity
  8
1
  6
Continuous
 62
     7
100
AcDbLine
 10
-979.9999999999926
 20
-1152.999999999995
 30
0.0
 11
-979.9999999999926
 21
-1148.749999999995
 31
0.0
  0
LINE
  5
14D
330
74
100
AcDbEntity
  8
1
  6
Continuous
 62
     6
100
AcDbLine
 10
-1059.999999999995
 20
-1169.999999999995
 30
0.0
 11
-1059.544804526745
 21
-1169.999999999995
 31
0.0
  0
LINE
  5
14E
330
74
100
AcDbEntity
  8
1
  6
Continuous
 62
     6
100
AcDbLine
 10
-1109.999999999995
 20
-1169.999999999995
 30
0.0
 11
-1148.799999999995
 21
-1169.999999999995
 31
0.0
  0
LINE
  5
14F
330
74
100
AcDbEntity
  8
1
  6
Continuous
 62
     6
100
AcDbLine
 10
-1159.999999999995
 20
-1169.999999999995
 30
0.0
 11
-1148.799999999995
 21
-1169.999999999995
 31
0.0
  0
LINE
  5
150
330
74
100
AcDbEntity
  8
1
  6
Continuous
 62
     6
100
AcDbLine
 10
-959.9999999999949
 20
-1169.999999999995
 30
0.0
 11
-916.499999999995
 21
-1169.999999999995
 31
0.0
  0
LINE
  5
151
330
74
100
AcDbEntity
  8
1
  6
Continuous
 62
     6
100
AcDbLine
 10
-1009.999999999995
 20
-1169.999999999995
 30
0.0
 11
-1027.844804526745
 21
-1169.999999999995
 31
0.0
  0
LINE
  5
152
330
74
100
AcDbEntity
  8
1
  6
PHANTOM
 62
     2
100
AcDbLine
 10
-1037.925541311945
 20
-1155.124999999995
 30
0.0
 11
-1033.609946342756
 21
-1155.124999999995
 31
0.0
  0
LINE
  5
153
330
74
100
AcDbEntity
  8
1
  6
PHANTOM
 62
     2
100
AcDbLine
 10
-1040.952544701642
 20
-1153.474999999995
 30
0.0
 11
-1040.952544701642
 21
-1156.774999999995
 31
0.0
  0
LINE
  5
154
330
74
100
AcDbEntity
  8
1
  6
PHANTOM
 62
     2
100
AcDbLine
 10
-1039.302544701642
 20
-1155.124999999995
 30
0.0
 11
-1042.602544701642
 21
-1155.124999999995
 31
0.0
  0
LINE
  5
155
330
74
100
AcDbEntity
  8
1
  6
Continuous
 62
     2
100
AcDbLine
 10
-916.499999999995
 20
-1169.999999999995
 30
0.0
 11
-911.4999999999959
 21
-1169.999999999995
 31
0.0
  0
LINE
  5
156
330
74
100
AcDbEntity
  8
1
  6
Continuous
 62
     2
100
AcDbLine
 10
-916.499999999995
 20
-1169.999999999995
 30
0.0
 11
-916.499999999995
 21
-1174.999999999995
 31
0.0
  0
LINE
  5
157
330
74
100
AcDbEntity
  8
1
  6
Continuous
 62
     7
100
AcDbLine
 10
-1009.644804526745
 20
-1157.249999999995
 30
0.0
 11
-1009.644804526745
 21
-1152.999999999995
 31
0.0
  0
LINE
  5
158
330
74
100
AcDbEntity
  8
1
  6
Continuous
 62
     7
100
AcDbLine
 10
-1046.044804526745
 20
-1157.249999999995
 30
0.0
 11
-1009.644804526745
 21
-1157.249999999995
 31
0.0
  0
LINE
  5
159
330
74
100
AcDbEntity
  8
1
  6
Continuous
 62
     2
100
AcDbLine
 10
-911.4999999999959
 20
-1174.999999999995
 30
0.0
 11
-911.4999999999959
 21
-1169.999999999995
 31
0.0
  0
LINE
  5
15A
330
74
100
AcDbEntity
  8
1
  6
Continuous
 62
     2
100
AcDbLine
 10
-911.4999999999959
 20
-1174.999999999995
 30
0.0
 11
-916.499999999995
 21
-1174.999999999995
 31
0.0
  0
LINE
  5
15B
330
74
100
AcDbEntity
  8
1
  6
Continuous
 62
     2
100
AcDbLine
 10
-916.499999999995
 20
-1174.999999999995
 30
0.0
 11
-959.9999999999949
 21
-1174.999999999995
 31
0.0
  0
LINE
  5
15C
330
74
100
AcDbEntity
  8
1
  6
Continuous
 62
     6
100
AcDbLine
 10
-916.4999999999932
 20
-1140.249999999995
 30
0.0
 11
-916.4999999999941
 21
-1119.999999999995
 31
0.0
  0
LINE
  5
15D
330
74
100
AcDbEntity
  8
1
  6
Continuous
 62
     2
100
AcDbLine
 10
-911.4999999999959
 20
-964.9999999999949
 30
0.0
 11
-1059.999999999995
 21
-964.9999999999949
 31
0.0
  0
LINE
  5
15E
330
74
100
AcDbEntity
  8
1
  6
Continuous
 62
     6
100
AcDbLine
 10
-916.4999999999959
 20
-984.9999999999949
 30
0.0
 11
-1203.499999999994
 21
-984.9999999999949
 31
0.0
  0
LINE
  5
15F
330
74
100
AcDbEntity
  8
1
  6
Continuous
 62
     2
100
AcDbLine
 10
-916.4999999999941
 20
-1119.999999999995
 30
0.0
 11
-911.4999999999959
 21
-1119.999999999995
 31
0.0
  0
LINE
  5
160
330
74
100
AcDbEntity
  8
1
  6
Continuous
 62
     6
100
AcDbLine
 10
-916.4999999999941
 20
-1119.999999999995
 30
0.0
 11
-916.4999999999945
 21
-1069.999999999995
 31
0.0
  0
LINE
  5
161
330
74
100
AcDbEntity
  8
1
  6
Continuous
 62
     2
100
AcDbLine
 10
-911.4999999999959
 20
-1119.999999999995
 30
0.0
 11
-911.4999999999959
 21
-1069.999999999995
 31
0.0
  0
LINE
  5
162
330
74
100
AcDbEntity
  8
1
  6
Continuous
 62
     2
100
AcDbLine
 10
-916.4999999999945
 20
-1069.999999999995
 30
0.0
 11
-911.4999999999959
 21
-1069.999999999995
 31
0.0
  0
LINE
  5
163
330
74
100
AcDbEntity
  8
1
  6
Continuous
 62
     6
100
AcDbLine
 10
-916.4999999999945
 20
-1069.999999999995
 30
0.0
 11
-916.4999999999957
 21
-1019.999999999995
 31
0.0
  0
LINE
  5
164
330
74
100
AcDbEntity
  8
1
  6
Continuous
 62
     2
100
AcDbLine
 10
-911.4999999999959
 20
-1069.999999999995
 30
0.0
 11
-911.4999999999959
 21
-1019.999999999995
 31
0.0
  0
LINE
  5
165
330
74
100
AcDbEntity
  8
1
  6
Continuous
 62
     2
100
AcDbLine
 10
-916.4999999999957
 20
-1019.999999999995
 30
0.0
 11
-911.4999999999959
 21
-1019.999999999995
 31
0.0
  0
LINE
  5
166
330
74
100
AcDbEntity
  8
1
  6
Continuous
 62
     6
100
AcDbLine
 10
-916.4999999999957
 20
-1019.999999999995
 30
0.0
 11
-916.4999999999959
 21
-984.9999999999949
 31
0.0
  0
LINE
  5
167
330
74
100
AcDbEntity
  8
1
  6
Continuous
 62
     2
100
AcDbLine
 10
-911.4999999999959
 20
-1019.999999999995
 30
0.0
 11
-911.4999999999959
 21
-964.9999999999949
 31
0.0
  0
LINE
  5
168
330
74
100
AcDbEntity
  8
1
  6
Continuous
 62
     2
100
AcDbLine
 10
-911.4999999999959
 20
-1169.999999999995
 30
0.0
 11
-911.4999999999959
 21
-1119.999999999995
 31
0.0
  0
LINE
  5
169
330
74
100
AcDbEntity
  8
1
  6
Continuous
 62
     2
100
AcDbLine
 10
-1059.999999999995
 20
-964.9999999999949
 30
0.0
 11
-1208.499999999994
 21
-964.9999999999949
 31
0.0
  0
LINE
  5
16A
330
74
100
AcDbEntity
  8
1
  6
Continuous
 62
     2
100
AcDbLine
 10
-1059.999999999995
 20
-964.9999999999949
 30
0.0
 11
-1059.999999999995
 21
-974.2086918446962
 31
0.0
  0
LINE
  5
16B
330
74
100
AcDbEntity
  8
1
  6
Continuous
 62
     2
100
AcDbLine
 10
-1208.499999999994
 20
-1174.999999999995
 30
0.0
 11
-1203.499999999993
 21
-1174.999999999995
 31
0.0
  0
LINE
  5
16C
330
74
100
AcDbEntity
  8
1
  6
Continuous
 62
     2
100
AcDbLine
 10
-1208.499999999994
 20
-964.9999999999949
 30
0.0
 11
-1208.499999999994
 21
-1019.999999999995
 31
0.0
  0
LINE
  5
16D
330
74
100
AcDbEntity
  8
1
  6
Continuous
 62
     6
100
AcDbLine
 10
-1203.499999999994
 20
-984.9999999999949
 30
0.0
 11
-1203.499999999994
 21
-1019.999999999995
 31
0.0
  0
LINE
  5
16E
330
74
100
AcDbEntity
  8
1
  6
Continuous
 62
     2
100
AcDbLine
 10
-1208.499999999994
 20
-1019.999999999995
 30
0.0
 11
-1203.499999999994
 21
-1019.999999999995
 31
0.0
  0
LINE
  5
16F
330
74
100
AcDbEntity
  8
1
  6
Continuous
 62
     2
100
AcDbLine
 10
-1208.499999999994
 20
-1019.999999999995
 30
0.0
 11
-1208.499999999994
 21
-1069.999999999995
 31
0.0
  0
LINE
  5
170
330
74
100
AcDbEntity
  8
1
  6
Continuous
 62
     6
100
AcDbLine
 10
-1203.499999999994
 20
-1019.999999999995
 30
0.0
 11
-1203.499999999993
 21
-1069.999999999995
 31
0.0
  0
LINE
  5
171
330
74
100
AcDbEntity
  8
1
  6
Continuous
 62
     2
100
AcDbLine
 10
-1208.499999999994
 20
-1069.999999999995
 30
0.0
 11
-1203.499999999993
 21
-1069.999999999995
 31
0.0
  0
LINE
  5
172
330
74
100
AcDbEntity
  8
1
  6
Continuous
 62
     2
100
AcDbLine
 10
-1208.499999999994
 20
-1069.999999999995
 30
0.0
 11
-1208.499999999994
 21
-1119.999999999995
 31
0.0
  0
LINE
  5
173
330
74
100
AcDbEntity
  8
1
  6
Continuous
 62
     6
100
AcDbLine
 10
-1203.499999999993
 20
-1069.999999999995
 30
0.0
 11
-1203.499999999993
 21
-1119.999999999995
 31
0.0
  0
LINE
  5
174
330
74
100
AcDbEntity
  8
1
  6
Continuous
 62
     2
100
AcDbLine
 10
-1208.499999999994
 20
-1119.999999999995
 30
0.0
 11
-1203.499999999993
 21
-1119.999999999995
 31
0.0
  0
LINE
  5
175
330
74
100
AcDbEntity
  8
1
  6
Continuous
 62
     2
100
AcDbLine
 10
-1208.499999999994
 20
-1119.999999999995
 30
0.0
 11
-1208.499999999994
 21
-1169.999999999995
 31
0.0
  0
LINE
  5
176
330
74
100
AcDbEntity
  8
1
  6
Continuous
 62
     6
100
AcDbLine
 10
-1203.499999999993
 20
-1119.999999999995
 30
0.0
 11
-1203.499999999993
 21
-1169.999999999995
 31
0.0
  0
LINE
  5
177
330
74
100
AcDbEntity
  8
1
  6
Continuous
 62
     2
100
AcDbLine
 10
-1159.999999999995
 20
-1174.999999999995
 30
0.0
 11
-1159.999999999995
 21
-1169.999999999995
 31
0.0
  0
LINE
  5
178
330
74
100
AcDbEntity
  8
1
  6
Continuous
 62
     2
100
AcDbLine
 10
-1159.999999999995
 20
-1174.999999999995
 30
0.0
 11
-1109.999999999995
 21
-1174.999999999995
 31
0.0
  0
LINE
  5
179
330
74
100
AcDbEntity
  8
1
  6
Continuous
 62
     2
100
AcDbLine
 10
-1109.999999999995
 20
-1174.999999999995
 30
0.0
 11
-1109.999999999995
 21
-1169.999999999995
 31
0.0
  0
LINE
  5
17A
330
74
100
AcDbEntity
  8
1
  6
Continuous
 62
     2
100
AcDbLine
 10
-1109.999999999995
 20
-1174.999999999995
 30
0.0
 11
-1059.999999999995
 21
-1174.999999999995
 31
0.0
  0
LINE
  5
17B
330
74
100
AcDbEntity
  8
1
  6
Continuous
 62
     2
100
AcDbLine
 10
-1059.999999999995
 20
-1174.999999999995
 30
0.0
 11
-1059.999999999995
 21
-1169.999999999995
 31
0.0
  0
LINE
  5
17C
330
74
100
AcDbEntity
  8
1
  6
Continuous
 62
     2
100
AcDbLine
 10
-1059.999999999995
 20
-1174.999999999995
 30
0.0
 11
-1009.999999999995
 21
-1174.999999999995
 31
0.0
  0
LINE
  5
17D
330
74
100
AcDbEntity
  8
1
  6
Continuous
 62
     2
100
AcDbLine
 10
-1009.999999999995
 20
-1174.999999999995
 30
0.0
 11
-1009.999999999995
 21
-1169.999999999995
 31
0.0
  0
LINE
  5
17E
330
74
100
AcDbEntity
  8
1
  6
Continuous
 62
     2
100
AcDbLine
 10
-959.9999999999949
 20
-1174.999999999995
 30
0.0
 11
-959.9999999999949
 21
-1169.999999999995
 31
0.0
  0
LINE
  5
17F
330
74
100
AcDbEntity
  8
1
  6
Continuous
 62
     2
100
AcDbLine
 10
-959.9999999999949
 20
-1174.999999999995
 30
0.0
 11
-1009.999999999995
 21
-1174.999999999995
 31
0.0
  0
LINE
  5
180
330
74
100
AcDbEntity
  8
1
  6
Continuous
 62
     2
100
AcDbLine
 10
-1203.499999999993
 20
-1169.999999999995
 30
0.0
 11
-1203.499999999993
 21
-1174.999999999995
 31
0.0
  0
LINE
  5
181
330
74
100
AcDbEntity
  8
1
  6
Continuous
 62
     2
100
AcDbLine
 10
-1203.499999999993
 20
-1174.999999999995
 30
0.0
 11
-1159.999999999995
 21
-1174.999999999995
 31
0.0
  0
LINE
  5
182
330
74
100
AcDbEntity
  8
1
  6
Continuous
 62
     2
100
AcDbLine
 10
-1203.499999999993
 20
-1169.999999999995
 30
0.0
 11
-1208.499999999994
 21
-1169.999999999995
 31
0.0
  0
LINE
  5
183
330
74
100
AcDbEntity
  8
1
  6
Continuous
 62
     2
100
AcDbLine
 10
-1208.499999999994
 20
-1169.999999999995
 30
0.0
 11
-1208.499999999994
 21
-1174.999999999995
 31
0.0
  0
LINE
  5
184
330
74
100
AcDbEntity
  8
1
  6
Continuous
 62
     7
100
AcDbLine
 10
-1148.799999999995
 20
-1165.749999999995
 30
0.0
 11
-1086.544804526745
 21
-1165.749999999995
 31
0.0
  0
LINE
  5
185
330
74
100
AcDbEntity
  8
1
  6
Continuous
 62
     2
100
AcDbLine
 10
-1148.799999999995
 20
-1165.749999999995
 30
0.0
 11
-1148.799999999995
 21
-1169.999999999995
 31
0.0
  0
LINE
  5
186
330
74
100
AcDbEntity
  8
1
  6
Continuous
 62
     2
100
AcDbLine
 10
-1148.799999999995
 20
-1161.499999999995
 30
0.0
 11
-1162.299999999995
 21
-1161.499999999995
 31
0.0
  0
LINE
  5
187
330
74
100
AcDbEntity
  8
1
  6
Continuous
 62
     2
100
AcDbLine
 10
-1148.799999999995
 20
-1161.499999999995
 30
0.0
 11
-1148.799999999995
 21
-1165.749999999995
 31
0.0
  0
LINE
  5
188
330
74
100
AcDbEntity
  8
1
  6
Continuous
 62
     2
100
AcDbLine
 10
-1148.799999999995
 20
-1152.999999999995
 30
0.0
 11
-1162.299999999995
 21
-1152.999999999995
 31
0.0
  0
LINE
  5
189
330
74
100
AcDbEntity
  8
1
  6
Continuous
 62
     2
100
AcDbLine
 10
-1148.799999999995
 20
-1152.999999999995
 30
0.0
 11
-1148.799999999995
 21
-1157.249999999995
 31
0.0
  0
LINE
  5
18A
330
74
100
AcDbEntity
  8
1
  6
Continuous
 62
     2
100
AcDbLine
 10
-1148.799999999995
 20
-1157.249999999995
 30
0.0
 11
-1162.299999999995
 21
-1157.249999999995
 31
0.0
  0
LINE
  5
18B
330
74
100
AcDbEntity
  8
1
  6
Continuous
 62
     2
100
AcDbLine
 10
-1148.799999999995
 20
-1157.249999999995
 30
0.0
 11
-1148.799999999995
 21
-1161.499999999995
 31
0.0
  0
LINE
  5
18C
330
74
100
AcDbEntity
  8
1
  6
Continuous
 62
     2
100
AcDbLine
 10
-1148.799999999995
 20
-1144.499999999995
 30
0.0
 11
-1162.299999999995
 21
-1144.499999999995
 31
0.0
  0
LINE
  5
18D
330
74
100
AcDbEntity
  8
1
  6
Continuous
 62
     2
100
AcDbLine
 10
-1148.799999999995
 20
-1148.749999999995
 30
0.0
 11
-1162.299999999995
 21
-1148.749999999995
 31
0.0
  0
LINE
  5
18E
330
74
100
AcDbEntity
  8
1
  6
Continuous
 62
     2
100
AcDbLine
 10
-1148.799999999995
 20
-1148.749999999995
 30
0.0
 11
-1148.799999999995
 21
-1152.999999999995
 31
0.0
  0
LINE
  5
18F
330
74
100
AcDbEntity
  8
1
  6
Continuous
 62
     2
100
AcDbLine
 10
-1148.799999999995
 20
-1144.499999999995
 30
0.0
 11
-1148.799999999995
 21
-1148.749999999995
 31
0.0
  0
LINE
  5
190
330
74
100
AcDbEntity
  8
1
  6
Continuous
 62
     6
100
AcDbLine
 10
-1148.799999999995
 20
-1140.249999999995
 30
0.0
 11
-1162.299999999995
 21
-1140.249999999995
 31
0.0
  0
LINE
  5
191
330
74
100
AcDbEntity
  8
1
  6
Continuous
 62
     2
100
AcDbLine
 10
-1148.799999999995
 20
-1140.249999999995
 30
0.0
 11
-1148.799999999995
 21
-1144.499999999995
 31
0.0
  0
LINE
  5
192
330
74
100
AcDbEntity
  8
1
  6
Continuous
 62
     6
100
AcDbLine
 10
-916.499999999995
 20
-1169.999999999995
 30
0.0
 11
-916.4999999999936
 21
-1161.499999999995
 31
0.0
  0
LINE
  5
193
330
74
100
AcDbEntity
  8
1
  6
Continuous
 62
     6
100
AcDbLine
 10
-916.4999999999941
 20
-1148.749999999995
 30
0.0
 11
-916.4999999999932
 21
-1152.999999999995
 31
0.0
  0
LINE
  5
194
330
74
100
AcDbEntity
  8
1
  6
Continuous
 62
     6
100
AcDbLine
 10
-1009.644804526745
 20
-1169.999999999995
 30
0.0
 11
-959.9999999999949
 21
-1169.999999999995
 31
0.0
  0
LINE
  5
195
330
74
100
AcDbEntity
  8
1
  6
Continuous
 62
     6
100
AcDbLine
 10
-1046.044804526745
 20
-1169.999999999995
 30
0.0
 11
-1027.844804526745
 21
-1169.999999999995
 31
0.0
  0
LINE
  5
196
330
74
100
AcDbEntity
  8
1
  6
Continuous
 62
     6
100
AcDbLine
 10
-1162.299999999995
 20
-1169.999999999995
 30
0.0
 11
-1159.999999999995
 21
-1169.999999999995
 31
0.0
  0
LINE
  5
197
330
74
100
AcDbEntity
  8
1
  6
Continuous
 62
     6
100
AcDbLine
 10
-1086.544804526745
 20
-1169.999999999995
 30
0.0
 11
-1109.999999999995
 21
-1169.999999999995
 31
0.0
  0
LINE
  5
198
330
74
100
AcDbEntity
  8
1
  6
Continuous
 62
     6
100
AcDbLine
 10
-916.4999999999932
 20
-1140.249999999995
 30
0.0
 11
-934.381591718314
 21
-1140.249999999995
 31
0.0
  0
LINE
  5
199
330
74
100
AcDbEntity
  8
1
  6
Continuous
 62
     7
100
AcDbLine
 10
-916.4999999999936
 20
-1161.499999999995
 30
0.0
 11
-961.499999999993
 21
-1161.499999999995
 31
0.0
  0
LINE
  5
19A
330
74
100
AcDbEntity
  8
1
  6
Continuous
 62
     7
100
AcDbLine
 10
-916.4999999999941
 20
-1148.749999999995
 30
0.0
 11
-934.381591718314
 21
-1148.749999999995
 31
0.0
  0
LINE
  5
19B
330
74
100
AcDbEntity
  8
1
  6
Continuous
 62
     7
100
AcDbLine
 10
-961.499999999993
 20
-1152.999999999995
 30
0.0
 11
-916.4999999999932
 21
-1152.999999999995
 31
0.0
  0
LINE
  5
19C
330
74
100
AcDbEntity
  8
1
  6
Continuous
 62
     7
100
AcDbLine
 10
-1009.644804526745
 20
-1144.499999999995
 30
0.0
 11
-1009.644804526745
 21
-1148.749999999995
 31
0.0
  0
LINE
  5
19D
330
74
100
AcDbEntity
  8
1
  6
Continuous
 62
     7
100
AcDbLine
 10
-1023.144804526745
 20
-1144.499999999995
 30
0.0
 11
-1009.644804526745
 21
-1144.499999999995
 31
0.0
  0
LINE
  5
19E
330
74
100
AcDbEntity
  8
1
  6
Continuous
 62
     7
100
AcDbLine
 10
-1023.144804526745
 20
-1144.499999999995
 30
0.0
 11
-1036.644804526745
 21
-1144.499999999995
 31
0.0
  0
LINE
  5
19F
330
74
100
AcDbEntity
  8
1
  6
Continuous
 62
     7
100
AcDbLine
 10
-934.381591718314
 20
-1148.749999999995
 30
0.0
 11
-934.381591718314
 21
-1140.249999999995
 31
0.0
  0
LINE
  5
1A0
330
74
100
AcDbEntity
  8
1
  6
Continuous
 62
     6
100
AcDbLine
 10
-943.2999999999932
 20
-1140.249999999995
 30
0.0
 11
-934.381591718314
 21
-1140.249999999995
 31
0.0
  0
LINE
  5
1A1
330
74
100
AcDbEntity
  8
1
  6
Continuous
 62
     7
100
AcDbLine
 10
-943.2999999999932
 20
-1140.249999999995
 30
0.0
 11
-943.2999999999929
 21
-1148.749999999995
 31
0.0
  0
LINE
  5
1A2
330
74
100
AcDbEntity
  8
1
  6
Continuous
 62
     7
100
AcDbLine
 10
-961.499999999993
 20
-1161.499999999995
 30
0.0
 11
-979.9999999999926
 21
-1161.499999999995
 31
0.0
  0
LINE
  5
1A3
330
74
100
AcDbEntity
  8
1
  6
Continuous
 62
     7
100
AcDbLine
 10
-961.499999999993
 20
-1152.999999999995
 30
0.0
 11
-961.499999999993
 21
-1161.499999999995
 31
0.0
  0
LINE
  5
1A4
330
74
100
AcDbEntity
  8
1
  6
Continuous
 62
     2
100
AcDbLine
 10
-1059.544804526745
 20
-1140.249999999995
 30
0.0
 11
-1059.544804526745
 21
-1144.499999999995
 31
0.0
  0
LINE
  5
1A5
330
74
100
AcDbEntity
  8
1
  6
Continuous
 62
     2
100
AcDbLine
 10
-1073.044804526745
 20
-1140.249999999995
 30
0.0
 11
-1073.044804526745
 21
-1144.499999999995
 31
0.0
  0
LINE
  5
1A6
330
74
100
AcDbEntity
  8
1
  6
Continuous
 62
     6
100
AcDbLine
 10
-1059.544804526745
 20
-1140.249999999995
 30
0.0
 11
-1073.044804526745
 21
-1140.249999999995
 31
0.0
  0
LINE
  5
1A7
330
74
100
AcDbEntity
  8
1
  6
Continuous
 62
     6
100
AcDbLine
 10
-1073.044804526745
 20
-1140.249999999995
 30
0.0
 11
-1086.544804526745
 21
-1140.249999999995
 31
0.0
  0
LINE
  5
1A8
330
74
100
AcDbEntity
  8
1
  6
Continuous
 62
     2
100
AcDbLine
 10
-1086.544804526745
 20
-1140.249999999995
 30
0.0
 11
-1086.544804526745
 21
-1144.499999999995
 31
0.0
  0
LINE
  5
1A9
330
74
100
AcDbEntity
  8
1
  6
Continuous
 62
     7
100
AcDbLine
 10
-1027.844804526745
 20
-1165.749999999995
 30
0.0
 11
-1027.844804526745
 21
-1169.999999999995
 31
0.0
  0
LINE
  5
1AA
330
74
100
AcDbEntity
  8
1
  6
Continuous
 62
     7
100
AcDbLine
 10
-1027.844804526745
 20
-1165.749999999995
 30
0.0
 11
-1046.044804526745
 21
-1165.749999999995
 31
0.0
  0
LINE
  5
1AB
330
74
100
AcDbEntity
  8
1
  6
Continuous
 62
     7
100
AcDbLine
 10
-1023.144804526745
 20
-1152.999999999995
 30
0.0
 11
-1036.644804526745
 21
-1152.999999999995
 31
0.0
  0
LINE
  5
1AC
330
74
100
AcDbEntity
  8
1
  6
Continuous
 62
     7
100
AcDbLine
 10
-1009.644804526745
 20
-1165.749999999995
 30
0.0
 11
-1027.844804526745
 21
-1165.749999999995
 31
0.0
  0
LINE
  5
1AD
330
74
100
AcDbEntity
  8
1
  6
Continuous
 62
     6
100
AcDbLine
 10
-1009.644804526745
 20
-1140.249999999995
 30
0.0
 11
-986.7448045267449
 21
-1140.249999999995
 31
0.0
  0
LINE
  5
1AE
330
74
100
AcDbEntity
  8
1
  6
Continuous
 62
     6
100
AcDbLine
 10
-943.2999999999932
 20
-1140.249999999995
 30
0.0
 11
-986.7448045267449
 21
-1140.249999999995
 31
0.0
  0
LINE
  5
1AF
330
74
100
AcDbEntity
  8
1
  6
Continuous
 62
     7
100
AcDbLine
 10
-986.7448045267449
 20
-1140.249999999995
 30
0.0
 11
-986.7448045267449
 21
-1148.749999999995
 31
0.0
  0
LINE
  5
1B0
330
74
100
AcDbEntity
  8
1
  6
Continuous
 62
     6
100
AcDbLine
 10
-1162.299999999995
 20
-1140.249999999995
 30
0.0
 11
-1168.499999999993
 21
-1140.249999999995
 31
0.0
  0
LINE
  5
1B1
330
74
100
AcDbEntity
  8
1
  6
Continuous
 62
     6
100
AcDbLine
 10
-1168.499999999993
 20
-1169.999999999995
 30
0.0
 11
-1168.499999999993
 21
-1165.749999999995
 31
0.0
  0
LINE
  5
1B2
330
74
100
AcDbEntity
  8
1
  6
Continuous
 62
     6
100
AcDbLine
 10
-1168.499999999993
 20
-1165.749999999995
 30
0.0
 11
-1168.499999999993
 21
-1161.499999999995
 31
0.0
  0
LINE
  5
1B3
330
74
100
AcDbEntity
  8
1
  6
Continuous
 62
     7
100
AcDbLine
 10
-1023.144804526745
 20
-1148.749999999995
 30
0.0
 11
-1023.144804526745
 21
-1152.999999999995
 31
0.0
  0
LINE
  5
1B4
330
74
100
AcDbEntity
  8
1
  6
Continuous
 62
     7
100
AcDbLine
 10
-1036.644804526745
 20
-1148.749999999995
 30
0.0
 11
-1036.644804526745
 21
-1152.999999999995
 31
0.0
  0
LINE
  5
1B5
330
74
100
AcDbEntity
  8
1
  6
Continuous
 62
     7
100
AcDbLine
 10
-1023.144804526745
 20
-1148.749999999995
 30
0.0
 11
-1036.644804526745
 21
-1148.749999999995
 31
0.0
  0
LINE
  5
1B6
330
74
100
AcDbEntity
  8
1
  6
Continuous
 62
     2
100
AcDbLine
 10
-1046.044804526745
 20
-1152.999999999995
 30
0.0
 11
-1059.544804526745
 21
-1152.999999999995
 31
0.0
  0
LINE
  5
1B7
330
74
100
AcDbEntity
  8
1
  6
Continuous
 62
     2
100
AcDbLine
 10
-1162.299999999995
 20
-1152.999999999995
 30
0.0
 11
-1162.299999999995
 21
-1148.749999999995
 31
0.0
  0
LINE
  5
1B8
330
74
100
AcDbEntity
  8
1
  6
Continuous
 62
     2
100
AcDbLine
 10
-1162.299999999995
 20
-1152.999999999995
 30
0.0
 11
-1168.499999999993
 21
-1152.999999999995
 31
0.0
  0
LINE
  5
1B9
330
74
100
AcDbEntity
  8
1
  6
Continuous
 62
     2
100
AcDbLine
 10
-1046.044804526745
 20
-1148.749999999995
 30
0.0
 11
-1059.544804526745
 21
-1148.749999999995
 31
0.0
  0
LINE
  5
1BA
330
74
100
AcDbEntity
  8
1
  6
Continuous
 62
     2
100
AcDbLine
 10
-1162.299999999995
 20
-1148.749999999995
 30
0.0
 11
-1162.299999999995
 21
-1144.499999999995
 31
0.0
  0
LINE
  5
1BB
330
74
100
AcDbEntity
  8
1
  6
Continuous
 62
     2
100
AcDbLine
 10
-1046.044804526745
 20
-1144.499999999995
 30
0.0
 11
-1059.544804526745
 21
-1144.499999999995
 31
0.0
  0
LINE
  5
1BC
330
74
100
AcDbEntity
  8
1
  6
Continuous
 62
     2
100
AcDbLine
 10
-1162.299999999995
 20
-1144.499999999995
 30
0.0
 11
-1162.299999999995
 21
-1140.249999999995
 31
0.0
  0
LINE
  5
1BD
330
74
100
AcDbEntity
  8
1
  6
Continuous
 62
     2
100
AcDbLine
 10
-1162.299999999995
 20
-1144.499999999995
 30
0.0
 11
-1168.499999999993
 21
-1144.499999999995
 31
0.0
  0
LINE
  5
1BE
330
74
100
AcDbEntity
  8
1
  6
Continuous
 62
     6
100
AcDbLine
 10
-1046.044804526745
 20
-1140.249999999995
 30
0.0
 11
-1059.544804526745
 21
-1140.249999999995
 31
0.0
  0
LINE
  5
1BF
330
74
100
AcDbEntity
  8
1
  6
Continuous
 62
     2
100
AcDbLine
 10
-1046.044804526745
 20
-1161.499999999995
 30
0.0
 11
-1059.544804526745
 21
-1161.499999999995
 31
0.0
  0
LINE
  5
1C0
330
74
100
AcDbEntity
  8
1
  6
Continuous
 62
     2
100
AcDbLine
 10
-1046.044804526745
 20
-1157.249999999995
 30
0.0
 11
-1059.544804526745
 21
-1157.249999999995
 31
0.0
  0
LINE
  5
1C1
330
74
100
AcDbEntity
  8
1
  6
Continuous
 62
     2
100
AcDbLine
 10
-1162.299999999995
 20
-1161.499999999995
 30
0.0
 11
-1162.299999999995
 21
-1157.249999999995
 31
0.0
  0
LINE
  5
1C2
330
74
100
AcDbEntity
  8
1
  6
Continuous
 62
     2
100
AcDbLine
 10
-1162.299999999995
 20
-1157.249999999995
 30
0.0
 11
-1162.299999999995
 21
-1152.999999999995
 31
0.0
  0
LINE
  5
1C3
330
74
100
AcDbEntity
  8
1
  6
Continuous
 62
     7
100
AcDbLine
 10
-1162.299999999995
 20
-1165.749999999995
 30
0.0
 11
-1148.799999999995
 21
-1165.749999999995
 31
0.0
  0
LINE
  5
1C4
330
74
100
AcDbEntity
  8
1
  6
Continuous
 62
     2
100
AcDbLine
 10
-1162.299999999995
 20
-1165.749999999995
 30
0.0
 11
-1162.299999999995
 21
-1161.499999999995
 31
0.0
  0
LINE
  5
1C5
330
74
100
AcDbEntity
  8
1
  6
Continuous
 62
     7
100
AcDbLine
 10
-1009.644804526745
 20
-1161.499999999995
 30
0.0
 11
-1009.644804526745
 21
-1157.249999999995
 31
0.0
  0
LINE
  5
1C6
330
74
100
AcDbEntity
  8
1
  6
Continuous
 62
     6
100
AcDbLine
 10
-1023.144804526745
 20
-1140.249999999995
 30
0.0
 11
-1009.644804526745
 21
-1140.249999999995
 31
0.0
  0
LINE
  5
1C7
330
74
100
AcDbEntity
  8
1
  6
Continuous
 62
     7
100
AcDbLine
 10
-1009.644804526745
 20
-1140.249999999995
 30
0.0
 11
-1009.644804526745
 21
-1144.499999999995
 31
0.0
  0
LINE
  5
1C8
330
74
100
AcDbEntity
  8
1
  6
Continuous
 62
     6
100
AcDbLine
 10
-1036.644804526745
 20
-1140.249999999995
 30
0.0
 11
-1023.144804526745
 21
-1140.249999999995
 31
0.0
  0
LINE
  5
1C9
330
74
100
AcDbEntity
  8
1
  6
Continuous
 62
     7
100
AcDbLine
 10
-1046.044804526745
 20
-1152.999999999995
 30
0.0
 11
-1046.044804526745
 21
-1157.249999999995
 31
0.0
  0
LINE
  5
1CA
330
74
100
AcDbEntity
  8
1
  6
Continuous
 62
     7
100
AcDbLine
 10
-1046.044804526745
 20
-1148.749999999995
 30
0.0
 11
-1046.044804526745
 21
-1152.999999999995
 31
0.0
  0
LINE
  5
1CB
330
74
100
AcDbEntity
  8
1
  6
Continuous
 62
     2
100
AcDbLine
 10
-1168.499999999993
 20
-1148.749999999995
 30
0.0
 11
-1162.299999999995
 21
-1148.749999999995
 31
0.0
  0
LINE
  5
1CC
330
74
100
AcDbEntity
  8
1
  6
Continuous
 62
     7
100
AcDbLine
 10
-1046.044804526745
 20
-1144.499999999995
 30
0.0
 11
-1046.044804526745
 21
-1148.749999999995
 31
0.0
  0
LINE
  5
1CD
330
74
100
AcDbEntity
  8
1
  6
Continuous
 62
     7
100
AcDbLine
 10
-1009.644804526745
 20
-1148.749999999995
 30
0.0
 11
-1009.644804526745
 21
-1152.999999999995
 31
0.0
  0
LINE
  5
1CE
330
74
100
AcDbEntity
  8
1
  6
Continuous
 62
     7
100
AcDbLine
 10
-1023.144804526745
 20
-1140.249999999995
 30
0.0
 11
-1023.144804526745
 21
-1144.499999999995
 31
0.0
  0
LINE
  5
1CF
330
74
100
AcDbEntity
  8
1
  6
Continuous
 62
     7
100
AcDbLine
 10
-1036.644804526745
 20
-1140.249999999995
 30
0.0
 11
-1036.644804526745
 21
-1144.499999999995
 31
0.0
  0
LINE
  5
1D0
330
74
100
AcDbEntity
  8
1
  6
Continuous
 62
     2
100
AcDbLine
 10
-1162.299999999995
 20
-1169.999999999995
 30
0.0
 11
-1162.299999999995
 21
-1165.749999999995
 31
0.0
  0
LINE
  5
1D1
330
74
100
AcDbEntity
  8
1
  6
Continuous
 62
     2
100
AcDbLine
 10
-1168.499999999993
 20
-1161.499999999995
 30
0.0
 11
-1162.299999999995
 21
-1161.499999999995
 31
0.0
  0
LINE
  5
1D2
330
74
100
AcDbEntity
  8
1
  6
Continuous
 62
     2
100
AcDbLine
 10
-1168.499999999993
 20
-1157.249999999995
 30
0.0
 11
-1162.299999999995
 21
-1157.249999999995
 31
0.0
  0
LINE
  5
1D3
330
74
100
AcDbEntity
  8
1
  6
Continuous
 62
     7
100
AcDbLine
 10
-1168.499999999993
 20
-1165.749999999995
 30
0.0
 11
-1162.299999999995
 21
-1165.749999999995
 31
0.0
  0
LINE
  5
1D4
330
74
100
AcDbEntity
  8
1
  6
Continuous
 62
     7
100
AcDbLine
 10
-1009.644804526745
 20
-1161.499999999995
 30
0.0
 11
-1009.644804526745
 21
-1165.749999999995
 31
0.0
  0
LINE
  5
1D5
330
74
100
AcDbEntity
  8
1
  6
Continuous
 62
     7
100
AcDbLine
 10
-1046.044804526745
 20
-1157.249999999995
 30
0.0
 11
-1046.044804526745
 21
-1161.499999999995
 31
0.0
  0
LINE
  5
1D6
330
74
100
AcDbEntity
  8
1
  6
Continuous
 62
     7
100
AcDbLine
 10
-1046.044804526745
 20
-1161.499999999995
 30
0.0
 11
-1046.044804526745
 21
-1165.749999999995
 31
0.0
  0
LINE
  5
1D7
330
74
100
AcDbEntity
  8
1
  6
Continuous
 62
     7
100
AcDbLine
 10
-1023.144804526745
 20
-1144.499999999995
 30
0.0
 11
-1023.144804526745
 21
-1148.749999999995
 31
0.0
  0
LINE
  5
1D8
330
74
100
AcDbEntity
  8
1
  6
Continuous
 62
     7
100
AcDbLine
 10
-1036.644804526745
 20
-1144.499999999995
 30
0.0
 11
-1036.644804526745
 21
-1148.749999999995
 31
0.0
  0
LINE
  5
1D9
330
74
100
AcDbEntity
  8
1
  6
Continuous
 62
     7
100
AcDbLine
 10
-1046.044804526745
 20
-1148.749999999995
 30
0.0
 11
-1036.644804526745
 21
-1148.749999999995
 31
0.0
  0
LINE
  5
1DA
330
74
100
AcDbEntity
  8
1
  6
Continuous
 62
     7
100
AcDbLine
 10
-1009.644804526745
 20
-1152.999999999995
 30
0.0
 11
-1023.144804526745
 21
-1152.999999999995
 31
0.0
  0
LINE
  5
1DB
330
74
100
AcDbEntity
  8
1
  6
Continuous
 62
     7
100
AcDbLine
 10
-1009.644804526745
 20
-1165.749999999995
 30
0.0
 11
-1009.644804526745
 21
-1169.999999999995
 31
0.0
  0
LINE
  5
1DC
330
74
100
AcDbEntity
  8
1
  6
Continuous
 62
     7
100
AcDbLine
 10
-1046.044804526745
 20
-1165.749999999995
 30
0.0
 11
-1046.044804526745
 21
-1169.999999999995
 31
0.0
  0
LINE
  5
1DD
330
74
100
AcDbEntity
  8
1
  6
Continuous
 62
     7
100
AcDbLine
 10
-1046.044804526745
 20
-1140.249999999995
 30
0.0
 11
-1046.044804526745
 21
-1144.499999999995
 31
0.0
  0
LINE
  5
1DE
330
74
100
AcDbEntity
  8
1
  6
Continuous
 62
     7
100
AcDbLine
 10
-1009.644804526745
 20
-1161.499999999995
 30
0.0
 11
-979.9999999999926
 21
-1161.499999999995
 31
0.0
  0
LINE
  5
1DF
330
74
100
AcDbEntity
  8
1
  6
Continuous
 62
     7
100
AcDbLine
 10
-1009.644804526745
 20
-1152.999999999995
 30
0.0
 11
-979.9999999999926
 21
-1152.999999999995
 31
0.0
  0
LINE
  5
1E0
330
74
100
AcDbEntity
  8
1
  6
Continuous
 62
     7
100
AcDbLine
 10
-943.2999999999929
 20
-1148.749999999995
 30
0.0
 11
-934.381591718314
 21
-1148.749999999995
 31
0.0
  0
LINE
  5
1E1
330
74
100
AcDbEntity
  8
1
  6
Continuous
 62
     7
100
AcDbLine
 10
-943.2999999999929
 20
-1148.749999999995
 30
0.0
 11
-979.9999999999926
 21
-1148.749999999995
 31
0.0
  0
LINE
  5
1E2
330
74
100
AcDbEntity
  8
1
  6
Continuous
 62
     7
100
AcDbLine
 10
-979.9999999999926
 20
-1152.999999999995
 30
0.0
 11
-961.499999999993
 21
-1152.999999999995
 31
0.0
  0
LINE
  5
1E3
330
74
100
AcDbEntity
  8
1
  6
Continuous
 62
     7
100
AcDbLine
 10
-979.9999999999926
 20
-1152.999999999995
 30
0.0
 11
-979.9999999999926
 21
-1161.499999999995
 31
0.0
  0
LINE
  5
1E4
330
74
100
AcDbEntity
  8
1
  6
Continuous
 62
     6
100
AcDbLine
 10
-1162.299999999995
 20
-1169.999999999995
 30
0.0
 11
-1168.499999999993
 21
-1169.999999999995
 31
0.0
  0
LINE
  5
1E5
330
74
100
AcDbEntity
  8
1
  6
Continuous
 62
     6
100
AcDbLine
 10
-1168.499999999993
 20
-1144.499999999995
 30
0.0
 11
-1168.499999999993
 21
-1140.249999999995
 31
0.0
  0
LINE
  5
1E6
330
74
100
AcDbEntity
  8
1
  6
Continuous
 62
     6
100
AcDbLine
 10
-1168.499999999993
 20
-1148.749999999995
 30
0.0
 11
-1168.499999999993
 21
-1144.499999999995
 31
0.0
  0
LINE
  5
1E7
330
74
100
AcDbEntity
  8
1
  6
Continuous
 62
     6
100
AcDbLine
 10
-1168.499999999993
 20
-1152.999999999995
 30
0.0
 11
-1168.499999999993
 21
-1148.749999999995
 31
0.0
  0
LINE
  5
1E8
330
74
100
AcDbEntity
  8
1
  6
Continuous
 62
     6
100
AcDbLine
 10
-1168.499999999993
 20
-1161.499999999995
 30
0.0
 11
-1168.499999999993
 21
-1157.249999999995
 31
0.0
  0
LINE
  5
1E9
330
74
100
AcDbEntity
  8
1
  6
Continuous
 62
     6
100
AcDbLine
 10
-1086.544804526745
 20
-1140.249999999995
 30
0.0
 11
-1148.799999999995
 21
-1140.249999999995
 31
0.0
  0
LINE
  5
1EA
330
74
100
AcDbEntity
  8
1
  6
Continuous
 62
     2
100
AcDbLine
 10
-1148.799999999995
 20
-1144.499999999995
 30
0.0
 11
-1086.544804526745
 21
-1144.499999999995
 31
0.0
  0
LINE
  5
1EB
330
74
100
AcDbEntity
  8
1
  6
Continuous
 62
     2
100
AcDbLine
 10
-1148.799999999995
 20
-1148.749999999995
 30
0.0
 11
-1086.544804526745
 21
-1148.749999999995
 31
0.0
  0
LINE
  5
1EC
330
74
100
AcDbEntity
  8
1
  6
Continuous
 62
     6
100
AcDbLine
 10
-1009.644804526745
 20
-1169.999999999995
 30
0.0
 11
-1009.999999999995
 21
-1169.999999999995
 31
0.0
  0
LINE
  5
1ED
330
74
100
AcDbEntity
  8
1
  6
Continuous
 62
     7
100
AcDbLine
 10
-1023.144804526745
 20
-1148.749999999995
 30
0.0
 11
-1009.644804526745
 21
-1148.749999999995
 31
0.0
  0
LINE
  5
1EE
330
74
100
AcDbEntity
  8
1
  6
Continuous
 62
     7
100
AcDbLine
 10
-986.7448045267449
 20
-1148.749999999995
 30
0.0
 11
-1009.644804526745
 21
-1148.749999999995
 31
0.0
  0
LINE
  5
1EF
330
74
100
AcDbEntity
  8
1
  6
Continuous
 62
     6
100
AcDbLine
 10
-916.4999999999932
 20
-1152.999999999995
 30
0.0
 11
-916.4999999999936
 21
-1161.499999999995
 31
0.0
  0
LINE
  5
1F0
330
74
100
AcDbEntity
  8
1
  6
Continuous
 62
     6
100
AcDbLine
 10
-1059.544804526745
 20
-1169.999999999995
 30
0.0
 11
-1046.044804526745
 21
-1169.999999999995
 31
0.0
  0
LINE
  5
1F1
330
74
100
AcDbEntity
  8
1
  6
Continuous
 62
     2
100
AcDbLine
 10
-1059.544804526745
 20
-1161.499999999995
 30
0.0
 11
-1059.544804526745
 21
-1165.749999999995
 31
0.0
  0
LINE
  5
1F2
330
74
100
AcDbEntity
  8
1
  6
Continuous
 62
     2
100
AcDbLine
 10
-1059.544804526745
 20
-1161.499999999995
 30
0.0
 11
-1073.044804526745
 21
-1161.499999999995
 31
0.0
  0
LINE
  5
1F3
330
74
100
AcDbEntity
  8
1
  6
Continuous
 62
     2
100
AcDbLine
 10
-1059.544804526745
 20
-1165.749999999995
 30
0.0
 11
-1059.544804526745
 21
-1169.999999999995
 31
0.0
  0
LINE
  5
1F4
330
74
100
AcDbEntity
  8
1
  6
Continuous
 62
     7
100
AcDbLine
 10
-1059.544804526745
 20
-1165.749999999995
 30
0.0
 11
-1046.044804526745
 21
-1165.749999999995
 31
0.0
  0
LINE
  5
1F5
330
74
100
AcDbEntity
  8
1
  6
Continuous
 62
     2
100
AcDbLine
 10
-1059.544804526745
 20
-1152.999999999995
 30
0.0
 11
-1059.544804526745
 21
-1157.249999999995
 31
0.0
  0
LINE
  5
1F6
330
74
100
AcDbEntity
  8
1
  6
Continuous
 62
     2
100
AcDbLine
 10
-1059.544804526745
 20
-1152.999999999995
 30
0.0
 11
-1073.044804526745
 21
-1152.999999999995
 31
0.0
  0
LINE
  5
1F7
330
74
100
AcDbEntity
  8
1
  6
Continuous
 62
     2
100
AcDbLine
 10
-1059.544804526745
 20
-1148.749999999995
 30
0.0
 11
-1059.544804526745
 21
-1152.999999999995
 31
0.0
  0
LINE
  5
1F8
330
74
100
AcDbEntity
  8
1
  6
Continuous
 62
     2
100
AcDbLine
 10
-1059.544804526745
 20
-1148.749999999995
 30
0.0
 11
-1073.044804526745
 21
-1148.749999999995
 31
0.0
  0
LINE
  5
1F9
330
74
100
AcDbEntity
  8
1
  6
Continuous
 62
     2
100
AcDbLine
 10
-1059.544804526745
 20
-1144.499999999995
 30
0.0
 11
-1059.544804526745
 21
-1148.749999999995
 31
0.0
  0
LINE
  5
1FA
330
74
100
AcDbEntity
  8
1
  6
Continuous
 62
     2
100
AcDbLine
 10
-1059.544804526745
 20
-1144.499999999995
 30
0.0
 11
-1073.044804526745
 21
-1144.499999999995
 31
0.0
  0
LINE
  5
1FB
330
74
100
AcDbEntity
  8
1
  6
Continuous
 62
     2
100
AcDbLine
 10
-1059.544804526745
 20
-1157.249999999995
 30
0.0
 11
-1059.544804526745
 21
-1161.499999999995
 31
0.0
  0
LINE
  5
1FC
330
74
100
AcDbEntity
  8
1
  6
Continuous
 62
     2
100
AcDbLine
 10
-1059.544804526745
 20
-1157.249999999995
 30
0.0
 11
-1073.044804526745
 21
-1157.249999999995
 31
0.0
  0
LINE
  5
1FD
330
74
100
AcDbEntity
  8
1
  6
Continuous
 62
     6
100
AcDbLine
 10
-1073.044804526745
 20
-1169.999999999995
 30
0.0
 11
-1059.999999999995
 21
-1169.999999999995
 31
0.0
  0
LINE
  5
1FE
330
74
100
AcDbEntity
  8
1
  6
Continuous
 62
     2
100
AcDbLine
 10
-1073.044804526745
 20
-1161.499999999995
 30
0.0
 11
-1073.044804526745
 21
-1165.749999999995
 31
0.0
  0
LINE
  5
1FF
330
74
100
AcDbEntity
  8
1
  6
Continuous
 62
     2
100
AcDbLine
 10
-1073.044804526745
 20
-1161.499999999995
 30
0.0
 11
-1086.544804526745
 21
-1161.499999999995
 31
0.0
  0
LINE
  5
200
330
74
100
AcDbEntity
  8
1
  6
Continuous
 62
     2
100
AcDbLine
 10
-1073.044804526745
 20
-1165.749999999995
 30
0.0
 11
-1073.044804526745
 21
-1169.999999999995
 31
0.0
  0
LINE
  5
201
330
74
100
AcDbEntity
  8
1
  6
Continuous
 62
     7
100
AcDbLine
 10
-1073.044804526745
 20
-1165.749999999995
 30
0.0
 11
-1059.544804526745
 21
-1165.749999999995
 31
0.0
  0
LINE
  5
202
330
74
100
AcDbEntity
  8
1
  6
Continuous
 62
     2
100
AcDbLine
 10
-1073.044804526745
 20
-1152.999999999995
 30
0.0
 11
-1073.044804526745
 21
-1157.249999999995
 31
0.0
  0
LINE
  5
203
330
74
100
AcDbEntity
  8
1
  6
Continuous
 62
     2
100
AcDbLine
 10
-1073.044804526745
 20
-1152.999999999995
 30
0.0
 11
-1086.544804526745
 21
-1152.999999999995
 31
0.0
  0
LINE
  5
204
330
74
100
AcDbEntity
  8
1
  6
Continuous
 62
     2
100
AcDbLine
 10
-1073.044804526745
 20
-1148.749999999995
 30
0.0
 11
-1073.044804526745
 21
-1152.999999999995
 31
0.0
  0
LINE
  5
205
330
74
100
AcDbEntity
  8
1
  6
Continuous
 62
     2
100
AcDbLine
 10
-1073.044804526745
 20
-1148.749999999995
 30
0.0
 11
-1086.544804526745
 21
-1148.749999999995
 31
0.0
  0
LINE
  5
206
330
74
100
AcDbEntity
  8
1
  6
Continuous
 62
     2
100
AcDbLine
 10
-1073.044804526745
 20
-1144.499999999995
 30
0.0
 11
-1073.044804526745
 21
-1148.749999999995
 31
0.0
  0
LINE
  5
207
330
74
100
AcDbEntity
  8
1
  6
Continuous
 62
     2
100
AcDbLine
 10
-1073.044804526745
 20
-1144.499999999995
 30
0.0
 11
-1086.544804526745
 21
-1144.499999999995
 31
0.0
  0
LINE
  5
208
330
74
100
AcDbEntity
  8
1
  6
Continuous
 62
     2
100
AcDbLine
 10
-1073.044804526745
 20
-1157.249999999995
 30
0.0
 11
-1073.044804526745
 21
-1161.499999999995
 31
0.0
  0
LINE
  5
209
330
74
100
AcDbEntity
  8
1
  6
Continuous
 62
     2
100
AcDbLine
 10
-1073.044804526745
 20
-1157.249999999995
 30
0.0
 11
-1086.544804526745
 21
-1157.249999999995
 31
0.0
  0
LINE
  5
20A
330
74
100
AcDbEntity
  8
1
  6
Continuous
 62
     6
100
AcDbLine
 10
-1086.544804526745
 20
-1169.999999999995
 30
0.0
 11
-1073.044804526745
 21
-1169.999999999995
 31
0.0
  0
LINE
  5
20B
330
74
100
AcDbEntity
  8
1
  6
Continuous
 62
     2
100
AcDbLine
 10
-1086.544804526745
 20
-1161.499999999995
 30
0.0
 11
-1086.544804526745
 21
-1165.749999999995
 31
0.0
  0
LINE
  5
20C
330
74
100
AcDbEntity
  8
1
  6
Continuous
 62
     2
100
AcDbLine
 10
-1086.544804526745
 20
-1161.499999999995
 30
0.0
 11
-1148.799999999995
 21
-1161.499999999995
 31
0.0
  0
LINE
  5
20D
330
74
100
AcDbEntity
  8
1
  6
Continuous
 62
     2
100
AcDbLine
 10
-1086.544804526745
 20
-1165.749999999995
 30
0.0
 11
-1086.544804526745
 21
-1169.999999999995
 31
0.0
  0
LINE
  5
20E
330
74
100
AcDbEntity
  8
1
  6
Continuous
 62
     7
100
AcDbLine
 10
-1086.544804526745
 20
-1165.749999999995
 30
0.0
 11
-1073.044804526745
 21
-1165.749999999995
 31
0.0
  0
LINE
  5
20F
330
74
100
AcDbEntity
  8
1
  6
Continuous
 62
     2
100
AcDbLine
 10
-1086.544804526745
 20
-1152.999999999995
 30
0.0
 11
-1086.544804526745
 21
-1157.249999999995
 31
0.0
  0
LINE
  5
210
330
74
100
AcDbEntity
  8
1
  6
Continuous
 62
     2
100
AcDbLine
 10
-1086.544804526745
 20
-1152.999999999995
 30
0.0
 11
-1148.799999999995
 21
-1152.999999999995
 31
0.0
  0
LINE
  5
211
330
74
100
AcDbEntity
  8
1
  6
Continuous
 62
     2
100
AcDbLine
 10
-1086.544804526745
 20
-1148.749999999995
 30
0.0
 11
-1086.544804526745
 21
-1152.999999999995
 31
0.0
  0
LINE
  5
212
330
74
100
AcDbEntity
  8
1
  6
Continuous
 62
     2
100
AcDbLine
 10
-1086.544804526745
 20
-1144.499999999995
 30
0.0
 11
-1086.544804526745
 21
-1148.749999999995
 31
0.0
  0
LINE
  5
213
330
74
100
AcDbEntity
  8
1
  6
Continuous
 62
     2
100
AcDbLine
 10
-1086.544804526745
 20
-1157.249999999995
 30
0.0
 11
-1086.544804526745
 21
-1161.499999999995
 31
0.0
  0
LINE
  5
214
330
74
100
AcDbEntity
  8
1
  6
Continuous
 62
     2
100
AcDbLine
 10
-1086.544804526745
 20
-1157.249999999995
 30
0.0
 11
-1148.799999999995
 21
-1157.249999999995
 31
0.0
  0
LINE
  5
215
330
74
100
AcDbEntity
  8
1
  6
Continuous
 62
     7
100
AcDbLine
 10
-1036.644804526745
 20
-1152.999999999995
 30
0.0
 11
-1046.044804526745
 21
-1152.999999999995
 31
0.0
  0
LINE
  5
216
330
74
100
AcDbEntity
  8
1
  6
Continuous
 62
     6
100
AcDbLine
 10
-1036.644804526745
 20
-1140.249999999995
 30
0.0
 11
-1046.044804526745
 21
-1140.249999999995
 31
0.0
  0
LINE
  5
217
330
74
100
AcDbEntity
  8
1
  6
Continuous
 62
     7
100
AcDbLine
 10
-1046.044804526745
 20
-1144.499999999995
 30
0.0
 11
-1036.644804526745
 21
-1144.499999999995
 31
0.0
  0
LINE
  5
218
330
74
100
AcDbEntity
  8
1
  6
Continuous
 62
     6
100
AcDbLine
 10
-1168.499999999993
 20
-1157.249999999995
 30
0.0
 11
-1168.499999999993
 21
-1152.999999999995
 31
0.0
  0
LINE
  5
219
330
74
100
AcDbEntity
  8
1
  6
Continuous
 62
     6
100
AcDbLine
 10
-916.4999999999932
 20
-1140.249999999995
 30
0.0
 11
-916.4999999999941
 21
-1148.749999999995
 31
0.0
  0
LINE
  5
21A
330
74
100
AcDbEntity
  8
1
  6
Continuous
 62
     6
100
AcDbLine
 10
-1168.499999999993
 20
-1169.999999999995
 30
0.0
 11
-1203.499999999993
 21
-1169.999999999995
 31
0.0
  0
LINE
  5
21B
330
74
100
AcDbEntity
  8
1
  6
Continuous
 62
     2
100
AcDbLine
 10
-1037.76453539223
 20
-1153.624999999995
 30
0.0
 11
-1033.76453539223
 21
-1154.124999999995
 31
0.0
  0
LINE
  5
21C
330
74
100
AcDbEntity
  8
1
  6
Continuous
 62
     2
100
AcDbLine
 10
-1033.76453539223
 20
-1154.124999999995
 30
0.0
 11
-1033.76453539223
 21
-1156.124999999995
 31
0.0
  0
LINE
  5
21D
330
74
100
AcDbEntity
  8
1
  6
Continuous
 62
     2
100
AcDbLine
 10
-1033.76453539223
 20
-1156.124999999995
 30
0.0
 11
-1037.76453539223
 21
-1156.624999999995
 31
0.0
  0
LINE
  5
21E
330
74
100
AcDbEntity
  8
1
  6
Continuous
 62
     2
100
AcDbLine
 10
-1037.76453539223
 20
-1156.624999999995
 30
0.0
 11
-1037.76453539223
 21
-1153.624999999995
 31
0.0
  0
LINE
  5
21F
330
74
100
AcDbEntity
  8
1
  6
Continuous
 62
     7
100
AcDbLine
 10
-979.9999999999926
 20
-1148.749999999995
 30
0.0
 11
-986.7448045267449
 21
-1148.749999999995
 31
0.0
  0
LINE
  5
220
330
74
100
AcDbEntity
  8
1
  6
Continuous
 62
     7
100
AcDbLine
 10
-979.9999999999926
 20
-1152.999999999995
 30
0.0
 11
-977.9999999999926
 21
-1152.999999999995
 31
0.0
  0
LINE
  5
221
330
74
100
AcDbEntity
  8
1
  6
Continuous
 62
     2
100
AcDbLine
 10
-945.0652633152059
 20
-1154.550219279028
 30
0.0
 11
-945.0652633152059
 21
-1156.607615243881
 31
0.0
  0
ARC
  5
222
102
{ACAD_REACTORS
330
2CB
330
2CC
102
}
330
74
100
AcDbEntity
  8
0
  6
Continuous
 62
     2
100
AcDbCircle
 10
-1030.16575659372
 20
-1162.888095238084
 30
0.0
 40
0.637851056759961
100
AcDbArc
 50
321.8795802028292
 51
38.12041979717083
  0
ARC
  5
223
102
{ACAD_REACTORS
330
2CB
330
2CC
102
}
330
74
100
AcDbEntity
  8
0
  6
Continuous
 62
     2
100
AcDbCircle
 10
-1030.000682183516
 20
-1163.017625137356
 30
0.0
 40
0.4280236140616781
100
AcDbArc
 50
218.1204197972403
 51
321.8795802026657
  0
ARC
  5
224
102
{ACAD_REACTORS
330
2CB
330
2CC
102
}
330
74
100
AcDbEntity
  8
0
  6
Continuous
 62
     2
100
AcDbCircle
 10
-1029.835607773313
 20
-1162.888095238084
 30
0.0
 40
0.6378510567597822
100
AcDbArc
 50
141.8795802028166
 51
218.1204197971834
  0
ARC
  5
225
102
{ACAD_REACTORS
330
2CB
330
2CC
102
}
330
74
100
AcDbEntity
  8
0
  6
Continuous
 62
     2
100
AcDbCircle
 10
-1030.000682183516
 20
-1162.758565338811
 30
0.0
 40
0.4280236140602223
100
AcDbArc
 50
38.12041979723848
 51
141.8795802028555
  0
ARC
  5
226
102
{ACAD_REACTORS
330
2C3
330
2C4
102
}
330
74
100
AcDbEntity
  8
0
  6
Continuous
 62
     2
100
AcDbCircle
 10
-1032.531272378197
 20
-1164.053769920239
 30
0.0
 40
1.840813230556093
100
AcDbArc
 50
58.06909105003578
 51
71.55192388185834
  0
ARC
  5
227
102
{ACAD_REACTORS
330
2C3
330
2C4
102
}
330
74
100
AcDbEntity
  8
0
  6
Continuous
 62
     2
100
AcDbCircle
 10
-1032.314968493108
 20
-1162.718614717969
 30
0.0
 40
0.4227934381777204
100
AcDbArc
 50
113.3722778880551
 51
151.4785267423156
  0
ARC
  5
228
102
{ACAD_REACTORS
330
2C3
330
2C4
102
}
330
74
100
AcDbEntity
  8
0
  6
Continuous
 62
     2
100
AcDbCircle
 10
-1032.003102990562
 20
-1162.888095238084
 30
0.0
 40
0.777735318456887
100
AcDbArc
 50
151.4785267422868
 51
208.5214732577279
  0
ARC
  5
229
102
{ACAD_REACTORS
330
2C3
330
2C4
102
}
330
74
100
AcDbEntity
  8
0
  6
Continuous
 62
     2
100
AcDbCircle
 10
-1032.661745828687
 20
-1160.150342390764
 30
0.0
 40
4.010410630990156
100
AcDbArc
 50
275.1581447696181
 51
285.9799912583478
  0
ARC
  5
22A
102
{ACAD_REACTORS
330
2C3
330
2C4
102
}
330
74
100
AcDbEntity
  8
0
  6
Continuous
 62
     2
100
AcDbCircle
 10
-1032.423021783451
 20
-1162.794880062848
 30
0.0
 40
1.355119937139691
100
AcDbArc
 50
195.0618917770944
 51
275.1581447696393
  0
ARC
  5
22B
102
{ACAD_REACTORS
330
2C3
330
2C4
102
}
330
74
100
AcDbEntity
  8
0
  6
Continuous
 62
     2
100
AcDbCircle
 10
-1032.769408430941
 20
-1162.888095238084
 30
0.0
 40
0.9964100565211342
100
AcDbArc
 50
164.9381082228745
 51
195.061891777075
  0
ARC
  5
22C
102
{ACAD_REACTORS
330
2C3
330
2C4
102
}
330
74
100
AcDbEntity
  8
0
  6
Continuous
 62
     2
100
AcDbCircle
 10
-1032.423021783451
 20
-1162.981310413319
 30
0.0
 40
1.355119937140639
100
AcDbArc
 50
84.84185523036163
 51
164.9381082228964
  0
ARC
  5
22D
102
{ACAD_REACTORS
330
2C7
330
2C8
102
}
330
74
100
AcDbEntity
  8
0
  6
Continuous
 62
     2
100
AcDbCircle
 10
-1036.41476910094
 20
-1162.0336929287
 30
0.0
 40
0.2609230769224314
100
AcDbArc
 50
115.3740086785008
 51
180.0
  0
ARC
  5
22E
102
{ACAD_REACTORS
330
2C7
330
2C8
102
}
330
74
100
AcDbEntity
  8
0
  6
Continuous
 62
     2
100
AcDbCircle
 10
-1036.41476910094
 20
-1160.200401027926
 30
0.0
 40
0.2609230769230635
100
AcDbArc
 50
180.0
 51
244.6259913215848
  0
ARC
  5
22F
102
{ACAD_REACTORS
330
2C7
330
2C8
102
}
330
74
100
AcDbEntity
  8
0
  6
Continuous
 62
     2
100
AcDbCircle
 10
-1036.4101276668
 20
-1161.107260250292
 30
0.0
 40
1.668232340440956
100
AcDbArc
 50
269.8110329575862
 51
90.18896704241374
  0
ARC
  5
230
102
{ACAD_REACTORS
330
2C7
330
2C8
102
}
330
74
100
AcDbEntity
  8
0
  6
Continuous
 62
     2
100
AcDbCircle
 10
-1036.41476910094
 20
-1162.514561859853
 30
0.0
 40
0.2609230769230635
100
AcDbArc
 50
180.0
 51
269.8110329573469
  0
ARC
  5
231
102
{ACAD_REACTORS
330
2C5
330
2C6
102
}
330
74
100
AcDbEntity
  8
0
  6
Continuous
 62
     2
100
AcDbCircle
 10
-1019.006950741659
 20
-1162.718614717969
 30
0.0
 40
0.4227934381770634
100
AcDbArc
 50
109.3371432195264
 51
151.4785267423817
  0
ARC
  5
232
102
{ACAD_REACTORS
330
2C5
330
2C6
102
}
330
74
100
AcDbEntity
  8
0
  6
Continuous
 62
     2
100
AcDbCircle
 10
-1019.006950741659
 20
-1163.057575758198
 30
0.0
 40
0.4227934381783149
100
AcDbArc
 50
208.5214732577265
 51
246.6277221118195
  0
ARC
  5
233
102
{ACAD_REACTORS
330
2C5
330
2C6
102
}
330
74
100
AcDbEntity
  8
0
  6
Continuous
 62
     2
100
AcDbCircle
 10
-1019.461390679491
 20
-1162.888095238084
 30
0.0
 40
0.9964100565238788
100
AcDbArc
 50
164.938108222917
 51
195.0618917770956
  0
ARC
  5
234
102
{ACAD_REACTORS
330
2C5
330
2C6
102
}
330
74
100
AcDbEntity
  8
0
  6
Continuous
 62
     2
100
AcDbCircle
 10
-1019.115004032002
 20
-1162.981310413319
 30
0.0
 40
1.355119937139989
100
AcDbArc
 50
90.0
 51
164.9381082229176
  0
ARC
  5
235
102
{ACAD_REACTORS
330
2C9
330
2CA
102
}
330
74
100
AcDbEntity
  8
0
  6
Continuous
 62
     2
100
AcDbCircle
 10
-1026.905909067295
 20
-1160.111904761907
 30
0.0
 40
1.261904761905953
100
AcDbArc
 50
90.0
 51
270.0
  0
ARC
  5
236
102
{ACAD_REACTORS
330
2CD
330
2CE
102
}
330
74
100
AcDbEntity
  8
0
  6
Continuous
 62
     2
100
AcDbCircle
 10
-1032.478380757564
 20
-1159.689644355465
 30
0.0
 40
0.2916229955960716
100
AcDbArc
 50
270.0
 51
90.0
  0
ARC
  5
237
102
{ACAD_REACTORS
330
2C7
330
2C8
102
}
330
74
100
AcDbEntity
  8
0
  6
Continuous
 62
     2
100
AcDbCircle
 10
-1038.543321734438
 20
-1159.699811965815
 30
0.0
 40
0.2609230769228361
100
AcDbArc
 50
90.0
 51
180.0
  0
ARC
  5
238
102
{ACAD_REACTORS
330
2C7
330
2C8
102
}
330
74
100
AcDbEntity
  8
0
  6
Continuous
 62
     2
100
AcDbCircle
 10
-1036.89173685131
 20
-1161.117046978313
 30
0.0
 40
0.7536343169896463
100
AcDbArc
 50
115.1944106485087
 51
244.8055893515134
  0
ARC
  5
239
102
{ACAD_REACTORS
330
2C7
330
2C8
102
}
330
74
100
AcDbEntity
  8
0
  6
Continuous
 62
     2
100
AcDbCircle
 10
-1037.323624824512
 20
-1162.035088090762
 30
0.0
 40
0.260923076922154
100
AcDbArc
 50
0.0
 51
64.8055893515024
  0
ARC
  5
23A
102
{ACAD_REACTORS
330
2C7
330
2C8
102
}
330
74
100
AcDbEntity
  8
0
  6
Continuous
 62
     2
100
AcDbCircle
 10
-1039.034143781335
 20
-1163.799384615375
 30
0.0
 40
0.3506153846140023
100
AcDbArc
 50
180.0
 51
270.0
  0
ARC
  5
23B
102
{ACAD_REACTORS
330
2C9
330
2CA
102
}
330
74
100
AcDbEntity
  8
0
  6
Continuous
 62
     2
100
AcDbCircle
 10
-1026.727171868811
 20
-1159.982374862634
 30
0.0
 40
0.4280236140609378
100
AcDbArc
 50
38.12041979716332
 51
141.8795802028555
  0
ARC
  5
23C
102
{ACAD_REACTORS
330
2C9
330
2CA
102
}
330
74
100
AcDbEntity
  8
0
  6
Continuous
 62
     2
100
AcDbCircle
 10
-1026.562097458608
 20
-1160.111904761907
 30
0.0
 40
0.637851056759961
100
AcDbArc
 50
141.8795802028292
 51
218.1204197971708
  0
ARC
  5
23D
102
{ACAD_REACTORS
330
2CB
330
2CC
102
}
330
74
100
AcDbEntity
  8
0
  6
Continuous
 62
     2
100
AcDbCircle
 10
-1030.000682183516
 20
-1162.442991923783
 30
0.0
 40
1.707008076206298
100
AcDbArc
 50
242.4518518243249
 51
297.5481481756682
  0
ARC
  5
23E
102
{ACAD_REACTORS
330
2CB
330
2CC
102
}
330
74
100
AcDbEntity
  8
0
  6
Continuous
 62
     2
100
AcDbCircle
 10
-1030.000682183516
 20
-1163.333198552384
 30
0.0
 40
1.707008076205184
100
AcDbArc
 50
62.45185182431405
 51
117.5481481756927
  0
ARC
  5
23F
102
{ACAD_REACTORS
330
2CB
330
2CC
102
}
330
74
100
AcDbEntity
  8
0
  6
Continuous
 62
     2
100
AcDbCircle
 10
-1030.232863912304
 20
-1162.888095238084
 30
0.0
 40
1.204986845992931
100
AcDbArc
 50
117.5481481756894
 51
242.4518518243156
  0
ARC
  5
240
102
{ACAD_REACTORS
330
2CB
330
2CC
102
}
330
74
100
AcDbEntity
  8
0
  6
Continuous
 62
     2
100
AcDbCircle
 10
-1029.768500454729
 20
-1162.888095238084
 30
0.0
 40
1.204986845993659
100
AcDbArc
 50
297.5481481757324
 51
62.45185182426265
  0
ARC
  5
241
102
{ACAD_REACTORS
330
2C9
330
2CA
102
}
330
74
100
AcDbEntity
  8
0
  6
Continuous
 62
     2
100
AcDbCircle
 10
-1026.727171868811
 20
-1160.24143466118
 30
0.0
 40
0.4280236140611167
100
AcDbArc
 50
218.1204197971445
 51
321.8795802028367
  0
ARC
  5
242
102
{ACAD_REACTORS
330
2C9
330
2CA
102
}
330
74
100
AcDbEntity
  8
0
  6
Continuous
 62
     2
100
AcDbCircle
 10
-1026.892246279014
 20
-1160.111904761907
 30
0.0
 40
0.6378510567597822
100
AcDbArc
 50
321.8795802028166
 51
38.12041979718343
  0
ARC
  5
243
102
{ACAD_REACTORS
330
2C7
330
2C8
102
}
330
74
100
AcDbEntity
  8
0
  6
Continuous
 62
     2
100
AcDbCircle
 10
-1034.510745359256
 20
-1163.799384615375
 30
0.0
 40
0.3506153846140023
100
AcDbArc
 50
270.0
 51
0.0
  0
ARC
  5
244
102
{ACAD_REACTORS
330
2C7
330
2C8
102
}
330
74
100
AcDbEntity
  8
0
  6
Continuous
 62
     2
100
AcDbCircle
 10
-1034.510745359256
 20
-1159.200615384631
 30
0.0
 40
0.3506153846149118
100
AcDbArc
 50
0.0
 51
90.0
  0
ARC
  5
245
102
{ACAD_REACTORS
330
2C7
330
2C8
102
}
330
74
100
AcDbEntity
  8
0
  6
Continuous
 62
     2
100
AcDbCircle
 10
-1039.034143781335
 20
-1159.200615384631
 30
0.0
 40
0.3506153846149118
100
AcDbArc
 50
90.0
 51
180.0
  0
ARC
  5
246
102
{ACAD_REACTORS
330
2C7
330
2C8
102
}
330
74
100
AcDbEntity
  8
0
  6
Continuous
 62
     2
100
AcDbCircle
 10
-1037.323624824512
 20
-1163.300188034176
 30
0.0
 40
0.2609230769230635
100
AcDbArc
 50
270.0
 51
0.0
  0
ARC
  5
247
102
{ACAD_REACTORS
330
2C7
330
2C8
102
}
330
74
100
AcDbEntity
  8
0
  6
Continuous
 62
     2
100
AcDbCircle
 10
-1037.323624824512
 20
-1160.199005865865
 30
0.0
 40
0.2609230769222711
100
AcDbArc
 50
295.1944106485188
 51
0.0
  0
ARC
  5
248
102
{ACAD_REACTORS
330
2C7
330
2C8
102
}
330
74
100
AcDbEntity
  8
0
  6
Continuous
 62
     2
100
AcDbCircle
 10
-1037.323624824512
 20
-1159.699811965815
 30
0.0
 40
0.260923076922154
100
AcDbArc
 50
0.0
 51
90.0
  0
ARC
  5
249
102
{ACAD_REACTORS
330
2C7
330
2C8
102
}
330
74
100
AcDbEntity
  8
0
  6
Continuous
 62
     2
100
AcDbCircle
 10
-1038.543321734438
 20
-1163.300188034176
 30
0.0
 40
0.2609230769219266
100
AcDbArc
 50
180.0
 51
270.0
  0
ARC
  5
24A
102
{ACAD_REACTORS
330
2CD
330
2CE
102
}
330
74
100
AcDbEntity
  8
0
  6
Continuous
 62
     2
100
AcDbCircle
 10
-1032.113527430094
 20
-1159.722203009368
 30
0.0
 40
0.8722030093658759
100
AcDbArc
 50
270.0
 51
90.0
  0
ARC
  5
24B
102
{ACAD_REACTORS
330
2C5
330
2C6
102
}
330
74
100
AcDbEntity
  8
0
  6
Continuous
 62
     2
100
AcDbCircle
 10
-1019.115004032002
 20
-1162.794880062848
 30
0.0
 40
1.355119937141853
100
AcDbArc
 50
195.0618917771195
 51
275.158144769678
  0
ARC
  5
24C
102
{ACAD_REACTORS
330
2C5
330
2C6
102
}
330
74
100
AcDbEntity
  8
0
  6
Continuous
 62
     2
100
AcDbCircle
 10
-1019.353728077239
 20
-1160.150342390764
 30
0.0
 40
4.010410630991483
100
AcDbArc
 50
275.1581447696474
 51
285.9799912583368
  0
ARC
  5
24D
102
{ACAD_REACTORS
330
2C5
330
2C6
102
}
330
74
100
AcDbEntity
  8
0
  6
Continuous
 62
     2
100
AcDbCircle
 10
-1019.223254626749
 20
-1161.722420555928
 30
0.0
 40
1.840813230556274
100
AcDbArc
 50
288.4480761181304
 51
301.9309089499282
  0
ARC
  5
24E
102
{ACAD_REACTORS
330
2C5
330
2C6
102
}
330
74
100
AcDbEntity
  8
0
  6
Continuous
 62
     2
100
AcDbCircle
 10
-1018.877661458433
 20
-1162.758408800587
 30
0.0
 40
0.7487023016403079
100
AcDbArc
 50
246.6277221117642
 51
288.4480761180542
  0
ARC
  5
24F
102
{ACAD_REACTORS
330
2C5
330
2C6
102
}
330
74
100
AcDbEntity
  8
0
  6
Continuous
 62
     2
100
AcDbCircle
 10
-1018.695085239112
 20
-1162.888095238084
 30
0.0
 40
0.777735318458685
100
AcDbArc
 50
151.4785267423588
 51
208.5214732576559
  0
ARC
  5
250
102
{ACAD_REACTORS
330
2C5
330
2C6
102
}
330
74
100
AcDbEntity
  8
0
  6
Continuous
 62
     2
100
AcDbCircle
 10
-1018.885735867193
 20
-1163.064032057128
 30
0.0
 40
0.7888619891120925
100
AcDbArc
 50
90.0
 51
109.3371432194716
  0
ARC
  5
251
102
{ACAD_REACTORS
330
2C7
330
2C8
102
}
330
74
100
AcDbEntity
  8
0
  6
Continuous
 62
     2
100
AcDbCircle
 10
-1036.41476910094
 20
-1159.699958640731
 30
0.0
 40
0.2609230769228104
100
AcDbArc
 50
90.18896704265309
 51
180.0
  0
ARC
  5
252
102
{ACAD_REACTORS
330
2C7
330
2C8
102
}
330
74
100
AcDbEntity
  8
0
  6
Continuous
 62
     2
100
AcDbCircle
 10
-1036.849515132418
 20
-1161.117046978313
 30
0.0
 40
0.7535935125164336
100
AcDbArc
 50
295.3740086781564
 51
64.62599132181401
  0
ARC
  5
253
102
{ACAD_REACTORS
330
2C3
330
2C4
102
}
330
74
100
AcDbEntity
  8
0
  6
Continuous
 62
     2
100
AcDbCircle
 10
-1032.531272378197
 20
-1161.722420555928
 30
0.0
 40
1.840813230556274
100
AcDbArc
 50
288.4480761181304
 51
301.9309089499642
  0
ARC
  5
254
102
{ACAD_REACTORS
330
2C3
330
2C4
102
}
330
74
100
AcDbEntity
  8
0
  6
Continuous
 62
     2
100
AcDbCircle
 10
-1032.185679209883
 20
-1162.758408800587
 30
0.0
 40
0.7487023016395412
100
AcDbArc
 50
246.6277221118999
 51
288.4480761182027
  0
ARC
  5
255
102
{ACAD_REACTORS
330
2C3
330
2C4
102
}
330
74
100
AcDbEntity
  8
0
  6
Continuous
 62
     2
100
AcDbCircle
 10
-1032.314968493108
 20
-1163.057575758198
 30
0.0
 40
0.4227934381774159
100
AcDbArc
 50
208.5214732577928
 51
246.6277221119327
  0
ARC
  5
256
102
{ACAD_REACTORS
330
2C3
330
2C4
102
}
330
74
100
AcDbEntity
  8
0
  6
Continuous
 62
     2
100
AcDbCircle
 10
-1032.185679209883
 20
-1163.017781675581
 30
0.0
 40
0.7487023016406927
100
AcDbArc
 50
71.55192388179726
 51
113.3722778880655
  0
ARC
  5
257
102
{ACAD_REACTORS
330
2C3
330
2C4
102
}
330
74
100
AcDbEntity
  8
0
  6
Continuous
 62
     2
100
AcDbCircle
 10
-1032.661745828687
 20
-1165.625848085403
 30
0.0
 40
4.01041063099059
100
AcDbArc
 50
74.02000874165223
 51
84.84185523038218
  0
CIRCLE
  5
258
102
{ACAD_REACTORS
330
2C7
330
2C8
102
}
330
74
100
AcDbEntity
  8
0
  6
Continuous
 62
     2
100
AcDbCircle
 10
-1036.869196962726
 20
-1161.117046978313
 30
0.0
 40
0.3892387874200267
  0
CIRCLE
  5
259
330
74
100
AcDbEntity
  8
1
  6
Continuous
 62
     2
100
AcDbCircle
 10
-1040.952544701642
 20
-1155.124999999995
 30
0.0
 40
1.0
  0
CIRCLE
  5
25A
330
74
100
AcDbEntity
  8
1
  6
Continuous
 62
     2
100
AcDbCircle
 10
-1040.952544701642
 20
-1155.124999999995
 30
0.0
 40
1.5
  0
MTEXT
  5
25C
330
74
100
AcDbEntity
  8
1
 62
     2
100
AcDbMText
 10
-1008.544804526745
 20
-1150.674999999995
 30
0.0
 40
1.4
 41
0.0
 71
     4
 72
     1
  1
SAP\Pchange-No.
  7
CONVERTER_12
 73
     1
 44
0.66026410564226
  0
MTEXT
  5
25D
330
74
100
AcDbEntity
  8
1
 62
     3
100
AcDbMText
 10
-999.31256770863
 20
-1150.874999999995
 30
0.0
 40
2.5
 41
0.0
 71
     4
 72
     1
  1
MIGRATION_1
  7
CONVERTER_12
 73
     1
 44
1.20048019207683
  0
TEXT
  5
25F
330
74
100
AcDbEntity
  8
1
 62
     3
100
AcDbText
 10
-1008.544804526745
 20
-1137.955228426391
 30
0.0
 40
2.5
  1
 
 41
0.72
  7
CONVERTER_13
100
AcDbText
  0
TEXT
  5
260
330
74
100
AcDbEntity
  8
1
 62
     3
100
AcDbText
 10
-1008.544804526745
 20
-1134.455228426391
 30
0.0
 40
2.5
  1
 
 41
0.72
  7
CONVERTER_13
100
AcDbText
  0
TEXT
  5
261
330
74
100
AcDbEntity
  8
1
 62
     3
100
AcDbText
 10
-1008.544804526745
 20
-1130.955228426391
 30
0.0
 40
2.5
  1
 
 41
0.72
  7
CONVERTER_13
100
AcDbText
  0
MTEXT
  5
263
330
74
100
AcDbEntity
  8
1
 62
     2
100
AcDbMText
 10
-1147.799999999995
 20
-1163.624999999995
 30
0.0
 40
2.0
 41
0.0
 71
     4
 72
     1
  1
 
  7
CONVERTER_14
 73
     1
 44
1.20048019207683
  0
MTEXT
  5
264
330
74
100
AcDbEntity
  8
1
 62
     2
100
AcDbMText
 10
-1147.799999999995
 20
-1159.374999999995
 30
0.0
 40
2.0
 41
0.0
 71
     4
 72
     1
  1
 
  7
CONVERTER_14
 73
     1
 44
1.20048019207683
  0
MTEXT
  5
265
330
74
100
AcDbEntity
  8
1
 62
     2
100
AcDbMText
 10
-1147.799999999995
 20
-1155.124999999995
 30
0.0
 40
2.0
 41
0.0
 71
     4
 72
     1
  1
 
  7
CONVERTER_14
 73
     1
 44
1.20048019207683
  0
MTEXT
  5
266
330
74
100
AcDbEntity
  8
1
 62
     2
100
AcDbMText
 10
-1147.799999999995
 20
-1150.874999999995
 30
0.0
 40
2.0
 41
0.0
 71
     4
 72
     1
  1
 
  7
CONVERTER_14
 73
     1
 44
1.20048019207683
  0
MTEXT
  5
267
330
74
100
AcDbEntity
  8
1
 62
     2
100
AcDbMText
 10
-1147.799999999995
 20
-1146.624999999995
 30
0.0
 40
2.0
 41
0.0
 71
     4
 72
     1
  1
 
  7
CONVERTER_14
 73
     1
 44
1.20048019207683
  0
MTEXT
  5
268
330
74
100
AcDbEntity
  8
1
 62
     2
100
AcDbMText
 10
-1147.799999999995
 20
-1142.374999999995
 30
0.0
 40
2.0
 41
0.0
 71
     4
 72
     1
  1
 
  7
CONVERTER_14
 73
     1
 44
1.20048019207683
  0
MTEXT
  5
269
330
74
100
AcDbEntity
  8
1
 62
     2
100
AcDbMText
 10
-1052.794804526745
 20
-1163.624999999995
 30
0.0
 40
2.0
 41
0.0
 71
     5
 72
     1
  1
 
  7
CONVERTER_11
 73
     1
 44
1.20048019207683
  0
MTEXT
  5
26A
330
74
100
AcDbEntity
  8
1
 62
     2
100
AcDbMText
 10
-1052.794804526745
 20
-1159.374999999995
 30
0.0
 40
2.0
 41
0.0
 71
     5
 72
     1
  1
 
  7
CONVERTER_11
 73
     1
 44
1.20048019207683
  0
MTEXT
  5
26B
330
74
100
AcDbEntity
  8
1
 62
     2
100
AcDbMText
 10
-1052.794804526745
 20
-1155.124999999995
 30
0.0
 40
2.0
 41
0.0
 71
     5
 72
     1
  1
 
  7
CONVERTER_11
 73
     1
 44
1.20048019207683
  0
MTEXT
  5
26C
330
74
100
AcDbEntity
  8
1
 62
     2
100
AcDbMText
 10
-1052.794804526745
 20
-1150.874999999995
 30
0.0
 40
2.0
 41
0.0
 71
     5
 72
     1
  1
 
  7
CONVERTER_11
 73
     1
 44
1.20048019207683
  0
MTEXT
  5
26D
330
74
100
AcDbEntity
  8
1
 62
     2
100
AcDbMText
 10
-1052.794804526745
 20
-1146.624999999995
 30
0.0
 40
2.0
 41
0.0
 71
     5
 72
     1
  1
 
  7
CONVERTER_11
 73
     1
 44
1.20048019207683
  0
MTEXT
  5
26E
330
74
100
AcDbEntity
  8
1
 62
     2
100
AcDbMText
 10
-1052.794804526745
 20
-1142.374999999995
 30
0.0
 40
2.0
 41
0.0
 71
     5
 72
     1
  1
 
  7
CONVERTER_11
 73
     1
 44
1.20048019207683
  0
MTEXT
  5
26F
330
74
100
AcDbEntity
  8
1
 62
     2
100
AcDbMText
 10
-1066.294804526745
 20
-1163.624999999995
 30
0.0
 40
2.0
 41
0.0
 71
     5
 72
     1
  1
 
  7
CONVERTER_11
 73
     1
 44
1.20048019207683
  0
MTEXT
  5
270
330
74
100
AcDbEntity
  8
1
 62
     2
100
AcDbMText
 10
-1066.294804526745
 20
-1159.374999999995
 30
0.0
 40
2.0
 41
0.0
 71
     5
 72
     1
  1
 
  7
CONVERTER_11
 73
     1
 44
1.20048019207683
  0
MTEXT
  5
271
330
74
100
AcDbEntity
  8
1
 62
     2
100
AcDbMText
 10
-1066.294804526745
 20
-1155.124999999995
 30
0.0
 40
2.0
 41
0.0
 71
     5
 72
     1
  1
 
  7
CONVERTER_11
 73
     1
 44
1.20048019207683
  0
MTEXT
  5
272
330
74
100
AcDbEntity
  8
1
 62
     2
100
AcDbMText
 10
-1066.294804526745
 20
-1150.874999999995
 30
0.0
 40
2.0
 41
0.0
 71
     5
 72
     1
  1
 
  7
CONVERTER_11
 73
     1
 44
1.20048019207683
  0
MTEXT
  5
273
330
74
100
AcDbEntity
  8
1
 62
     2
100
AcDbMText
 10
-1066.294804526745
 20
-1146.624999999995
 30
0.0
 40
2.0
 41
0.0
 71
     5
 72
     1
  1
 
  7
CONVERTER_11
 73
     1
 44
1.20048019207683
  0
MTEXT
  5
274
330
74
100
AcDbEntity
  8
1
 62
     2
100
AcDbMText
 10
-1066.294804526745
 20
-1142.374999999995
 30
0.0
 40
2.0
 41
0.0
 71
     5
 72
     1
  1
 
  7
CONVERTER_11
 73
     1
 44
1.20048019207683
  0
MTEXT
  5
275
330
74
100
AcDbEntity
  8
1
 62
     2
100
AcDbMText
 10
-1079.794804526745
 20
-1142.374999999995
 30
0.0
 40
2.0
 41
0.0
 71
     5
 72
     1
  1
 
  7
CONVERTER_11
 73
     1
 44
1.20048019207683
  0
MTEXT
  5
276
330
74
100
AcDbEntity
  8
1
 62
     2
100
AcDbMText
 10
-1079.794804526745
 20
-1146.624999999995
 30
0.0
 40
2.0
 41
0.0
 71
     5
 72
     1
  1
 
  7
CONVERTER_11
 73
     1
 44
1.20048019207683
  0
MTEXT
  5
277
330
74
100
AcDbEntity
  8
1
 62
     2
100
AcDbMText
 10
-1079.794804526745
 20
-1150.874999999995
 30
0.0
 40
2.0
 41
0.0
 71
     5
 72
     1
  1
 
  7
CONVERTER_11
 73
     1
 44
1.20048019207683
  0
MTEXT
  5
278
330
74
100
AcDbEntity
  8
1
 62
     2
100
AcDbMText
 10
-1079.794804526745
 20
-1155.124999999995
 30
0.0
 40
2.0
 41
0.0
 71
     5
 72
     1
  1
 
  7
CONVERTER_11
 73
     1
 44
1.20048019207683
  0
MTEXT
  5
279
330
74
100
AcDbEntity
  8
1
 62
     2
100
AcDbMText
 10
-1079.794804526745
 20
-1159.374999999995
 30
0.0
 40
2.0
 41
0.0
 71
     5
 72
     1
  1
 
  7
CONVERTER_11
 73
     1
 44
1.20048019207683
  0
MTEXT
  5
27A
330
74
100
AcDbEntity
  8
1
 62
     2
100
AcDbMText
 10
-1079.794804526745
 20
-1163.624999999995
 30
0.0
 40
2.0
 41
0.0
 71
     5
 72
     1
  1
 
  7
CONVERTER_11
 73
     1
 44
1.20048019207683
  0
MTEXT
  5
27B
330
74
100
AcDbEntity
  8
1
 62
     2
100
AcDbMText
 10
-1155.549999999995
 20
-1142.374999999995
 30
0.0
 40
2.0
 41
0.0
 71
     5
 72
     1
  1
 
  7
CONVERTER_11
 73
     1
 44
1.20048019207683
  0
MTEXT
  5
27C
330
74
100
AcDbEntity
  8
1
 62
     2
100
AcDbMText
 10
-1155.549999999995
 20
-1146.624999999995
 30
0.0
 40
2.0
 41
0.0
 71
     5
 72
     1
  1
 
  7
CONVERTER_11
 73
     1
 44
1.20048019207683
  0
MTEXT
  5
27D
330
74
100
AcDbEntity
  8
1
 62
     2
100
AcDbMText
 10
-1155.549999999995
 20
-1150.874999999995
 30
0.0
 40
2.0
 41
0.0
 71
     5
 72
     1
  1
 
  7
CONVERTER_11
 73
     1
 44
1.20048019207683
  0
MTEXT
  5
27E
330
74
100
AcDbEntity
  8
1
 62
     2
100
AcDbMText
 10
-1155.549999999995
 20
-1155.124999999995
 30
0.0
 40
2.0
 41
0.0
 71
     5
 72
     1
  1
 
  7
CONVERTER_11
 73
     1
 44
1.20048019207683
  0
MTEXT
  5
27F
330
74
100
AcDbEntity
  8
1
 62
     2
100
AcDbMText
 10
-1155.549999999995
 20
-1159.374999999995
 30
0.0
 40
2.0
 41
0.0
 71
     5
 72
     1
  1
 
  7
CONVERTER_11
 73
     1
 44
1.20048019207683
  0
MTEXT
  5
280
330
74
100
AcDbEntity
  8
1
 62
     2
100
AcDbMText
 10
-1155.549999999995
 20
-1163.624999999995
 30
0.0
 40
2.0
 41
0.0
 71
     5
 72
     1
  1
 
  7
CONVERTER_11
 73
     1
 44
1.20048019207683
  0
MTEXT
  5
281
330
74
100
AcDbEntity
  8
1
 62
     2
100
AcDbMText
 10
-1165.399999999994
 20
-1163.624999999995
 30
0.0
 40
2.0
 41
0.0
 71
     5
 72
     1
  1
 
  7
CONVERTER_11
 73
     1
 44
1.20048019207683
  0
MTEXT
  5
282
330
74
100
AcDbEntity
  8
1
 62
     2
100
AcDbMText
 10
-1165.399999999994
 20
-1159.374999999995
 30
0.0
 40
2.0
 41
0.0
 71
     5
 72
     1
  1
 
  7
CONVERTER_11
 73
     1
 44
1.20048019207683
  0
MTEXT
  5
283
330
74
100
AcDbEntity
  8
1
 62
     2
100
AcDbMText
 10
-1165.399999999994
 20
-1155.124999999995
 30
0.0
 40
2.0
 41
0.0
 71
     5
 72
     1
  1
 
  7
CONVERTER_11
 73
     1
 44
1.20048019207683
  0
MTEXT
  5
284
330
74
100
AcDbEntity
  8
1
 62
     2
100
AcDbMText
 10
-1165.399999999994
 20
-1150.874999999995
 30
0.0
 40
2.0
 41
0.0
 71
     5
 72
     1
  1
 
  7
CONVERTER_11
 73
     1
 44
1.20048019207683
  0
MTEXT
  5
285
330
74
100
AcDbEntity
  8
1
 62
     2
100
AcDbMText
 10
-1165.399999999994
 20
-1146.624999999995
 30
0.0
 40
2.0
 41
0.0
 71
     5
 72
     1
  1
 
  7
CONVERTER_11
 73
     1
 44
1.20048019207683
  0
MTEXT
  5
286
330
74
100
AcDbEntity
  8
1
 62
     2
100
AcDbMText
 10
-1165.399999999994
 20
-1142.374999999995
 30
0.0
 40
2.0
 41
0.0
 71
     5
 72
     1
  1
 
  7
CONVERTER_11
 73
     1
 44
1.20048019207683
  0
MTEXT
  5
287
330
74
100
AcDbEntity
  8
1
 62
     2
100
AcDbMText
 10
-978.9999999999926
 20
-1149.749999999995
 30
0.0
 40
1.8
 41
0.0
 71
     1
 72
     1
  1
part-rev.
  7
CONVERTER_13
 73
     1
 44
1.20048019207683
  0
MTEXT
  5
288
330
74
100
AcDbEntity
  8
1
 62
     2
100
AcDbMText
 10
-960.499999999993
 20
-1153.999999999995
 30
0.0
 40
1.8
 41
0.0
 71
     1
 72
     1
  1
surface in um
  7
CONVERTER_11
 73
     1
 44
1.32052821128451
  0
MTEXT
  5
289
330
74
100
AcDbEntity
  8
1
 62
     7
100
AcDbMText
 10
-913.9999999999959
 20
-1094.999999999993
 30
0.0
 40
3.5
 41
0.0
 71
     5
 72
     1
  1
C
  7
CONVERTER_11
 73
     1
 44
1.20048019207683
  0
MTEXT
  5
28A
330
74
100
AcDbEntity
  8
1
 62
     7
100
AcDbMText
 10
-913.9999999999959
 20
-992.4999999999949
 30
0.0
 40
3.5
 41
0.0
 71
     5
 72
     1
  1
A
  7
CONVERTER_11
 73
     1
 44
1.20048019207683
  0
MTEXT
  5
28B
330
74
100
AcDbEntity
  8
1
 62
     7
100
AcDbMText
 10
-913.9999999999959
 20
-1044.999999999993
 30
0.0
 40
3.5
 41
0.0
 71
     5
 72
     1
  1
B
  7
CONVERTER_11
 73
     1
 44
1.20048019207683
  0
MTEXT
  5
28C
330
74
100
AcDbEntity
  8
1
 62
     7
100
AcDbMText
 10
-913.9999999999959
 20
-1147.499999999995
 30
0.0
 40
3.5
 41
0.0
 71
     5
 72
     1
  1
D
  7
CONVERTER_11
 73
     1
 44
1.20048019207683
  0
MTEXT
  5
28D
330
74
100
AcDbEntity
  8
1
 62
     3
100
AcDbMText
 10
-1203.494932213923
 20
-983.2086918446961
 30
0.0
 40
1.8
 41
0.0
 71
     7
 72
     1
  3
Weitergabe sowie Vervielf\U+00e4ltigung dieses Dokuments, Verwertung und\PMitteilung seines Inhalts gem\U+00e4\U+00df \U+00a718 UWG verboten, soweit nicht aus-\Pdr\U+00fccklich gestattet. Zuwiderhandlungen verpflichten zu Schadenersatz\P(\U+00a719 U
  1
WG). Alle Rechte vorbehalten, insbesondere das Recht, Patent-,\PGebrauchsmuster- oder Geschmacksmusteranmeldungen durchzuf\U+00fchren.\PPhoenix Contact GmbH & Co. KG
  7
CONVERTER_11
 73
     1
 44
0.99639855942377
  0
MTEXT
  5
28E
330
74
100
AcDbEntity
  8
1
 62
     3
100
AcDbMText
 10
-1030.641822375135
 20
-983.2086918446961
 30
0.0
 40
1.8
 41
0.0
 71
     7
 72
     1
  3
The copying, distribution and utilistion of this document as well as the communication\Pof the contents to others without expressed authorization is prohibited according to\P\U+00a718 UWG German Law. Offenders will be held liable for the payment of 
  1
damages\Paccording to (\U+00a719 UWG German Law). All rights reserved, in particular the right to\Pcarry out patent, utility model or ornamental design registrations.\PFlachsmarktstra\U+00dfe 8  D-32825 Blomberg
  7
CONVERTER_11
 73
     1
 44
0.99639855942377
  0
MTEXT
  5
28F
330
74
100
AcDbEntity
  8
1
 62
     7
100
AcDbMText
 10
-1184.249999999995
 20
-1172.499999999995
 30
0.0
 40
3.5
 41
0.0
 71
     5
 72
     1
  1
1
  7
CONVERTER_11
 73
     1
 44
1.20048019207683
  0
MTEXT
  5
290
330
74
100
AcDbEntity
  8
1
 62
     7
100
AcDbMText
 10
-1134.999999999995
 20
-1172.499999999995
 30
0.0
 40
3.5
 41
0.0
 71
     5
 72
     1
  1
2
  7
CONVERTER_11
 73
     1
 44
1.20048019207683
  0
MTEXT
  5
291
330
74
100
AcDbEntity
  8
1
 62
     7
100
AcDbMText
 10
-1084.999999999995
 20
-1172.499999999995
 30
0.0
 40
3.5
 41
0.0
 71
     5
 72
     1
  1
3
  7
CONVERTER_11
 73
     1
 44
1.20048019207683
  0
MTEXT
  5
292
330
74
100
AcDbEntity
  8
1
 62
     7
100
AcDbMText
 10
-1034.999999999995
 20
-1172.499999999995
 30
0.0
 40
3.5
 41
0.0
 71
     5
 72
     1
  1
4
  7
CONVERTER_11
 73
     1
 44
1.20048019207683
  0
MTEXT
  5
293
330
74
100
AcDbEntity
  8
1
 62
     7
100
AcDbMText
 10
-984.9999999999949
 20
-1172.499999999995
 30
0.0
 40
3.5
 41
0.0
 71
     5
 72
     1
  1
5
  7
CONVERTER_11
 73
     1
 44
1.20048019207683
  0
MTEXT
  5
294
330
74
100
AcDbEntity
  8
1
 62
     7
100
AcDbMText
 10
-935.7499999999957
 20
-1172.499999999995
 30
0.0
 40
3.5
 41
0.0
 71
     5
 72
     1
  1
6
  7
CONVERTER_11
 73
     1
 44
1.20048019207683
  0
MTEXT
  5
295
330
74
100
AcDbEntity
  8
1
 62
     7
100
AcDbMText
 10
-1205.999999999994
 20
-992.4999999999949
 30
0.0
 40
3.5
 41
0.0
 71
     5
 72
     1
  1
A
  7
CONVERTER_11
 73
     1
 44
1.20048019207683
  0
MTEXT
  5
296
330
74
100
AcDbEntity
  8
1
 62
     7
100
AcDbMText
 10
-1205.999999999994
 20
-1044.999999999995
 30
0.0
 40
3.5
 41
0.0
 71
     5
 72
     1
  1
B
  7
CONVERTER_11
 73
     1
 44
1.20048019207683
  0
MTEXT
  5
297
330
74
100
AcDbEntity
  8
1
 62
     7
100
AcDbMText
 10
-1205.999999999994
 20
-1094.999999999995
 30
0.0
 40
3.5
 41
0.0
 71
     5
 72
     1
  1
C
  7
CONVERTER_11
 73
     1
 44
1.20048019207683
  0
MTEXT
  5
298
330
74
100
AcDbEntity
  8
1
 62
     7
100
AcDbMText
 10
-1205.999999999994
 20
-1147.499999999995
 30
0.0
 40
3.5
 41
0.0
 71
     5
 72
     1
  1
D
  7
CONVERTER_11
 73
     1
 44
1.20048019207683
  0
MTEXT
  5
299
330
74
100
AcDbEntity
  8
1
 62
     2
100
AcDbMText
 10
-933.0815917183141
 20
-1141.249999999995
 30
0.0
 40
1.8
 41
0.0
 71
     1
 72
     1
  1
dim.var.
  7
CONVERTER_11
 73
     1
 44
1.20048019207683
  0
MTEXT
  5
29B
330
74
100
AcDbEntity
  8
1
 62
     2
100
AcDbMText
 10
-978.9999999999926
 20
-1153.999999999995
 30
0.0
 40
1.8
 41
0.0
 71
     1
 72
     1
  1
document-No.
  7
CONVERTER_15
 73
     1
 44
1.32052821128451
  0
TEXT
  5
29C
330
74
100
AcDbEntity
  8
1
 62
     2
100
AcDbText
 10
-1026.844804526745
 20
-1168.759017214986
 30
0.0
 40
1.8
  1
of
 41
0.9
  7
CONVERTER_11
100
AcDbText
  0
TEXT
  5
29D
330
74
100
AcDbEntity
  8
1
 62
     2
100
AcDbText
 10
-1045.044804526745
 20
-1168.759017214987
 30
0.0
 40
1.8
  1
page
 41
0.9
  7
CONVERTER_11
100
AcDbText
  0
MTEXT
  5
29E
330
74
100
AcDbEntity
  8
1
 62
     2
100
AcDbMText
 10
-1052.794804526745
 20
-1168.749999999995
 30
0.0
 40
1.8
 41
0.0
 71
     8
 72
     1
  1
name
  7
CONVERTER_11
 73
     1
 44
1.32052821128451
  0
MTEXT
  5
29F
330
74
100
AcDbEntity
  8
1
 62
     2
100
AcDbMText
 10
-1066.294804526745
 20
-1168.749999999995
 30
0.0
 40
1.8
 41
0.0
 71
     8
 72
     1
  1
check.on
  7
CONVERTER_11
 73
     1
 44
1.32052821128451
  0
MTEXT
  5
2A0
330
74
100
AcDbEntity
  8
1
 62
     2
100
AcDbMText
 10
-1079.794804526745
 20
-1168.749999999995
 30
0.0
 40
1.8
 41
0.0
 71
     8
 72
     1
  1
name
  7
CONVERTER_11
 73
     1
 44
1.32052821128451
  0
MTEXT
  5
2A1
330
74
100
AcDbEntity
  8
1
 62
     2
100
AcDbMText
 10
-1155.549999999995
 20
-1168.749999999995
 30
0.0
 40
1.8
 41
0.0
 71
     8
 72
     1
  1
date
  7
CONVERTER_11
 73
     1
 44
1.32052821128451
  0
MTEXT
  5
2A2
330
74
100
AcDbEntity
  8
1
 62
     2
100
AcDbMText
 10
-985.5196153691535
 20
-1141.249999999995
 30
0.0
 40
1.8
 41
0.0
 71
     1
 72
     1
  1
material
  7
CONVERTER_11
 73
     1
 44
1.20048019207683
  0
MTEXT
  5
2A3
330
74
100
AcDbEntity
  8
1
 62
     2
100
AcDbMText
 10
-1165.399999999994
 20
-1168.749999999995
 30
0.0
 40
1.8
 41
0.0
 71
     8
 72
     1
  1
RI
  7
CONVERTER_11
 73
     1
 44
1.32052821128451
  0
MTEXT
  5
2A4
330
74
100
AcDbEntity
  8
1
 62
     2
100
AcDbMText
 10
-1029.894804526745
 20
-1143.299999999995
 30
0.0
 40
1.8
 41
0.0
 71
     8
 72
     1
  1
date
  7
CONVERTER_11
 73
     1
 44
1.32052821128451
  0
MTEXT
  5
2A5
330
74
100
AcDbEntity
  8
1
 62
     2
100
AcDbMText
 10
-1016.394804526745
 20
-1143.299999999995
 30
0.0
 40
1.8
 41
0.0
 71
     8
 72
     1
  1
name
  7
CONVERTER_11
 73
     1
 44
1.32052821128451
  0
MTEXT
  5
2A6
330
74
100
AcDbEntity
  8
1
 62
     2
100
AcDbMText
 10
-1117.67240226337
 20
-1168.749999999995
 30
0.0
 40
1.8
 41
0.0
 71
     8
 72
     1
  1
revision
  7
CONVERTER_11
 73
     1
 44
1.32052821128451
  0
MTEXT
  5
2A7
330
74
100
AcDbEntity
  8
1
 62
     2
100
AcDbMText
 10
-942.199999999993
 20
-1141.249999999995
 30
0.0
 40
1.8
 41
0.0
 71
     1
 72
     1
  1
scale
  7
CONVERTER_11
 73
     1
 44
1.20048019207683
  0
MTEXT
  5
2A8
330
74
100
AcDbEntity
  8
1
 62
     2
100
AcDbMText
 10
-1041.344804526745
 20
-1146.624999999995
 30
0.0
 40
1.8
 41
0.0
 71
     5
 72
     1
  1
creat.
  7
CONVERTER_11
 73
     1
 44
1.20048019207683
  0
MTEXT
  5
2A9
330
74
100
AcDbEntity
  8
1
 62
     2
100
AcDbMText
 10
-1041.344804526745
 20
-1150.874999999995
 30
0.0
 40
1.8
 41
0.0
 71
     5
 72
     1
  1
check.
  7
CONVERTER_11
 73
     1
 44
1.20048019207683
  0
MTEXT
  5
2AA
330
74
100
AcDbEntity
  8
1
 62
     3
100
AcDbMText
 10
-1019.844804526745
 20
-1155.124999999995
 30
0.0
 40
2.5
 41
0.0
 71
     5
 72
     1
  1
DIN A4
  7
CONVERTER_11
 73
     1
 44
1.20048019207683
  0
MTEXT
  5
2AB
330
74
100
AcDbEntity
  8
1
 62
     2
100
AcDbMText
 10
-1008.544804526745
 20
-1141.249999999995
 30
0.0
 40
1.8
 41
0.0
 71
     1
 72
     1
  1
ident.-No. / RI
  7
CONVERTER_11
 73
     1
 44
1.20048019207683
  0
TEXT
  5
2AC
330
74
100
AcDbEntity
  8
1
 62
     2
100
AcDbText
 10
-1036.398539556403
 20
-1168.799248653797
 30
0.0
 40
1.8
  1
 
 41
0.9
  7
CONVERTER_11
100
AcDbText
  0
TEXT
  5
2AD
330
74
100
AcDbEntity
  8
1
 62
     2
100
AcDbText
 10
-1021.609495716931
 20
-1168.749999999995
 30
0.0
 40
1.8
  1
1
 41
0.9
  7
CONVERTER_11
100
AcDbText
  0
MTEXT
  5
2AE
330
74
100
AcDbEntity
  8
1
 62
     2
100
AcDbMText
 10
-1008.644804526745
 20
-1162.499999999995
 30
0.0
 40
1.8
 41
0.0
 71
     1
 72
     1
  1
description
  7
CONVERTER_11
 73
     1
 44
1.20048019207683
  0
MTEXT
  5
2AF
330
74
100
AcDbEntity
  8
1
 62
     2
100
AcDbMText
 10
-1041.344804526745
 20
-1143.299999999995
 30
0.0
 40
1.8
 41
0.0
 71
     8
 72
     1
  1
00
  7
CONVERTER_11
 73
     1
 44
1.20048019207683
  0
MTEXT
  5
2B0
330
74
100
AcDbEntity
  8
1
 62
     2
100
AcDbMText
 10
-1008.644804526745
 20
-1153.999999999995
 30
0.0
 40
1.8
 41
0.0
 71
     1
 72
     1
  1
document-type
  7
CONVERTER_11
 73
     1
 44
1.20048019207683
  0
MTEXT
  5
2B1
330
74
100
AcDbEntity
  8
1
 62
     2
100
AcDbMText
 10
-1016.394804526745
 20
-1150.874999999995
 30
0.0
 40
1.8
 41
0.0
 71
     5
 72
     1
  1
Schr\U+00f6der
  7
CONVERTER_11
 73
     1
 44
1.32052821128451
  0
MTEXT
  5
2B2
330
74
100
AcDbEntity
  8
1
 62
     2
100
AcDbMText
 10
-1016.394804526745
 20
-1146.624999999995
 30
0.0
 40
1.8
 41
0.0
 71
     5
 72
     1
  1
Angenent
  7
CONVERTER_11
 73
     1
 44
1.32052821128451
  0
MTEXT
  5
2B3
330
74
100
AcDbEntity
  8
1
 62
     2
100
AcDbMText
 10
-1029.894804526745
 20
-1150.874999999995
 30
0.0
 40
1.8
 41
0.0
 71
     5
 72
     1
  1
05.06.13
  7
CONVERTER_11
 73
     1
 44
1.32052821128451
  0
MTEXT
  5
2B4
330
74
100
AcDbEntity
  8
1
 62
     2
100
AcDbMText
 10
-1029.894804526745
 20
-1146.624999999995
 30
0.0
 40
1.8
 41
0.0
 71
     5
 72
     1
  1
10.09.09
  7
CONVERTER_11
 73
     1
 44
1.32052821128451
  0
TEXT
  5
2B5
330
74
100
AcDbEntity
  8
1
 62
     7
100
AcDbText
 10
-993.6712568047311
 20
-1147.449999999995
 30
0.0
 40
2.5
  1
/
 41
0.9
  7
CONVERTER_11
100
AcDbText
  0
TEXT
  5
2B7
330
74
100
AcDbEntity
  8
1
 62
     3
100
AcDbText
 10
-960.499999999993
 20
-1160.199999999995
 30
0.0
 40
2.5
  1
Sn 8-25
 41
0.54
  7
CONVERTER_16
100
AcDbText
  0
MTEXT
  5
2B9
330
74
100
AcDbEntity
  8
1
 62
     7
100
AcDbMText
 10
-963.0724022633694
 20
-1166.749999999995
 30
0.0
 40
3.0
 41
0.0
 71
     5
 72
     1
  1
NLS-CU 3/10 SN 1000MM
  7
CONVERTER_17
 73
     1
 44
1.20048019207683
  0
MTEXT
  5
2BA
330
74
100
AcDbEntity
  8
1
 62
     3
100
AcDbMText
 10
-938.8407958591536
 20
-1147.449999999995
 30
0.0
 40
2.5
 41
0.0
 71
     8
 72
     1
  1
1:1
  7
CONVERTER_13
 73
     1
 44
1.32052821128451
  0
TEXT
  5
2BB
330
74
100
AcDbEntity
  8
1
 62
     3
100
AcDbText
 10
-985.7448045267449
 20
-1147.449999999995
 30
0.0
 40
2.5
  1
E-Cu58 Rm 330-370
 41
0.54
  7
CONVERTER_16
100
AcDbText
  0
TEXT
  5
2BC
330
74
100
AcDbEntity
  8
1
 62
     7
100
AcDbText
 10
-1008.144804526745
 20
-1147.449999999995
 30
0.0
 40
2.5
  1
0402174
 41
0.81
  7
CONVERTER_17
100
AcDbText
  0
TEXT
  5
2BD
330
74
100
AcDbEntity
  8
1
 62
     7
100
AcDbText
 10
-978.9999999999926
 20
-1160.199999999995
 30
0.0
 40
2.5
  1
00527753
 41
0.81
  7
CONVERTER_17
100
AcDbText
  0
TEXT
  5
2BE
330
74
100
AcDbEntity
  8
1
 62
     3
100
AcDbText
 10
-933.381591718314
 20
-1147.449999999995
 30
0.0
 40
2.5
  1
 
 41
0.54
  7
CONVERTER_16
100
AcDbText
  0
TEXT
  5
2C0
330
74
100
AcDbEntity
  8
1
 62
     3
100
AcDbText
 10
-1008.644804526745
 20
-1160.199999999995
 30
0.0
 40
2.5
  1
KUNDENZCHNG-SELECT
 41
0.45
  7
CONVERTER_18
100
AcDbText
  0
TEXT
  5
2C1
330
74
100
AcDbEntity
  8
1
 62
     7
100
AcDbText
 10
-991.5148923076891
 20
-1147.449999999995
 30
0.0
 40
2.5
  1
01
 41
0.81
  7
CONVERTER_17
100
AcDbText
  0
MTEXT
  5
2C2
330
74
100
AcDbEntity
  8
1
 62
     3
100
AcDbMText
 10
-968.7929801133846
 20
-1149.649999999995
 30
0.0
 40
2.0
 41
0.0
 71
     1
 72
     1
  1
Oberfl\U+00e4che in Sn 8
  7
CONVERTER_13
 73
     1
 44
1.20048019207683
  0
HATCH
  5
2C3
330
74
100
AcDbEntity
  8
1
  6
Continuous
 62
     2
100
AcDbHatch
 10
0.0
 20
0.0
 30
0.0
210
0.0
220
0.0
230
1.0
  2
_USER
 70
     0
 71
     1
 91
        1
 92
        1
 93
       14
 72
     2
 10
-1032.769408430941
 20
-1162.888095238084
 40
0.9964100565211342
 50
164.9381082228745
 51
195.061891777075
 73
     1
 72
     2
 10
-1032.423021783451
 20
-1162.794880062848
 40
1.355119937139691
 50
195.0618917770944
 51
275.1581447696393
 73
     1
 72
     2
 10
-1032.661745828687
 20
-1160.150342390764
 40
4.010410630990156
 50
275.1581447696181
 51
285.9799912583478
 73
     1
 72
     1
 10
-1031.557673169912
 20
-1164.005782312914
 11
-1031.557673169912
 21
-1163.284693877539
 72
     2
 10
-1032.531272378197
 20
-1161.722420555928
 40
1.840813230556274
 50
58.06909105003577
 51
71.55192388186957
 73
     0
 72
     2
 10
-1032.185679209883
 20
-1162.758408800587
 40
0.7487023016395412
 50
71.55192388179725
 51
113.3722778881001
 73
     0
 72
     2
 10
-1032.314968493108
 20
-1163.057575758198
 40
0.4227934381774159
 50
113.3722778880674
 51
151.4785267422073
 73
     0
 72
     2
 10
-1032.003102990562
 20
-1162.888095238084
 40
0.777735318456887
 50
151.4785267422721
 51
208.5214732577132
 73
     0
 72
     2
 10
-1032.314968493108
 20
-1162.718614717969
 40
0.4227934381777204
 50
208.5214732576844
 51
246.6277221119449
 73
     0
 72
     2
 10
-1032.185679209883
 20
-1163.017781675581
 40
0.7487023016406927
 50
246.6277221119344
 51
288.4480761182027
 73
     0
 72
     2
 10
-1032.531272378197
 20
-1164.053769920239
 40
1.840813230556093
 50
288.4480761181416
 51
301.9309089499642
 73
     0
 72
     1
 10
-1031.557673169912
 20
-1162.491496598628
 11
-1031.557673169912
 21
-1161.770408163253
 72
     2
 10
-1032.661745828687
 20
-1165.625848085403
 40
4.01041063099059
 50
74.02000874165223
 51
84.84185523038218
 73
     1
 72
     2
 10
-1032.423021783451
 20
-1162.981310413319
 40
1.355119937140639
 50
84.84185523036163
 51
164.9381082228964
 73
     1
 97
       14
330
257
330
E1
330
226
330
256
330
227
330
228
330
255
330
254
330
253
330
E2
330
229
330
22A
330
22B
330
22C
 75
     1
 76
     0
 52
45.0
 41
0.1
 77
     0
 78
     1
 53
45.0
 43
0.0
 44
0.0
 45
-0.0707106781186548
 46
0.0707106781186548
 79
     0
 98
        1
 10
0.0
 20
0.0
  0
HATCH
  5
2C4
330
74
100
AcDbEntity
  8
1
  6
Continuous
 62
     2
100
AcDbHatch
 10
0.0
 20
0.0
 30
0.0
210
0.0
220
0.0
230
1.0
  2
_USER
 70
     0
 71
     1
 91
        1
 92
        1
 93
       14
 72
     2
 10
-1032.769408430941
 20
-1162.888095238084
 40
0.9964100565211342
 50
164.9381082228745
 51
195.061891777075
 73
     1
 72
     2
 10
-1032.423021783451
 20
-1162.794880062848
 40
1.355119937139691
 50
195.0618917770944
 51
275.1581447696393
 73
     1
 72
     2
 10
-1032.661745828687
 20
-1160.150342390764
 40
4.010410630990156
 50
275.1581447696181
 51
285.9799912583478
 73
     1
 72
     1
 10
-1031.557673169912
 20
-1164.005782312914
 11
-1031.557673169912
 21
-1163.284693877539
 72
     2
 10
-1032.531272378197
 20
-1161.722420555928
 40
1.840813230556274
 50
58.06909105003577
 51
71.55192388186957
 73
     0
 72
     2
 10
-1032.185679209883
 20
-1162.758408800587
 40
0.7487023016395412
 50
71.55192388179725
 51
113.3722778881001
 73
     0
 72
     2
 10
-1032.314968493108
 20
-1163.057575758198
 40
0.4227934381774159
 50
113.3722778880674
 51
151.4785267422073
 73
     0
 72
     2
 10
-1032.003102990562
 20
-1162.888095238084
 40
0.777735318456887
 50
151.4785267422721
 51
208.5214732577132
 73
     0
 72
     2
 10
-1032.314968493108
 20
-1162.718614717969
 40
0.4227934381777204
 50
208.5214732576844
 51
246.6277221119449
 73
     0
 72
     2
 10
-1032.185679209883
 20
-1163.017781675581
 40
0.7487023016406927
 50
246.6277221119344
 51
288.4480761182027
 73
     0
 72
     2
 10
-1032.531272378197
 20
-1164.053769920239
 40
1.840813230556093
 50
288.4480761181416
 51
301.9309089499642
 73
     0
 72
     1
 10
-1031.557673169912
 20
-1162.491496598628
 11
-1031.557673169912
 21
-1161.770408163253
 72
     2
 10
-1032.661745828687
 20
-1165.625848085403
 40
4.01041063099059
 50
74.02000874165223
 51
84.84185523038218
 73
     1
 72
     2
 10
-1032.423021783451
 20
-1162.981310413319
 40
1.355119937140639
 50
84.84185523036163
 51
164.9381082228964
 73
     1
 97
       14
330
257
330
E1
330
226
330
256
330
227
330
228
330
255
330
254
330
253
330
E2
330
229
330
22A
330
22B
330
22C
 75
     1
 76
     0
 52
45.0
 41
0.1
 77
     0
 78
     1
 53
45.0
 43
0.0
 44
0.0
 45
-0.0707106781186548
 46
0.0707106781186548
 79
     0
 98
        1
 10
0.0
 20
0.0
  0
HATCH
  5
2C5
330
74
100
AcDbEntity
  8
1
  6
Continuous
 62
     2
100
AcDbHatch
 10
0.0
 20
0.0
 30
0.0
210
0.0
220
0.0
230
1.0
  2
_USER
 70
     0
 71
     1
 91
        1
 92
        1
 93
       18
 72
     2
 10
-1019.115004032002
 20
-1162.981310413319
 40
1.355119937139989
 50
90.0
 51
164.9381082229176
 73
     1
 72
     2
 10
-1019.461390679491
 20
-1162.888095238084
 40
0.9964100565238788
 50
164.938108222917
 51
195.0618917770956
 73
     1
 72
     2
 10
-1019.115004032002
 20
-1162.794880062848
 40
1.355119937141853
 50
195.0618917771195
 51
275.158144769678
 73
     1
 72
     2
 10
-1019.353728077239
 20
-1160.150342390764
 40
4.010410630991483
 50
275.1581447696474
 51
285.9799912583368
 73
     1
 72
     1
 10
-1018.249655418465
 20
-1164.005782312914
 11
-1018.249655418465
 21
-1163.28469387754
 72
     2
 10
-1019.223254626749
 20
-1161.722420555928
 40
1.840813230556274
 50
58.0690910500718
 51
71.55192388186957
 73
     0
 72
     2
 10
-1018.877661458433
 20
-1162.758408800587
 40
0.7487023016403079
 50
71.5519238819458
 51
113.3722778882358
 73
     0
 72
     2
 10
-1019.006950741659
 20
-1163.057575758198
 40
0.4227934381783149
 50
113.3722778881805
 51
151.4785267422735
 73
     0
 72
     2
 10
-1018.695085239112
 20
-1162.888095238084
 40
0.777735318458685
 50
151.4785267423441
 51
208.5214732576412
 73
     0
 72
     2
 10
-1019.006950741659
 20
-1162.718614717969
 40
0.4227934381770634
 50
208.5214732576183
 51
250.6628567804736
 73
     0
 72
     2
 10
-1018.885735867193
 20
-1163.064032057128
 40
0.7888619891120925
 50
250.6628567805284
 51
270.0
 73
     0
 72
     1
 10
-1018.885735867193
 20
-1162.275170068016
 11
-1017.973637272509
 21
-1162.275170068016
 72
     1
 10
-1017.973637272509
 20
-1162.275170068016
 11
-1017.973637272509
 21
-1164.149999999989
 72
     1
 10
-1017.973637272509
 20
-1164.149999999989
 11
-1016.987858179808
 21
-1164.149999999989
 72
     1
 10
-1016.987858179808
 20
-1164.149999999989
 11
-1016.987858179808
 21
-1162.275170068016
 72
     1
 10
-1016.987858179808
 20
-1162.275170068016
 11
-1016.317528396772
 21
-1162.275170068016
 72
     1
 10
-1016.317528396772
 20
-1162.275170068016
 11
-1016.317528396772
 21
-1161.626190476178
 72
     1
 10
-1016.317528396772
 20
-1161.626190476178
 11
-1019.115004032002
 21
-1161.626190476179
 97
       18
330
147
330
146
330
145
330
144
330
149
330
E3
330
250
330
231
330
24F
330
232
330
24E
330
24D
330
E4
330
24C
330
24B
330
233
330
234
330
148
 75
     1
 76
     0
 52
45.0
 41
0.1
 77
     0
 78
     1
 53
45.0
 43
0.0
 44
0.0
 45
-0.0707106781186548
 46
0.0707106781186548
 79
     0
 98
        1
 10
0.0
 20
0.0
  0
HATCH
  5
2C6
330
74
100
AcDbEntity
  8
1
  6
Continuous
 62
     2
100
AcDbHatch
 10
0.0
 20
0.0
 30
0.0
210
0.0
220
0.0
230
1.0
  2
_USER
 70
     0
 71
     1
 91
        1
 92
        1
 93
       18
 72
     2
 10
-1019.115004032002
 20
-1162.981310413319
 40
1.355119937139989
 50
90.0
 51
164.9381082229176
 73
     1
 72
     2
 10
-1019.461390679491
 20
-1162.888095238084
 40
0.9964100565238788
 50
164.938108222917
 51
195.0618917770956
 73
     1
 72
     2
 10
-1019.115004032002
 20
-1162.794880062848
 40
1.355119937141853
 50
195.0618917771195
 51
275.158144769678
 73
     1
 72
     2
 10
-1019.353728077239
 20
-1160.150342390764
 40
4.010410630991483
 50
275.1581447696474
 51
285.9799912583368
 73
     1
 72
     1
 10
-1018.249655418465
 20
-1164.005782312914
 11
-1018.249655418465
 21
-1163.28469387754
 72
     2
 10
-1019.223254626749
 20
-1161.722420555928
 40
1.840813230556274
 50
58.0690910500718
 51
71.55192388186957
 73
     0
 72
     2
 10
-1018.877661458433
 20
-1162.758408800587
 40
0.7487023016403079
 50
71.5519238819458
 51
113.3722778882358
 73
     0
 72
     2
 10
-1019.006950741659
 20
-1163.057575758198
 40
0.4227934381783149
 50
113.3722778881805
 51
151.4785267422735
 73
     0
 72
     2
 10
-1018.695085239112
 20
-1162.888095238084
 40
0.777735318458685
 50
151.4785267423441
 51
208.5214732576412
 73
     0
 72
     2
 10
-1019.006950741659
 20
-1162.718614717969
 40
0.4227934381770634
 50
208.5214732576183
 51
250.6628567804736
 73
     0
 72
     2
 10
-1018.885735867193
 20
-1163.064032057128
 40
0.7888619891120925
 50
250.6628567805284
 51
270.0
 73
     0
 72
     1
 10
-1018.885735867193
 20
-1162.275170068016
 11
-1017.973637272509
 21
-1162.275170068016
 72
     1
 10
-1017.973637272509
 20
-1162.275170068016
 11
-1017.973637272509
 21
-1164.149999999989
 72
     1
 10
-1017.973637272509
 20
-1164.149999999989
 11
-1016.987858179808
 21
-1164.149999999989
 72
     1
 10
-1016.987858179808
 20
-1164.149999999989
 11
-1016.987858179808
 21
-1162.275170068016
 72
     1
 10
-1016.987858179808
 20
-1162.275170068016
 11
-1016.317528396772
 21
-1162.275170068016
 72
     1
 10
-1016.317528396772
 20
-1162.275170068016
 11
-1016.317528396772
 21
-1161.626190476178
 72
     1
 10
-1016.317528396772
 20
-1161.626190476178
 11
-1019.115004032002
 21
-1161.626190476179
 97
       18
330
147
330
146
330
145
330
144
330
149
330
E3
330
250
330
231
330
24F
330
232
330
24E
330
24D
330
E4
330
24C
330
24B
330
233
330
234
330
148
 75
     1
 76
     0
 52
45.0
 41
0.1
 77
     0
 78
     1
 53
45.0
 43
0.0
 44
0.0
 45
-0.0707106781186548
 46
0.0707106781186548
 79
     0
 98
        1
 10
0.0
 20
0.0
  0
HATCH
  5
2C7
330
74
100
AcDbEntity
  8
1
  6
Continuous
 62
     2
100
AcDbHatch
 10
0.0
 20
0.0
 30
0.0
210
0.0
220
0.0
230
1.0
  2
_USER
 70
     0
 71
     1
 91
        4
 92
        1
 93
        8
 72
     2
 10
-1039.034143781335
 20
-1159.200615384631
 40
0.3506153846149118
 50
90.0
 51
180.0
 73
     1
 72
     1
 10
-1039.384759165949
 20
-1159.200615384631
 11
-1039.384759165949
 21
-1163.799384615375
 72
     2
 10
-1039.034143781335
 20
-1163.799384615375
 40
0.3506153846140023
 50
180.0
 51
270.0
 73
     1
 72
     1
 10
-1039.034143781335
 20
-1164.149999999989
 11
-1034.510745359256
 21
-1164.149999999989
 72
     2
 10
-1034.510745359256
 20
-1163.799384615375
 40
0.3506153846140023
 50
270.0
 51
360.0
 73
     1
 72
     1
 10
-1034.160129974641
 20
-1163.799384615375
 11
-1034.160129974641
 21
-1159.200615384631
 72
     2
 10
-1034.510745359256
 20
-1159.200615384631
 40
0.3506153846149118
 50
0.0
 51
90.0
 73
     1
 72
     1
 10
-1034.510745359256
 20
-1158.850000000016
 11
-1039.034143781335
 21
-1158.850000000016
 97
        8
330
244
330
112
330
243
330
113
330
23A
330
110
330
245
330
111
 92
       16
 93
        1
 72
     2
 10
-1036.869196962726
 20
-1161.117046978313
 40
0.3892387874200267
 50
0.0
 51
360.0
 73
     1
 97
        1
330
258
 92
       16
 93
        8
 72
     2
 10
-1036.849515132418
 20
-1161.117046978313
 40
0.7535935125164336
 50
295.3740086781564
 51
424.625991321814
 73
     1
 72
     2
 10
-1036.41476910094
 20
-1160.200401027926
 40
0.2609230769230635
 50
115.3740086784152
 51
180.0
 73
     0
 72
     1
 10
-1036.675692177863
 20
-1160.200401027926
 11
-1036.675692177863
 21
-1159.699958640731
 72
     2
 10
-1036.41476910094
 20
-1159.699958640731
 40
0.2609230769228104
 50
180.0
 51
269.8110329573469
 73
     0
 72
     2
 10
-1036.4101276668
 20
-1161.107260250292
 40
1.668232340440956
 50
269.8110329575862
 51
450.1889670424138
 73
     0
 72
     2
 10
-1036.41476910094
 20
-1162.514561859853
 40
0.2609230769230635
 50
90.18896704265306
 51
180.0
 73
     0
 72
     1
 10
-1036.675692177863
 20
-1162.514561859853
 11
-1036.675692177863
 21
-1162.0336929287
 72
     2
 10
-1036.41476910094
 20
-1162.0336929287
 40
0.2609230769224314
 50
180.0
 51
244.6259913214992
 73
     0
 97
        8
330
252
330
22E
330
14B
330
251
330
22F
330
230
330
14A
330
22D
 92
       16
 93
       12
 72
     1
 10
-1038.543321734438
 20
-1163.561111111099
 11
-1037.323624824512
 21
-1163.561111111099
 72
     2
 10
-1037.323624824512
 20
-1163.300188034176
 40
0.2609230769230635
 50
270.0
 51
360.0
 73
     1
 72
     1
 10
-1037.06270174759
 20
-1163.300188034176
 11
-1037.06270174759
 21
-1162.035088090762
 72
     2
 10
-1037.323624824512
 20
-1162.035088090762
 40
0.260923076922154
 50
0.0
 51
64.8055893515024
 73
     1
 72
     2
 10
-1036.89173685131
 20
-1161.117046978313
 40
0.7536343169896463
 50
115.1944106484866
 51
244.8055893514913
 73
     0
 72
     2
 10
-1037.323624824512
 20
-1160.199005865865
 40
0.2609230769222711
 50
295.1944106485188
 51
360.0
 73
     1
 72
     1
 10
-1037.06270174759
 20
-1160.199005865865
 11
-1037.06270174759
 21
-1159.699811965815
 72
     2
 10
-1037.323624824512
 20
-1159.699811965815
 40
0.260923076922154
 50
0.0
 51
90.0
 73
     1
 72
     1
 10
-1037.323624824512
 20
-1159.438888888892
 11
-1038.543321734438
 21
-1159.438888888892
 72
     2
 10
-1038.543321734438
 20
-1159.699811965815
 40
0.2609230769228361
 50
90.0
 51
180.0
 73
     1
 72
     1
 10
-1038.80424481136
 20
-1159.699811965815
 11
-1038.80424481136
 21
-1163.300188034176
 72
     2
 10
-1038.543321734438
 20
-1163.300188034176
 40
0.2609230769219266
 50
180.0
 51
270.0
 73
     1
 97
       12
330
117
330
237
330
116
330
248
330
115
330
247
330
238
330
239
330
114
330
246
330
10F
330
249
 75
     1
 76
     0
 52
45.0
 41
0.1
 77
     0
 78
     1
 53
45.0
 43
0.0
 44
0.0
 45
-0.0707106781186548
 46
0.0707106781186548
 79
     0
 98
        1
 10
0.0
 20
0.0
  0
HATCH
  5
2C8
330
74
100
AcDbEntity
  8
1
  6
Continuous
 62
     2
100
AcDbHatch
 10
0.0
 20
0.0
 30
0.0
210
0.0
220
0.0
230
1.0
  2
_USER
 70
     0
 71
     1
 91
        4
 92
        1
 93
        8
 72
     2
 10
-1039.034143781335
 20
-1159.200615384631
 40
0.3506153846149118
 50
90.0
 51
180.0
 73
     1
 72
     1
 10
-1039.384759165949
 20
-1159.200615384631
 11
-1039.384759165949
 21
-1163.799384615375
 72
     2
 10
-1039.034143781335
 20
-1163.799384615375
 40
0.3506153846140023
 50
180.0
 51
270.0
 73
     1
 72
     1
 10
-1039.034143781335
 20
-1164.149999999989
 11
-1034.510745359256
 21
-1164.149999999989
 72
     2
 10
-1034.510745359256
 20
-1163.799384615375
 40
0.3506153846140023
 50
270.0
 51
360.0
 73
     1
 72
     1
 10
-1034.160129974641
 20
-1163.799384615375
 11
-1034.160129974641
 21
-1159.200615384631
 72
     2
 10
-1034.510745359256
 20
-1159.200615384631
 40
0.3506153846149118
 50
0.0
 51
90.0
 73
     1
 72
     1
 10
-1034.510745359256
 20
-1158.850000000016
 11
-1039.034143781335
 21
-1158.850000000016
 97
        8
330
244
330
112
330
243
330
113
330
23A
330
110
330
245
330
111
 92
       16
 93
        1
 72
     2
 10
-1036.869196962726
 20
-1161.117046978313
 40
0.3892387874200267
 50
0.0
 51
360.0
 73
     1
 97
        1
330
258
 92
       16
 93
        8
 72
     2
 10
-1036.849515132418
 20
-1161.117046978313
 40
0.7535935125164336
 50
295.3740086781564
 51
424.625991321814
 73
     1
 72
     2
 10
-1036.41476910094
 20
-1160.200401027926
 40
0.2609230769230635
 50
115.3740086784152
 51
180.0
 73
     0
 72
     1
 10
-1036.675692177863
 20
-1160.200401027926
 11
-1036.675692177863
 21
-1159.699958640731
 72
     2
 10
-1036.41476910094
 20
-1159.699958640731
 40
0.2609230769228104
 50
180.0
 51
269.8110329573469
 73
     0
 72
     2
 10
-1036.4101276668
 20
-1161.107260250292
 40
1.668232340440956
 50
269.8110329575862
 51
450.1889670424138
 73
     0
 72
     2
 10
-1036.41476910094
 20
-1162.514561859853
 40
0.2609230769230635
 50
90.18896704265306
 51
180.0
 73
     0
 72
     1
 10
-1036.675692177863
 20
-1162.514561859853
 11
-1036.675692177863
 21
-1162.0336929287
 72
     2
 10
-1036.41476910094
 20
-1162.0336929287
 40
0.2609230769224314
 50
180.0
 51
244.6259913214992
 73
     0
 97
        8
330
252
330
22E
330
14B
330
251
330
22F
330
230
330
14A
330
22D
 92
       16
 93
       12
 72
     1
 10
-1038.543321734438
 20
-1163.561111111099
 11
-1037.323624824512
 21
-1163.561111111099
 72
     2
 10
-1037.323624824512
 20
-1163.300188034176
 40
0.2609230769230635
 50
270.0
 51
360.0
 73
     1
 72
     1
 10
-1037.06270174759
 20
-1163.300188034176
 11
-1037.06270174759
 21
-1162.035088090762
 72
     2
 10
-1037.323624824512
 20
-1162.035088090762
 40
0.260923076922154
 50
0.0
 51
64.8055893515024
 73
     1
 72
     2
 10
-1036.89173685131
 20
-1161.117046978313
 40
0.7536343169896463
 50
115.1944106484866
 51
244.8055893514913
 73
     0
 72
     2
 10
-1037.323624824512
 20
-1160.199005865865
 40
0.2609230769222711
 50
295.1944106485188
 51
360.0
 73
     1
 72
     1
 10
-1037.06270174759
 20
-1160.199005865865
 11
-1037.06270174759
 21
-1159.699811965815
 72
     2
 10
-1037.323624824512
 20
-1159.699811965815
 40
0.260923076922154
 50
0.0
 51
90.0
 73
     1
 72
     1
 10
-1037.323624824512
 20
-1159.438888888892
 11
-1038.543321734438
 21
-1159.438888888892
 72
     2
 10
-1038.543321734438
 20
-1159.699811965815
 40
0.2609230769228361
 50
90.0
 51
180.0
 73
     1
 72
     1
 10
-1038.80424481136
 20
-1159.699811965815
 11
-1038.80424481136
 21
-1163.300188034176
 72
     2
 10
-1038.543321734438
 20
-1163.300188034176
 40
0.2609230769219266
 50
180.0
 51
270.0
 73
     1
 97
       12
330
117
330
237
330
116
330
248
330
115
330
247
330
238
330
239
330
114
330
246
330
10F
330
249
 75
     1
 76
     0
 52
45.0
 41
0.1
 77
     0
 78
     1
 53
45.0
 43
0.0
 44
0.0
 45
-0.0707106781186548
 46
0.0707106781186548
 79
     0
 98
        1
 10
0.0
 20
0.0
  0
HATCH
  5
2C9
330
74
100
AcDbEntity
  8
1
  6
Continuous
 62
     2
100
AcDbHatch
 10
0.0
 20
0.0
 30
0.0
210
0.0
220
0.0
230
1.0
  2
_USER
 70
     0
 71
     1
 91
        2
 92
        1
 93
       12
 72
     2
 10
-1026.905909067295
 20
-1160.111904761907
 40
1.261904761905953
 50
90.0
 51
270.0
 73
     1
 72
     1
 10
-1026.905909067295
 20
-1161.373809523812
 11
-1024.302339047641
 21
-1161.373809523812
 72
     1
 10
-1024.302339047641
 20
-1161.373809523812
 11
-1024.302339047641
 21
-1160.796938775512
 72
     1
 10
-1024.302339047641
 20
-1160.796938775512
 11
-1025.406411631466
 21
-1160.796938775512
 72
     1
 10
-1025.406411631466
 20
-1160.796938775512
 11
-1025.406411631466
 21
-1160.400340136057
 72
     1
 10
-1025.406411631466
 20
-1160.400340136057
 11
-1024.302339047641
 21
-1160.400340136057
 72
     1
 10
-1024.302339047641
 20
-1160.400340136057
 11
-1024.302339047641
 21
-1159.823469387757
 72
     1
 10
-1024.302339047641
 20
-1159.823469387757
 11
-1025.406411631466
 21
-1159.823469387757
 72
     1
 10
-1025.406411631466
 20
-1159.823469387757
 11
-1025.406411631466
 21
-1159.426870748301
 72
     1
 10
-1025.406411631466
 20
-1159.426870748301
 11
-1024.302339047641
 21
-1159.426870748301
 72
     1
 10
-1024.302339047641
 20
-1159.426870748301
 11
-1024.302339047641
 21
-1158.850000000001
 72
     1
 10
-1024.302339047641
 20
-1158.850000000001
 11
-1026.905909067295
 21
-1158.850000000001
 97
       12
330
106
330
100
330
127
330
126
330
125
330
124
330
101
330
102
330
103
330
104
330
235
330
105
 92
       16
 93
        4
 72
     2
 10
-1026.562097458608
 20
-1160.111904761907
 40
0.637851056759961
 50
141.8795802028292
 51
218.1204197971708
 73
     1
 72
     2
 10
-1026.727171868811
 20
-1160.24143466118
 40
0.4280236140611167
 50
218.1204197971445
 51
321.8795802028367
 73
     1
 72
     2
 10
-1026.892246279014
 20
-1160.111904761907
 40
0.6378510567597822
 50
321.8795802028166
 51
398.1204197971834
 73
     1
 72
     2
 10
-1026.727171868811
 20
-1159.982374862634
 40
0.4280236140609378
 50
38.12041979716332
 51
141.8795802028555
 73
     1
 97
        4
330
242
330
241
330
23C
330
23B
 75
     1
 76
     0
 52
45.0
 41
0.1
 77
     0
 78
     1
 53
45.0
 43
0.0
 44
0.0
 45
-0.0707106781186548
 46
0.0707106781186548
 79
     0
 98
        1
 10
0.0
 20
0.0
  0
HATCH
  5
2CA
330
74
100
AcDbEntity
  8
1
  6
Continuous
 62
     2
100
AcDbHatch
 10
0.0
 20
0.0
 30
0.0
210
0.0
220
0.0
230
1.0
  2
_USER
 70
     0
 71
     1
 91
        2
 92
        1
 93
       12
 72
     2
 10
-1026.905909067295
 20
-1160.111904761907
 40
1.261904761905953
 50
90.0
 51
270.0
 73
     1
 72
     1
 10
-1026.905909067295
 20
-1161.373809523812
 11
-1024.302339047641
 21
-1161.373809523812
 72
     1
 10
-1024.302339047641
 20
-1161.373809523812
 11
-1024.302339047641
 21
-1160.796938775512
 72
     1
 10
-1024.302339047641
 20
-1160.796938775512
 11
-1025.406411631466
 21
-1160.796938775512
 72
     1
 10
-1025.406411631466
 20
-1160.796938775512
 11
-1025.406411631466
 21
-1160.400340136057
 72
     1
 10
-1025.406411631466
 20
-1160.400340136057
 11
-1024.302339047641
 21
-1160.400340136057
 72
     1
 10
-1024.302339047641
 20
-1160.400340136057
 11
-1024.302339047641
 21
-1159.823469387757
 72
     1
 10
-1024.302339047641
 20
-1159.823469387757
 11
-1025.406411631466
 21
-1159.823469387757
 72
     1
 10
-1025.406411631466
 20
-1159.823469387757
 11
-1025.406411631466
 21
-1159.426870748301
 72
     1
 10
-1025.406411631466
 20
-1159.426870748301
 11
-1024.302339047641
 21
-1159.426870748301
 72
     1
 10
-1024.302339047641
 20
-1159.426870748301
 11
-1024.302339047641
 21
-1158.850000000001
 72
     1
 10
-1024.302339047641
 20
-1158.850000000001
 11
-1026.905909067295
 21
-1158.850000000001
 97
       12
330
106
330
100
330
127
330
126
330
125
330
124
330
101
330
102
330
103
330
104
330
235
330
105
 92
       16
 93
        4
 72
     2
 10
-1026.562097458608
 20
-1160.111904761907
 40
0.637851056759961
 50
141.8795802028292
 51
218.1204197971708
 73
     1
 72
     2
 10
-1026.727171868811
 20
-1160.24143466118
 40
0.4280236140611167
 50
218.1204197971445
 51
321.8795802028367
 73
     1
 72
     2
 10
-1026.892246279014
 20
-1160.111904761907
 40
0.6378510567597822
 50
321.8795802028166
 51
398.1204197971834
 73
     1
 72
     2
 10
-1026.727171868811
 20
-1159.982374862634
 40
0.4280236140609378
 50
38.12041979716332
 51
141.8795802028555
 73
     1
 97
        4
330
242
330
241
330
23C
330
23B
 75
     1
 76
     0
 52
45.0
 41
0.1
 77
     0
 78
     1
 53
45.0
 43
0.0
 44
0.0
 45
-0.0707106781186548
 46
0.0707106781186548
 79
     0
 98
        1
 10
0.0
 20
0.0
  0
HATCH
  5
2CB
330
74
100
AcDbEntity
  8
1
  6
Continuous
 62
     2
100
AcDbHatch
 10
0.0
 20
0.0
 30
0.0
210
0.0
220
0.0
230
1.0
  2
_USER
 70
     0
 71
     1
 91
        2
 92
        1
 93
        4
 72
     2
 10
-1030.232863912304
 20
-1162.888095238084
 40
1.204986845992931
 50
117.5481481756894
 51
242.4518518243156
 73
     1
 72
     2
 10
-1030.000682183516
 20
-1162.442991923783
 40
1.707008076206298
 50
242.4518518243249
 51
297.5481481756682
 73
     1
 72
     2
 10
-1029.768500454729
 20
-1162.888095238084
 40
1.204986845993659
 50
297.5481481757324
 51
422.4518518242627
 73
     1
 72
     2
 10
-1030.000682183516
 20
-1163.333198552384
 40
1.707008076205184
 50
62.45185182431405
 51
117.5481481756927
 73
     1
 97
        4
330
240
330
23D
330
23F
330
23E
 92
       16
 93
        4
 72
     2
 10
-1030.000682183516
 20
-1162.758565338811
 40
0.4280236140602223
 50
38.12041979723848
 51
141.8795802028555
 73
     1
 72
     2
 10
-1029.835607773313
 20
-1162.888095238084
 40
0.6378510567597822
 50
141.8795802028166
 51
218.1204197971834
 73
     1
 72
     2
 10
-1030.000682183516
 20
-1163.017625137356
 40
0.4280236140616781
 50
218.1204197972403
 51
321.8795802026657
 73
     1
 72
     2
 10
-1030.16575659372
 20
-1162.888095238084
 40
0.637851056759961
 50
321.8795802028292
 51
398.1204197971709
 73
     1
 97
        4
330
223
330
224
330
225
330
222
 75
     1
 76
     0
 52
45.0
 41
0.1
 77
     0
 78
     1
 53
45.0
 43
0.0
 44
0.0
 45
-0.0707106781186548
 46
0.0707106781186548
 79
     0
 98
        1
 10
0.0
 20
0.0
  0
HATCH
  5
2CC
330
74
100
AcDbEntity
  8
1
  6
Continuous
 62
     2
100
AcDbHatch
 10
0.0
 20
0.0
 30
0.0
210
0.0
220
0.0
230
1.0
  2
_USER
 70
     0
 71
     1
 91
        2
 92
        1
 93
        4
 72
     2
 10
-1030.232863912304
 20
-1162.888095238084
 40
1.204986845992931
 50
117.5481481756894
 51
242.4518518243156
 73
     1
 72
     2
 10
-1030.000682183516
 20
-1162.442991923783
 40
1.707008076206298
 50
242.4518518243249
 51
297.5481481756682
 73
     1
 72
     2
 10
-1029.768500454729
 20
-1162.888095238084
 40
1.204986845993659
 50
297.5481481757324
 51
422.4518518242627
 73
     1
 72
     2
 10
-1030.000682183516
 20
-1163.333198552384
 40
1.707008076205184
 50
62.45185182431405
 51
117.5481481756927
 73
     1
 97
        4
330
240
330
23D
330
23F
330
23E
 92
       16
 93
        4
 72
     2
 10
-1030.000682183516
 20
-1162.758565338811
 40
0.4280236140602223
 50
38.12041979723848
 51
141.8795802028555
 73
     1
 72
     2
 10
-1029.835607773313
 20
-1162.888095238084
 40
0.6378510567597822
 50
141.8795802028166
 51
218.1204197971834
 73
     1
 72
     2
 10
-1030.000682183516
 20
-1163.017625137356
 40
0.4280236140616781
 50
218.1204197972403
 51
321.8795802026657
 73
     1
 72
     2
 10
-1030.16575659372
 20
-1162.888095238084
 40
0.637851056759961
 50
321.8795802028292
 51
398.1204197971709
 73
     1
 97
        4
330
223
330
224
330
225
330
222
 75
     1
 76
     0
 52
45.0
 41
0.1
 77
     0
 78
     1
 53
45.0
 43
0.0
 44
0.0
 45
-0.0707106781186548
 46
0.0707106781186548
 79
     0
 98
        1
 10
0.0
 20
0.0
  0
HATCH
  5
2CD
330
74
100
AcDbEntity
  8
1
  6
Continuous
 62
     2
100
AcDbHatch
 10
0.0
 20
0.0
 30
0.0
210
0.0
220
0.0
230
1.0
  2
_USER
 70
     0
 71
     1
 91
        2
 92
        1
 93
        6
 72
     1
 10
-1033.765818337561
 20
-1158.850000000001
 11
-1033.765818337561
 21
-1161.373809523812
 72
     1
 10
-1033.765818337561
 20
-1161.373809523812
 11
-1032.740608081153
 21
-1161.373809523812
 72
     1
 10
-1032.740608081153
 20
-1161.373809523812
 11
-1032.740608081153
 21
-1160.594406018734
 72
     1
 10
-1032.740608081153
 20
-1160.594406018734
 11
-1032.113527430094
 21
-1160.594406018734
 72
     2
 10
-1032.113527430094
 20
-1159.722203009368
 40
0.8722030093658759
 50
270.0
 51
450.0
 73
     1
 72
     1
 10
-1032.113527430094
 20
-1158.850000000001
 11
-1033.765818337561
 21
-1158.850000000001
 97
        6
330
24A
330
118
330
10E
330
10D
330
11A
330
119
 92
       16
 93
        4
 72
     1
 10
-1032.478380757564
 20
-1159.398021359869
 11
-1032.740608081153
 21
-1159.398021359869
 72
     1
 10
-1032.740608081153
 20
-1159.398021359869
 11
-1032.740608081153
 21
-1159.981267351061
 72
     1
 10
-1032.740608081153
 20
-1159.981267351061
 11
-1032.478380757564
 21
-1159.981267351061
 72
     2
 10
-1032.478380757564
 20
-1159.689644355465
 40
0.2916229955960716
 50
270.0
 51
450.0
 73
     1
 97
        4
330
11B
330
10C
330
11C
330
236
 75
     1
 76
     0
 52
45.0
 41
0.1
 77
     0
 78
     1
 53
45.0
 43
0.0
 44
0.0
 45
-0.0707106781186548
 46
0.0707106781186548
 79
     0
 98
        1
 10
0.0
 20
0.0
  0
HATCH
  5
2CE
330
74
100
AcDbEntity
  8
1
  6
Continuous
 62
     2
100
AcDbHatch
 10
0.0
 20
0.0
 30
0.0
210
0.0
220
0.0
230
1.0
  2
_USER
 70
     0
 71
     1
 91
        2
 92
        1
 93
        6
 72
     1
 10
-1033.765818337561
 20
-1158.850000000001
 11
-1033.765818337561
 21
-1161.373809523812
 72
     1
 10
-1033.765818337561
 20
-1161.373809523812
 11
-1032.740608081153
 21
-1161.373809523812
 72
     1
 10
-1032.740608081153
 20
-1161.373809523812
 11
-1032.740608081153
 21
-1160.594406018734
 72
     1
 10
-1032.740608081153
 20
-1160.594406018734
 11
-1032.113527430094
 21
-1160.594406018734
 72
     2
 10
-1032.113527430094
 20
-1159.722203009368
 40
0.8722030093658759
 50
270.0
 51
450.0
 73
     1
 72
     1
 10
-1032.113527430094
 20
-1158.850000000001
 11
-1033.765818337561
 21
-1158.850000000001
 97
        6
330
24A
330
118
330
10E
330
10D
330
11A
330
119
 92
       16
 93
        4
 72
     1
 10
-1032.478380757564
 20
-1159.398021359869
 11
-1032.740608081153
 21
-1159.398021359869
 72
     1
 10
-1032.740608081153
 20
-1159.398021359869
 11
-1032.740608081153
 21
-1159.981267351061
 72
     1
 10
-1032.740608081153
 20
-1159.981267351061
 11
-1032.478380757564
 21
-1159.981267351061
 72
     2
 10
-1032.478380757564
 20
-1159.689644355465
 40
0.2916229955960716
 50
270.0
 51
450.0
 73
     1
 97
        4
330
11B
330
10C
330
11C
330
236
 75
     1
 76
     0
 52
45.0
 41
0.1
 77
     0
 78
     1
 53
45.0
 43
0.0
 44
0.0
 45
-0.0707106781186548
 46
0.0707106781186548
 79
     0
 98
        1
 10
0.0
 20
0.0
  0
HATCH
  5
2CF
330
74
100
AcDbEntity
  8
1
  6
Continuous
 62
     2
100
AcDbHatch
 10
0.0
 20
0.0
 30
0.0
210
0.0
220
0.0
230
1.0
  2
_USER
 70
     0
 71
     1
 91
        1
 92
        1
 93
       12
 72
     1
 10
-1017.555666937203
 20
-1158.850000000001
 11
-1016.396390724188
 21
-1158.850000000001
 72
     1
 10
-1016.396390724188
 20
-1158.850000000001
 11
-1017.472861493417
 21
-1160.067314487634
 72
     1
 10
-1017.472861493417
 20
-1160.067314487634
 11
-1016.317528396772
 21
-1161.373809523812
 72
     1
 10
-1016.317528396772
 20
-1161.373809523812
 11
-1017.476804609787
 21
-1161.373809523812
 72
     1
 10
-1017.476804609787
 20
-1161.373809523812
 11
-1018.052499599924
 21
-1160.722791519437
 72
     1
 10
-1018.052499599924
 20
-1160.722791519437
 11
-1018.628194590061
 21
-1161.373809523812
 72
     1
 10
-1018.628194590061
 20
-1161.373809523812
 11
-1019.787470803076
 21
-1161.373809523812
 72
     1
 10
-1019.787470803076
 20
-1161.373809523812
 11
-1018.632137706431
 21
-1160.067314487634
 72
     1
 10
-1018.632137706431
 20
-1160.067314487634
 11
-1019.70860847566
 21
-1158.850000000001
 72
     1
 10
-1019.70860847566
 20
-1158.850000000001
 11
-1018.549332262645
 21
-1158.850000000001
 72
     1
 10
-1018.549332262645
 20
-1158.850000000001
 11
-1018.052499599924
 21
-1159.411837455832
 72
     1
 10
-1018.052499599924
 20
-1159.411837455832
 11
-1017.555666937203
 21
-1158.850000000001
 97
       12
330
E7
330
140
330
13F
330
13E
330
13D
330
E8
330
E9
330
E5
330
E6
330
143
330
142
330
141
 75
     1
 76
     0
 52
45.0
 41
0.1
 77
     0
 78
     1
 53
45.0
 43
0.0
 44
0.0
 45
-0.0707106781186548
 46
0.0707106781186548
 79
     0
 98
        1
 10
0.0
 20
0.0
  0
HATCH
  5
2D0
330
74
100
AcDbEntity
  8
1
  6
Continuous
 62
     2
100
AcDbHatch
 10
0.0
 20
0.0
 30
0.0
210
0.0
220
0.0
230
1.0
  2
_USER
 70
     0
 71
     1
 91
        1
 92
        1
 93
       12
 72
     1
 10
-1017.555666937203
 20
-1158.850000000001
 11
-1016.396390724188
 21
-1158.850000000001
 72
     1
 10
-1016.396390724188
 20
-1158.850000000001
 11
-1017.472861493417
 21
-1160.067314487634
 72
     1
 10
-1017.472861493417
 20
-1160.067314487634
 11
-1016.317528396772
 21
-1161.373809523812
 72
     1
 10
-1016.317528396772
 20
-1161.373809523812
 11
-1017.476804609787
 21
-1161.373809523812
 72
     1
 10
-1017.476804609787
 20
-1161.373809523812
 11
-1018.052499599924
 21
-1160.722791519437
 72
     1
 10
-1018.052499599924
 20
-1160.722791519437
 11
-1018.628194590061
 21
-1161.373809523812
 72
     1
 10
-1018.628194590061
 20
-1161.373809523812
 11
-1019.787470803076
 21
-1161.373809523812
 72
     1
 10
-1019.787470803076
 20
-1161.373809523812
 11
-1018.632137706431
 21
-1160.067314487634
 72
     1
 10
-1018.632137706431
 20
-1160.067314487634
 11
-1019.70860847566
 21
-1158.850000000001
 72
     1
 10
-1019.70860847566
 20
-1158.850000000001
 11
-1018.549332262645
 21
-1158.850000000001
 72
     1
 10
-1018.549332262645
 20
-1158.850000000001
 11
-1018.052499599924
 21
-1159.411837455832
 72
     1
 10
-1018.052499599924
 20
-1159.411837455832
 11
-1017.555666937203
 21
-1158.850000000001
 97
       12
330
E7
330
140
330
13F
330
13E
330
13D
330
E8
330
E9
330
E5
330
E6
330
143
330
142
330
141
 75
     1
 76
     0
 52
45.0
 41
0.1
 77
     0
 78
     1
 53
45.0
 43
0.0
 44
0.0
 45
-0.0707106781186548
 46
0.0707106781186548
 79
     0
 98
        1
 10
0.0
 20
0.0
  0
HATCH
  5
2D1
330
74
100
AcDbEntity
  8
1
  6
Continuous
 62
     2
100
AcDbHatch
 10
0.0
 20
0.0
 30
0.0
210
0.0
220
0.0
230
1.0
  2
_USER
 70
     0
 71
     1
 91
        1
 92
        1
 93
        4
 72
     1
 10
-1019.886048712346
 20
-1158.850000000001
 11
-1019.886048712346
 21
-1161.373809523812
 72
     1
 10
-1019.886048712346
 20
-1161.373809523812
 11
-1020.911258968754
 21
-1161.373809523812
 72
     1
 10
-1020.911258968754
 20
-1161.373809523812
 11
-1020.911258968754
 21
-1158.850000000001
 72
     1
 10
-1020.911258968754
 20
-1158.850000000001
 11
-1019.886048712346
 21
-1158.850000000001
 97
        4
330
13B
330
EA
330
13A
330
13C
 75
     1
 76
     0
 52
45.0
 41
0.1
 77
     0
 78
     1
 53
45.0
 43
0.0
 44
0.0
 45
-0.0707106781186548
 46
0.0707106781186548
 79
     0
 98
        1
 10
0.0
 20
0.0
  0
HATCH
  5
2D2
330
74
100
AcDbEntity
  8
1
  6
Continuous
 62
     2
100
AcDbHatch
 10
0.0
 20
0.0
 30
0.0
210
0.0
220
0.0
230
1.0
  2
_USER
 70
     0
 71
     1
 91
        1
 92
        1
 93
        4
 72
     1
 10
-1019.886048712346
 20
-1158.850000000001
 11
-1019.886048712346
 21
-1161.373809523812
 72
     1
 10
-1019.886048712346
 20
-1161.373809523812
 11
-1020.911258968754
 21
-1161.373809523812
 72
     1
 10
-1020.911258968754
 20
-1161.373809523812
 11
-1020.911258968754
 21
-1158.850000000001
 72
     1
 10
-1020.911258968754
 20
-1158.850000000001
 11
-1019.886048712346
 21
-1158.850000000001
 97
        4
330
13B
330
EA
330
13A
330
13C
 75
     1
 76
     0
 52
45.0
 41
0.1
 77
     0
 78
     1
 53
45.0
 43
0.0
 44
0.0
 45
-0.0707106781186548
 46
0.0707106781186548
 79
     0
 98
        1
 10
0.0
 20
0.0
  0
HATCH
  5
2D3
330
74
100
AcDbEntity
  8
1
  6
Continuous
 62
     2
100
AcDbHatch
 10
0.0
 20
0.0
 30
0.0
210
0.0
220
0.0
230
1.0
  2
_USER
 70
     0
 71
     1
 91
        2
 92
        1
 93
        8
 72
     1
 10
-1020.208729707001
 20
-1164.149999999989
 11
-1021.233939963409
 21
-1164.149999999989
 72
     1
 10
-1021.233939963409
 20
-1164.149999999989
 11
-1021.408716867108
 21
-1163.702925170057
 72
     1
 10
-1021.408716867108
 20
-1163.702925170057
 11
-1022.34461899659
 21
-1163.702925170057
 72
     1
 10
-1022.34461899659
 20
-1163.702925170057
 11
-1022.519395900289
 21
-1164.149999999989
 72
     1
 10
-1022.519395900289
 20
-1164.149999999989
 11
-1023.544606156697
 21
-1164.149999999989
 72
     1
 10
-1023.544606156697
 20
-1164.149999999989
 11
-1022.389273060053
 21
-1161.626190476178
 72
     1
 10
-1022.389273060053
 20
-1161.626190476178
 11
-1021.364062803646
 21
-1161.626190476178
 72
     1
 10
-1021.364062803646
 20
-1161.626190476178
 11
-1020.208729707001
 21
-1164.149999999989
 97
        8
330
136
330
F0
330
135
330
138
330
ED
330
137
330
EE
330
EF
 92
       16
 93
        3
 72
     1
 10
-1022.124738375809
 20
-1163.140476190465
 11
-1021.62859748789
 21
-1163.140476190465
 72
     1
 10
-1021.62859748789
 20
-1163.140476190465
 11
-1021.876667931849
 21
-1162.505918367335
 72
     1
 10
-1021.876667931849
 20
-1162.505918367335
 11
-1022.124738375809
 21
-1163.140476190465
 97
        3
330
EC
330
EB
330
139
 75
     1
 76
     0
 52
45.0
 41
0.1
 77
     0
 78
     1
 53
45.0
 43
0.0
 44
0.0
 45
-0.0707106781186548
 46
0.0707106781186548
 79
     0
 98
        1
 10
0.0
 20
0.0
  0
HATCH
  5
2D4
330
74
100
AcDbEntity
  8
1
  6
Continuous
 62
     2
100
AcDbHatch
 10
0.0
 20
0.0
 30
0.0
210
0.0
220
0.0
230
1.0
  2
_USER
 70
     0
 71
     1
 91
        2
 92
        1
 93
        8
 72
     1
 10
-1020.208729707001
 20
-1164.149999999989
 11
-1021.233939963409
 21
-1164.149999999989
 72
     1
 10
-1021.233939963409
 20
-1164.149999999989
 11
-1021.408716867108
 21
-1163.702925170057
 72
     1
 10
-1021.408716867108
 20
-1163.702925170057
 11
-1022.34461899659
 21
-1163.702925170057
 72
     1
 10
-1022.34461899659
 20
-1163.702925170057
 11
-1022.519395900289
 21
-1164.149999999989
 72
     1
 10
-1022.519395900289
 20
-1164.149999999989
 11
-1023.544606156697
 21
-1164.149999999989
 72
     1
 10
-1023.544606156697
 20
-1164.149999999989
 11
-1022.389273060053
 21
-1161.626190476178
 72
     1
 10
-1022.389273060053
 20
-1161.626190476178
 11
-1021.364062803646
 21
-1161.626190476178
 72
     1
 10
-1021.364062803646
 20
-1161.626190476178
 11
-1020.208729707001
 21
-1164.149999999989
 97
        8
330
136
330
F0
330
135
330
138
330
ED
330
137
330
EE
330
EF
 92
       16
 93
        3
 72
     1
 10
-1022.124738375809
 20
-1163.140476190465
 11
-1021.62859748789
 21
-1163.140476190465
 72
     1
 10
-1021.62859748789
 20
-1163.140476190465
 11
-1021.876667931849
 21
-1162.505918367335
 72
     1
 10
-1021.876667931849
 20
-1162.505918367335
 11
-1022.124738375809
 21
-1163.140476190465
 97
        3
330
EC
330
EB
330
139
 75
     1
 76
     0
 52
45.0
 41
0.1
 77
     0
 78
     1
 53
45.0
 43
0.0
 44
0.0
 45
-0.0707106781186548
 46
0.0707106781186548
 79
     0
 98
        1
 10
0.0
 20
0.0
  0
HATCH
  5
2D5
330
74
100
AcDbEntity
  8
1
  6
Continuous
 62
     2
100
AcDbHatch
 10
0.0
 20
0.0
 30
0.0
210
0.0
220
0.0
230
1.0
  2
_USER
 70
     0
 71
     1
 91
        1
 92
        1
 93
        8
 72
     1
 10
-1025.327674040319
 20
-1161.626190476178
 11
-1025.327674040319
 21
-1162.275170068016
 72
     1
 10
-1025.327674040319
 20
-1162.275170068016
 11
-1024.657344257282
 21
-1162.275170068016
 72
     1
 10
-1024.657344257282
 20
-1162.275170068016
 11
-1024.657344257282
 21
-1164.149999999989
 72
     1
 10
-1024.657344257282
 20
-1164.149999999989
 11
-1023.671565164582
 21
-1164.149999999989
 72
     1
 10
-1023.671565164582
 20
-1164.149999999989
 11
-1023.671565164582
 21
-1162.275170068016
 72
     1
 10
-1023.671565164582
 20
-1162.275170068016
 11
-1023.001235381547
 21
-1162.275170068016
 72
     1
 10
-1023.001235381547
 20
-1162.275170068016
 11
-1023.001235381547
 21
-1161.626190476178
 72
     1
 10
-1023.001235381547
 20
-1161.626190476178
 11
-1025.327674040319
 21
-1161.626190476178
 97
        8
330
132
330
131
330
130
330
F1
330
F2
330
134
330
F3
330
133
 75
     1
 76
     0
 52
45.0
 41
0.1
 77
     0
 78
     1
 53
45.0
 43
0.0
 44
0.0
 45
-0.0707106781186548
 46
0.0707106781186548
 79
     0
 98
        1
 10
0.0
 20
0.0
  0
HATCH
  5
2D6
330
74
100
AcDbEntity
  8
1
  6
Continuous
 62
     2
100
AcDbHatch
 10
0.0
 20
0.0
 30
0.0
210
0.0
220
0.0
230
1.0
  2
_USER
 70
     0
 71
     1
 91
        1
 92
        1
 93
        8
 72
     1
 10
-1025.327674040319
 20
-1161.626190476178
 11
-1025.327674040319
 21
-1162.275170068016
 72
     1
 10
-1025.327674040319
 20
-1162.275170068016
 11
-1024.657344257282
 21
-1162.275170068016
 72
     1
 10
-1024.657344257282
 20
-1162.275170068016
 11
-1024.657344257282
 21
-1164.149999999989
 72
     1
 10
-1024.657344257282
 20
-1164.149999999989
 11
-1023.671565164582
 21
-1164.149999999989
 72
     1
 10
-1023.671565164582
 20
-1164.149999999989
 11
-1023.671565164582
 21
-1162.275170068016
 72
     1
 10
-1023.671565164582
 20
-1162.275170068016
 11
-1023.001235381547
 21
-1162.275170068016
 72
     1
 10
-1023.001235381547
 20
-1162.275170068016
 11
-1023.001235381547
 21
-1161.626190476178
 72
     1
 10
-1023.001235381547
 20
-1161.626190476178
 11
-1025.327674040319
 21
-1161.626190476178
 97
        8
330
132
330
131
330
130
330
F1
330
F2
330
134
330
F3
330
133
 75
     1
 76
     0
 52
45.0
 41
0.1
 77
     0
 78
     1
 53
45.0
 43
0.0
 44
0.0
 45
-0.0707106781186548
 46
0.0707106781186548
 79
     0
 98
        1
 10
0.0
 20
0.0
  0
HATCH
  5
2D7
330
74
100
AcDbEntity
  8
1
  6
Continuous
 62
     2
100
AcDbHatch
 10
0.0
 20
0.0
 30
0.0
210
0.0
220
0.0
230
1.0
  2
_USER
 70
     0
 71
     1
 91
        1
 92
        1
 93
       10
 72
     1
 10
-1023.119404136402
 20
-1158.850000000001
 11
-1024.105183229101
 21
-1158.850000000001
 72
     1
 10
-1024.105183229101
 20
-1158.850000000001
 11
-1024.105183229101
 21
-1161.373809523812
 72
     1
 10
-1024.105183229101
 20
-1161.373809523812
 11
-1023.119404136402
 21
-1161.373809523812
 72
     1
 10
-1023.119404136402
 20
-1161.373809523812
 11
-1023.119404136402
 21
-1160.29217687075
 72
     1
 10
-1023.119404136402
 20
-1160.29217687075
 11
-1022.094193879994
 21
-1161.373809523812
 72
     1
 10
-1022.094193879994
 20
-1161.373809523812
 11
-1021.108414787294
 21
-1161.373809523812
 72
     1
 10
-1021.108414787294
 20
-1161.373809523812
 11
-1021.108414787294
 21
-1158.850000000001
 72
     1
 10
-1021.108414787294
 20
-1158.850000000001
 11
-1022.094193879994
 21
-1158.850000000001
 72
     1
 10
-1022.094193879994
 20
-1158.850000000001
 11
-1022.094193879994
 21
-1159.931632653063
 72
     1
 10
-1022.094193879994
 20
-1159.931632653063
 11
-1023.119404136402
 21
-1158.850000000001
 97
       10
330
12C
330
F6
330
F7
330
F8
330
F9
330
12F
330
F4
330
12E
330
12D
330
F5
 75
     1
 76
     0
 52
45.0
 41
0.1
 77
     0
 78
     1
 53
45.0
 43
0.0
 44
0.0
 45
-0.0707106781186548
 46
0.0707106781186548
 79
     0
 98
        1
 10
0.0
 20
0.0
  0
HATCH
  5
2D8
330
74
100
AcDbEntity
  8
1
  6
Continuous
 62
     2
100
AcDbHatch
 10
0.0
 20
0.0
 30
0.0
210
0.0
220
0.0
230
1.0
  2
_USER
 70
     0
 71
     1
 91
        1
 92
        1
 93
       10
 72
     1
 10
-1023.119404136402
 20
-1158.850000000001
 11
-1024.105183229101
 21
-1158.850000000001
 72
     1
 10
-1024.105183229101
 20
-1158.850000000001
 11
-1024.105183229101
 21
-1161.373809523812
 72
     1
 10
-1024.105183229101
 20
-1161.373809523812
 11
-1023.119404136402
 21
-1161.373809523812
 72
     1
 10
-1023.119404136402
 20
-1161.373809523812
 11
-1023.119404136402
 21
-1160.29217687075
 72
     1
 10
-1023.119404136402
 20
-1160.29217687075
 11
-1022.094193879994
 21
-1161.373809523812
 72
     1
 10
-1022.094193879994
 20
-1161.373809523812
 11
-1021.108414787294
 21
-1161.373809523812
 72
     1
 10
-1021.108414787294
 20
-1161.373809523812
 11
-1021.108414787294
 21
-1158.850000000001
 72
     1
 10
-1021.108414787294
 20
-1158.850000000001
 11
-1022.094193879994
 21
-1158.850000000001
 72
     1
 10
-1022.094193879994
 20
-1158.850000000001
 11
-1022.094193879994
 21
-1159.931632653063
 72
     1
 10
-1022.094193879994
 20
-1159.931632653063
 11
-1023.119404136402
 21
-1158.850000000001
 97
       10
330
12C
330
F6
330
F7
330
F8
330
F9
330
12F
330
F4
330
12E
330
12D
330
F5
 75
     1
 76
     0
 52
45.0
 41
0.1
 77
     0
 78
     1
 53
45.0
 43
0.0
 44
0.0
 45
-0.0707106781186548
 46
0.0707106781186548
 79
     0
 98
        1
 10
0.0
 20
0.0
  0
HATCH
  5
2D9
330
74
100
AcDbEntity
  8
1
  6
Continuous
 62
     2
100
AcDbHatch
 10
0.0
 20
0.0
 30
0.0
210
0.0
220
0.0
230
1.0
  2
_USER
 70
     0
 71
     1
 91
        1
 92
        1
 93
       10
 72
     1
 10
-1027.45695688055
 20
-1161.626190476178
 11
-1028.44273597325
 21
-1161.626190476178
 72
     1
 10
-1028.44273597325
 20
-1161.626190476178
 11
-1028.44273597325
 21
-1164.149999999989
 72
     1
 10
-1028.44273597325
 20
-1164.149999999989
 11
-1027.45695688055
 21
-1164.149999999989
 72
     1
 10
-1027.45695688055
 20
-1164.149999999989
 11
-1027.45695688055
 21
-1163.068367346927
 72
     1
 10
-1027.45695688055
 20
-1163.068367346927
 11
-1026.431746624142
 21
-1164.149999999989
 72
     1
 10
-1026.431746624142
 20
-1164.149999999989
 11
-1025.445967531442
 21
-1164.149999999989
 72
     1
 10
-1025.445967531442
 20
-1164.149999999989
 11
-1025.445967531442
 21
-1161.626190476178
 72
     1
 10
-1025.445967531442
 20
-1161.626190476178
 11
-1026.431746624142
 21
-1161.626190476178
 72
     1
 10
-1026.431746624142
 20
-1161.626190476178
 11
-1026.431746624142
 21
-1162.70782312924
 72
     1
 10
-1026.431746624142
 20
-1162.70782312924
 11
-1027.45695688055
 21
-1161.626190476178
 97
       10
330
FB
330
FC
330
FD
330
129
330
FE
330
FF
330
128
330
12B
330
12A
330
FA
 75
     1
 76
     0
 52
45.0
 41
0.1
 77
     0
 78
     1
 53
45.0
 43
0.0
 44
0.0
 45
-0.0707106781186548
 46
0.0707106781186548
 79
     0
 98
        1
 10
0.0
 20
0.0
  0
HATCH
  5
2DA
330
74
100
AcDbEntity
  8
1
  6
Continuous
 62
     2
100
AcDbHatch
 10
0.0
 20
0.0
 30
0.0
210
0.0
220
0.0
230
1.0
  2
_USER
 70
     0
 71
     1
 91
        1
 92
        1
 93
       10
 72
     1
 10
-1027.45695688055
 20
-1161.626190476178
 11
-1028.44273597325
 21
-1161.626190476178
 72
     1
 10
-1028.44273597325
 20
-1161.626190476178
 11
-1028.44273597325
 21
-1164.149999999989
 72
     1
 10
-1028.44273597325
 20
-1164.149999999989
 11
-1027.45695688055
 21
-1164.149999999989
 72
     1
 10
-1027.45695688055
 20
-1164.149999999989
 11
-1027.45695688055
 21
-1163.068367346927
 72
     1
 10
-1027.45695688055
 20
-1163.068367346927
 11
-1026.431746624142
 21
-1164.149999999989
 72
     1
 10
-1026.431746624142
 20
-1164.149999999989
 11
-1025.445967531442
 21
-1164.149999999989
 72
     1
 10
-1025.445967531442
 20
-1164.149999999989
 11
-1025.445967531442
 21
-1161.626190476178
 72
     1
 10
-1025.445967531442
 20
-1161.626190476178
 11
-1026.431746624142
 21
-1161.626190476178
 72
     1
 10
-1026.431746624142
 20
-1161.626190476178
 11
-1026.431746624142
 21
-1162.70782312924
 72
     1
 10
-1026.431746624142
 20
-1162.70782312924
 11
-1027.45695688055
 21
-1161.626190476178
 97
       10
330
FB
330
FC
330
FD
330
129
330
FE
330
FF
330
128
330
12B
330
12A
330
FA
 75
     1
 76
     0
 52
45.0
 41
0.1
 77
     0
 78
     1
 53
45.0
 43
0.0
 44
0.0
 45
-0.0707106781186548
 46
0.0707106781186548
 79
     0
 98
        1
 10
0.0
 20
0.0
  0
HATCH
  5
2DB
330
74
100
AcDbEntity
  8
1
  6
Continuous
 62
     2
100
AcDbHatch
 10
0.0
 20
0.0
 30
0.0
210
0.0
220
0.0
230
1.0
  2
_USER
 70
     0
 71
     1
 91
        1
 92
        1
 93
       12
 72
     1
 10
-1028.284886582149
 20
-1158.850000000001
 11
-1028.284886582149
 21
-1161.373809523812
 72
     1
 10
-1028.284886582149
 20
-1161.373809523812
 11
-1029.270665674849
 21
-1161.373809523812
 72
     1
 10
-1029.270665674849
 20
-1161.373809523812
 11
-1029.270665674849
 21
-1160.436394557825
 72
     1
 10
-1029.270665674849
 20
-1160.436394557825
 11
-1030.138151276425
 21
-1160.436394557825
 72
     1
 10
-1030.138151276425
 20
-1160.436394557825
 11
-1030.138151276425
 21
-1161.373809523812
 72
     1
 10
-1030.138151276425
 20
-1161.373809523812
 11
-1031.123930369125
 21
-1161.373809523812
 72
     1
 10
-1031.123930369125
 20
-1161.373809523812
 11
-1031.123930369125
 21
-1158.850000000001
 72
     1
 10
-1031.123930369125
 20
-1158.850000000001
 11
-1030.138151276425
 21
-1158.850000000001
 72
     1
 10
-1030.138151276425
 20
-1158.850000000001
 11
-1030.138151276425
 21
-1159.733333333335
 72
     1
 10
-1030.138151276425
 20
-1159.733333333335
 11
-1029.270665674849
 21
-1159.733333333335
 72
     1
 10
-1029.270665674849
 20
-1159.733333333335
 11
-1029.270665674849
 21
-1158.850000000001
 72
     1
 10
-1029.270665674849
 20
-1158.850000000001
 11
-1028.284886582149
 21
-1158.850000000001
 97
       12
330
123
330
122
330
121
330
109
330
10A
330
120
330
10B
330
11F
330
11E
330
11D
330
107
330
108
 75
     1
 76
     0
 52
45.0
 41
0.1
 77
     0
 78
     1
 53
45.0
 43
0.0
 44
0.0
 45
-0.0707106781186548
 46
0.0707106781186548
 79
     0
 98
        1
 10
0.0
 20
0.0
  0
HATCH
  5
2DC
330
74
100
AcDbEntity
  8
1
  6
Continuous
 62
     2
100
AcDbHatch
 10
0.0
 20
0.0
 30
0.0
210
0.0
220
0.0
230
1.0
  2
_USER
 70
     0
 71
     1
 91
        1
 92
        1
 93
       12
 72
     1
 10
-1028.284886582149
 20
-1158.850000000001
 11
-1028.284886582149
 21
-1161.373809523812
 72
     1
 10
-1028.284886582149
 20
-1161.373809523812
 11
-1029.270665674849
 21
-1161.373809523812
 72
     1
 10
-1029.270665674849
 20
-1161.373809523812
 11
-1029.270665674849
 21
-1160.436394557825
 72
     1
 10
-1029.270665674849
 20
-1160.436394557825
 11
-1030.138151276425
 21
-1160.436394557825
 72
     1
 10
-1030.138151276425
 20
-1160.436394557825
 11
-1030.138151276425
 21
-1161.373809523812
 72
     1
 10
-1030.138151276425
 20
-1161.373809523812
 11
-1031.123930369125
 21
-1161.373809523812
 72
     1
 10
-1031.123930369125
 20
-1161.373809523812
 11
-1031.123930369125
 21
-1158.850000000001
 72
     1
 10
-1031.123930369125
 20
-1158.850000000001
 11
-1030.138151276425
 21
-1158.850000000001
 72
     1
 10
-1030.138151276425
 20
-1158.850000000001
 11
-1030.138151276425
 21
-1159.733333333335
 72
     1
 10
-1030.138151276425
 20
-1159.733333333335
 11
-1029.270665674849
 21
-1159.733333333335
 72
     1
 10
-1029.270665674849
 20
-1159.733333333335
 11
-1029.270665674849
 21
-1158.850000000001
 72
     1
 10
-1029.270665674849
 20
-1158.850000000001
 11
-1028.284886582149
 21
-1158.850000000001
 97
       12
330
123
330
122
330
121
330
109
330
10A
330
120
330
10B
330
11F
330
11E
330
11D
330
107
330
108
 75
     1
 76
     0
 52
45.0
 41
0.1
 77
     0
 78
     1
 53
45.0
 43
0.0
 44
0.0
 45
-0.0707106781186548
 46
0.0707106781186548
 79
     0
 98
        1
 10
0.0
 20
0.0
  0
ENDBLK
  5
76
330
74
100
AcDbEntity
  8
0
100
AcDbBlockEnd
  0
BLOCK
  5
7A
330
77
100
AcDbEntity
  8
0
100
AcDbBlockBegin
  2
A4I
 70
     0
 10
-916.499999999995
 20
-1174.999999999995
 30
0.0
  3
A4I
  1

  0
INSERT
  5
78
330
77
100
AcDbEntity
  8
1
100
AcDbBlockReference
  2
_punkt
 10
-916.499999999995
 20
-1169.999999999995
 30
0.0
  0
INSERT
  5
79
330
77
100
AcDbEntity
  8
1
100
AcDbBlockReference
  2
_rahmen
 10
-916.499999999995
 20
-1174.999999999995
 30
0.0
  0
ENDBLK
  5
7B
330
77
100
AcDbEntity
  8
0
100
AcDbBlockEnd
  0
BLOCK
  5
A6
330
9F
100
AcDbEntity
  8
0
100
AcDbBlockBegin
  2
*D16
 70
     1
 10
0.0
 20
0.0
 30
0.0
  3
*D16
  1

  0
LINE
  5
A0
330
9F
100
AcDbEntity
  8
1
  6
Continuous
 62
     2
100
AcDbLine
 10
-1074.54581062355
 20
-1048.499999999985
 30
0.0
 11
-1074.54581062355
 21
-1130.499999999985
 31
0.0
  0
LINE
  5
A1
330
9F
100
AcDbEntity
  8
1
  6
Continuous
 62
     2
100
AcDbLine
 10
-1088.0
 20
-1048.499999999985
 30
0.0
 11
-1072.54581062355
 21
-1048.499999999985
 31
0.0
  0
LINE
  5
A2
330
9F
100
AcDbEntity
  8
1
  6
Continuous
 62
     2
100
AcDbLine
 10
-1088.0
 20
-1130.499999999985
 30
0.0
 11
-1072.54581062355
 21
-1130.499999999985
 31
0.0
  0
SOLID
  5
A3
330
9F
100
AcDbEntity
  8
1
 62
     2
100
AcDbTrace
 10
-1074.085026881994
 20
-1051.999999999985
 30
0.0
 11
-1075.006594365106
 21
-1051.999999999985
 31
0.0
 12
-1074.54581062355
 22
-1048.499999999985
 32
0.0
 13
-1074.54581062355
 23
-1048.499999999985
 33
0.0
  0
SOLID
  5
A4
330
9F
100
AcDbEntity
  8
1
 62
     2
100
AcDbTrace
 10
-1075.006594365106
 20
-1126.999999999985
 30
0.0
 11
-1074.085026881994
 21
-1126.999999999985
 31
0.0
 12
-1074.54581062355
 22
-1130.499999999985
 32
0.0
 13
-1074.54581062355
 23
-1130.499999999985
 33
0.0
  0
MTEXT
  5
A5
330
9F
100
AcDbEntity
  8
1
 62
     3
100
AcDbMText
 10
-1076.54581062355
 20
-1090.565003633156
 30
0.0
 40
3.5
 41
0.0
 71
     7
 72
     1
  1
1000
  7
CONVERTER_11
 11
0.0
 21
1.0
 31
0.0
 73
     1
 44
0.60024009603842
  0
ENDBLK
  5
A7
330
9F
100
AcDbEntity
  8
0
100
AcDbBlockEnd
  0
BLOCK
  5
CD
330
C6
100
AcDbEntity
  8
0
100
AcDbBlockBegin
  2
*D17
 70
     1
 10
0.0
 20
0.0
 30
0.0
  3
*D17
  1

  0
LINE
  5
C7
330
C6
100
AcDbEntity
  8
1
  6
Continuous
 62
     2
100
AcDbLine
 10
-1088.0
 20
-1026.16126004177
 30
0.0
 11
-1098.0
 21
-1026.16126004177
 31
0.0
  0
LINE
  5
C8
330
C6
100
AcDbEntity
  8
1
  6
Continuous
 62
     2
100
AcDbLine
 10
-1088.0
 20
-1014.5
 30
0.0
 11
-1088.0
 21
-1028.16126004177
 31
0.0
  0
LINE
  5
C9
330
C6
100
AcDbEntity
  8
1
  6
Continuous
 62
     2
100
AcDbLine
 10
-1098.0
 20
-1014.5
 30
0.0
 11
-1098.0
 21
-1028.16126004177
 31
0.0
  0
SOLID
  5
CA
330
C6
100
AcDbEntity
  8
1
 62
     2
100
AcDbTrace
 10
-1091.5
 20
-1026.622043783326
 30
0.0
 11
-1091.5
 21
-1025.700476300214
 31
0.0
 12
-1088.0
 22
-1026.16126004177
 32
0.0
 13
-1088.0
 23
-1026.16126004177
 33
0.0
  0
SOLID
  5
CB
330
C6
100
AcDbEntity
  8
1
 62
     2
100
AcDbTrace
 10
-1094.5
 20
-1025.700476300214
 30
0.0
 11
-1094.5
 21
-1026.622043783326
 31
0.0
 12
-1098.0
 22
-1026.16126004177
 32
0.0
 13
-1098.0
 23
-1026.16126004177
 33
0.0
  0
MTEXT
  5
CC
330
C6
100
AcDbEntity
  8
1
 62
     3
100
AcDbMText
 10
-1095.1
 20
-1024.16126004177
 30
0.0
 40
3.5
 41
0.0
 71
     7
 72
     1
  1
10
  7
CONVERTER_11
 11
0.9999999999970619
 21
2.424068405545306E-6
 31
0.0
 73
     1
 44
0.60024009603842
  0
ENDBLK
  5
CE
330
C6
100
AcDbEntity
  8
0
100
AcDbBlockEnd
  0
BLOCK
  5
DA
330
D1
100
AcDbEntity
  8
0
100
AcDbBlockBegin
  2
*D18
 70
     1
 10
0.0
 20
0.0
 30
0.0
  3
*D18
  1

  0
LINE
  5
D2
330
D1
100
AcDbEntity
  8
1
  6
Continuous
 62
     2
100
AcDbLine
 10
-1074.54581062355
 20
-1004.12919994059
 30
0.0
 11
-1074.54581062355
 21
-1011.5
 31
0.0
  0
LINE
  5
D3
330
D1
100
AcDbEntity
  8
1
  6
Continuous
 62
     2
100
AcDbLine
 10
-1074.54581062355
 20
-1011.5
 30
0.0
 11
-1074.54581062355
 21
-1014.5
 31
0.0
  0
LINE
  5
D4
330
D1
100
AcDbEntity
  8
1
  6
Continuous
 62
     2
100
AcDbLine
 10
-1074.54581062355
 20
-1014.5
 30
0.0
 11
-1074.54581062355
 21
-1021.5
 31
0.0
  0
LINE
  5
D5
330
D1
100
AcDbEntity
  8
1
  6
Continuous
 62
     2
100
AcDbLine
 10
-1088.0
 20
-1011.5
 30
0.0
 11
-1072.54581062355
 21
-1011.5
 31
0.0
  0
LINE
  5
D6
330
D1
100
AcDbEntity
  8
1
  6
Continuous
 62
     2
100
AcDbLine
 10
-1088.0
 20
-1014.5
 30
0.0
 11
-1072.54581062355
 21
-1014.5
 31
0.0
  0
SOLID
  5
D7
330
D1
100
AcDbEntity
  8
1
 62
     2
100
AcDbTrace
 10
-1075.006594365106
 20
-1008.0
 30
0.0
 11
-1074.085026881994
 21
-1008.0
 31
0.0
 12
-1074.54581062355
 22
-1011.5
 32
0.0
 13
-1074.54581062355
 23
-1011.5
 33
0.0
  0
SOLID
  5
D8
330
D1
100
AcDbEntity
  8
1
 62
     2
100
AcDbTrace
 10
-1074.085026881994
 20
-1018.0
 30
0.0
 11
-1075.006594365106
 21
-1018.0
 31
0.0
 12
-1074.54581062355
 22
-1014.5
 32
0.0
 13
-1074.54581062355
 23
-1014.5
 33
0.0
  0
MTEXT
  5
D9
330
D1
100
AcDbEntity
  8
1
 62
     3
100
AcDbMText
 10
-1076.54581062355
 20
-1006.22919994059
 30
0.0
 40
3.5
 41
0.0
 71
     7
 72
     1
  1
3
  7
CONVERTER_11
 11
0.0
 21
1.0
 31
0.0
 73
     1
 44
0.60024009603842
  0
ENDBLK
  5
DB
330
D1
100
AcDbEntity
  8
0
100
AcDbBlockEnd
  0
ENDSEC
  0
SECTION
  2
ENTITIES
  0
INSERT
  5
7C
330
1F
100
AcDbEntity
  8
0
100
AcDbBlockReference
  2
AllgSicht1
 10
-951.0
 20
-1100.0
 30
0.0
  0
INSERT
  5
7D
330
1F
100
AcDbEntity
  8
0
100
AcDbBlockReference
  2
Drfsicht1
 10
-1093.0
 20
-1080.49999999999
 30
0.0
  0
INSERT
  5
7E
330
1F
100
AcDbEntity
  8
0
100
AcDbBlockReference
  2
Rckans1
 10
-940.0
 20
-1013.0
 30
0.0
  0
INSERT
  5
7F
330
1F
100
AcDbEntity
  8
0
100
AcDbBlockReference
  2
SA_Links1
 10
-998.500000000005
 20
-1013.0
 30
0.0
  0
INSERT
  5
80
330
1F
100
AcDbEntity
  8
0
100
AcDbBlockReference
  2
SA_Rechts1
 10
-1149.99999999999
 20
-1013.0
 30
0.0
  0
INSERT
  5
81
330
1F
100
AcDbEntity
  8
0
100
AcDbBlockReference
  2
Vordans1
 10
-1093.0
 20
-1013.0
 30
0.0
  0
INSERT
  5
82
330
1F
100
AcDbEntity
  8
0
100
AcDbBlockReference
  2
A4I
 10
-916.499999999995
 20
-1174.999999999995
 30
0.0
  0
ENDSEC
  0
SECTION
  2
OBJECTS
  0
DICTIONARY
  5
C
330
0
100
AcDbDictionary
281
     1
  3
ACAD_GROUP
350
D
  3
ACAD_LAYOUT
350
1A
  3
ACAD_MATERIAL
350
3B
  3
ACAD_MLEADERSTYLE
350
2DF
  3
ACAD_MLINESTYLE
350
17
  3
ACAD_PLOTSETTINGS
350
19
  3
ACAD_PLOTSTYLENAME
350
E
  3
ACAD_VISUALSTYLE
350
2A
  3
AcDbVariableDictionary
350
2DD
  0
DICTIONARY
  5
D
102
{ACAD_REACTORS
330
C
102
}
330
C
100
AcDbDictionary
281
     1
  0
DICTIONARY
  5
1A
102
{ACAD_REACTORS
330
C
102
}
330
C
100
AcDbDictionary
281
     1
  3
Layout1
350
1E
  3
Layout2
350
26
  3
Model
350
22
  0
DICTIONARY
  5
3B
102
{ACAD_REACTORS
330
C
102
}
330
C
100
AcDbDictionary
281
     1
  3
ByBlock
350
3D
  3
ByLayer
350
3C
  3
Global
350
3E
  0
DICTIONARY
  5
2DF
102
{ACAD_REACTORS
330
C
102
}
330
C
100
AcDbDictionary
281
     1
  0
DICTIONARY
  5
17
102
{ACAD_REACTORS
330
C
102
}
330
C
100
AcDbDictionary
281
     1
  3
Standard
350
18
  0
DICTIONARY
  5
19
102
{ACAD_REACTORS
330
C
102
}
330
C
100
AcDbDictionary
281
     1
  0
ACDBDICTIONARYWDFLT
  5
E
102
{ACAD_REACTORS
330
C
102
}
330
C
100
AcDbDictionary
281
     1
  3
Normal
350
F
100
AcDbDictionaryWithDefault
340
F
  0
DICTIONARY
  5
2A
102
{ACAD_REACTORS
330
C
102
}
330
C
100
AcDbDictionary
281
     1
  3
2dWireframe
350
2F
  3
3D Hidden
350
31
  3
3dWireframe
350
30
  3
Basic
350
32
  3
Brighten
350
36
  3
ColorChange
350
3A
  3
Conceptual
350
34
  3
Dim
350
35
  3
Facepattern
350
39
  3
Flat
350
2B
  3
FlatWithEdges
350
2C
  3
Gouraud
350
2D
  3
GouraudWithEdges
350
2E
  3
Linepattern
350
38
  3
Realistic
350
33
  3
Thicken
350
37
  0
DICTIONARY
  5
2DD
102
{ACAD_REACTORS
330
C
102
}
330
C
100
AcDbDictionary
281
     1
  3
DIMASSOC
350
2E0
  3
HIDETEXT
350
2E1
  0
LAYOUT
  5
1E
102
{ACAD_REACTORS
330
1A
102
}
330
1A
100
AcDbPlotSettings
  1

  2
none_device
  4

  6

 40
0.0
 41
0.0
 42
0.0
 43
0.0
 44
0.0
 45
0.0
 46
0.0
 47
0.0
 48
0.0
 49
0.0
140
0.0
141
0.0
142
1.0
143
1.0
 70
   688
 72
     0
 73
     0
 74
     5
  7

 75
    16
147
1.0
148
0.0
149
0.0
100
AcDbLayout
  1
Layout1
 70
     1
 71
     1
 10
0.0
 20
0.0
 11
12.0
 21
9.0
 12
0.0
 22
0.0
 32
0.0
 14
1.00000000000000E+20
 24
1.00000000000000E+20
 34
1.00000000000000E+20
 15
-1.00000000000000E+20
 25
-1.00000000000000E+20
 35
-1.00000000000000E+20
146
0.0
 13
0.0
 23
0.0
 33
0.0
 16
1.0
 26
0.0
 36
0.0
 17
0.0
 27
1.0
 37
0.0
 76
     0
330
1B
  0
LAYOUT
  5
26
102
{ACAD_REACTORS
330
1A
102
}
330
1A
100
AcDbPlotSettings
  1

  2
none_device
  4

  6

 40
0.0
 41
0.0
 42
0.0
 43
0.0
 44
0.0
 45
0.0
 46
0.0
 47
0.0
 48
0.0
 49
0.0
140
0.0
141
0.0
142
1.0
143
1.0
 70
   688
 72
     0
 73
     0
 74
     5
  7

 75
    16
147
1.0
148
0.0
149
0.0
100
AcDbLayout
  1
Layout2
 70
     1
 71
     2
 10
0.0
 20
0.0
 11
0.0
 21
0.0
 12
0.0
 22
0.0
 32
0.0
 14
0.0
 24
0.0
 34
0.0
 15
0.0
 25
0.0
 35
0.0
146
0.0
 13
0.0
 23
0.0
 33
0.0
 16
1.0
 26
0.0
 36
0.0
 17
0.0
 27
1.0
 37
0.0
 76
     0
330
23
  0
LAYOUT
  5
22
102
{ACAD_REACTORS
330
1A
102
}
330
1A
100
AcDbPlotSettings
  1

  2
none_device
  4

  6

 40
0.0
 41
0.0
 42
0.0
 43
0.0
 44
0.0
 45
0.0
 46
0.0
 47
0.0
 48
0.0
 49
0.0
140
0.0
141
0.0
142
1.0
143
1.0
 70
  1712
 72
     0
 73
     0
 74
     0
  7

 75
     0
147
1.0
148
0.0
149
0.0
100
AcDbLayout
  1
Model
 70
     1
 71
     0
 10
0.0
 20
0.0
 11
12.0
 21
9.0
 12
0.0
 22
0.0
 32
0.0
 14
-1208.499999999994
 24
-1174.999999999995
 34
0.0
 15
-911.4999999999959
 25
-964.9999999999949
 35
0.0
146
0.0
 13
0.0
 23
0.0
 33
0.0
 16
1.0
 26
0.0
 36
0.0
 17
0.0
 27
1.0
 37
0.0
 76
     0
330
1F
331
29
  0
MATERIAL
  5
3D
102
{ACAD_REACTORS
330
3B
102
}
102
{ACAD_XDICTIONARY
360
304
102
}
330
3B
100
AcDbMaterial
  1
ByBlock
  0
MATERIAL
  5
3C
102
{ACAD_REACTORS
330
3B
102
}
102
{ACAD_XDICTIONARY
360
302
102
}
330
3B
100
AcDbMaterial
  1
ByLayer
  0
MATERIAL
  5
3E
102
{ACAD_REACTORS
330
3B
102
}
102
{ACAD_XDICTIONARY
360
306
102
}
330
3B
100
AcDbMaterial
  1
Global
  0
MLINESTYLE
  5
18
102
{ACAD_REACTORS
330
17
102
}
330
17
100
AcDbMlineStyle
  2
Standard
 70
     0
  3

 62
   256
 51
90.0
 52
90.0
 71
     2
 49
0.5
 62
   256
  6
BYLAYER
 49
-0.5
 62
   256
  6
BYLAYER
  0
ACDBPLACEHOLDER
  5
F
102
{ACAD_REACTORS
330
E
102
}
330
E
  0
VISUALSTYLE
  5
2F
102
{ACAD_REACTORS
330
2A
102
}
102
{ACAD_XDICTIONARY
360
2EA
102
}
330
2A
100
AcDbVisualStyle
  2
2dWireframe
 70
     4
 71
     0
 72
     2
 73
     0
 90
        0
 40
-0.6
 41
-30.0
 62
     5
 63
     7
 74
     1
 91
        4
 64
     7
 65
   257
 75
     1
175
     1
 42
1.0
 92
        0
 66
   257
 43
1.0
 76
     1
 77
     6
 78
     2
 67
     7
 79
     5
170
     0
171
     0
290
     0
174
     0
 93
        1
 44
0.0
173
     0
291
     0
 45
0.0
1001
ACAD
1000
AcDbSavedByObjectVersion
1070
     0
  0
VISUALSTYLE
  5
31
102
{ACAD_REACTORS
330
2A
102
}
102
{ACAD_XDICTIONARY
360
2EE
102
}
330
2A
100
AcDbVisualStyle
  2
3D Hidden
 70
     6
 71
     1
 72
     2
 73
     2
 90
        0
 40
-0.6
 41
-30.0
 62
     5
 63
     7
 74
     2
 91
        2
 64
     7
 65
   257
 75
     2
175
     1
 42
40.0
 92
        0
 66
   257
 43
1.0
 76
     1
 77
     6
 78
     2
 67
     7
 79
     3
170
     0
171
     0
290
     0
174
     0
 93
        1
 44
0.0
173
     0
291
     0
 45
0.0
1001
ACAD
1000
AcDbSavedByObjectVersion
1070
     0
  0
VISUALSTYLE
  5
30
102
{ACAD_REACTORS
330
2A
102
}
102
{ACAD_XDICTIONARY
360
2EC
102
}
330
2A
100
AcDbVisualStyle
  2
3dWireframe
 70
     5
 71
     0
 72
     2
 73
     0
 90
        0
 40
-0.6
 41
-30.0
 62
     5
 63
     7
 74
     1
 91
        4
 64
     7
 65
   257
 75
     1
175
     1
 42
1.0
 92
        0
 66
   257
 43
1.0
 76
     1
 77
     6
 78
     2
 67
     7
 79
     5
170
     0
171
     0
290
     0
174
     0
 93
        1
 44
0.0
173
     0
291
     0
 45
0.0
1001
ACAD
1000
AcDbSavedByObjectVersion
1070
     0
  0
VISUALSTYLE
  5
32
102
{ACAD_REACTORS
330
2A
102
}
102
{ACAD_XDICTIONARY
360
2F0
102
}
330
2A
100
AcDbVisualStyle
  2
Basic
 70
     7
 71
     1
 72
     0
 73
     1
 90
        0
 40
-0.6
 41
-30.0
 62
     5
 63
     7
 74
     0
 91
        4
 64
     7
 65
   257
 75
     1
175
     1
 42
1.0
 92
        8
 66
     7
 43
1.0
 76
     1
 77
     6
 78
     2
 67
     7
 79
     5
170
     0
171
     0
290
     0
174
     0
 93
        1
 44
0.0
173
     0
291
     1
 45
0.0
1001
ACAD
1000
AcDbSavedByObjectVersion
1070
     0
  0
VISUALSTYLE
  5
36
102
{ACAD_REACTORS
330
2A
102
}
102
{ACAD_XDICTIONARY
360
2F8
102
}
330
2A
100
AcDbVisualStyle
  2
Brighten
 70
    12
 71
     2
 72
     2
 73
     0
 90
        0
 40
-0.6
 41
-30.0
 62
     5
 63
     7
 74
     1
 91
        4
 64
     7
 65
   257
 75
     1
175
     1
 42
1.0
 92
        8
 66
     7
 43
1.0
 76
     1
 77
     6
 78
     2
 67
     7
 79
     5
170
     0
171
     0
290
     0
174
     0
 93
        1
 44
50.0
173
     0
291
     1
 45
0.0
1001
ACAD
1000
AcDbSavedByObjectVersion
1070
     0
  0
VISUALSTYLE
  5
3A
102
{ACAD_REACTORS
330
2A
102
}
102
{ACAD_XDICTIONARY
360
300
102
}
330
2A
100
AcDbVisualStyle
  2
ColorChange
 70
    16
 71
     2
 72
     2
 73
     3
 90
        0
 40
-0.6
 41
-30.0
 62
     5
 63
     8
 74
     1
 91
        4
 64
     7
 65
   257
 75
     1
175
     1
 42
1.0
 92
        8
 66
     8
 43
1.0
 76
     1
 77
     6
 78
     2
 67
     7
 79
     5
170
     0
171
     0
290
     0
174
     0
 93
        1
 44
0.0
173
     0
291
     1
 45
0.0
1001
ACAD
1000
AcDbSavedByObjectVersion
1070
     0
  0
VISUALSTYLE
  5
34
102
{ACAD_REACTORS
330
2A
102
}
102
{ACAD_XDICTIONARY
360
2F4
102
}
330
2A
100
AcDbVisualStyle
  2
Conceptual
 70
     9
 71
     3
 72
     2
 73
     0
 90
        0
 40
-0.6
 41
-30.0
 62
     5
 63
     7
 74
     2
 91
        2
 64
     7
 65
   257
 75
     1
175
     1
 42
40.0
 92
        8
 66
     7
 43
1.0
 76
     1
 77
     6
 78
     2
 67
     7
 79
     3
170
     0
171
     0
290
     0
174
     0
 93
        1
 44
0.0
173
     0
291
     0
 45
0.0
1001
ACAD
1000
AcDbSavedByObjectVersion
1070
     0
  0
VISUALSTYLE
  5
35
102
{ACAD_REACTORS
330
2A
102
}
102
{ACAD_XDICTIONARY
360
2F6
102
}
330
2A
100
AcDbVisualStyle
  2
Dim
 70
    11
 71
     2
 72
     2
 73
     0
 90
        0
 40
-0.6
 41
-30.0
 62
     5
 63
     7
 74
     1
 91
        4
 64
     7
 65
   257
 75
     1
175
     1
 42
1.0
 92
        8
 66
     7
 43
1.0
 76
     1
 77
     6
 78
     2
 67
     7
 79
     5
170
     0
171
     0
290
     0
174
     0
 93
        1
 44
-50.0
173
     0
291
     1
 45
0.0
1001
ACAD
1000
AcDbSavedByObjectVersion
1070
     0
  0
VISUALSTYLE
  5
39
102
{ACAD_REACTORS
330
2A
102
}
102
{ACAD_XDICTIONARY
360
2FE
102
}
330
2A
100
AcDbVisualStyle
  2
Facepattern
 70
    15
 71
     2
 72
     2
 73
     0
 90
        0
 40
-0.6
 41
-30.0
 62
     5
 63
     7
 74
     1
 91
        4
 64
     7
 65
   257
 75
     1
175
     1
 42
1.0
 92
        8
 66
     7
 43
1.0
 76
     1
 77
     6
 78
     2
 67
     7
 79
     5
170
     0
171
     0
290
     0
174
     0
 93
        1
 44
0.0
173
     0
291
     1
 45
0.0
1001
ACAD
1000
AcDbSavedByObjectVersion
1070
     0
  0
VISUALSTYLE
  5
2B
102
{ACAD_REACTORS
330
2A
102
}
102
{ACAD_XDICTIONARY
360
2E2
102
}
330
2A
100
AcDbVisualStyle
  2
Flat
 70
     0
 71
     2
 72
     1
 73
     1
 90
        2
 40
-0.6
 41
30.0
 62
     5
 63
     7
 74
     0
 91
        4
 64
     7
 65
   257
 75
     1
175
     1
 42
1.0
 92
        8
 66
     7
 43
1.0
 76
     1
 77
     6
 78
     2
 67
     7
 79
     5
170
     0
171
     0
290
     0
174
     0
 93
       13
 44
0.0
173
     0
291
     1
 45
0.0
1001
ACAD
1000
AcDbSavedByObjectVersion
1070
     0
  0
VISUALSTYLE
  5
2C
102
{ACAD_REACTORS
330
2A
102
}
102
{ACAD_XDICTIONARY
360
2E4
102
}
330
2A
100
AcDbVisualStyle
  2
FlatWithEdges
 70
     1
 71
     2
 72
     1
 73
     1
 90
        2
 40
-0.6
 41
30.0
 62
     5
 63
     7
 74
     1
 91
        4
 64
     7
 65
   257
 75
     1
175
     1
 42
1.0
 92
        0
 66
   257
 43
1.0
 76
     1
 77
     6
 78
     2
 67
     7
 79
     5
170
     0
171
     0
290
     0
174
     0
 93
       13
 44
0.0
173
     0
291
     1
 45
0.0
1001
ACAD
1000
AcDbSavedByObjectVersion
1070
     0
  0
VISUALSTYLE
  5
2D
102
{ACAD_REACTORS
330
2A
102
}
102
{ACAD_XDICTIONARY
360
2E6
102
}
330
2A
100
AcDbVisualStyle
  2
Gouraud
 70
     2
 71
     2
 72
     2
 73
     1
 90
        2
 40
-0.6
 41
30.0
 62
     5
 63
     7
 74
     0
 91
        4
 64
     7
 65
   257
 75
     1
175
     1
 42
1.0
 92
        0
 66
     7
 43
1.0
 76
     1
 77
     6
 78
     2
 67
     7
 79
     5
170
     0
171
     0
290
     0
174
     0
 93
       13
 44
0.0
173
     0
291
     1
 45
0.0
1001
ACAD
1000
AcDbSavedByObjectVersion
1070
     0
  0
VISUALSTYLE
  5
2E
102
{ACAD_REACTORS
330
2A
102
}
102
{ACAD_XDICTIONARY
360
2E8
102
}
330
2A
100
AcDbVisualStyle
  2
GouraudWithEdges
 70
     3
 71
     2
 72
     2
 73
     1
 90
        2
 40
-0.6
 41
30.0
 62
     5
 63
     7
 74
     1
 91
        4
 64
     7
 65
   257
 75
     1
175
     1
 42
1.0
 92
        0
 66
   257
 43
1.0
 76
     1
 77
     6
 78
     2
 67
     7
 79
     5
170
     0
171
     0
290
     0
174
     0
 93
       13
 44
0.0
173
     0
291
     1
 45
0.0
1001
ACAD
1000
AcDbSavedByObjectVersion
1070
     0
  0
VISUALSTYLE
  5
38
102
{ACAD_REACTORS
330
2A
102
}
102
{ACAD_XDICTIONARY
360
2FC
102
}
330
2A
100
AcDbVisualStyle
  2
Linepattern
 70
    14
 71
     2
 72
     2
 73
     0
 90
        0
 40
-0.6
 41
-30.0
 62
     5
 63
     7
 74
     1
 91
        4
 64
     7
 65
   257
 75
     7
175
     7
 42
1.0
 92
        8
 66
     7
 43
1.0
 76
     1
 77
     6
 78
     2
 67
     7
 79
     5
170
     0
171
     0
290
     0
174
     0
 93
        1
 44
0.0
173
     0
291
     1
 45
0.0
1001
ACAD
1000
AcDbSavedByObjectVersion
1070
     0
  0
VISUALSTYLE
  5
33
102
{ACAD_REACTORS
330
2A
102
}
102
{ACAD_XDICTIONARY
360
2F2
102
}
330
2A
100
AcDbVisualStyle
  2
Realistic
 70
     8
 71
     2
 72
     2
 73
     0
 90
        0
 40
-0.6
 41
-30.0
 62
     5
 63
     7
 74
     1
 91
        0
 64
     7
 65
   257
 75
     1
175
     1
 42
1.0
 92
        8
 66
     8
 43
1.0
 76
     1
 77
     6
 78
     2
 67
     7
 79
     5
170
     0
171
     0
290
     0
174
     0
 93
       13
 44
0.0
173
     0
291
     0
 45
0.0
1001
ACAD
1000
AcDbSavedByObjectVersion
1070
     0
  0
VISUALSTYLE
  5
37
102
{ACAD_REACTORS
330
2A
102
}
102
{ACAD_XDICTIONARY
360
2FA
102
}
330
2A
100
AcDbVisualStyle
  2
Thicken
 70
    13
 71
     2
 72
     2
 73
     0
 90
        0
 40
-0.6
 41
-30.0
 62
     5
 63
     7
 74
     1
 91
        4
 64
     7
 65
   257
 75
     1
175
     1
 42
1.0
 92
       12
 66
     7
 43
1.0
 76
     1
 77
     6
 78
     2
 67
     7
 79
     5
170
     0
171
     0
290
     0
174
     0
 93
        1
 44
0.0
173
     0
291
     1
 45
0.0
1001
ACAD
1000
AcDbSavedByObjectVersion
1070
     0
  0
DICTIONARYVAR
  5
2E0
102
{ACAD_REACTORS
330
2DD
102
}
330
2DD
100
DictionaryVariables
280
     0
  1
2
  0
DICTIONARYVAR
  5
2E1
102
{ACAD_REACTORS
330
2DD
102
}
330
2DD
100
DictionaryVariables
280
     0
  1
1
  0
DICTIONARY
  5
304
330
3D
100
AcDbDictionary
280
     1
281
     1
  3
ACAD_XREC_ROUNDTRIP
360
305
  0
DICTIONARY
  5
302
330
3C
100
AcDbDictionary
280
     1
281
     1
  3
ACAD_XREC_ROUNDTRIP
360
303
  0
DICTIONARY
  5
306
330
3E
100
AcDbDictionary
280
     1
281
     1
  3
ACAD_XREC_ROUNDTRIP
360
307
  0
DICTIONARY
  5
2EA
330
2F
100
AcDbDictionary
280
     1
281
     1
  3
ACAD_XREC_ROUNDTRIP
360
2EB
  0
DICTIONARY
  5
2EE
330
31
100
AcDbDictionary
280
     1
281
     1
  3
ACAD_XREC_ROUNDTRIP
360
2EF
  0
DICTIONARY
  5
2EC
330
30
100
AcDbDictionary
280
     1
281
     1
  3
ACAD_XREC_ROUNDTRIP
360
2ED
  0
DICTIONARY
  5
2F0
330
32
100
AcDbDictionary
280
     1
281
     1
  3
ACAD_XREC_ROUNDTRIP
360
2F1
  0
DICTIONARY
  5
2F8
330
36
100
AcDbDictionary
280
     1
281
     1
  3
ACAD_XREC_ROUNDTRIP
360
2F9
  0
DICTIONARY
  5
300
330
3A
100
AcDbDictionary
280
     1
281
     1
  3
ACAD_XREC_ROUNDTRIP
360
301
  0
DICTIONARY
  5
2F4
330
34
100
AcDbDictionary
280
     1
281
     1
  3
ACAD_XREC_ROUNDTRIP
360
2F5
  0
DICTIONARY
  5
2F6
330
35
100
AcDbDictionary
280
     1
281
     1
  3
ACAD_XREC_ROUNDTRIP
360
2F7
  0
DICTIONARY
  5
2FE
330
39
100
AcDbDictionary
280
     1
281
     1
  3
ACAD_XREC_ROUNDTRIP
360
2FF
  0
DICTIONARY
  5
2E2
330
2B
100
AcDbDictionary
280
     1
281
     1
  3
ACAD_XREC_ROUNDTRIP
360
2E3
  0
DICTIONARY
  5
2E4
330
2C
100
AcDbDictionary
280
     1
281
     1
  3
ACAD_XREC_ROUNDTRIP
360
2E5
  0
DICTIONARY
  5
2E6
330
2D
100
AcDbDictionary
280
     1
281
     1
  3
ACAD_XREC_ROUNDTRIP
360
2E7
  0
DICTIONARY
  5
2E8
330
2E
100
AcDbDictionary
280
     1
281
     1
  3
ACAD_XREC_ROUNDTRIP
360
2E9
  0
DICTIONARY
  5
2FC
330
38
100
AcDbDictionary
280
     1
281
     1
  3
ACAD_XREC_ROUNDTRIP
360
2FD
  0
DICTIONARY
  5
2F2
330
33
100
AcDbDictionary
280
     1
281
     1
  3
ACAD_XREC_ROUNDTRIP
360
2F3
  0
DICTIONARY
  5
2FA
330
37
100
AcDbDictionary
280
     1
281
     1
  3
ACAD_XREC_ROUNDTRIP
360
2FB
  0
XRECORD
  5
305
102
{ACAD_REACTORS
330
304
102
}
330
304
100
AcDbXrecord
280
     1
102
MATERIAL
148
0.0
149
0.0
149
0.0
 93
        0
 94
      127
282
     0
 72
     1
 77
     1
171
     1
175
     1
179
     1
273
     0
  0
XRECORD
  5
303
102
{ACAD_REACTORS
330
302
102
}
330
302
100
AcDbXrecord
280
     1
102
MATERIAL
148
0.0
149
0.0
149
0.0
 93
        0
 94
      127
282
     0
 72
     1
 77
     1
171
     1
175
     1
179
     1
273
     0
  0
XRECORD
  5
307
102
{ACAD_REACTORS
330
306
102
}
330
306
100
AcDbXrecord
280
     1
102
MATERIAL
148
0.0
149
0.0
149
0.0
 93
        0
 94
      127
282
     0
 72
     1
 77
     1
171
     1
175
     1
179
     1
273
     0
  0
XRECORD
  5
2EB
102
{ACAD_REACTORS
330
2EA
102
}
330
2EA
100
AcDbXrecord
280
     1
102
RTVSPropertyOp0
 70
     1
102
RTVSPropertyOp1
 70
     1
102
RTVSPropertyOp2
 70
     1
102
RTVSPropertyOp3
 70
     1
102
RTVSPropertyOp4
 70
     1
102
RTVSPropertyOp5
 70
     1
102
RTVSPropertyOp6
 70
     1
102
RTVSPropertyOp7
 70
     1
102
RTVSPropertyOp8
 70
     1
102
RTVSPropertyOp9
 70
     1
102
RTVSPropertyOp10
 70
     1
102
RTVSPropertyOp11
 70
     1
102
RTVSPropertyOp12
 70
     1
102
RTVSPropertyOp13
 70
     1
102
RTVSPropertyOp14
 70
     1
102
RTVSPropertyOp15
 70
     1
102
RTVSPropertyOp16
 70
     1
102
RTVSPropertyOp17
 70
     1
102
RTVSPropertyOp18
 70
     1
102
RTVSPropertyOp19
 70
     1
102
RTVSPropertyOp20
 70
     1
102
RTVSPropertyOp21
 70
     1
102
RTVSPropertyOp22
 70
     1
102
RTVSPropertyOp23
 70
     1
102
RTVSPropertyOp24
 70
     1
102
RTVSPropertyOp25
 70
     1
102
RTVSPropertyOp26
 70
     1
102
RTVSPropertyOp27
 70
     1
102
RTVSPropertyOp28
 70
     1
102
RTVSPropertyOp29
 70
     1
102
RTVSPropertyOp30
 70
     1
102
RTVSPropertyOp31
 70
     1
102
RTVSPropertyOp32
 70
     1
  0
XRECORD
  5
2EF
102
{ACAD_REACTORS
330
2EE
102
}
330
2EE
100
AcDbXrecord
280
     1
102
RTVSPropertyOp0
 70
     1
102
RTVSPropertyOp1
 70
     1
102
RTVSPropertyOp2
 70
     1
102
RTVSPropertyOp3
 70
     1
102
RTVSPropertyOp4
 70
     1
102
RTVSPropertyOp5
 70
     1
102
RTVSPropertyOp6
 70
     1
102
RTVSPropertyOp7
 70
     1
102
RTVSPropertyOp8
 70
     1
102
RTVSPropertyOp9
 70
     1
102
RTVSPropertyOp10
 70
     1
102
RTVSPropertyOp11
 70
     1
102
RTVSPropertyOp12
 70
     1
102
RTVSPropertyOp13
 70
     1
102
RTVSPropertyOp14
 70
     1
102
RTVSPropertyOp15
 70
     1
102
RTVSPropertyOp16
 70
     1
102
RTVSPropertyOp17
 70
     1
102
RTVSPropertyOp18
 70
     1
102
RTVSPropertyOp19
 70
     1
102
RTVSPropertyOp20
 70
     1
102
RTVSPropertyOp21
 70
     1
102
RTVSPropertyOp22
 70
     1
102
RTVSPropertyOp23
 70
     1
102
RTVSPropertyOp24
 70
     1
102
RTVSPropertyOp25
 70
     1
102
RTVSPropertyOp26
 70
     1
102
RTVSPropertyOp27
 70
     1
102
RTVSPropertyOp28
 70
     1
102
RTVSPropertyOp29
 70
     1
102
RTVSPropertyOp30
 70
     1
102
RTVSPropertyOp31
 70
     1
102
RTVSPropertyOp32
 70
     1
  0
XRECORD
  5
2ED
102
{ACAD_REACTORS
330
2EC
102
}
330
2EC
100
AcDbXrecord
280
     1
102
RTVSPropertyOp0
 70
     1
102
RTVSPropertyOp1
 70
     1
102
RTVSPropertyOp2
 70
     1
102
RTVSPropertyOp3
 70
     1
102
RTVSPropertyOp4
 70
     1
102
RTVSPropertyOp5
 70
     1
102
RTVSPropertyOp6
 70
     1
102
RTVSPropertyOp7
 70
     1
102
RTVSPropertyOp8
 70
     1
102
RTVSPropertyOp9
 70
     1
102
RTVSPropertyOp10
 70
     1
102
RTVSPropertyOp11
 70
     1
102
RTVSPropertyOp12
 70
     1
102
RTVSPropertyOp13
 70
     1
102
RTVSPropertyOp14
 70
     1
102
RTVSPropertyOp15
 70
     1
102
RTVSPropertyOp16
 70
     1
102
RTVSPropertyOp17
 70
     1
102
RTVSPropertyOp18
 70
     1
102
RTVSPropertyOp19
 70
     1
102
RTVSPropertyOp20
 70
     1
102
RTVSPropertyOp21
 70
     1
102
RTVSPropertyOp22
 70
     1
102
RTVSPropertyOp23
 70
     1
102
RTVSPropertyOp24
 70
     1
102
RTVSPropertyOp25
 70
     1
102
RTVSPropertyOp26
 70
     1
102
RTVSPropertyOp27
 70
     1
102
RTVSPropertyOp28
 70
     1
102
RTVSPropertyOp29
 70
     1
102
RTVSPropertyOp30
 70
     1
102
RTVSPropertyOp31
 70
     1
102
RTVSPropertyOp32
 70
     1
  0
XRECORD
  5
2F1
102
{ACAD_REACTORS
330
2F0
102
}
330
2F0
100
AcDbXrecord
280
     1
102
RTVSPropertyOp0
 70
     1
102
RTVSPropertyOp1
 70
     1
102
RTVSPropertyOp2
 70
     1
102
RTVSPropertyOp3
 70
     1
102
RTVSPropertyOp4
 70
     1
102
RTVSPropertyOp5
 70
     1
102
RTVSPropertyOp6
 70
     1
102
RTVSPropertyOp7
 70
     1
102
RTVSPropertyOp8
 70
     1
102
RTVSPropertyOp9
 70
     1
102
RTVSPropertyOp10
 70
     1
102
RTVSPropertyOp11
 70
     1
102
RTVSPropertyOp12
 70
     1
102
RTVSPropertyOp13
 70
     1
102
RTVSPropertyOp14
 70
     1
102
RTVSPropertyOp15
 70
     1
102
RTVSPropertyOp16
 70
     1
102
RTVSPropertyOp17
 70
     1
102
RTVSPropertyOp18
 70
     1
102
RTVSPropertyOp19
 70
     1
102
RTVSPropertyOp20
 70
     1
102
RTVSPropertyOp21
 70
     1
102
RTVSPropertyOp22
 70
     1
102
RTVSPropertyOp23
 70
     1
102
RTVSPropertyOp24
 70
     1
102
RTVSPropertyOp25
 70
     1
102
RTVSPropertyOp26
 70
     1
102
RTVSPropertyOp27
 70
     1
102
RTVSPropertyOp28
 70
     1
102
RTVSPropertyOp29
 70
     1
102
RTVSPropertyOp30
 70
     1
102
RTVSPropertyOp31
 70
     1
102
RTVSPropertyOp32
 70
     1
  0
XRECORD
  5
2F9
102
{ACAD_REACTORS
330
2F8
102
}
330
2F8
100
AcDbXrecord
280
     1
102
RTVSPropertyOp0
 70
     1
102
RTVSPropertyOp1
 70
     1
102
RTVSPropertyOp2
 70
     1
102
RTVSPropertyOp3
 70
     1
102
RTVSPropertyOp4
 70
     1
102
RTVSPropertyOp5
 70
     1
102
RTVSPropertyOp6
 70
     1
102
RTVSPropertyOp7
 70
     1
102
RTVSPropertyOp8
 70
     1
102
RTVSPropertyOp9
 70
     1
102
RTVSPropertyOp10
 70
     1
102
RTVSPropertyOp11
 70
     1
102
RTVSPropertyOp12
 70
     1
102
RTVSPropertyOp13
 70
     1
102
RTVSPropertyOp14
 70
     1
102
RTVSPropertyOp15
 70
     1
102
RTVSPropertyOp16
 70
     1
102
RTVSPropertyOp17
 70
     1
102
RTVSPropertyOp18
 70
     1
102
RTVSPropertyOp19
 70
     1
102
RTVSPropertyOp20
 70
     1
102
RTVSPropertyOp21
 70
     1
102
RTVSPropertyOp22
 70
     1
102
RTVSPropertyOp23
 70
     1
102
RTVSPropertyOp24
 70
     1
102
RTVSPropertyOp25
 70
     1
102
RTVSPropertyOp26
 70
     1
102
RTVSPropertyOp27
 70
     1
102
RTVSPropertyOp28
 70
     1
102
RTVSPropertyOp29
 70
     1
102
RTVSPropertyOp30
 70
     1
102
RTVSPropertyOp31
 70
     1
102
RTVSPropertyOp32
 70
     1
  0
XRECORD
  5
301
102
{ACAD_REACTORS
330
300
102
}
330
300
100
AcDbXrecord
280
     1
102
RTVSPropertyOp0
 70
     1
102
RTVSPropertyOp1
 70
     1
102
RTVSPropertyOp2
 70
     1
102
RTVSPropertyOp3
 70
     1
102
RTVSPropertyOp4
 70
     1
102
RTVSPropertyOp5
 70
     1
102
RTVSPropertyOp6
 70
     1
102
RTVSPropertyOp7
 70
     1
102
RTVSPropertyOp8
 70
     1
102
RTVSPropertyOp9
 70
     1
102
RTVSPropertyOp10
 70
     1
102
RTVSPropertyOp11
 70
     1
102
RTVSPropertyOp12
 70
     1
102
RTVSPropertyOp13
 70
     1
102
RTVSPropertyOp14
 70
     1
102
RTVSPropertyOp15
 70
     1
102
RTVSPropertyOp16
 70
     1
102
RTVSPropertyOp17
 70
     1
102
RTVSPropertyOp18
 70
     1
102
RTVSPropertyOp19
 70
     1
102
RTVSPropertyOp20
 70
     1
102
RTVSPropertyOp21
 70
     1
102
RTVSPropertyOp22
 70
     1
102
RTVSPropertyOp23
 70
     1
102
RTVSPropertyOp24
 70
     1
102
RTVSPropertyOp25
 70
     1
102
RTVSPropertyOp26
 70
     1
102
RTVSPropertyOp27
 70
     1
102
RTVSPropertyOp28
 70
     1
102
RTVSPropertyOp29
 70
     1
102
RTVSPropertyOp30
 70
     1
102
RTVSPropertyOp31
 70
     1
102
RTVSPropertyOp32
 70
     1
  0
XRECORD
  5
2F5
102
{ACAD_REACTORS
330
2F4
102
}
330
2F4
100
AcDbXrecord
280
     1
102
RTVSPropertyOp0
 70
     1
102
RTVSPropertyOp1
 70
     1
102
RTVSPropertyOp2
 70
     1
102
RTVSPropertyOp3
 70
     1
102
RTVSPropertyOp4
 70
     1
102
RTVSPropertyOp5
 70
     1
102
RTVSPropertyOp6
 70
     1
102
RTVSPropertyOp7
 70
     1
102
RTVSPropertyOp8
 70
     1
102
RTVSPropertyOp9
 70
     1
102
RTVSPropertyOp10
 70
     1
102
RTVSPropertyOp11
 70
     1
102
RTVSPropertyOp12
 70
     1
102
RTVSPropertyOp13
 70
     1
102
RTVSPropertyOp14
 70
     1
102
RTVSPropertyOp15
 70
     1
102
RTVSPropertyOp16
 70
     1
102
RTVSPropertyOp17
 70
     1
102
RTVSPropertyOp18
 70
     1
102
RTVSPropertyOp19
 70
     1
102
RTVSPropertyOp20
 70
     1
102
RTVSPropertyOp21
 70
     1
102
RTVSPropertyOp22
 70
     1
102
RTVSPropertyOp23
 70
     1
102
RTVSPropertyOp24
 70
     1
102
RTVSPropertyOp25
 70
     1
102
RTVSPropertyOp26
 70
     1
102
RTVSPropertyOp27
 70
     1
102
RTVSPropertyOp28
 70
     1
102
RTVSPropertyOp29
 70
     1
102
RTVSPropertyOp30
 70
     1
102
RTVSPropertyOp31
 70
     1
102
RTVSPropertyOp32
 70
     1
  0
XRECORD
  5
2F7
102
{ACAD_REACTORS
330
2F6
102
}
330
2F6
100
AcDbXrecord
280
     1
102
RTVSPropertyOp0
 70
     1
102
RTVSPropertyOp1
 70
     1
102
RTVSPropertyOp2
 70
     1
102
RTVSPropertyOp3
 70
     1
102
RTVSPropertyOp4
 70
     1
102
RTVSPropertyOp5
 70
     1
102
RTVSPropertyOp6
 70
     1
102
RTVSPropertyOp7
 70
     1
102
RTVSPropertyOp8
 70
     1
102
RTVSPropertyOp9
 70
     1
102
RTVSPropertyOp10
 70
     1
102
RTVSPropertyOp11
 70
     1
102
RTVSPropertyOp12
 70
     1
102
RTVSPropertyOp13
 70
     1
102
RTVSPropertyOp14
 70
     1
102
RTVSPropertyOp15
 70
     1
102
RTVSPropertyOp16
 70
     1
102
RTVSPropertyOp17
 70
     1
102
RTVSPropertyOp18
 70
     1
102
RTVSPropertyOp19
 70
     1
102
RTVSPropertyOp20
 70
     1
102
RTVSPropertyOp21
 70
     1
102
RTVSPropertyOp22
 70
     1
102
RTVSPropertyOp23
 70
     1
102
RTVSPropertyOp24
 70
     1
102
RTVSPropertyOp25
 70
     1
102
RTVSPropertyOp26
 70
     1
102
RTVSPropertyOp27
 70
     1
102
RTVSPropertyOp28
 70
     1
102
RTVSPropertyOp29
 70
     1
102
RTVSPropertyOp30
 70
     1
102
RTVSPropertyOp31
 70
     1
102
RTVSPropertyOp32
 70
     1
  0
XRECORD
  5
2FF
102
{ACAD_REACTORS
330
2FE
102
}
330
2FE
100
AcDbXrecord
280
     1
102
RTVSPropertyOp0
 70
     1
102
RTVSPropertyOp1
 70
     1
102
RTVSPropertyOp2
 70
     1
102
RTVSPropertyOp3
 70
     1
102
RTVSPropertyOp4
 70
     1
102
RTVSPropertyOp5
 70
     1
102
RTVSPropertyOp6
 70
     1
102
RTVSPropertyOp7
 70
     1
102
RTVSPropertyOp8
 70
     1
102
RTVSPropertyOp9
 70
     1
102
RTVSPropertyOp10
 70
     1
102
RTVSPropertyOp11
 70
     1
102
RTVSPropertyOp12
 70
     1
102
RTVSPropertyOp13
 70
     1
102
RTVSPropertyOp14
 70
     1
102
RTVSPropertyOp15
 70
     1
102
RTVSPropertyOp16
 70
     1
102
RTVSPropertyOp17
 70
     1
102
RTVSPropertyOp18
 70
     1
102
RTVSPropertyOp19
 70
     1
102
RTVSPropertyOp20
 70
     1
102
RTVSPropertyOp21
 70
     1
102
RTVSPropertyOp22
 70
     1
102
RTVSPropertyOp23
 70
     1
102
RTVSPropertyOp24
 70
     1
102
RTVSPropertyOp25
 70
     1
102
RTVSPropertyOp26
 70
     1
102
RTVSPropertyOp27
 70
     1
102
RTVSPropertyOp28
 70
     1
102
RTVSPropertyOp29
 70
     1
102
RTVSPropertyOp30
 70
     1
102
RTVSPropertyOp31
 70
     1
102
RTVSPropertyOp32
 70
     1
  0
XRECORD
  5
2E3
102
{ACAD_REACTORS
330
2E2
102
}
330
2E2
100
AcDbXrecord
280
     1
102
RTVSPropertyOp0
 70
     1
102
RTVSPropertyOp1
 70
     1
102
RTVSPropertyOp2
 70
     1
102
RTVSPropertyOp3
 70
     1
102
RTVSPropertyOp4
 70
     1
102
RTVSPropertyOp5
 70
     1
102
RTVSPropertyOp6
 70
     1
102
RTVSPropertyOp7
 70
     1
102
RTVSPropertyOp8
 70
     1
102
RTVSPropertyOp9
 70
     1
102
RTVSPropertyOp10
 70
     1
102
RTVSPropertyOp11
 70
     1
102
RTVSPropertyOp12
 70
     1
102
RTVSPropertyOp13
 70
     1
102
RTVSPropertyOp14
 70
     1
102
RTVSPropertyOp15
 70
     1
102
RTVSPropertyOp16
 70
     1
102
RTVSPropertyOp17
 70
     1
102
RTVSPropertyOp18
 70
     1
102
RTVSPropertyOp19
 70
     1
102
RTVSPropertyOp20
 70
     1
102
RTVSPropertyOp21
 70
     1
102
RTVSPropertyOp22
 70
     1
102
RTVSPropertyOp23
 70
     1
102
RTVSPropertyOp24
 70
     1
102
RTVSPropertyOp25
 70
     1
102
RTVSPropertyOp26
 70
     1
102
RTVSPropertyOp27
 70
     1
102
RTVSPropertyOp28
 70
     1
102
RTVSPropertyOp29
 70
     1
102
RTVSPropertyOp30
 70
     1
102
RTVSPropertyOp31
 70
     1
102
RTVSPropertyOp32
 70
     1
  0
XRECORD
  5
2E5
102
{ACAD_REACTORS
330
2E4
102
}
330
2E4
100
AcDbXrecord
280
     1
102
RTVSPropertyOp0
 70
     1
102
RTVSPropertyOp1
 70
     1
102
RTVSPropertyOp2
 70
     1
102
RTVSPropertyOp3
 70
     1
102
RTVSPropertyOp4
 70
     1
102
RTVSPropertyOp5
 70
     1
102
RTVSPropertyOp6
 70
     1
102
RTVSPropertyOp7
 70
     1
102
RTVSPropertyOp8
 70
     1
102
RTVSPropertyOp9
 70
     1
102
RTVSPropertyOp10
 70
     1
102
RTVSPropertyOp11
 70
     1
102
RTVSPropertyOp12
 70
     1
102
RTVSPropertyOp13
 70
     1
102
RTVSPropertyOp14
 70
     1
102
RTVSPropertyOp15
 70
     1
102
RTVSPropertyOp16
 70
     1
102
RTVSPropertyOp17
 70
     1
102
RTVSPropertyOp18
 70
     1
102
RTVSPropertyOp19
 70
     1
102
RTVSPropertyOp20
 70
     1
102
RTVSPropertyOp21
 70
     1
102
RTVSPropertyOp22
 70
     1
102
RTVSPropertyOp23
 70
     1
102
RTVSPropertyOp24
 70
     1
102
RTVSPropertyOp25
 70
     1
102
RTVSPropertyOp26
 70
     1
102
RTVSPropertyOp27
 70
     1
102
RTVSPropertyOp28
 70
     1
102
RTVSPropertyOp29
 70
     1
102
RTVSPropertyOp30
 70
     1
102
RTVSPropertyOp31
 70
     1
102
RTVSPropertyOp32
 70
     1
  0
XRECORD
  5
2E7
102
{ACAD_REACTORS
330
2E6
102
}
330
2E6
100
AcDbXrecord
280
     1
102
RTVSPropertyOp0
 70
     1
102
RTVSPropertyOp1
 70
     1
102
RTVSPropertyOp2
 70
     1
102
RTVSPropertyOp3
 70
     1
102
RTVSPropertyOp4
 70
     1
102
RTVSPropertyOp5
 70
     1
102
RTVSPropertyOp6
 70
     1
102
RTVSPropertyOp7
 70
     1
102
RTVSPropertyOp8
 70
     1
102
RTVSPropertyOp9
 70
     1
102
RTVSPropertyOp10
 70
     1
102
RTVSPropertyOp11
 70
     1
102
RTVSPropertyOp12
 70
     1
102
RTVSPropertyOp13
 70
     1
102
RTVSPropertyOp14
 70
     1
102
RTVSPropertyOp15
 70
     1
102
RTVSPropertyOp16
 70
     1
102
RTVSPropertyOp17
 70
     1
102
RTVSPropertyOp18
 70
     1
102
RTVSPropertyOp19
 70
     1
102
RTVSPropertyOp20
 70
     1
102
RTVSPropertyOp21
 70
     1
102
RTVSPropertyOp22
 70
     1
102
RTVSPropertyOp23
 70
     1
102
RTVSPropertyOp24
 70
     1
102
RTVSPropertyOp25
 70
     1
102
RTVSPropertyOp26
 70
     1
102
RTVSPropertyOp27
 70
     1
102
RTVSPropertyOp28
 70
     1
102
RTVSPropertyOp29
 70
     1
102
RTVSPropertyOp30
 70
     1
102
RTVSPropertyOp31
 70
     1
102
RTVSPropertyOp32
 70
     1
  0
XRECORD
  5
2E9
102
{ACAD_REACTORS
330
2E8
102
}
330
2E8
100
AcDbXrecord
280
     1
102
RTVSPropertyOp0
 70
     1
102
RTVSPropertyOp1
 70
     1
102
RTVSPropertyOp2
 70
     1
102
RTVSPropertyOp3
 70
     1
102
RTVSPropertyOp4
 70
     1
102
RTVSPropertyOp5
 70
     1
102
RTVSPropertyOp6
 70
     1
102
RTVSPropertyOp7
 70
     1
102
RTVSPropertyOp8
 70
     1
102
RTVSPropertyOp9
 70
     1
102
RTVSPropertyOp10
 70
     1
102
RTVSPropertyOp11
 70
     1
102
RTVSPropertyOp12
 70
     1
102
RTVSPropertyOp13
 70
     1
102
RTVSPropertyOp14
 70
     1
102
RTVSPropertyOp15
 70
     1
102
RTVSPropertyOp16
 70
     1
102
RTVSPropertyOp17
 70
     1
102
RTVSPropertyOp18
 70
     1
102
RTVSPropertyOp19
 70
     1
102
RTVSPropertyOp20
 70
     1
102
RTVSPropertyOp21
 70
     1
102
RTVSPropertyOp22
 70
     1
102
RTVSPropertyOp23
 70
     1
102
RTVSPropertyOp24
 70
     1
102
RTVSPropertyOp25
 70
     1
102
RTVSPropertyOp26
 70
     1
102
RTVSPropertyOp27
 70
     1
102
RTVSPropertyOp28
 70
     1
102
RTVSPropertyOp29
 70
     1
102
RTVSPropertyOp30
 70
     1
102
RTVSPropertyOp31
 70
     1
102
RTVSPropertyOp32
 70
     1
  0
XRECORD
  5
2FD
102
{ACAD_REACTORS
330
2FC
102
}
330
2FC
100
AcDbXrecord
280
     1
102
RTVSPropertyOp0
 70
     1
102
RTVSPropertyOp1
 70
     1
102
RTVSPropertyOp2
 70
     1
102
RTVSPropertyOp3
 70
     1
102
RTVSPropertyOp4
 70
     1
102
RTVSPropertyOp5
 70
     1
102
RTVSPropertyOp6
 70
     1
102
RTVSPropertyOp7
 70
     1
102
RTVSPropertyOp8
 70
     1
102
RTVSPropertyOp9
 70
     1
102
RTVSPropertyOp10
 70
     1
102
RTVSPropertyOp11
 70
     1
102
RTVSPropertyOp12
 70
     1
102
RTVSPropertyOp13
 70
     1
102
RTVSPropertyOp14
 70
     1
102
RTVSPropertyOp15
 70
     1
102
RTVSPropertyOp16
 70
     1
102
RTVSPropertyOp17
 70
     1
102
RTVSPropertyOp18
 70
     1
102
RTVSPropertyOp19
 70
     1
102
RTVSPropertyOp20
 70
     1
102
RTVSPropertyOp21
 70
     1
102
RTVSPropertyOp22
 70
     1
102
RTVSPropertyOp23
 70
     1
102
RTVSPropertyOp24
 70
     1
102
RTVSPropertyOp25
 70
     1
102
RTVSPropertyOp26
 70
     1
102
RTVSPropertyOp27
 70
     1
102
RTVSPropertyOp28
 70
     1
102
RTVSPropertyOp29
 70
     1
102
RTVSPropertyOp30
 70
     1
102
RTVSPropertyOp31
 70
     1
102
RTVSPropertyOp32
 70
     1
  0
XRECORD
  5
2F3
102
{ACAD_REACTORS
330
2F2
102
}
330
2F2
100
AcDbXrecord
280
     1
102
RTVSPropertyOp0
 70
     1
102
RTVSPropertyOp1
 70
     1
102
RTVSPropertyOp2
 70
     1
102
RTVSPropertyOp3
 70
     1
102
RTVSPropertyOp4
 70
     1
102
RTVSPropertyOp5
 70
     1
102
RTVSPropertyOp6
 70
     1
102
RTVSPropertyOp7
 70
     1
102
RTVSPropertyOp8
 70
     1
102
RTVSPropertyOp9
 70
     1
102
RTVSPropertyOp10
 70
     1
102
RTVSPropertyOp11
 70
     1
102
RTVSPropertyOp12
 70
     1
102
RTVSPropertyOp13
 70
     1
102
RTVSPropertyOp14
 70
     1
102
RTVSPropertyOp15
 70
     1
102
RTVSPropertyOp16
 70
     1
102
RTVSPropertyOp17
 70
     1
102
RTVSPropertyOp18
 70
     1
102
RTVSPropertyOp19
 70
     1
102
RTVSPropertyOp20
 70
     1
102
RTVSPropertyOp21
 70
     1
102
RTVSPropertyOp22
 70
     1
102
RTVSPropertyOp23
 70
     1
102
RTVSPropertyOp24
 70
     1
102
RTVSPropertyOp25
 70
     1
102
RTVSPropertyOp26
 70
     1
102
RTVSPropertyOp27
 70
     1
102
RTVSPropertyOp28
 70
     1
102
RTVSPropertyOp29
 70
     1
102
RTVSPropertyOp30
 70
     1
102
RTVSPropertyOp31
 70
     1
102
RTVSPropertyOp32
 70
     1
  0
XRECORD
  5
2FB
102
{ACAD_REACTORS
330
2FA
102
}
330
2FA
100
AcDbXrecord
280
     1
102
RTVSPropertyOp0
 70
     1
102
RTVSPropertyOp1
 70
     1
102
RTVSPropertyOp2
 70
     1
102
RTVSPropertyOp3
 70
     1
102
RTVSPropertyOp4
 70
     1
102
RTVSPropertyOp5
 70
     1
102
RTVSPropertyOp6
 70
     1
102
RTVSPropertyOp7
 70
     1
102
RTVSPropertyOp8
 70
     1
102
RTVSPropertyOp9
 70
     1
102
RTVSPropertyOp10
 70
     1
102
RTVSPropertyOp11
 70
     1
102
RTVSPropertyOp12
 70
     1
102
RTVSPropertyOp13
 70
     1
102
RTVSPropertyOp14
 70
     1
102
RTVSPropertyOp15
 70
     1
102
RTVSPropertyOp16
 70
     1
102
RTVSPropertyOp17
 70
     1
102
RTVSPropertyOp18
 70
     1
102
RTVSPropertyOp19
 70
     1
102
RTVSPropertyOp20
 70
     1
102
RTVSPropertyOp21
 70
     1
102
RTVSPropertyOp22
 70
     1
102
RTVSPropertyOp23
 70
     1
102
RTVSPropertyOp24
 70
     1
102
RTVSPropertyOp25
 70
     1
102
RTVSPropertyOp26
 70
     1
102
RTVSPropertyOp27
 70
     1
102
RTVSPropertyOp28
 70
     1
102
RTVSPropertyOp29
 70
     1
102
RTVSPropertyOp30
 70
     1
102
RTVSPropertyOp31
 70
     1
102
RTVSPropertyOp32
 70
     1
  0
ENDSEC
  0
EOF
